  0
SECTION
  2
HEADER
  9
$ACADVER
  1
AC1018
  9
$ACADMAINTVER
 70
   104
  9
$DWGCODEPAGE
  3
ANSI_932
  9
$LASTSAVEDBY
  1
開発
  9
$INSBASE
 10
0.0
 20
0.0
 30
0.0
  9
$EXTMIN
 10
82.34532178899213
 20
40.50576856092755
 30
-0.0000000349181948
  9
$EXTMAX
 10
737.4620925337021
 20
265.671250044684
 30
0.0000000814935747
  9
$LIMMIN
 10
0.0
 20
0.0
  9
$LIMMAX
 10
420.0
 20
297.0
  9
$ORTHOMODE
 70
     0
  9
$REGENMODE
 70
     1
  9
$FILLMODE
 70
     1
  9
$QTEXTMODE
 70
     0
  9
$MIRRTEXT
 70
     0
  9
$LTSCALE
 40
0.25
  9
$ATTMODE
 70
     1
  9
$TEXTSIZE
 40
2.5
  9
$TRACEWID
 40
1.0
  9
$TEXTSTYLE
  7
2014++
  9
$CLAYER
  8
04_ele1_0.15
  9
$CELTYPE
  6
ByLayer
  9
$CECOLOR
 62
   256
  9
$CELTSCALE
 40
1.0
  9
$DISPSILH
 70
     0
  9
$DIMSCALE
 40
1.0
  9
$DIMASZ
 40
2.5
  9
$DIMEXO
 40
1.0
  9
$DIMDLI
 40
10.0
  9
$DIMRND
 40
0.0
  9
$DIMDLE
 40
0.0
  9
$DIMEXE
 40
1.0
  9
$DIMTP
 40
0.1
  9
$DIMTM
 40
0.1
  9
$DIMTXT
 40
3.5
  9
$DIMCEN
 40
0.0
  9
$DIMTSZ
 40
0.0
  9
$DIMTOL
 70
     0
  9
$DIMLIM
 70
     0
  9
$DIMTIH
 70
     0
  9
$DIMTOH
 70
     0
  9
$DIMSE1
 70
     0
  9
$DIMSE2
 70
     0
  9
$DIMTAD
 70
     1
  9
$DIMZIN
 70
     8
  9
$DIMBLK
  1

  9
$DIMASO
 70
     1
  9
$DIMSHO
 70
     1
  9
$DIMPOST
  1

  9
$DIMAPOST
  1
"
  9
$DIMALT
 70
     0
  9
$DIMALTD
 70
     2
  9
$DIMALTF
 40
0.0393701
  9
$DIMLFAC
 40
1.0
  9
$DIMTOFL
 70
     1
  9
$DIMTVP
 40
0.0
  9
$DIMTIX
 70
     0
  9
$DIMSOXD
 70
     0
  9
$DIMSAH
 70
     0
  9
$DIMBLK1
  1

  9
$DIMBLK2
  1

  9
$DIMSTYLE
  2
AM_ISO
  9
$DIMCLRD
 70
   256
  9
$DIMCLRE
 70
   256
  9
$DIMCLRT
 70
     2
  9
$DIMTFAC
 40
0.71
  9
$DIMGAP
 40
1.5
  9
$DIMJUST
 70
     0
  9
$DIMSD1
 70
     0
  9
$DIMSD2
 70
     0
  9
$DIMTOLJ
 70
     0
  9
$DIMTZIN
 70
     8
  9
$DIMALTZ
 70
     0
  9
$DIMALTTZ
 70
     0
  9
$DIMUPT
 70
     0
  9
$DIMDEC
 70
     2
  9
$DIMTDEC
 70
     3
  9
$DIMALTU
 70
     2
  9
$DIMALTTD
 70
     4
  9
$DIMTXSTY
  7
STANDARD
  9
$DIMAUNIT
 70
     0
  9
$DIMADEC
 70
     0
  9
$DIMALTRND
 40
0.0
  9
$DIMAZIN
 70
     2
  9
$DIMDSEP
 70
    46
  9
$DIMATFIT
 70
     3
  9
$DIMFRAC
 70
     0
  9
$DIMLDRBLK
  1

  9
$DIMLUNIT
 70
     2
  9
$DIMLWD
 70
    -1
  9
$DIMLWE
 70
    -1
  9
$DIMTMOVE
 70
     0
  9
$LUNITS
 70
     2
  9
$LUPREC
 70
     2
  9
$SKETCHINC
 40
1.0
  9
$FILLETRAD
 40
2.5
  9
$AUNITS
 70
     0
  9
$AUPREC
 70
     0
  9
$MENU
  1
.
  9
$ELEVATION
 40
0.0
  9
$PELEVATION
 40
0.0
  9
$THICKNESS
 40
0.0
  9
$LIMCHECK
 70
     0
  9
$CHAMFERA
 40
2.5
  9
$CHAMFERB
 40
2.5
  9
$CHAMFERC
 40
20.0
  9
$CHAMFERD
 40
0.0
  9
$SKPOLY
 70
     0
  9
$TDCREATE
 40
2457121.445380671
  9
$TDUCREATE
 40
2457121.070380672
  9
$TDUPDATE
 40
2458449.702189491
  9
$TDUUPDATE
 40
2458449.327189491
  9
$TDINDWG
 40
0.0436202778
  9
$TDUSRTIMER
 40
0.0436200926
  9
$USRTIMER
 70
     1
  9
$ANGBASE
 50
0.0
  9
$ANGDIR
 70
     0
  9
$PDMODE
 70
     0
  9
$PDSIZE
 40
0.0
  9
$PLINEWID
 40
0.0
  9
$SPLFRAME
 70
     0
  9
$SPLINETYPE
 70
     6
  9
$SPLINESEGS
 70
     8
  9
$HANDSEED
  5
FDA88
  9
$SURFTAB1
 70
     6
  9
$SURFTAB2
 70
     6
  9
$SURFTYPE
 70
     6
  9
$SURFU
 70
     6
  9
$SURFV
 70
     6
  9
$UCSBASE
  2

  9
$UCSNAME
  2

  9
$UCSORG
 10
0.0
 20
0.0
 30
0.0
  9
$UCSXDIR
 10
1.0
 20
0.0
 30
0.0
  9
$UCSYDIR
 10
0.0
 20
1.0
 30
0.0
  9
$UCSORTHOREF
  2

  9
$UCSORTHOVIEW
 70
     0
  9
$UCSORGTOP
 10
0.0
 20
0.0
 30
0.0
  9
$UCSORGBOTTOM
 10
0.0
 20
0.0
 30
0.0
  9
$UCSORGLEFT
 10
0.0
 20
0.0
 30
0.0
  9
$UCSORGRIGHT
 10
0.0
 20
0.0
 30
0.0
  9
$UCSORGFRONT
 10
0.0
 20
0.0
 30
0.0
  9
$UCSORGBACK
 10
0.0
 20
0.0
 30
0.0
  9
$PUCSBASE
  2

  9
$PUCSNAME
  2

  9
$PUCSORG
 10
0.0
 20
0.0
 30
0.0
  9
$PUCSXDIR
 10
1.0
 20
0.0
 30
0.0
  9
$PUCSYDIR
 10
0.0
 20
1.0
 30
0.0
  9
$PUCSORTHOREF
  2

  9
$PUCSORTHOVIEW
 70
     0
  9
$PUCSORGTOP
 10
0.0
 20
0.0
 30
0.0
  9
$PUCSORGBOTTOM
 10
0.0
 20
0.0
 30
0.0
  9
$PUCSORGLEFT
 10
0.0
 20
0.0
 30
0.0
  9
$PUCSORGRIGHT
 10
0.0
 20
0.0
 30
0.0
  9
$PUCSORGFRONT
 10
0.0
 20
0.0
 30
0.0
  9
$PUCSORGBACK
 10
0.0
 20
0.0
 30
0.0
  9
$USERI1
 70
     0
  9
$USERI2
 70
     0
  9
$USERI3
 70
     0
  9
$USERI4
 70
     0
  9
$USERI5
 70
     0
  9
$USERR1
 40
0.0
  9
$USERR2
 40
0.0
  9
$USERR3
 40
0.0
  9
$USERR4
 40
0.0
  9
$USERR5
 40
0.0
  9
$WORLDVIEW
 70
     1
  9
$SHADEDGE
 70
     3
  9
$SHADEDIF
 70
    70
  9
$TILEMODE
 70
     1
  9
$MAXACTVP
 70
    64
  9
$PINSBASE
 10
0.0
 20
0.0
 30
0.0
  9
$PLIMCHECK
 70
     0
  9
$PEXTMIN
 10
1.000000000000000E+20
 20
1.000000000000000E+20
 30
1.000000000000000E+20
  9
$PEXTMAX
 10
-1.000000000000000E+20
 20
-1.000000000000000E+20
 30
-1.000000000000000E+20
  9
$PLIMMIN
 10
-5.873748779296875
 20
-5.873749732971191
  9
$PLIMMAX
 10
291.05224609375
 20
204.0995779037475
  9
$UNITMODE
 70
     0
  9
$VISRETAIN
 70
     1
  9
$PLINEGEN
 70
     0
  9
$PSLTSCALE
 70
     1
  9
$TREEDEPTH
 70
  3020
  9
$CMLSTYLE
  2
Standard
  9
$CMLJUST
 70
     0
  9
$CMLSCALE
 40
20.0
  9
$PROXYGRAPHICS
 70
     1
  9
$MEASUREMENT
 70
     1
  9
$CELWEIGHT
370
    -1
  9
$ENDCAPS
280
     0
  9
$JOINSTYLE
280
     0
  9
$LWDISPLAY
290
     0
  9
$INSUNITS
 70
     4
  9
$HYPERLINKBASE
  1

  9
$STYLESHEET
  1
MONOCHROME.CTB
  9
$XEDIT
290
     1
  9
$CEPSNTYPE
380
     0
  9
$PSTYLEMODE
290
     1
  9
$FINGERPRINTGUID
  2
{50BE1C40-7876-4AFD-8770-B7778E71A178}
  9
$VERSIONGUID
  2
{3220B7B4-1E03-41AA-98D0-4A6D6C605500}
  9
$EXTNAMES
290
     1
  9
$PSVPSCALE
 40
0.0
  9
$OLESTARTUP
290
     0
  9
$SORTENTS
280
    96
  9
$INDEXCTL
280
     0
  9
$HIDETEXT
280
     0
  9
$XCLIPFRAME
290
     0
  9
$HALOGAP
280
     0
  9
$OBSCOLOR
 70
   257
  9
$OBSLTYPE
280
     0
  9
$INTERSECTIONDISPLAY
280
     0
  9
$INTERSECTIONCOLOR
 70
   257
  9
$DIMASSOC
280
     1
  9
$PROJECTNAME
  1

  0
ENDSEC
  0
SECTION
  2
CLASSES
  0
CLASS
  1
ACDBDICTIONARYWDFLT
  2
AcDbDictionaryWithDefault
  3
ObjectDBX Classes
 90
        0
 91
        1
280
     0
281
     0
  0
CLASS
  1
DICTIONARYVAR
  2
AcDbDictionaryVar
  3
ObjectDBX Classes
 90
        0
 91
        9
280
     0
281
     0
  0
CLASS
  1
ACME_DOCUMENT
  2
AcMeDbDoc
  3
AcMeServices
 90
     1024
 91
        1
280
     0
281
     0
  0
CLASS
  1
ACMESCOPE
  2
AcMeScope
  3
AcMeServices
 90
     1024
 91
        1
280
     0
281
     0
  0
CLASS
  1
ACMECOMMANDHISTORY
  2
AcMeCommandHistory
  3
AcMeServices
 90
     1024
 91
        1
280
     0
281
     0
  0
CLASS
  1
ACIMSYSVARMAN
  2
AcImSysVarManager
  3
AcMeServices
 90
     1024
 91
        3
280
     0
281
     0
  0
CLASS
  1
ACIMINTSYSVAR
  2
AcImIntSysVar
  3
AcMeServices
 90
     1024
 91
        2
280
     0
281
     0
  0
CLASS
  1
ACMEDRAWINGMAN
  2
AcMeDrawingMan
  3
AcMeServices
 90
     1024
 91
        0
280
     0
281
     0
  0
CLASS
  1
ACMEVIEW
  2
AcMeView
  3
AcMeServices
 90
     1024
 91
        0
280
     0
281
     0
  0
CLASS
  1
ACDBENTITYCACHE
  2
AcMeEntityCache
  3
AcMeServices
 90
     1024
 91
        1
280
     0
281
     0
  0
CLASS
  1
GSMANAGER
  2
AcMeGSManager
  3
AcMeServices
 90
        0
 91
        0
280
     0
281
     0
  0
CLASS
  1
AMDTINTERNALREACTOR
  2
AmdtInternalReactor
  3
AcMeServices
 90
     1024
 91
        0
280
     0
281
     0
  0
CLASS
  1
ACMESTATEMGR
  2
AcMeStateMgr
  3
AcMeServices
 90
     1024
 91
        1
280
     0
281
     0
  0
CLASS
  1
ACGREFMASTER
  2
AcGrefMaster
  3
AcAttribServices
 90
     1024
 91
        1
280
     0
281
     0
  0
CLASS
  1
AM_DRAWING_MGR
  2
AcDmDwgMgr
  3
AcMechDwgViewMgmt
 90
     1024
 91
        0
280
     0
281
     0
  0
CLASS
  1
AM_DWG_DOCUMENT
  2
AcDmDwgDocument
  3
AcMechDwgViewMgmt
 90
     1024
 91
        0
280
     0
281
     0
  0
CLASS
  1
AM_DWG_SHEET
  2
AcDmSheet
  3
AcMechDwgViewMgmt
 90
     1024
 91
        0
280
     0
281
     0
  0
CLASS
  1
AM_VIEWDIMPARMAP
  2
AcDmViewDimParMap
  3
AcMechDwgViewMgmt
 90
     1024
 91
        0
280
     0
281
     0
  0
CLASS
  1
ACIMREALSYSVAR
  2
AcImRealSysVar
  3
AcMeServices
 90
     1024
 91
        0
280
     0
281
     0
  0
CLASS
  1
AM_DWGMGR_NAME
  2
AcDmDwgMgrName
  3
AcMechDwgViewMgmt
 90
     1024
 91
        0
280
     0
281
     0
  0
CLASS
  1
ACME_DATABASE
  2
AcMeDbDatabase
  3
AcMeServices
 90
     1024
 91
        1
280
     0
281
     0
  0
CLASS
  1
ACRFINSADJUSTERMGR
  2
AcRfInsAdjusterMgr
  3
AcMeServices
 90
     1024
 91
        1
280
     0
281
     0
  0
CLASS
  1
ACGREFACADMASTER
  2
AcGrefacadMaster
  3
AcGrefServices
 90
     1024
 91
        1
280
     0
281
     0
  0
CLASS
  1
AMDTMENUSTATEMGR
  2
AmdtMenuStateMgr
  3
McadcomServices
 90
     1024
 91
        1
280
     0
281
     0
  0
CLASS
  1
AMDTMCOMMENUSTATE
  2
AmdtMcomMenuState
  3
McadcomServices
 90
     1024
 91
        1
280
     0
281
     0
  0
CLASS
  1
AMIMASTER
  2
AmiMaster
  3
AmiServices
 90
     1024
 91
        1
280
     0
281
     0
  0
CLASS
  1
AMGSETTINGSOBJ
  2
AmgSettingsObj
  3
"AcadM|Product Description: AutoCAD Mechanical|Company: Autodesk, Inc."
 90
     1024
 91
        2
280
     0
281
     0
  0
CLASS
  1
MAPIAMMOUDLE
  2
MApiAmModule
  3
MApiAmServices
 90
     1024
 91
        1
280
     0
281
     0
  0
CLASS
  1
AMDTADMENUSTATE
  2
AmdtAdMenuState
  3
DesignerServices
 90
        0
 91
        0
280
     0
281
     0
  0
CLASS
  1
ADAPPL
  2
AcAdAppl
  3
DesignerAssemblies
 90
     1024
 91
        0
280
     0
281
     0
  0
CLASS
  1
DEPMGR
  2
AcAdDepMgr
  3
DesignerAssemblies
 90
     1024
 91
        0
280
     0
281
     0
  0
CLASS
  1
PARAMMGR
  2
AcAdParamMgr
  3
DesignerAssemblies
 90
     1024
 91
        0
280
     0
281
     0
  0
CLASS
  1
PARAMSCOPE
  2
AcAdParamScope
  3
DesignerAssemblies
 90
     1024
 91
        0
280
     0
281
     0
  0
CLASS
  1
NAMEDAPPL
  2
AcAdNamedAppl
  3
DesignerAssemblies
 90
     1024
 91
        0
280
     0
281
     0
  0
CLASS
  1
AMDTDMMENUSTATE
  2
AmdtDmMenuState
  3
AcMechDwgViewMgmt
 90
        0
 91
        0
280
     0
281
     0
  0
CLASS
  1
AMDTAMMENUSTATE
  2
AmdtAmMenuState
  3
DesignerAssemblies
 90
     1024
 91
        1
280
     0
281
     0
  0
CLASS
  1
ACIMSTRSYSVAR
  2
AcImStrSysVar
  3
AcMeServices
 90
     1024
 91
        5
280
     0
281
     0
  0
CLASS
  1
ACAMPROJECT
  2
AcAmProject
  3
DesignerAssemblies
 90
     1024
 91
        1
280
     0
281
     0
  0
CLASS
  1
ACAMGRCOMPDEF
  2
AcAmGrCompDef
  3
DesignerAssemblies
 90
     1024
 91
        1
280
     0
281
     0
  0
CLASS
  1
ACCMCONTEXT
  2
AcCmContext
  3
DesignerAssemblies
 90
     1024
 91
        0
280
     0
281
     0
  0
CLASS
  1
ACAMCOMPDEF
  2
AcAmCompDef
  3
DesignerAssemblies
 90
     1024
 91
        1
280
     0
281
     0
  0
CLASS
  1
ACAMCOMPDEFMGR
  2
AcAmCompDefMgr
  3
DesignerAssemblies
 90
     1024
 91
        1
280
     0
281
     0
  0
CLASS
  1
AMCONTEXTMGR
  2
AcAmContextMgr
  3
DesignerAssemblies
 90
     1024
 91
        1
280
     0
281
     0
  0
CLASS
  1
ACAMCONTEXTMODELER
  2
AcAmContextModeler
  3
DesignerAssemblies
 90
     1024
 91
        1
280
     0
281
     0
  0
CLASS
  1
ACMDATADICTIONARY
  2
AcmDataDictionary
  3
"AcmSymBB|Product Description: AutoCAD Mechanical|Company: Autodesk, Inc."
 90
     1024
 91
        1
280
     0
281
     0
  0
CLASS
  1
CATALOGSTATE
  2
AcAmCatalogState
  3
DesignerAssemblies
 90
     1024
 91
        0
280
     0
281
     0
  0
CLASS
  1
ACAMGRCOMPDEFSET
  2
AcAmGrCompDefSet
  3
DesignerAssemblies
 90
     1024
 91
        1
280
     0
281
     0
  0
CLASS
  1
AMDTBROWSERDBTAB
  2
AmdtBrowserDbTab
  3
McadcomServices
 90
     1024
 91
        1
280
     0
281
     0
  0
CLASS
  1
CBROWSERAPPOBJECT
  2
CBrowserAppObject
  3
McadcomServices
 90
     1024
 91
        2
280
     0
281
     0
  0
CLASS
  1
DM_PLACEHOLDER
  2
AcDmSelsetPlaceholder
  3
McadcomServices
 90
     1024
 91
        1
280
     0
281
     0
  0
CLASS
  1
ACMSTANDARDISO
  2
AcmStandardISO
  3
"Amdt_StdImp|Product Description: AutoCAD Mechanical|Company: Autodesk, Inc."
 90
     1024
 91
        1
280
     0
281
     0
  0
CLASS
  1
AMGOBJPROPCFG
  2
AmgObjPropCfg
  3
"AmgLay|Product Description: AutoCAD Mechanical|Company: Autodesk, Inc."
 90
     1024
 91
        1
280
     0
281
     0
  0
CLASS
  1
AMDTEDGESTANDARDISO
  2
AmdtEdgeStdISO
  3
"Amdt_StdImp|Product Description: AutoCAD Mechanical|Company: Autodesk, Inc."
 90
     1024
 91
        0
280
     0
281
     0
  0
CLASS
  1
ACMSURFSTANDARDISO
  2
AcmSurfTextStdISO
  3
"Amdt_StdImp|Product Description: AutoCAD Mechanical|Company: Autodesk, Inc."
 90
     1024
 91
        0
280
     0
281
     0
  0
CLASS
  1
ACMFCFSTANDARDISO
  2
AcmFCFStdISO
  3
"Amdt_StdImp|Product Description: AutoCAD Mechanical|Company: Autodesk, Inc."
 90
     1024
 91
        0
280
     0
281
     0
  0
CLASS
  1
ACMWELDSTANDARDISO
  2
AcmWeldingStdISO
  3
"Amdt_StdImp|Product Description: AutoCAD Mechanical|Company: Autodesk, Inc."
 90
     1024
 91
        1
280
     0
281
     0
  0
CLASS
  1
ACMIDSTANDARDISO
  2
AcmIdStdISO
  3
"Amdt_StdImp|Product Description: AutoCAD Mechanical|Company: Autodesk, Inc."
 90
     1024
 91
        0
280
     0
281
     0
  0
CLASS
  1
ACMDATUMSTANDARDISO
  2
AcmDatumStdISO
  3
"Amdt_StdImp|Product Description: AutoCAD Mechanical|Company: Autodesk, Inc."
 90
     1024
 91
        0
280
     0
281
     0
  0
CLASS
  1
ACMBOMSTANDARDISO
  2
AcmBOMStdISO
  3
"Amdt_StdImp|Product Description: AutoCAD Mechanical|Company: Autodesk, Inc."
 90
     1024
 91
        1
280
     0
281
     0
  0
CLASS
  1
ACMDETAILSTANDARDISO
  2
AmdtDetailSymStdISO
  3
"Amdt_StdImp|Product Description: AutoCAD Mechanical|Company: Autodesk, Inc."
 90
     1024
 91
        1
280
     0
281
     0
  0
CLASS
  1
ACMSECTIONSTANDARDISO
  2
AmdtSectionSymStdISO
  3
"Amdt_StdImp|Product Description: AutoCAD Mechanical|Company: Autodesk, Inc."
 90
     1024
 91
        0
280
     0
281
     0
  0
CLASS
  1
ACMCENTERLINESTANDARDISO
  2
AmdtCenterLineStdISO
  3
"Amdt_StdImp|Product Description: AutoCAD Mechanical|Company: Autodesk, Inc."
 90
     1024
 91
        1
280
     0
281
     0
  0
CLASS
  1
ACMTHREADLINESTANDARDISO
  2
AmdtThreadLineStdISO
  3
"Amdt_StdImp|Product Description: AutoCAD Mechanical|Company: Autodesk, Inc."
 90
     1024
 91
        1
280
     0
281
     0
  0
CLASS
  1
ACMNOTESTANDARDISO
  2
AmdtNoteStdISO
  3
"Amdt_StdImp|Product Description: AutoCAD Mechanical|Company: Autodesk, Inc."
 90
     1024
 91
        1
280
     0
281
     0
  0
CLASS
  1
AMDTNOTETEMPLATEDB
  2
AmdtNoteTemplateDB
  3
AcmSymBB|Product Description: AutoCAD Mechanical|Company: Autodesk, Inc.
 90
     1024
 91
        7
280
     0
281
     0
  0
CLASS
  1
ACAMGLAYSTD
  2
AcAmgLayStd
  3
"AmgLay|Product Description: AutoCAD Mechanical|Company: Autodesk, Inc."
 90
     1024
 91
        1
280
     0
281
     0
  0
CLASS
  1
ACAMGDIMSTD
  2
AcAmgDimStd
  3
"AmgDim|Product Description: AutoCAD Mechanical|Company: Autodesk, Inc."
 90
     1024
 91
        1
280
     0
281
     0
  0
CLASS
  1
ACAMGHOLECHARTSTDISO
  2
AcAmgHoleChartStdISO
  3
AmgDim|Product Description: AutoCAD Mechanical|Company: Autodesk, Inc.
 90
     1024
 91
        1
280
     0
281
     0
  0
CLASS
  1
ACAMGTITLESTD
  2
AcAmgTitleStd
  3
"AmgTitle|Product Description: AutoCAD Mechanical|Company: Autodesk, Inc."
 90
     1024
 91
        1
280
     0
281
     0
  0
CLASS
  1
LAYER_INDEX
  2
AcDbLayerIndex
  3
ObjectDBX Classes
 90
        0
 91
        0
280
     0
281
     0
  0
CLASS
  1
IDBUFFER
  2
AcDbIdBuffer
  3
ObjectDBX Classes
 90
        0
 91
        0
280
     0
281
     0
  0
CLASS
  1
ACMSTANDARDANSI
  2
AcmStandardANSI
  3
"Amdt_StdImp|Product Description: AutoCAD Mechanical|Company: Autodesk, Inc."
 90
     1024
 91
        0
280
     0
281
     0
  0
CLASS
  1
ACMSURFSTANDARDANSI
  2
AcmSurfTextStdANSI
  3
"Amdt_StdImp|Product Description: AutoCAD Mechanical|Company: Autodesk, Inc."
 90
     1024
 91
        0
280
     0
281
     0
  0
CLASS
  1
ACMFCFSTANDARDANSI
  2
AcmFCFStdANSI
  3
"Amdt_StdImp|Product Description: AutoCAD Mechanical|Company: Autodesk, Inc."
 90
     1024
 91
        0
280
     0
281
     0
  0
CLASS
  1
ACMWELDSTANDARDANSI
  2
AcmWeldingStdANSI
  3
"Amdt_StdImp|Product Description: AutoCAD Mechanical|Company: Autodesk, Inc."
 90
     1024
 91
        0
280
     0
281
     0
  0
CLASS
  1
ACMIDSTANDARDANSI
  2
AcmIdStdANSI
  3
"Amdt_StdImp|Product Description: AutoCAD Mechanical|Company: Autodesk, Inc."
 90
     1024
 91
        0
280
     0
281
     0
  0
CLASS
  1
ACMDATUMSTANDARDANSI
  2
AcmDatumStdANSI
  3
"Amdt_StdImp|Product Description: AutoCAD Mechanical|Company: Autodesk, Inc."
 90
     1024
 91
        0
280
     0
281
     0
  0
CLASS
  1
ACMBOMSTANDARDANSI
  2
AcmBOMStdANSI
  3
"Amdt_StdImp|Product Description: AutoCAD Mechanical|Company: Autodesk, Inc."
 90
     1024
 91
        0
280
     0
281
     0
  0
CLASS
  1
ACMDETAILSTANDARDANSI
  2
AmdtDetailSymStdANSI
  3
"Amdt_StdImp|Product Description: AutoCAD Mechanical|Company: Autodesk, Inc."
 90
     1024
 91
        0
280
     0
281
     0
  0
CLASS
  1
ACMSECTIONSTANDARDANSI
  2
AmdtSectionSymStdANSI
  3
"Amdt_StdImp|Product Description: AutoCAD Mechanical|Company: Autodesk, Inc."
 90
     1024
 91
        0
280
     0
281
     0
  0
CLASS
  1
ACMCENTERLINESTANDARDANSI
  2
AmdtCenterLineStdANSI
  3
"Amdt_StdImp|Product Description: AutoCAD Mechanical|Company: Autodesk, Inc."
 90
     1024
 91
        0
280
     0
281
     0
  0
CLASS
  1
ACMTHREADLINESTANDARDANSI
  2
AmdtThreadLineStdANSI
  3
"Amdt_StdImp|Product Description: AutoCAD Mechanical|Company: Autodesk, Inc."
 90
     1024
 91
        0
280
     0
281
     0
  0
CLASS
  1
ACMNOTESTANDARDANSI
  2
AmdtNoteStdANSI
  3
"Amdt_StdImp|Product Description: AutoCAD Mechanical|Company: Autodesk, Inc."
 90
     1024
 91
        0
280
     0
281
     0
  0
CLASS
  1
ACAMGHOLECHARTSTDANSI
  2
AcAmgHoleChartStdANSI
  3
AmgDim|Product Description: AutoCAD Mechanical|Company: Autodesk, Inc.
 90
     1024
 91
        0
280
     0
281
     0
  0
CLASS
  1
ACAMGFILTERDAT
  2
AcAmgFilterDat
  3
"AcadM|Product Description: AutoCAD Mechanical|Company: Autodesk, Inc."
 90
     1024
 91
        0
280
     0
281
     0
  0
CLASS
  1
ACRFATTGENMGR
  2
AcRfAttGeneralMgr
  3
AcAttribServices
 90
     1024
 91
        0
280
     0
281
     0
  0
CLASS
  1
MATERIAL
  2
AcDbMaterial
  3
ObjectDBX Classes
 90
     1153
 91
        3
280
     0
281
     0
  0
CLASS
  1
VISUALSTYLE
  2
AcDbVisualStyle
  3
ObjectDBX Classes
 90
     4095
 91
       24
280
     0
281
     0
  0
CLASS
  1
TABLESTYLE
  2
AcDbTableStyle
  3
ObjectDBX Classes
 90
     4095
 91
        1
280
     0
281
     0
  0
CLASS
  1
SCALE
  2
AcDbScale
  3
ObjectDBX Classes
 90
     1153
 91
       17
280
     0
281
     0
  0
CLASS
  1
MLEADERSTYLE
  2
AcDbMLeaderStyle
  3
ACDB_MLEADERSTYLE_CLASS
 90
     4095
 91
        1
280
     0
281
     0
  0
CLASS
  1
ACDBSECTIONVIEWSTYLE
  2
AcDbSectionViewStyle
  3
ObjectDBX Classes
 90
     1025
 91
        2
280
     0
281
     0
  0
CLASS
  1
ACDBDETAILVIEWSTYLE
  2
AcDbDetailViewStyle
  3
ObjectDBX Classes
 90
     1025
 91
        2
280
     0
281
     0
  0
CLASS
  1
ACMTAPERSTANDARDANSI
  2
AcmTaperStdANSI
  3
"Amdt_StdImp|Product Description: AutoCAD Mechanical|Company: Autodesk, Inc."
 90
     1024
 91
        0
280
     0
281
     0
  0
CLASS
  1
ACMANOOTATIONVIEWSTANDARDANSI
  2
AmdtAnViewStdANSI
  3
"Amdt_StdImp|Product Description: AutoCAD Mechanical|Company: Autodesk, Inc."
 90
     1024
 91
        0
280
     0
281
     0
  0
CLASS
  1
ACMSECTIONSTANDARDCUSTOM
  2
AmdtSectionSymStdCustom
  3
"Amdt_StdImp|Product Description: AutoCAD Mechanical|Company: Autodesk, Inc."
 90
     1024
 91
        1
280
     0
281
     0
  0
CLASS
  1
ACMDETAILTANDARDCUSTOM
  2
AmdtDetailSymStdCustom
  3
"Amdt_StdImp|Product Description: AutoCAD Mechanical|Company: Autodesk, Inc."
 90
     1024
 91
        1
280
     0
281
     0
  0
CLASS
  1
ACMTAPERSTANDARDISO
  2
AcmTaperStdISO
  3
"Amdt_StdImp|Product Description: AutoCAD Mechanical|Company: Autodesk, Inc."
 90
     1024
 91
        1
280
     0
281
     0
  0
CLASS
  1
ACMANOOTATIONVIEWSTANDARDISO
  2
AmdtAnViewStdISO
  3
"Amdt_StdImp|Product Description: AutoCAD Mechanical|Company: Autodesk, Inc."
 90
     1024
 91
        1
280
     0
281
     0
  0
CLASS
  1
FIELD
  2
AcDbField
  3
ObjectDBX Classes
 90
     1152
 91
        3
280
     0
281
     0
  0
CLASS
  1
FIELDLIST
  2
AcDbFieldList
  3
ObjectDBX Classes
 90
     1152
 91
        1
280
     0
281
     0
  0
CLASS
  1
CAMSSTRUCTBTNSTATE
  2
StructBtnState
  3
DesignerAssemblies
 90
     1024
 91
        0
280
     0
281
     0
  0
CLASS
  1
CELLSTYLEMAP
  2
AcDbCellStyleMap
  3
ObjectDBX Classes
 90
     1152
 91
        3
280
     0
281
     0
  0
CLASS
  1
AMDTEDGESTANDARDISO13715
  2
AmdtEdgeStdISO13715
  3
"Amdt_StdImp|Product Description: AutoCAD Mechanical|Company: Autodesk, Inc."
 90
     1024
 91
        1
280
     0
281
     0
  0
CLASS
  1
ACMSURFSTANDARDISO2002
  2
AcmSurfTextStdISO2002
  3
"Amdt_StdImp|Product Description: AutoCAD Mechanical|Company: Autodesk, Inc."
 90
     1024
 91
        1
280
     0
281
     0
  0
CLASS
  1
ACMFCFSTANDARDISO2012
  2
AcmFCFStdISO2012
  3
"Amdt_StdImp|Product Description: AutoCAD Mechanical|Company: Autodesk, Inc."
 90
     1024
 91
        1
280
     0
281
     0
  0
CLASS
  1
ACMIDSTANDARDISO2012
  2
AcmIdStdISO2012
  3
"Amdt_StdImp|Product Description: AutoCAD Mechanical|Company: Autodesk, Inc."
 90
     1024
 91
        1
280
     0
281
     0
  0
CLASS
  1
ACMDATUMSTANDARDISO2012
  2
AcmDatumStdISO2012
  3
"Amdt_StdImp|Product Description: AutoCAD Mechanical|Company: Autodesk, Inc."
 90
     1024
 91
        1
280
     0
281
     0
  0
CLASS
  1
ACMSECTIONSTANDARDISO2001
  2
AmdtSectionSymStdISO2001
  3
"Amdt_StdImp|Product Description: AutoCAD Mechanical|Company: Autodesk, Inc."
 90
     1024
 91
        1
280
     0
281
     0
  0
ENDSEC
  0
SECTION
  2
TABLES
  0
TABLE
  2
VPORT
  5
8
330
0
100
AcDbSymbolTable
 70
     1
  0
VPORT
  5
FCB73
330
8
100
AcDbSymbolTableRecord
100
AcDbViewportTableRecord
  2
*Active
 70
     0
 10
0.0
 20
0.0
 11
1.0
 21
1.0
 12
409.9037071613471
 22
153.0885093028058
 13
0.0
 23
0.0
 14
2.5
 24
2.5
 15
10.0
 25
10.0
 16
0.0
 26
0.0
 36
1.0
 17
0.0
 27
0.0
 37
0.0
 40
316.8823190350123
 41
2.074200913242008
 42
50.0
 43
0.0
 44
0.0
 50
0.0
 51
0.0
 71
     0
 72
   100
 73
     1
 74
     3
 75
     0
 76
     0
 77
     0
 78
     0
281
     0
 65
     0
110
0.0
120
0.0
130
0.0
111
1.0
121
0.0
131
0.0
112
0.0
122
1.0
132
0.0
 79
     0
146
0.0
1001
ACAD_NAV_VCDISPLAY
1070
     3
  0
ENDTAB
  0
TABLE
  2
LTYPE
  5
5
330
0
100
AcDbSymbolTable
 70
    16
  0
LTYPE
  5
14
330
5
100
AcDbSymbolTableRecord
100
AcDbLinetypeTableRecord
  2
ByBlock
 70
     0
  3

 72
    65
 73
     0
 40
0.0
  0
LTYPE
  5
15
330
5
100
AcDbSymbolTableRecord
100
AcDbLinetypeTableRecord
  2
ByLayer
 70
     0
  3

 72
    65
 73
     0
 40
0.0
  0
LTYPE
  5
16
330
5
100
AcDbSymbolTableRecord
100
AcDbLinetypeTableRecord
  2
Continuous
 70
     0
  3
Solid line
 72
    65
 73
     0
 40
0.0
  0
LTYPE
  5
16D41
330
5
100
AcDbSymbolTableRecord
100
AcDbLinetypeTableRecord
  2
AM_ISO02W050
 70
     0
  3
__ __ __ __ __ __ __ __ __ __ __ __ __ __ __
 72
    65
 73
     2
 40
7.5
 49
6.0
 74
     0
 49
-1.5
 74
     0
  0
LTYPE
  5
16D42
330
5
100
AcDbSymbolTableRecord
100
AcDbLinetypeTableRecord
  2
AM_ISO08W050
 70
     0
  3
____ . ____ . ____ . ____ . ____ . ____ . ____
 72
    65
 73
     4
 40
18.0
 49
12.0
 74
     0
 49
-1.5
 74
     0
 49
3.0
 74
     0
 49
-1.5
 74
     0
  0
LTYPE
  5
16D43
330
5
100
AcDbSymbolTableRecord
100
AcDbLinetypeTableRecord
  2
AM_ISO09W050
 70
     0
  3
_____ . . _____ . . _____ . . ____ .. ____
 72
    65
 73
     6
 40
22.5
 49
12.0
 74
     0
 49
-1.5
 74
     0
 49
3.0
 74
     0
 49
-1.5
 74
     0
 49
3.0
 74
     0
 49
-1.5
 74
     0
  0
LTYPE
  5
16D44
330
5
100
AcDbSymbolTableRecord
100
AcDbLinetypeTableRecord
  2
Amconstr
 70
     0
  3
_______________________
 72
    65
 73
     2
 40
9999.0
 49
9999.0
 74
     0
 49
0.0
 74
     0
  0
LTYPE
  5
16D45
330
5
100
AcDbSymbolTableRecord
100
AcDbLinetypeTableRecord
  2
AM_ISO08W050x2
 70
     0
  3
__ . __ . __ . __ . __ . __
 72
    65
 73
     4
 40
9.0
 49
6.0
 74
     0
 49
-0.75
 74
     0
 49
1.5
 74
     0
 49
-0.75
 74
     0
  0
LTYPE
  5
16D46
330
5
100
AcDbSymbolTableRecord
100
AcDbLinetypeTableRecord
  2
AM_ISO02W050x2
 70
     0
  3
 _ _ _ _ _ _ _ _ _ _ _ _
 72
    65
 73
     2
 40
3.75
 49
3.0
 74
     0
 49
-0.75
 74
     0
  0
LTYPE
  5
16D47
330
5
100
AcDbSymbolTableRecord
100
AcDbLinetypeTableRecord
  2
Amzigzag
 70
     0
  3
/\/-/\/-/\/-/\/-/\/-/\/
 72
    65
 73
     2
 40
11.0001
 49
0.0001
 74
     4
 75
   135
340
3AE2
 46
0.04
 50
0.0
 44
0.0
 45
0.0
 49
-11.0
 74
     0
  0
LTYPE
  5
16D56
330
5
100
AcDbSymbolTableRecord
100
AcDbLinetypeTableRecord
  2
ACISOWELD
 70
     0
  3
_ _ _ _ _
 72
    65
 73
     2
 40
2.0
 49
2.0
 74
     0
 49
-1.0
 74
     0
  0
LTYPE
  5
16D57
330
5
100
AcDbSymbolTableRecord
100
AcDbLinetypeTableRecord
  2
ACISOTGB
 70
     0
  3
__ . . __ . .
 72
    65
 73
     6
 40
9.0
 49
4.0
 74
     0
 49
-1.0
 74
     0
 49
1.0
 74
     0
 49
-1.0
 74
     0
 49
1.0
 74
     0
 49
-1.0
 74
     0
  0
LTYPE
  5
16D58
330
5
100
AcDbSymbolTableRecord
100
AcDbLinetypeTableRecord
  2
ACISOTGL
 70
     0
  3
_ _ _ _ _
 72
    65
 73
     2
 40
3.0
 49
2.0
 74
     0
 49
-1.0
 74
     0
  0
ENDTAB
  0
TABLE
  2
LAYER
  5
2
102
{ACAD_XDICTIONARY
360
F82BD
102
}
330
0
100
AcDbSymbolTable
 70
     4
  0
LAYER
  5
10
102
{ACAD_XDICTIONARY
360
FD4FA
102
}
330
2
100
AcDbSymbolTableRecord
100
AcDbLayerTableRecord
  2
0
 70
     0
 62
     7
  6
Continuous
370
    20
390
F
  0
LAYER
  5
54
330
2
100
AcDbSymbolTableRecord
100
AcDbLayerTableRecord
  2
Defpoints
 70
     0
 62
     7
  6
Continuous
290
     0
370
    -3
390
F
  0
LAYER
  5
86C9
102
{ACAD_XDICTIONARY
360
FD508
102
}
330
2
100
AcDbSymbolTableRecord
100
AcDbLayerTableRecord
  2
04_ele1_0.15
 70
     0
 62
     4
  6
Continuous
370
    15
390
F
  0
LAYER
  5
FCCEC
102
{ACAD_XDICTIONARY
360
FCCED
102
}
330
2
100
AcDbSymbolTableRecord
100
AcDbLayerTableRecord
  2
AM_5
 70
     0
 62
     3
  6
Continuous
370
    25
390
F
1001
AcAecLayerStandard
1000

1000

  0
ENDTAB
  0
TABLE
  2
STYLE
  5
3
330
0
100
AcDbSymbolTable
 70
     7
  0
STYLE
  5
11
330
3
100
AcDbSymbolTableRecord
100
AcDbTextStyleTableRecord
  2
STANDARD
 70
     0
 40
0.0
 41
1.0
 50
0.0
 71
     0
 42
2.5
  3
ISOCP.SHX
  4
EXTFONT.SHX
  0
STYLE
  5
3AE2
330
3
100
AcDbSymbolTableRecord
100
AcDbTextStyleTableRecord
  2

 70
     1
 40
0.0
 41
1.0
 50
0.0
 71
     0
 42
2.5
  3
ltypeshp.shx
  4

  0
STYLE
  5
16D55
330
3
100
AcDbSymbolTableRecord
100
AcDbTextStyleTableRecord
  2
ACISOGDT
 70
     0
 40
0.0
 41
1.0
 50
0.0
 71
     0
 42
2.5
  3
amgdt.shx
  4

  0
STYLE
  5
F61F9
330
3
100
AcDbSymbolTableRecord
100
AcDbTextStyleTableRecord
  2
2014++
 70
     0
 40
0.0
 41
0.8
 50
0.0
 71
     0
 42
2.5
  3
simplex.shx
  4
bigfont.shx
  0
ENDTAB
  0
TABLE
  2
VIEW
  5
6
330
0
100
AcDbSymbolTable
 70
     0
  0
ENDTAB
  0
TABLE
  2
UCS
  5
7
330
0
100
AcDbSymbolTable
 70
     0
  0
ENDTAB
  0
TABLE
  2
APPID
  5
9
330
0
100
AcDbSymbolTable
 70
    23
  0
APPID
  5
12
330
9
100
AcDbSymbolTableRecord
100
AcDbRegAppTableRecord
  2
ACAD
 70
     0
  0
APPID
  5
16CD8
330
9
100
AcDbSymbolTableRecord
100
AcDbRegAppTableRecord
  2
MCAD_NO_VIS
 70
     0
  0
APPID
  5
16CD9
330
9
100
AcDbSymbolTableRecord
100
AcDbRegAppTableRecord
  2
ACAD_TEMP_GRAPHIC
 70
     0
  0
APPID
  5
16D0B
330
9
100
AcDbSymbolTableRecord
100
AcDbRegAppTableRecord
  2
AD_DRAW
 70
     0
  0
APPID
  5
16D0E
330
9
100
AcDbSymbolTableRecord
100
AcDbRegAppTableRecord
  2
ACATTRIBSERVICES
 70
     0
  0
APPID
  5
16D30
330
9
100
AcDbSymbolTableRecord
100
AcDbRegAppTableRecord
  2
DESIGNERASSEMBLIES
 70
     0
  0
APPID
  5
16D36
330
9
100
AcDbSymbolTableRecord
100
AcDbRegAppTableRecord
  2
ACADM_DIM_EDIT
 70
     0
  0
APPID
  5
16D37
330
9
100
AcDbSymbolTableRecord
100
AcDbRegAppTableRecord
  2
AMDT_DM_ADJ
 70
     0
  0
APPID
  5
16D6D
330
9
100
AcDbSymbolTableRecord
100
AcDbRegAppTableRecord
  2
GENIUS_GENSCREG_15
 70
     0
  0
APPID
  5
16D6E
330
9
100
AcDbSymbolTableRecord
100
AcDbRegAppTableRecord
  2
GENIUS_GENOBJ-N-SDF_13
 70
     0
  0
APPID
  5
16D6F
330
9
100
AcDbSymbolTableRecord
100
AcDbRegAppTableRecord
  2
GENIUS_GENODEF_13
 70
     0
  0
APPID
  5
ADC12
330
9
100
AcDbSymbolTableRecord
100
AcDbRegAppTableRecord
  2
GENIUS_GENDTOL_13
 70
     0
  0
APPID
  5
BA934
330
9
100
AcDbSymbolTableRecord
100
AcDbRegAppTableRecord
  2
GENIUS_GENOBJ-N-FIL_13
 70
     0
  0
APPID
  5
F4A76
330
9
100
AcDbSymbolTableRecord
100
AcDbRegAppTableRecord
  2
DCO15
 70
     0
  0
APPID
  5
FCC6A
330
9
100
AcDbSymbolTableRecord
100
AcDbRegAppTableRecord
  2
ACAD_NAV_VCDISPLAY
 70
     0
  0
APPID
  5
FCC77
330
9
100
AcDbSymbolTableRecord
100
AcDbRegAppTableRecord
  2
ACAD_PSEXT
 70
     0
  0
APPID
  5
FCCEF
330
9
100
AcDbSymbolTableRecord
100
AcDbRegAppTableRecord
  2
AcAecLayerStandard
 70
     0
  0
APPID
  5
FCCF0
330
9
100
AcDbSymbolTableRecord
100
AcDbRegAppTableRecord
  2
ACAD_DSTYLE_DIMBREAK
 70
     0
  0
APPID
  5
FCCF1
330
9
100
AcDbSymbolTableRecord
100
AcDbRegAppTableRecord
  2
ACAD_DSTYLE_DIMJAG
 70
     0
  0
APPID
  5
FCCF2
330
9
100
AcDbSymbolTableRecord
100
AcDbRegAppTableRecord
  2
ACAD_DSTYLE_DIMINSPECT
 70
     0
  0
APPID
  5
FCE28
330
9
100
AcDbSymbolTableRecord
100
AcDbRegAppTableRecord
  2
ACAD_EXEMPT_FROM_CAD_STANDARDS
 70
     0
  0
APPID
  5
FCE3D
330
9
100
AcDbSymbolTableRecord
100
AcDbRegAppTableRecord
  2
AcadAnnoMonitorAlertIconDisabled
 70
     0
  0
APPID
  5
FD9A5
330
9
100
AcDbSymbolTableRecord
100
AcDbRegAppTableRecord
  2
ACAD_MLEADERVER
 70
     0
  0
ENDTAB
  0
TABLE
  2
DIMSTYLE
  5
A
330
0
100
AcDbSymbolTable
 70
    14
100
AcDbDimStyleTable
 71
     3
340
16D60
340
16D6A
340
16D65
  0
DIMSTYLE
105
16D60
102
{ACAD_REACTORS
330
FD9EA
102
}
330
A
100
AcDbSymbolTableRecord
100
AcDbDimStyleTableRecord
  2
AM_ISO
 70
     0
  4
"
 41
2.5
 42
1.0
 43
10.0
 44
1.0
 47
0.1
 48
0.1
 73
     0
 74
     0
 77
     1
 78
     8
 79
     2
140
3.5
141
0.0
143
0.0393701
146
0.71
147
1.5
172
     1
176
   256
177
   256
178
     2
271
     2
272
     3
274
     4
283
     0
284
     8
340
11
371
    -1
372
    -1
  0
DIMSTYLE
105
16D61
102
{ACAD_REACTORS
330
FC68F
330
FC6C2
330
FC6D9
330
FD892
102
}
330
A
100
AcDbSymbolTableRecord
100
AcDbDimStyleTableRecord
  2
AM_ISO$3
 70
     0
  4
"
 41
2.5
 42
1.0
 43
10.0
 44
1.0
 47
0.1
 48
0.1
 73
     0
 77
     1
 78
     8
 79
     2
140
3.5
141
0.0
143
0.0393701
146
0.71
147
1.5
176
   256
177
   256
178
     2
271
     2
272
     3
274
     4
283
     0
284
     8
288
     1
289
     0
340
11
371
    -1
372
    -1
  0
DIMSTYLE
105
16D62
330
A
100
AcDbSymbolTableRecord
100
AcDbDimStyleTableRecord
  2
AM_ISO$4
 70
     0
  4
"
 41
2.5
 42
1.0
 43
10.0
 44
1.0
 47
0.1
 48
0.1
 73
     0
 77
     1
 78
     8
 79
     2
140
3.5
141
0.0
143
0.0393701
146
0.71
147
1.5
176
   256
177
   256
178
     2
271
     2
272
     3
274
     4
283
     0
284
     8
288
     1
289
     0
340
11
371
    -1
372
    -1
  0
DIMSTYLE
105
16D63
330
A
100
AcDbSymbolTableRecord
100
AcDbDimStyleTableRecord
  2
AM_ISO$6
 70
     0
  4
"
 41
2.5
 42
1.0
 43
10.0
 44
1.0
 47
0.1
 48
0.1
 73
     0
 74
     0
 78
     8
 79
     2
140
3.5
141
0.0
143
0.0393701
146
0.71
147
1.5
172
     1
176
   256
177
   256
178
     2
271
     2
272
     3
274
     4
283
     0
284
     8
340
11
371
    -1
372
    -1
  0
DIMSTYLE
105
16D64
330
A
100
AcDbSymbolTableRecord
100
AcDbDimStyleTableRecord
  2
AM_ISO$7
 70
     0
  4
"
 41
2.5
 42
1.0
 43
10.0
 44
1.0
 47
0.1
 48
0.1
 73
     0
 74
     0
 77
     1
 78
     8
 79
     2
140
5.0
141
0.0
143
0.0393701
146
0.71
147
1.5
172
     1
176
   256
177
   256
178
     2
271
     2
272
     3
274
     4
283
     0
284
     8
340
11
371
    -1
372
    -1
  0
DIMSTYLE
105
16D65
330
A
100
AcDbSymbolTableRecord
100
AcDbDimStyleTableRecord
  2
AM_ISO$SF
 70
     0
  4
"
 41
2.5
 42
1.0
 43
10.0
 44
1.0
 47
0.1
 48
0.1
 73
     0
 74
     0
 75
     1
 76
     1
 77
     1
 78
     8
 79
     2
140
3.5
141
0.0
143
0.0393701
146
0.71
147
1.5
172
     1
176
   256
177
   256
178
     2
271
     2
272
     3
274
     4
283
     0
284
     8
340
11
371
    -1
372
    -1
  0
DIMSTYLE
105
16D6A
330
A
100
AcDbSymbolTableRecord
100
AcDbDimStyleTableRecord
  2
AM_ISO$SH
 70
     0
  4
"
 41
2.5
 42
1.0
 43
10.0
 44
1.0
 47
0.1
 48
0.1
 73
     0
 74
     0
 75
     1
 76
     1
 77
     1
 78
     8
 79
     2
140
3.5
141
0.0
143
0.0393701
144
2.0
146
0.71
147
1.5
172
     1
173
     1
176
   256
177
   256
178
     2
271
     2
272
     3
274
     4
283
     0
284
     8
340
11
343
16D66
371
    -1
372
    -1
  0
DIMSTYLE
105
FCCEE
102
{ACAD_REACTORS
330
FC6C3
330
FC6D4
330
FC6B7
330
FC6C0
330
FC6DF
330
FC6F6
330
FC6ED
330
FC6F5
330
FCD32
330
FC685
330
FC680
330
FC715
330
FC725
330
FC707
330
FCD30
330
FCD37
330
FCD46
330
FCD48
330
FCD4A
330
FCD4F
330
FCD5E
102
}
330
A
100
AcDbSymbolTableRecord
100
AcDbDimStyleTableRecord
  2
AM_ISO$0
 70
     0
  4
"
 41
2.5
 42
1.0
 43
10.0
 44
1.0
 47
0.1
 48
0.1
 73
     0
 74
     0
 77
     1
 78
     8
 79
     2
140
3.5
141
0.0
143
0.0393701
146
0.71
147
1.5
172
     1
176
   256
177
   256
178
     2
271
     2
272
     3
274
     4
283
     0
284
     8
340
11
371
    -1
372
    -1
1001
ACAD_DSTYLE_DIMBREAK
1070
   391
1040
3.75
1001
ACAD_DSTYLE_DIMJAG
1070
   388
1040
1.5
  0
ENDTAB
  0
TABLE
  2
BLOCK_RECORD
  5
1
330
0
100
AcDbSymbolTable
 70
    28
  0
BLOCK_RECORD
  5
1F
102
{ACAD_XDICTIONARY
360
16D78
102
}
330
1
100
AcDbSymbolTableRecord
100
AcDbBlockTableRecord
  2
*Model_Space
340
22
  0
BLOCK_RECORD
  5
FCC6B
330
1
100
AcDbSymbolTableRecord
100
AcDbBlockTableRecord
  2
*Paper_Space
340
FCC6C
  0
BLOCK_RECORD
  5
16D66
330
1
100
AcDbSymbolTableRecord
100
AcDbBlockTableRecord
  2
GENAXEH
340
0
  0
BLOCK_RECORD
  5
FC727
330
1
100
AcDbSymbolTableRecord
100
AcDbBlockTableRecord
  2
*D1
340
0
  0
BLOCK_RECORD
  5
FC741
330
1
100
AcDbSymbolTableRecord
100
AcDbBlockTableRecord
  2
*D2
340
0
  0
BLOCK_RECORD
  5
FC765
330
1
100
AcDbSymbolTableRecord
100
AcDbBlockTableRecord
  2
*D3
340
0
  0
BLOCK_RECORD
  5
FC7C1
330
1
100
AcDbSymbolTableRecord
100
AcDbBlockTableRecord
  2
*D4
340
0
  0
BLOCK_RECORD
  5
FC7F1
330
1
100
AcDbSymbolTableRecord
100
AcDbBlockTableRecord
  2
*D5
340
0
  0
BLOCK_RECORD
  5
FC7FF
330
1
100
AcDbSymbolTableRecord
100
AcDbBlockTableRecord
  2
*D6
340
0
  0
BLOCK_RECORD
  5
FC80B
330
1
100
AcDbSymbolTableRecord
100
AcDbBlockTableRecord
  2
*D7
340
0
  0
BLOCK_RECORD
  5
FC853
330
1
100
AcDbSymbolTableRecord
100
AcDbBlockTableRecord
  2
*D8
340
0
  0
BLOCK_RECORD
  5
FC891
330
1
100
AcDbSymbolTableRecord
100
AcDbBlockTableRecord
  2
*D9
340
0
  0
BLOCK_RECORD
  5
FC89D
330
1
100
AcDbSymbolTableRecord
100
AcDbBlockTableRecord
  2
*D10
340
0
  0
BLOCK_RECORD
  5
FC8CD
330
1
100
AcDbSymbolTableRecord
100
AcDbBlockTableRecord
  2
*D11
340
0
  0
BLOCK_RECORD
  5
FC8D9
330
1
100
AcDbSymbolTableRecord
100
AcDbBlockTableRecord
  2
*D12
340
0
  0
BLOCK_RECORD
  5
FC8E3
330
1
100
AcDbSymbolTableRecord
100
AcDbBlockTableRecord
  2
*D13
340
0
  0
BLOCK_RECORD
  5
FC909
330
1
100
AcDbSymbolTableRecord
100
AcDbBlockTableRecord
  2
*D14
340
0
  0
BLOCK_RECORD
  5
FC945
330
1
100
AcDbSymbolTableRecord
100
AcDbBlockTableRecord
  2
*D15
340
0
  0
BLOCK_RECORD
  5
FC98D
330
1
100
AcDbSymbolTableRecord
100
AcDbBlockTableRecord
  2
*D16
340
0
  0
BLOCK_RECORD
  5
FCD60
330
1
100
AcDbSymbolTableRecord
100
AcDbBlockTableRecord
  2
*D18
340
0
  0
BLOCK_RECORD
  5
FCD6C
330
1
100
AcDbSymbolTableRecord
100
AcDbBlockTableRecord
  2
*D19
340
0
  0
BLOCK_RECORD
  5
FCD7A
330
1
100
AcDbSymbolTableRecord
100
AcDbBlockTableRecord
  2
*D20
340
0
  0
BLOCK_RECORD
  5
FCD88
330
1
100
AcDbSymbolTableRecord
100
AcDbBlockTableRecord
  2
*D21
340
0
  0
BLOCK_RECORD
  5
FCD96
330
1
100
AcDbSymbolTableRecord
100
AcDbBlockTableRecord
  2
*D22
340
0
  0
BLOCK_RECORD
  5
FCDA2
330
1
100
AcDbSymbolTableRecord
100
AcDbBlockTableRecord
  2
*D23
340
0
  0
BLOCK_RECORD
  5
FCDB0
330
1
100
AcDbSymbolTableRecord
100
AcDbBlockTableRecord
  2
*D24
340
0
  0
BLOCK_RECORD
  5
FCDBE
330
1
100
AcDbSymbolTableRecord
100
AcDbBlockTableRecord
  2
*D25
340
0
  0
BLOCK_RECORD
  5
FD893
330
1
100
AcDbSymbolTableRecord
100
AcDbBlockTableRecord
  2
*D26
340
0
  0
ENDTAB
  0
ENDSEC
  0
SECTION
  2
BLOCKS
  0
BLOCK
  5
20
330
1F
100
AcDbEntity
  8
0
100
AcDbBlockBegin
  2
*Model_Space
 70
     0
 10
0.0
 20
0.0
 30
0.0
  3
*Model_Space
  1

  0
ENDBLK
  5
21
330
1F
100
AcDbEntity
  8
0
100
AcDbBlockEnd
  0
BLOCK
  5
FCC6D
330
FCC6B
100
AcDbEntity
 67
     1
  8
0
100
AcDbBlockBegin
  2
*Paper_Space
 70
     0
 10
0.0
 20
0.0
 30
0.0
  3
*Paper_Space
  1

  0
ENDBLK
  5
FCC6E
330
FCC6B
100
AcDbEntity
 67
     1
  8
0
100
AcDbBlockEnd
  0
BLOCK
  5
16D68
330
16D66
100
AcDbEntity
  8
0
100
AcDbBlockBegin
  2
GENAXEH
 70
     0
 10
0.0
 20
0.0
 30
0.0
  3
GENAXEH
  1

  0
LINE
  5
16D67
330
16D66
100
AcDbEntity
  8
0
100
AcDbLine
 10
-1.0
 20
0.0
 30
0.0
 11
1.0
 21
0.0
 31
0.0
  0
ENDBLK
  5
16D69
330
16D66
100
AcDbEntity
  8
0
100
AcDbBlockEnd
  0
BLOCK
  5
FC733
330
FC727
100
AcDbEntity
  8
0
100
AcDbBlockBegin
  2
*D1
 70
     1
 10
0.0
 20
0.0
 30
0.0
  3
*D1
  1

  0
LINE
  5
FD489
330
FC727
100
AcDbEntity
  8
AM_5
440
 16777216
100
AcDbLine
 10
280.5017889640883
 20
204.9009876994151
 30
0.0
 11
280.5017889640883
 21
222.0808022950895
 31
0.0
  0
LINE
  5
FD48A
330
FC727
100
AcDbEntity
  8
AM_5
440
 16777216
100
AcDbLine
 10
278.9017889640883
 20
204.9009876994151
 30
0.0
 11
278.9017889640883
 21
222.0808022950895
 31
0.0
  0
LINE
  5
FD48B
330
FC727
100
AcDbEntity
  8
AM_5
440
 16777216
100
AcDbLine
 10
283.0017889640883
 20
221.0808022950895
 30
0.0
 11
285.5017889640883
 21
221.0808022950895
 31
0.0
  0
LINE
  5
FD48C
330
FC727
100
AcDbEntity
  8
AM_5
440
 16777216
100
AcDbLine
 10
276.4017889640883
 20
221.0808022950895
 30
0.0
 11
273.9017889640883
 21
221.0808022950895
 31
0.0
  0
LINE
  5
FD48D
330
FC727
100
AcDbEntity
  8
AM_5
440
 16777216
100
AcDbLine
 10
280.5017889640883
 20
221.0808022950895
 30
0.0
 11
278.9017889640883
 21
221.0808022950895
 31
0.0
  0
SOLID
  5
FD48E
330
FC727
100
AcDbEntity
  8
AM_5
440
 16777216
100
AcDbTrace
 10
283.0017889640883
 20
221.4974689617562
 30
0.0
 11
283.0017889640883
 21
220.6641356284229
 31
0.0
 12
280.5017889640883
 22
221.0808022950895
 32
0.0
 13
280.5017889640883
 23
221.0808022950895
 33
0.0
  0
SOLID
  5
FD48F
330
FC727
100
AcDbEntity
  8
AM_5
440
 16777216
100
AcDbTrace
 10
276.4017889640883
 20
221.4974689617562
 30
0.0
 11
276.4017889640883
 21
220.6641356284229
 31
0.0
 12
278.9017889640883
 22
221.0808022950895
 32
0.0
 13
278.9017889640883
 23
221.0808022950895
 33
0.0
  0
MTEXT
  5
FD490
330
FC727
100
AcDbEntity
  8
AM_5
 62
     2
440
 16777216
100
AcDbMText
 10
279.7017889640883
 20
224.3308022950895
 30
0.0
 40
3.5
 41
0.0
 71
     5
 72
     1
  1
t=1.6
 73
     1
 44
1.0
  0
POINT
  5
FD491
330
FC727
100
AcDbEntity
  8
Defpoints
 62
     0
440
 16777216
100
AcDbPoint
 10
280.5017889640883
 20
203.9009876994151
 30
0.0
  0
POINT
  5
FD492
330
FC727
100
AcDbEntity
  8
Defpoints
 62
     0
440
 16777216
100
AcDbPoint
 10
278.9017889640883
 20
203.9009876994151
 30
0.0
  0
POINT
  5
FD493
330
FC727
100
AcDbEntity
  8
Defpoints
 62
     0
440
 16777216
100
AcDbPoint
 10
278.9017889640883
 20
221.0808022950895
 30
0.0
  0
ENDBLK
  5
FC734
330
FC727
100
AcDbEntity
  8
0
100
AcDbBlockEnd
  0
BLOCK
  5
FC74B
330
FC741
100
AcDbEntity
  8
0
100
AcDbBlockBegin
  2
*D2
 70
     1
 10
0.0
 20
0.0
 30
0.0
  3
*D2
  1

  0
LINE
  5
FD480
330
FC741
100
AcDbEntity
  8
AM_5
440
 16777216
100
AcDbLine
 10
216.9017889640883
 20
204.9009876994151
 30
0.0
 11
216.9017889640883
 21
222.0808022950895
 31
0.0
  0
LINE
  5
FD481
330
FC741
100
AcDbEntity
  8
AM_5
440
 16777216
100
AcDbLine
 10
278.9017889640883
 20
204.9009876994151
 30
0.0
 11
278.9017889640883
 21
222.0808022950895
 31
0.0
  0
LINE
  5
FD482
330
FC741
100
AcDbEntity
  8
AM_5
440
 16777216
100
AcDbLine
 10
219.4017889640883
 20
221.0808022950895
 30
0.0
 11
276.4017889640883
 21
221.0808022950895
 31
0.0
  0
SOLID
  5
FD483
330
FC741
100
AcDbEntity
  8
AM_5
440
 16777216
100
AcDbTrace
 10
219.4017889640883
 20
221.4974689617562
 30
0.0
 11
219.4017889640883
 21
220.6641356284229
 31
0.0
 12
216.9017889640883
 22
221.0808022950895
 32
0.0
 13
216.9017889640883
 23
221.0808022950895
 33
0.0
  0
SOLID
  5
FD484
330
FC741
100
AcDbEntity
  8
AM_5
440
 16777216
100
AcDbTrace
 10
276.4017889640883
 20
221.4974689617562
 30
0.0
 11
276.4017889640883
 21
220.6641356284229
 31
0.0
 12
278.9017889640883
 22
221.0808022950895
 32
0.0
 13
278.9017889640883
 23
221.0808022950895
 33
0.0
  0
MTEXT
  5
FD485
330
FC741
100
AcDbEntity
  8
AM_5
 62
     2
440
 16777216
100
AcDbMText
 10
248.2218370191877
 20
224.3311467832785
 30
0.0
 40
3.5
 41
0.0
 71
     5
 72
     1
  1
62
 73
     1
 44
1.0
  0
POINT
  5
FD486
330
FC741
100
AcDbEntity
  8
Defpoints
 62
     0
440
 16777216
100
AcDbPoint
 10
216.9017889640883
 20
203.9009876994151
 30
0.0
  0
POINT
  5
FD487
330
FC741
100
AcDbEntity
  8
Defpoints
 62
     0
440
 16777216
100
AcDbPoint
 10
278.9017889640883
 20
203.9009876994151
 30
0.0
  0
POINT
  5
FD488
330
FC741
100
AcDbEntity
  8
Defpoints
 62
     0
440
 16777216
100
AcDbPoint
 10
278.9017889640883
 20
221.0808022950895
 30
0.0
  0
ENDBLK
  5
FC74C
330
FC741
100
AcDbEntity
  8
0
100
AcDbBlockEnd
  0
BLOCK
  5
FC76F
330
FC765
100
AcDbEntity
  8
0
100
AcDbBlockBegin
  2
*D3
 70
     1
 10
0.0
 20
0.0
 30
0.0
  3
*D3
  1

  0
LINE
  5
FD41B
330
FC765
100
AcDbEntity
  8
AM_5
440
 16777216
100
AcDbLine
 10
102.2294204245473
 20
92.18080093753849
 30
0.0
 11
123.9814921824126
 21
135.1098832453414
 31
0.0
  0
LINE
  5
FD41C
330
FC765
100
AcDbEntity
  8
AM_5
440
 16777216
100
AcDbLine
 10
127.8233807900142
 20
142.6920921534886
 30
0.0
 11
128.9533480275441
 21
144.9221535970612
 31
0.0
  0
MTEXT
  5
FD41D
102
{ACAD_XDICTIONARY
360
FD9AC
102
}
330
FC765
100
AcDbEntity
  8
AM_5
 62
     2
440
 16777216
100
AcDbMText
 10
104.7607788799611
 20
104.3678322552393
 30
0.0
 40
3.5
 41
0.0
 71
     5
 72
     1
  1
2-\U+22053.5釘孔
 11
0.4519868950119418
 21
0.8920245774290437
 31
0.0
 73
     1
 44
1.0
  0
LINE
  5
FD41E
330
FC765
100
AcDbEntity
  8
AM_5
440
 16777216
100
AcDbLine
 10
126.6934135524844
 20
140.462030709916
 30
0.0
 11
125.1114594199424
 21
137.3399446889141
 31
0.0
  0
SOLID
  5
FD41F
330
FC765
100
AcDbEntity
  8
AM_5
440
 16777216
100
AcDbTrace
 10
127.4517038827521
 20
142.8804200264103
 30
0.0
 11
128.1950576972763
 21
142.503764280567
 31
0.0
 12
126.6934135524844
 22
140.462030709916
 32
0.0
 13
126.6934135524844
 23
140.462030709916
 33
0.0
  0
SOLID
  5
FD420
330
FC765
100
AcDbEntity
  8
AM_5
440
 16777216
100
AcDbTrace
 10
123.6098152751505
 20
135.2982111182632
 30
0.0
 11
124.3531690896747
 21
134.9215553724199
 31
0.0
 12
125.1114594199424
 22
137.3399446889141
 32
0.0
 13
125.1114594199424
 23
137.3399446889141
 33
0.0
  0
POINT
  5
FD421
330
FC765
100
AcDbEntity
  8
Defpoints
 62
     0
440
 16777216
100
AcDbPoint
 10
125.1114594199424
 20
137.3399446889141
 30
0.0
  0
POINT
  5
FD422
330
FC765
100
AcDbEntity
  8
Defpoints
 62
     0
440
 16777216
100
AcDbPoint
 10
126.6934135524844
 20
140.462030709916
 30
0.0
  0
ENDBLK
  5
FC770
330
FC765
100
AcDbEntity
  8
0
100
AcDbBlockEnd
  0
BLOCK
  5
FC7CB
330
FC7C1
100
AcDbEntity
  8
0
100
AcDbBlockBegin
  2
*D4
 70
     1
 10
0.0
 20
0.0
 30
0.0
  3
*D4
  1

  0
LINE
  5
FD423
330
FC7C1
100
AcDbEntity
  8
AM_5
440
 16777216
100
AcDbLine
 10
140.9024364862135
 20
204.9009876994151
 30
0.0
 11
140.9024364862135
 21
222.0808022950895
 31
0.0
  0
LINE
  5
FD424
330
FC7C1
100
AcDbEntity
  8
AM_5
440
 16777216
100
AcDbLine
 10
100.9024364862135
 20
204.9009876994151
 30
0.0
 11
100.9024364862135
 21
222.0808022950895
 31
0.0
  0
LINE
  5
FD425
330
FC7C1
100
AcDbEntity
  8
AM_5
440
 16777216
100
AcDbLine
 10
138.4024364862135
 20
221.0808022950895
 30
0.0
 11
103.4024364862135
 21
221.0808022950895
 31
0.0
  0
SOLID
  5
FD426
330
FC7C1
100
AcDbEntity
  8
AM_5
440
 16777216
100
AcDbTrace
 10
138.4024364862135
 20
221.4974689617562
 30
0.0
 11
138.4024364862135
 21
220.6641356284229
 31
0.0
 12
140.9024364862135
 22
221.0808022950895
 32
0.0
 13
140.9024364862135
 23
221.0808022950895
 33
0.0
  0
SOLID
  5
FD427
330
FC7C1
100
AcDbEntity
  8
AM_5
440
 16777216
100
AcDbTrace
 10
103.4024364862135
 20
221.4974689617562
 30
0.0
 11
103.4024364862135
 21
220.6641356284229
 31
0.0
 12
100.9024364862135
 22
221.0808022950895
 32
0.0
 13
100.9024364862135
 23
221.0808022950895
 33
0.0
  0
MTEXT
  5
FD428
330
FC7C1
100
AcDbEntity
  8
AM_5
 62
     2
440
 16777216
100
AcDbMText
 10
120.9024364862135
 20
224.3308022950895
 30
0.0
 40
3.5
 41
0.0
 71
     5
 72
     1
  1
40
 73
     1
 44
1.0
  0
POINT
  5
FD429
330
FC7C1
100
AcDbEntity
  8
Defpoints
 62
     0
440
 16777216
100
AcDbPoint
 10
140.9024364862135
 20
203.9009876994151
 30
0.0
  0
POINT
  5
FD42A
330
FC7C1
100
AcDbEntity
  8
Defpoints
 62
     0
440
 16777216
100
AcDbPoint
 10
100.9024364862135
 20
203.9009876994151
 30
0.0
  0
POINT
  5
FD42B
330
FC7C1
100
AcDbEntity
  8
Defpoints
 62
     0
440
 16777216
100
AcDbPoint
 10
100.9024364862135
 20
221.0808022950895
 30
0.0
  0
ENDBLK
  5
FC7CC
330
FC7C1
100
AcDbEntity
  8
0
100
AcDbBlockEnd
  0
BLOCK
  5
FC7FD
330
FC7F1
100
AcDbEntity
  8
0
100
AcDbBlockBegin
  2
*D5
 70
     1
 10
0.0
 20
0.0
 30
0.0
  3
*D5
  1

  0
LINE
  5
FD42C
330
FC7F1
100
AcDbEntity
  8
AM_5
440
 16777216
100
AcDbLine
 10
100.9024364862135
 20
204.9009876994151
 30
0.0
 11
100.9024364862135
 21
222.0808022950895
 31
0.0
  0
LINE
  5
FD42D
330
FC7F1
100
AcDbEntity
  8
AM_5
440
 16777216
100
AcDbLine
 10
99.30243648621349
 20
204.9009876994151
 30
0.0
 11
99.30243648621349
 21
222.0808022950895
 31
0.0
  0
LINE
  5
FD42E
330
FC7F1
100
AcDbEntity
  8
AM_5
440
 16777216
100
AcDbLine
 10
103.4024364862135
 20
221.0808022950895
 30
0.0
 11
105.9024364862135
 21
221.0808022950895
 31
0.0
  0
LINE
  5
FD42F
330
FC7F1
100
AcDbEntity
  8
AM_5
440
 16777216
100
AcDbLine
 10
96.80243648621349
 20
221.0808022950895
 30
0.0
 11
82.37881443896936
 21
221.0808022950895
 31
0.0
  0
LINE
  5
FD430
330
FC7F1
100
AcDbEntity
  8
AM_5
440
 16777216
100
AcDbLine
 10
100.9024364862135
 20
221.0808022950895
 30
0.0
 11
99.30243648621349
 21
221.0808022950895
 31
0.0
  0
SOLID
  5
FD431
330
FC7F1
100
AcDbEntity
  8
AM_5
440
 16777216
100
AcDbTrace
 10
103.4024364862135
 20
221.4974689617562
 30
0.0
 11
103.4024364862135
 21
220.6641356284229
 31
0.0
 12
100.9024364862135
 22
221.0808022950895
 32
0.0
 13
100.9024364862135
 23
221.0808022950895
 33
0.0
  0
SOLID
  5
FD432
330
FC7F1
100
AcDbEntity
  8
AM_5
440
 16777216
100
AcDbTrace
 10
96.80243648621349
 20
221.4974689617562
 30
0.0
 11
96.80243648621349
 21
220.6641356284229
 31
0.0
 12
99.30243648621349
 22
221.0808022950895
 32
0.0
 13
99.30243648621349
 23
221.0808022950895
 33
0.0
  0
MTEXT
  5
FD433
330
FC7F1
100
AcDbEntity
  8
AM_5
 62
     2
440
 16777216
100
AcDbMText
 10
88.34062546259143
 20
224.3308022950895
 30
0.0
 40
3.5
 41
0.0
 71
     5
 72
     1
  1
t=1.6
 73
     1
 44
1.0
  0
POINT
  5
FD434
330
FC7F1
100
AcDbEntity
  8
Defpoints
 62
     0
440
 16777216
100
AcDbPoint
 10
100.9024364862135
 20
203.9009876994151
 30
0.0
  0
POINT
  5
FD435
330
FC7F1
100
AcDbEntity
  8
Defpoints
 62
     0
440
 16777216
100
AcDbPoint
 10
99.30243648621349
 20
203.9009876994151
 30
0.0
  0
POINT
  5
FD436
330
FC7F1
100
AcDbEntity
  8
Defpoints
 62
     0
440
 16777216
100
AcDbPoint
 10
99.30243648621349
 20
221.0808022950895
 30
0.0
  0
ENDBLK
  5
FC7FE
330
FC7F1
100
AcDbEntity
  8
0
100
AcDbBlockEnd
  0
BLOCK
  5
FC809
330
FC7FF
100
AcDbEntity
  8
0
100
AcDbBlockBegin
  2
*D6
 70
     1
 10
0.0
 20
0.0
 30
0.0
  3
*D6
  1

  0
LINE
  5
FD7C1
330
FC7FF
100
AcDbEntity
  8
AM_5
440
 16777216
100
AcDbLine
 10
157.480330740837
 20
227.6850940251772
 30
0.0
 11
192.3345836900491
 21
191.9437155646233
 31
0.0
  0
LINE
  5
FD7C2
330
FC7FF
100
AcDbEntity
  8
AM_5
440
 16777216
100
AcDbLine
 10
198.2689942381274
 20
185.8582598342069
 30
0.0
 11
200.0144091052093
 21
184.0684199134961
 31
0.0
  0
MTEXT
  5
FD7C3
102
{ACAD_XDICTIONARY
360
FD9B0
102
}
330
FC7FF
100
AcDbEntity
  8
AM_5
 62
     2
440
 16777216
100
AcDbMText
 10
168.1647508263044
 20
221.3837831987139
 30
0.0
 40
3.5
 41
0.0
 71
     5
 72
     1
  1
3-\U+22053.5釘孔
 11
0.6981659468327312
 21
-0.7159359682842846
 31
0.0
 73
     1
 44
1.0
  0
LINE
  5
FD7C4
330
FC7FF
100
AcDbEntity
  8
AM_5
440
 16777216
100
AcDbLine
 10
196.5235793710456
 20
187.6480997549176
 30
0.0
 11
194.079998557131
 21
190.1538756439126
 31
0.0
  0
SOLID
  5
FD7C5
330
FC7FF
100
AcDbEntity
  8
AM_5
440
 16777216
100
AcDbTrace
 10
198.5673008915792
 20
186.1491623120538
 30
0.0
 11
197.9706875846756
 21
185.5673573563598
 31
0.0
 12
196.5235793710456
 22
187.6480997549176
 32
0.0
 13
196.5235793710456
 23
187.6480997549176
 33
0.0
  0
SOLID
  5
FD7C6
330
FC7FF
100
AcDbEntity
  8
AM_5
440
 16777216
100
AcDbTrace
 10
192.632890343501
 20
192.2346180424703
 30
0.0
 11
192.0362770365974
 21
191.6528130867763
 31
0.0
 12
194.079998557131
 22
190.1538756439126
 32
0.0
 13
194.079998557131
 23
190.1538756439126
 33
0.0
  0
POINT
  5
FD7C7
330
FC7FF
100
AcDbEntity
  8
Defpoints
 62
     0
440
 16777216
100
AcDbPoint
 10
194.079998557131
 20
190.1538756439126
 30
0.0
  0
POINT
  5
FD7C8
330
FC7FF
100
AcDbEntity
  8
Defpoints
 62
     0
440
 16777216
100
AcDbPoint
 10
196.5235793710456
 20
187.6480997549176
 30
0.0
  0
ENDBLK
  5
FC80A
330
FC7FF
100
AcDbEntity
  8
0
100
AcDbBlockEnd
  0
BLOCK
  5
FC815
330
FC80B
100
AcDbEntity
  8
0
100
AcDbBlockBegin
  2
*D7
 70
     1
 10
0.0
 20
0.0
 30
0.0
  3
*D7
  1

  0
LINE
  5
FD407
330
FC80B
100
AcDbEntity
  8
AM_5
440
 16777216
100
AcDbLine
 10
215.3017889640883
 20
204.9009876994151
 30
0.0
 11
215.3017889640883
 21
222.0808022950895
 31
0.0
  0
LINE
  5
FD408
330
FC80B
100
AcDbEntity
  8
AM_5
440
 16777216
100
AcDbLine
 10
180.3017889640883
 20
204.9009876994151
 30
0.0
 11
180.3017889640883
 21
222.0808022950895
 31
0.0
  0
LINE
  5
FD409
330
FC80B
100
AcDbEntity
  8
AM_5
440
 16777216
100
AcDbLine
 10
212.8017889640883
 20
221.0808022950895
 30
0.0
 11
182.8017889640883
 21
221.0808022950895
 31
0.0
  0
SOLID
  5
FD40A
330
FC80B
100
AcDbEntity
  8
AM_5
440
 16777216
100
AcDbTrace
 10
212.8017889640883
 20
221.4974689617562
 30
0.0
 11
212.8017889640883
 21
220.6641356284229
 31
0.0
 12
215.3017889640883
 22
221.0808022950895
 32
0.0
 13
215.3017889640883
 23
221.0808022950895
 33
0.0
  0
SOLID
  5
FD40B
330
FC80B
100
AcDbEntity
  8
AM_5
440
 16777216
100
AcDbTrace
 10
182.8017889640883
 20
221.4974689617562
 30
0.0
 11
182.8017889640883
 21
220.6641356284229
 31
0.0
 12
180.3017889640883
 22
221.0808022950895
 32
0.0
 13
180.3017889640883
 23
221.0808022950895
 33
0.0
  0
MTEXT
  5
FD40C
330
FC80B
100
AcDbEntity
  8
AM_5
 62
     2
440
 16777216
100
AcDbMText
 10
197.8017889640883
 20
224.3308022950895
 30
0.0
 40
3.5
 41
0.0
 71
     5
 72
     1
  1
35
 73
     1
 44
1.0
  0
POINT
  5
FD40D
330
FC80B
100
AcDbEntity
  8
Defpoints
 62
     0
440
 16777216
100
AcDbPoint
 10
215.3017889640883
 20
203.9009876994151
 30
0.0
  0
POINT
  5
FD40E
330
FC80B
100
AcDbEntity
  8
Defpoints
 62
     0
440
 16777216
100
AcDbPoint
 10
180.3017889640883
 20
203.9009876994151
 30
0.0
  0
POINT
  5
FD40F
330
FC80B
100
AcDbEntity
  8
Defpoints
 62
     0
440
 16777216
100
AcDbPoint
 10
180.3017889640883
 20
221.0808022950895
 30
0.0
  0
ENDBLK
  5
FC816
330
FC80B
100
AcDbEntity
  8
0
100
AcDbBlockEnd
  0
BLOCK
  5
FC85F
330
FC853
100
AcDbEntity
  8
0
100
AcDbBlockBegin
  2
*D8
 70
     1
 10
0.0
 20
0.0
 30
0.0
  3
*D8
  1

  0
LINE
  5
FD410
330
FC853
100
AcDbEntity
  8
AM_5
440
 16777216
100
AcDbLine
 10
215.3017889640883
 20
204.9009876994151
 30
0.0
 11
215.3017889640883
 21
222.0808022950895
 31
0.0
  0
LINE
  5
FD411
330
FC853
100
AcDbEntity
  8
AM_5
440
 16777216
100
AcDbLine
 10
216.9017889640883
 20
204.9009876994151
 30
0.0
 11
216.9017889640883
 21
222.0808022950895
 31
0.0
  0
LINE
  5
FD412
330
FC853
100
AcDbEntity
  8
AM_5
440
 16777216
100
AcDbLine
 10
212.8017889640883
 20
221.0808022950895
 30
0.0
 11
210.3017889640883
 21
221.0808022950895
 31
0.0
  0
LINE
  5
FD413
330
FC853
100
AcDbEntity
  8
AM_5
440
 16777216
100
AcDbLine
 10
219.4017889640883
 20
221.0808022950895
 30
0.0
 11
221.9017889640883
 21
221.0808022950895
 31
0.0
  0
LINE
  5
FD414
330
FC853
100
AcDbEntity
  8
AM_5
440
 16777216
100
AcDbLine
 10
215.3017889640883
 20
221.0808022950895
 30
0.0
 11
216.9017889640883
 21
221.0808022950895
 31
0.0
  0
SOLID
  5
FD415
330
FC853
100
AcDbEntity
  8
AM_5
440
 16777216
100
AcDbTrace
 10
212.8017889640883
 20
221.4974689617562
 30
0.0
 11
212.8017889640883
 21
220.6641356284229
 31
0.0
 12
215.3017889640883
 22
221.0808022950895
 32
0.0
 13
215.3017889640883
 23
221.0808022950895
 33
0.0
  0
SOLID
  5
FD416
330
FC853
100
AcDbEntity
  8
AM_5
440
 16777216
100
AcDbTrace
 10
219.4017889640883
 20
221.4974689617562
 30
0.0
 11
219.4017889640883
 21
220.6641356284229
 31
0.0
 12
216.9017889640883
 22
221.0808022950895
 32
0.0
 13
216.9017889640883
 23
221.0808022950895
 33
0.0
  0
MTEXT
  5
FD417
330
FC853
100
AcDbEntity
  8
AM_5
 62
     2
440
 16777216
100
AcDbMText
 10
216.1017889640883
 20
224.3308022950895
 30
0.0
 40
3.5
 41
0.0
 71
     5
 72
     1
  1
t=1.6
 73
     1
 44
1.0
  0
POINT
  5
FD418
330
FC853
100
AcDbEntity
  8
Defpoints
 62
     0
440
 16777216
100
AcDbPoint
 10
215.3017889640883
 20
203.9009876994151
 30
0.0
  0
POINT
  5
FD419
330
FC853
100
AcDbEntity
  8
Defpoints
 62
     0
440
 16777216
100
AcDbPoint
 10
216.9017889640883
 20
203.9009876994151
 30
0.0
  0
POINT
  5
FD41A
330
FC853
100
AcDbEntity
  8
Defpoints
 62
     0
440
 16777216
100
AcDbPoint
 10
216.9017889640883
 20
221.0808022950895
 30
0.0
  0
ENDBLK
  5
FC860
330
FC853
100
AcDbEntity
  8
0
100
AcDbBlockEnd
  0
BLOCK
  5
FC89B
330
FC891
100
AcDbEntity
  8
0
100
AcDbBlockBegin
  2
*D9
 70
     1
 10
0.0
 20
0.0
 30
0.0
  3
*D9
  1

  0
LINE
  5
FD43F
330
FC891
100
AcDbEntity
  8
AM_5
440
 16777216
100
AcDbLine
 10
399.639669385222
 20
122.4439853922389
 30
0.0
 11
387.6482108997132
 21
146.1098832453416
 31
0.0
  0
LINE
  5
FD440
330
FC891
100
AcDbEntity
  8
AM_5
440
 16777216
100
AcDbLine
 10
383.8063222921115
 20
153.6920921534886
 30
0.0
 11
382.6763550545816
 21
155.9221535970612
 31
0.0
  0
MTEXT
  5
FD441
102
{ACAD_XDICTIONARY
360
FD9AE
102
}
330
FC891
100
AcDbEntity
  8
AM_5
 62
     2
440
 16777216
100
AcDbMText
 10
397.1083109298081
 20
134.6310167099397
 30
0.0
 40
3.5
 41
0.0
 71
     5
 72
     1
  1
2-\U+22053.5釘孔
 11
0.4519868950119517
 21
-0.8920245774290387
 31
0.0
 73
     1
 44
1.0
  0
LINE
  5
FD442
330
FC891
100
AcDbEntity
  8
AM_5
440
 16777216
100
AcDbLine
 10
384.9362895296413
 20
151.462030709916
 30
0.0
 11
386.5182436621833
 21
148.3399446889142
 31
0.0
  0
SOLID
  5
FD443
330
FC891
100
AcDbEntity
  8
AM_5
440
 16777216
100
AcDbTrace
 10
384.1779991993736
 20
153.8804200264102
 30
0.0
 11
383.4346453848493
 21
153.5037642805669
 31
0.0
 12
384.9362895296413
 22
151.462030709916
 32
0.0
 13
384.9362895296413
 23
151.462030709916
 33
0.0
  0
SOLID
  5
FD444
330
FC891
100
AcDbEntity
  8
AM_5
440
 16777216
100
AcDbTrace
 10
388.0198878069752
 20
146.2982111182633
 30
0.0
 11
387.276533992451
 21
145.9215553724199
 31
0.0
 12
386.5182436621833
 22
148.3399446889142
 32
0.0
 13
386.5182436621833
 23
148.3399446889142
 33
0.0
  0
POINT
  5
FD445
330
FC891
100
AcDbEntity
  8
Defpoints
 62
     0
440
 16777216
100
AcDbPoint
 10
386.5182436621833
 20
148.3399446889142
 30
0.0
  0
POINT
  5
FD446
330
FC891
100
AcDbEntity
  8
Defpoints
 62
     0
440
 16777216
100
AcDbPoint
 10
384.9362895296413
 20
151.462030709916
 30
0.0
  0
ENDBLK
  5
FC89C
330
FC891
100
AcDbEntity
  8
0
100
AcDbBlockEnd
  0
BLOCK
  5
FC8A7
330
FC89D
100
AcDbEntity
  8
0
100
AcDbBlockBegin
  2
*D10
 70
     1
 10
0.0
 20
0.0
 30
0.0
  3
*D10
  1

  0
LINE
  5
FD447
330
FC89D
100
AcDbEntity
  8
AM_5
440
 16777216
100
AcDbLine
 10
316.5017889640883
 20
203.9009876994151
 30
0.0
 11
350.7009462276123
 21
203.9009876994151
 31
0.0
  0
LINE
  5
FD448
330
FC89D
100
AcDbEntity
  8
AM_5
440
 16777216
100
AcDbLine
 10
278.9017889640883
 20
118.9009876994151
 30
0.0
 11
350.7009462276122
 21
118.9009876994151
 31
0.0
  0
LINE
  5
FD449
330
FC89D
100
AcDbEntity
  8
AM_5
440
 16777216
100
AcDbLine
 10
349.7009462276123
 20
201.4009876994151
 30
0.0
 11
349.7009462276122
 21
121.4009876994151
 31
0.0
  0
SOLID
  5
FD44A
330
FC89D
100
AcDbEntity
  8
AM_5
440
 16777216
100
AcDbTrace
 10
349.2842795609456
 20
201.4009876994151
 30
0.0
 11
350.117612894279
 21
201.4009876994151
 31
0.0
 12
349.7009462276123
 22
203.9009876994151
 32
0.0
 13
349.7009462276123
 23
203.9009876994151
 33
0.0
  0
SOLID
  5
FD44B
330
FC89D
100
AcDbEntity
  8
AM_5
440
 16777216
100
AcDbTrace
 10
349.2842795609456
 20
121.4009876994151
 30
0.0
 11
350.1176128942788
 21
121.4009876994151
 31
0.0
 12
349.7009462276122
 22
118.9009876994151
 32
0.0
 13
349.7009462276122
 23
118.9009876994151
 33
0.0
  0
MTEXT
  5
FD44C
330
FC89D
100
AcDbEntity
  8
AM_5
 62
     2
440
 16777216
100
AcDbMText
 10
346.4509462276122
 20
161.4009876994151
 30
0.0
 40
3.5
 41
0.0
 71
     5
 72
     1
  1
85
 11
0.0000000000000001
 21
1.0
 31
0.0
 73
     1
 44
1.0
  0
POINT
  5
FD44D
330
FC89D
100
AcDbEntity
  8
Defpoints
 62
     0
440
 16777216
100
AcDbPoint
 10
315.5017889640884
 20
203.9009876994151
 30
0.0
  0
POINT
  5
FD44E
330
FC89D
100
AcDbEntity
  8
Defpoints
 62
     0
440
 16777216
100
AcDbPoint
 10
277.9017889640883
 20
118.9009876994151
 30
0.0
  0
POINT
  5
FD44F
330
FC89D
100
AcDbEntity
  8
Defpoints
 62
     0
440
 16777216
100
AcDbPoint
 10
349.7009462276122
 20
118.9009876994151
 30
0.0
  0
ENDBLK
  5
FC8A8
330
FC89D
100
AcDbEntity
  8
0
100
AcDbBlockEnd
  0
BLOCK
  5
FC8D7
330
FC8CD
100
AcDbEntity
  8
0
100
AcDbBlockBegin
  2
*D11
 70
     1
 10
0.0
 20
0.0
 30
0.0
  3
*D11
  1

  0
LINE
  5
FD459
330
FC8CD
100
AcDbEntity
  8
AM_5
440
 16777216
100
AcDbLine
 10
281.5017889640882
 20
84.12344268462033
 30
0.0
 11
340.0193477541064
 21
84.12344268462032
 31
0.0
  0
LINE
  5
FD45A
330
FC8CD
100
AcDbEntity
  8
AM_5
440
 16777216
100
AcDbLine
 10
316.5017889640882
 20
44.12344268462033
 30
0.0
 11
340.0193477541064
 21
44.12344268462032
 31
0.0
  0
LINE
  5
FD45B
330
FC8CD
100
AcDbEntity
  8
AM_5
440
 16777216
100
AcDbLine
 10
339.0193477541064
 20
81.62344268462032
 30
0.0
 11
339.0193477541064
 21
46.62344268462032
 31
0.0
  0
SOLID
  5
FD45C
330
FC8CD
100
AcDbEntity
  8
AM_5
440
 16777216
100
AcDbTrace
 10
338.6026810874397
 20
81.62344268462032
 30
0.0
 11
339.4360144207731
 21
81.62344268462032
 31
0.0
 12
339.0193477541064
 22
84.12344268462032
 32
0.0
 13
339.0193477541064
 23
84.12344268462032
 33
0.0
  0
SOLID
  5
FD45D
330
FC8CD
100
AcDbEntity
  8
AM_5
440
 16777216
100
AcDbTrace
 10
338.6026810874397
 20
46.62344268462032
 30
0.0
 11
339.4360144207731
 21
46.62344268462032
 31
0.0
 12
339.0193477541064
 22
44.12344268462032
 32
0.0
 13
339.0193477541064
 23
44.12344268462032
 33
0.0
  0
MTEXT
  5
FD45E
330
FC8CD
100
AcDbEntity
  8
AM_5
 62
     2
440
 16777216
100
AcDbMText
 10
335.7693477541064
 20
64.12344268462037
 30
0.0
 40
3.5
 41
0.0
 71
     5
 72
     1
  1
40
 11
0.0000000000000001
 21
1.0
 31
0.0
 73
     1
 44
1.0
  0
POINT
  5
FD45F
330
FC8CD
100
AcDbEntity
  8
Defpoints
 62
     0
440
 16777216
100
AcDbPoint
 10
280.5017889640883
 20
84.12344268462033
 30
0.0
  0
POINT
  5
FD460
330
FC8CD
100
AcDbEntity
  8
Defpoints
 62
     0
440
 16777216
100
AcDbPoint
 10
315.5017889640882
 20
44.12344268462033
 30
0.0
  0
POINT
  5
FD461
330
FC8CD
100
AcDbEntity
  8
Defpoints
 62
     0
440
 16777216
100
AcDbPoint
 10
339.0193477541064
 20
44.12344268462032
 30
0.0
  0
ENDBLK
  5
FC8D8
330
FC8CD
100
AcDbEntity
  8
0
100
AcDbBlockEnd
  0
BLOCK
  5
FC8E1
330
FC8D9
100
AcDbEntity
  8
0
100
AcDbBlockBegin
  2
*D12
 70
     1
 10
0.0
 20
0.0
 30
0.0
  3
*D12
  1

  0
LINE
  5
FD46A
330
FC8D9
100
AcDbEntity
  8
AM_5
440
 16777216
100
AcDbLine
 10
316.5017889640883
 20
123.9009876994151
 30
0.0
 11
334.8448546829246
 21
123.9009876994151
 31
0.0
  0
LINE
  5
FD46B
330
FC8D9
100
AcDbEntity
  8
AM_5
440
 16777216
100
AcDbLine
 10
316.5017889640883
 20
118.9009876994151
 30
0.0
 11
334.8448546829246
 21
118.9009876994151
 31
0.0
  0
LINE
  5
FD46C
330
FC8D9
100
AcDbEntity
  8
AM_5
440
 16777216
100
AcDbLine
 10
333.8448546829246
 20
126.4009876994151
 30
0.0
 11
333.8448546829247
 21
128.9009876994151
 31
0.0
  0
LINE
  5
FD46D
330
FC8D9
100
AcDbEntity
  8
AM_5
440
 16777216
100
AcDbLine
 10
333.8448546829246
 20
116.4009876994151
 30
0.0
 11
333.8448546829246
 21
113.9009876994151
 31
0.0
  0
LINE
  5
FD46E
330
FC8D9
100
AcDbEntity
  8
AM_5
440
 16777216
100
AcDbLine
 10
333.8448546829246
 20
123.9009876994151
 30
0.0
 11
333.8448546829246
 21
118.9009876994151
 31
0.0
  0
SOLID
  5
FD46F
330
FC8D9
100
AcDbEntity
  8
AM_5
440
 16777216
100
AcDbTrace
 10
333.4281880162579
 20
126.4009876994151
 30
0.0
 11
334.2615213495913
 21
126.4009876994151
 31
0.0
 12
333.8448546829246
 22
123.9009876994151
 32
0.0
 13
333.8448546829246
 23
123.9009876994151
 33
0.0
  0
SOLID
  5
FD470
330
FC8D9
100
AcDbEntity
  8
AM_5
440
 16777216
100
AcDbTrace
 10
333.4281880162579
 20
116.4009876994151
 30
0.0
 11
334.2615213495913
 21
116.4009876994151
 31
0.0
 12
333.8448546829246
 22
118.9009876994151
 32
0.0
 13
333.8448546829246
 23
118.9009876994151
 33
0.0
  0
MTEXT
  5
FD471
330
FC8D9
100
AcDbEntity
  8
AM_5
 62
     2
440
 16777216
100
AcDbMText
 10
330.5948546829246
 20
121.4009876994151
 30
0.0
 40
3.5
 41
0.0
 71
     5
 72
     1
  1
5
 11
0.0000000000000001
 21
1.0
 31
0.0
 73
     1
 44
1.0
  0
POINT
  5
FD472
330
FC8D9
100
AcDbEntity
  8
Defpoints
 62
     0
440
 16777216
100
AcDbPoint
 10
315.5017889640884
 20
123.9009876994151
 30
0.0
  0
POINT
  5
FD473
330
FC8D9
100
AcDbEntity
  8
Defpoints
 62
     0
440
 16777216
100
AcDbPoint
 10
315.5017889640884
 20
118.9009876994151
 30
0.0
  0
POINT
  5
FD474
330
FC8D9
100
AcDbEntity
  8
Defpoints
 62
     0
440
 16777216
100
AcDbPoint
 10
333.8448546829246
 20
118.9009876994151
 30
0.0
  0
ENDBLK
  5
FC8E2
330
FC8D9
100
AcDbEntity
  8
0
100
AcDbBlockEnd
  0
BLOCK
  5
FC8ED
330
FC8E3
100
AcDbEntity
  8
0
100
AcDbBlockBegin
  2
*D13
 70
     1
 10
0.0
 20
0.0
 30
0.0
  3
*D13
  1

  0
LINE
  5
FD450
330
FC8E3
100
AcDbEntity
  8
AM_5
440
 16777216
100
AcDbLine
 10
281.5017889640882
 20
84.12344268462033
 30
0.0
 11
331.7039653081956
 21
84.12344268462032
 31
0.0
  0
LINE
  5
FD451
330
FC8E3
100
AcDbEntity
  8
AM_5
440
 16777216
100
AcDbLine
 10
281.5017889640884
 20
54.12344268462033
 30
0.0
 11
331.7039653081956
 21
54.12344268462033
 31
0.0
  0
LINE
  5
FD452
330
FC8E3
100
AcDbEntity
  8
AM_5
440
 16777216
100
AcDbLine
 10
330.7039653081956
 20
81.62344268462032
 30
0.0
 11
330.7039653081956
 21
56.62344268462033
 31
0.0
  0
SOLID
  5
FD453
330
FC8E3
100
AcDbEntity
  8
AM_5
440
 16777216
100
AcDbTrace
 10
330.2872986415289
 20
81.62344268462032
 30
0.0
 11
331.1206319748623
 21
81.62344268462032
 31
0.0
 12
330.7039653081956
 22
84.12344268462032
 32
0.0
 13
330.7039653081956
 23
84.12344268462032
 33
0.0
  0
SOLID
  5
FD454
330
FC8E3
100
AcDbEntity
  8
AM_5
440
 16777216
100
AcDbTrace
 10
330.2872986415289
 20
56.62344268462033
 30
0.0
 11
331.1206319748623
 21
56.62344268462033
 31
0.0
 12
330.7039653081956
 22
54.12344268462033
 32
0.0
 13
330.7039653081956
 23
54.12344268462033
 33
0.0
  0
MTEXT
  5
FD455
330
FC8E3
100
AcDbEntity
  8
AM_5
 62
     2
440
 16777216
100
AcDbMText
 10
327.4539653081955
 20
69.12344268462037
 30
0.0
 40
3.5
 41
0.0
 71
     5
 72
     1
  1
30
 11
0.0000000000000001
 21
1.0
 31
0.0
 73
     1
 44
1.0
  0
POINT
  5
FD456
330
FC8E3
100
AcDbEntity
  8
Defpoints
 62
     0
440
 16777216
100
AcDbPoint
 10
280.5017889640883
 20
84.12344268462033
 30
0.0
  0
POINT
  5
FD457
330
FC8E3
100
AcDbEntity
  8
Defpoints
 62
     0
440
 16777216
100
AcDbPoint
 10
280.5017889640883
 20
54.12344268462033
 30
0.0
  0
POINT
  5
FD458
330
FC8E3
100
AcDbEntity
  8
Defpoints
 62
     0
440
 16777216
100
AcDbPoint
 10
330.7039653081956
 20
54.12344268462033
 30
0.0
  0
ENDBLK
  5
FC8EE
330
FC8E3
100
AcDbEntity
  8
0
100
AcDbBlockEnd
  0
BLOCK
  5
FC913
330
FC909
100
AcDbEntity
  8
0
100
AcDbBlockBegin
  2
*D14
 70
     1
 10
0.0
 20
0.0
 30
0.0
  3
*D14
  1

  0
LINE
  5
FD4A8
330
FC909
100
AcDbEntity
  8
AM_5
440
 16777216
100
AcDbLine
 10
370.7272665959121
 20
204.9009876994151
 30
0.0
 11
370.7272665959121
 21
222.0808022950895
 31
0.0
  0
LINE
  5
FD4A9
330
FC909
100
AcDbEntity
  8
AM_5
440
 16777216
100
AcDbLine
 10
410.7272665959119
 20
204.9009876994151
 30
0.0
 11
410.7272665959119
 21
222.0808022950895
 31
0.0
  0
LINE
  5
FD4AA
330
FC909
100
AcDbEntity
  8
AM_5
440
 16777216
100
AcDbLine
 10
373.2272665959121
 20
221.0808022950895
 30
0.0
 11
408.2272665959121
 21
221.0808022950895
 31
0.0
  0
SOLID
  5
FD4AB
330
FC909
100
AcDbEntity
  8
AM_5
440
 16777216
100
AcDbTrace
 10
373.2272665959121
 20
221.4974689617562
 30
0.0
 11
373.2272665959121
 21
220.6641356284229
 31
0.0
 12
370.7272665959121
 22
221.0808022950895
 32
0.0
 13
370.7272665959121
 23
221.0808022950895
 33
0.0
  0
SOLID
  5
FD4AC
330
FC909
100
AcDbEntity
  8
AM_5
440
 16777216
100
AcDbTrace
 10
408.2272665959121
 20
221.4974689617562
 30
0.0
 11
408.2272665959121
 21
220.6641356284229
 31
0.0
 12
410.7272665959119
 22
221.0808022950895
 32
0.0
 13
410.7272665959119
 23
221.0808022950895
 33
0.0
  0
MTEXT
  5
FD4AD
330
FC909
100
AcDbEntity
  8
AM_5
 62
     2
440
 16777216
100
AcDbMText
 10
390.7272665959121
 20
224.3308022950895
 30
0.0
 40
3.5
 41
0.0
 71
     5
 72
     1
  1
40
 73
     1
 44
1.0
  0
POINT
  5
FD4AE
330
FC909
100
AcDbEntity
  8
Defpoints
 62
     0
440
 16777216
100
AcDbPoint
 10
370.7272665959121
 20
203.9009876994151
 30
0.0
  0
POINT
  5
FD4AF
330
FC909
100
AcDbEntity
  8
Defpoints
 62
     0
440
 16777216
100
AcDbPoint
 10
410.7272665959119
 20
203.9009876994151
 30
0.0
  0
POINT
  5
FD4B0
330
FC909
100
AcDbEntity
  8
Defpoints
 62
     0
440
 16777216
100
AcDbPoint
 10
410.7272665959119
 20
221.0808022950895
 30
0.0
  0
ENDBLK
  5
FC914
330
FC909
100
AcDbEntity
  8
0
100
AcDbBlockEnd
  0
BLOCK
  5
FC94F
330
FC945
100
AcDbEntity
  8
0
100
AcDbBlockBegin
  2
*D15
 70
     1
 10
0.0
 20
0.0
 30
0.0
  3
*D15
  1

  0
LINE
  5
FD494
330
FC945
100
AcDbEntity
  8
AM_5
440
 16777216
100
AcDbLine
 10
280.5017889640883
 20
204.9009876994151
 30
0.0
 11
280.5017889640883
 21
222.0808022950895
 31
0.0
  0
LINE
  5
FD495
330
FC945
100
AcDbEntity
  8
AM_5
440
 16777216
100
AcDbLine
 10
315.5017889640884
 20
204.9009876994151
 30
0.0
 11
315.5017889640884
 21
222.0808022950895
 31
0.0
  0
LINE
  5
FD496
330
FC945
100
AcDbEntity
  8
AM_5
440
 16777216
100
AcDbLine
 10
283.0017889640883
 20
221.0808022950895
 30
0.0
 11
313.0017889640884
 21
221.0808022950895
 31
0.0
  0
SOLID
  5
FD497
330
FC945
100
AcDbEntity
  8
AM_5
440
 16777216
100
AcDbTrace
 10
283.0017889640883
 20
221.4974689617562
 30
0.0
 11
283.0017889640883
 21
220.6641356284229
 31
0.0
 12
280.5017889640883
 22
221.0808022950895
 32
0.0
 13
280.5017889640883
 23
221.0808022950895
 33
0.0
  0
SOLID
  5
FD498
330
FC945
100
AcDbEntity
  8
AM_5
440
 16777216
100
AcDbTrace
 10
313.0017889640884
 20
221.4974689617562
 30
0.0
 11
313.0017889640884
 21
220.6641356284229
 31
0.0
 12
315.5017889640884
 22
221.0808022950895
 32
0.0
 13
315.5017889640884
 23
221.0808022950895
 33
0.0
  0
MTEXT
  5
FD499
330
FC945
100
AcDbEntity
  8
AM_5
 62
     2
440
 16777216
100
AcDbMText
 10
298.0017889640883
 20
224.3308022950895
 30
0.0
 40
3.5
 41
0.0
 71
     5
 72
     1
  1
 35
 73
     1
 44
1.0
  0
POINT
  5
FD49A
330
FC945
100
AcDbEntity
  8
Defpoints
 62
     0
440
 16777216
100
AcDbPoint
 10
280.5017889640883
 20
203.9009876994151
 30
0.0
  0
POINT
  5
FD49B
330
FC945
100
AcDbEntity
  8
Defpoints
 62
     0
440
 16777216
100
AcDbPoint
 10
315.5017889640884
 20
203.9009876994151
 30
0.0
  0
POINT
  5
FD49C
330
FC945
100
AcDbEntity
  8
Defpoints
 62
     0
440
 16777216
100
AcDbPoint
 10
315.5017889640884
 20
221.0808022950895
 30
0.0
  0
ENDBLK
  5
FC950
330
FC945
100
AcDbEntity
  8
0
100
AcDbBlockEnd
  0
BLOCK
  5
FC999
330
FC98D
100
AcDbEntity
  8
0
100
AcDbBlockBegin
  2
*D16
 70
     1
 10
0.0
 20
0.0
 30
0.0
  3
*D16
  1

  0
LINE
  5
FD49D
330
FC98D
100
AcDbEntity
  8
AM_5
440
 16777216
100
AcDbLine
 10
410.7272665959119
 20
204.9009876994151
 30
0.0
 11
410.7272665959119
 21
222.0808022950895
 31
0.0
  0
LINE
  5
FD49E
330
FC98D
100
AcDbEntity
  8
AM_5
440
 16777216
100
AcDbLine
 10
412.327266595912
 20
204.9009876994151
 30
0.0
 11
412.327266595912
 21
222.0808022950895
 31
0.0
  0
LINE
  5
FD49F
330
FC98D
100
AcDbEntity
  8
AM_5
440
 16777216
100
AcDbLine
 10
408.2272665959121
 20
221.0808022950895
 30
0.0
 11
405.727266595912
 21
221.0808022950895
 31
0.0
  0
LINE
  5
FD4A0
330
FC98D
100
AcDbEntity
  8
AM_5
440
 16777216
100
AcDbLine
 10
414.8272665959121
 20
221.0808022950895
 30
0.0
 11
429.2508886431561
 21
221.0808022950895
 31
0.0
  0
LINE
  5
FD4A1
330
FC98D
100
AcDbEntity
  8
AM_5
440
 16777216
100
AcDbLine
 10
410.7272665959119
 20
221.0808022950895
 30
0.0
 11
412.327266595912
 21
221.0808022950895
 31
0.0
  0
SOLID
  5
FD4A2
330
FC98D
100
AcDbEntity
  8
AM_5
440
 16777216
100
AcDbTrace
 10
408.2272665959121
 20
221.4974689617562
 30
0.0
 11
408.2272665959121
 21
220.6641356284229
 31
0.0
 12
410.7272665959119
 22
221.0808022950895
 32
0.0
 13
410.7272665959119
 23
221.0808022950895
 33
0.0
  0
SOLID
  5
FD4A3
330
FC98D
100
AcDbEntity
  8
AM_5
440
 16777216
100
AcDbTrace
 10
414.8272665959121
 20
221.4974689617562
 30
0.0
 11
414.8272665959121
 21
220.6641356284229
 31
0.0
 12
412.327266595912
 22
221.0808022950895
 32
0.0
 13
412.327266595912
 23
221.0808022950895
 33
0.0
  0
MTEXT
  5
FD4A4
330
FC98D
100
AcDbEntity
  8
AM_5
 62
     2
440
 16777216
100
AcDbMText
 10
423.2890776195342
 20
224.3308022950895
 30
0.0
 40
3.5
 41
0.0
 71
     5
 72
     1
  1
t=1.6
 73
     1
 44
1.0
  0
POINT
  5
FD4A5
330
FC98D
100
AcDbEntity
  8
Defpoints
 62
     0
440
 16777216
100
AcDbPoint
 10
410.7272665959119
 20
203.9009876994151
 30
0.0
  0
POINT
  5
FD4A6
330
FC98D
100
AcDbEntity
  8
Defpoints
 62
     0
440
 16777216
100
AcDbPoint
 10
412.327266595912
 20
203.9009876994151
 30
0.0
  0
POINT
  5
FD4A7
330
FC98D
100
AcDbEntity
  8
Defpoints
 62
     0
440
 16777216
100
AcDbPoint
 10
412.327266595912
 20
221.0808022950895
 30
0.0
  0
ENDBLK
  5
FC99A
330
FC98D
100
AcDbEntity
  8
0
100
AcDbBlockEnd
  0
BLOCK
  5
FCD61
330
FCD60
100
AcDbEntity
  8
0
100
AcDbBlockBegin
  2
*D18
 70
     1
 10
0.0
 20
0.0
 30
0.0
  3
*D18
  1

  0
LINE
  5
FD4B1
330
FCD60
100
AcDbEntity
  8
AM_5
440
 16777216
100
AcDbLine
 10
510.0633751953008
 20
209.1421902435085
 30
0.0
 11
510.0633751953008
 21
200.7019230253912
 31
0.0
  0
LINE
  5
FD4B2
330
FCD60
100
AcDbEntity
  8
AM_5
440
 16777216
100
AcDbLine
 10
548.1633751953021
 20
212.6028783885459
 30
0.0
 11
548.1633751953021
 21
200.7019230253912
 31
0.0
  0
LINE
  5
FD4B3
330
FCD60
100
AcDbEntity
  8
AM_5
440
 16777216
100
AcDbLine
 10
512.5633751953008
 20
201.7019230253912
 30
0.0
 11
545.6633751953021
 21
201.7019230253912
 31
0.0
  0
SOLID
  5
FD4B4
330
FCD60
100
AcDbEntity
  8
AM_5
440
 16777216
100
AcDbTrace
 10
512.5633751953008
 20
202.1185896920579
 30
0.0
 11
512.5633751953008
 21
201.2852563587246
 31
0.0
 12
510.0633751953008
 22
201.7019230253912
 32
0.0
 13
510.0633751953008
 23
201.7019230253912
 33
0.0
  0
SOLID
  5
FD4B5
330
FCD60
100
AcDbEntity
  8
AM_5
440
 16777216
100
AcDbTrace
 10
545.6633751953021
 20
202.1185896920579
 30
0.0
 11
545.6633751953021
 21
201.2852563587246
 31
0.0
 12
548.1633751953021
 22
201.7019230253912
 32
0.0
 13
548.1633751953021
 23
201.7019230253912
 33
0.0
  0
MTEXT
  5
FD4B6
330
FCD60
100
AcDbEntity
  8
AM_5
 62
     2
440
 16777216
100
AcDbMText
 10
529.1133751953013
 20
204.9519230253912
 30
0.0
 40
3.5
 41
0.0
 71
     5
 72
     1
  1
38.1
 73
     1
 44
1.0
  0
POINT
  5
FD4B7
330
FCD60
100
AcDbEntity
  8
Defpoints
 62
     0
440
 16777216
100
AcDbPoint
 10
510.0633751953008
 20
210.1421902435085
 30
0.0
  0
POINT
  5
FD4B8
330
FCD60
100
AcDbEntity
  8
Defpoints
 62
     0
440
 16777216
100
AcDbPoint
 10
548.1633751953021
 20
213.602878388546
 30
0.0
  0
POINT
  5
FD4B9
330
FCD60
100
AcDbEntity
  8
Defpoints
 62
     0
440
 16777216
100
AcDbPoint
 10
548.1633751953021
 20
201.7019230253912
 30
0.0
  0
ENDBLK
  5
FCD62
330
FCD60
100
AcDbEntity
  8
0
100
AcDbBlockEnd
  0
BLOCK
  5
FCD6D
330
FCD6C
100
AcDbEntity
  8
0
100
AcDbBlockBegin
  2
*D19
 70
     1
 10
0.0
 20
0.0
 30
0.0
  3
*D19
  1

  0
LINE
  5
FD475
330
FCD6C
100
AcDbEntity
  8
AM_5
440
 16777216
100
AcDbLine
 10
473.743692031681
 20
210.0328783885458
 30
0.0
 11
483.805007859791
 21
210.0328783885458
 31
0.0
  0
LINE
  5
FD476
330
FCD6C
100
AcDbEntity
  8
AM_5
440
 16777216
100
AcDbLine
 10
473.743692031681
 20
217.1728783885459
 30
0.0
 11
483.805007859791
 21
217.1728783885459
 31
0.0
  0
LINE
  5
FD477
330
FCD6C
100
AcDbEntity
  8
AM_5
440
 16777216
100
AcDbLine
 10
482.805007859791
 20
207.5328783885459
 30
0.0
 11
482.805007859791
 21
205.0328783885458
 31
0.0
  0
LINE
  5
FD478
330
FCD6C
100
AcDbEntity
  8
AM_5
440
 16777216
100
AcDbLine
 10
482.805007859791
 20
219.6728783885459
 30
0.0
 11
482.805007859791
 21
235.3228783885459
 31
0.0
  0
LINE
  5
FD479
330
FCD6C
100
AcDbEntity
  8
AM_5
440
 16777216
100
AcDbLine
 10
482.805007859791
 20
210.0328783885458
 30
0.0
 11
482.805007859791
 21
217.1728783885459
 31
0.0
  0
SOLID
  5
FD47A
330
FCD6C
100
AcDbEntity
  8
AM_5
440
 16777216
100
AcDbTrace
 10
482.3883411931243
 20
207.5328783885459
 30
0.0
 11
483.2216745264577
 21
207.5328783885459
 31
0.0
 12
482.805007859791
 22
210.0328783885458
 32
0.0
 13
482.805007859791
 23
210.0328783885458
 33
0.0
  0
SOLID
  5
FD47B
330
FCD6C
100
AcDbEntity
  8
AM_5
440
 16777216
100
AcDbTrace
 10
482.3883411931243
 20
219.6728783885459
 30
0.0
 11
483.2216745264577
 21
219.6728783885459
 31
0.0
 12
482.805007859791
 22
217.1728783885459
 32
0.0
 13
482.805007859791
 23
217.1728783885459
 33
0.0
  0
MTEXT
  5
FD47C
330
FCD6C
100
AcDbEntity
  8
AM_5
 62
     2
440
 16777216
100
AcDbMText
 10
479.5550078597909
 20
228.747878388546
 30
0.0
 40
3.5
 41
0.0
 71
     5
 72
     1
  1
%%C7.14
 11
0.0000000000000001
 21
1.0
 31
0.0
 73
     1
 44
1.0
  0
POINT
  5
FD47D
330
FCD6C
100
AcDbEntity
  8
Defpoints
 62
     0
440
 16777216
100
AcDbPoint
 10
472.7436920316811
 20
210.0328783885458
 30
0.0
  0
POINT
  5
FD47E
330
FCD6C
100
AcDbEntity
  8
Defpoints
 62
     0
440
 16777216
100
AcDbPoint
 10
472.7436920316811
 20
217.1728783885459
 30
0.0
  0
POINT
  5
FD47F
330
FCD6C
100
AcDbEntity
  8
Defpoints
 62
     0
440
 16777216
100
AcDbPoint
 10
482.805007859791
 20
217.1728783885459
 30
0.0
  0
ENDBLK
  5
FCD6E
330
FCD6C
100
AcDbEntity
  8
0
100
AcDbBlockEnd
  0
BLOCK
  5
FCD7B
330
FCD7A
100
AcDbEntity
  8
0
100
AcDbBlockBegin
  2
*D20
 70
     1
 10
0.0
 20
0.0
 30
0.0
  3
*D20
  1

  0
LINE
  5
FD4BA
330
FCD7A
100
AcDbEntity
  8
AM_5
440
 16777216
100
AcDbLine
 10
510.0633751953008
 20
209.1421902435085
 30
0.0
 11
510.0633751953008
 21
200.7019230253912
 31
0.0
  0
LINE
  5
FD4BB
330
FCD7A
100
AcDbEntity
  8
AM_5
440
 16777216
100
AcDbLine
 10
508.5633751953007
 20
209.1421902435085
 30
0.0
 11
508.5633751953007
 21
200.7019230253912
 31
0.0
  0
LINE
  5
FD4BC
330
FCD7A
100
AcDbEntity
  8
AM_5
440
 16777216
100
AcDbLine
 10
512.5633751953008
 20
201.7019230253912
 30
0.0
 11
515.0633751953008
 21
201.7019230253912
 31
0.0
  0
LINE
  5
FD4BD
330
FCD7A
100
AcDbEntity
  8
AM_5
440
 16777216
100
AcDbLine
 10
506.0633751953006
 20
201.7019230253912
 30
0.0
 11
496.2184004484702
 21
201.7019230253912
 31
0.0
  0
LINE
  5
FD4BE
330
FCD7A
100
AcDbEntity
  8
AM_5
440
 16777216
100
AcDbLine
 10
510.0633751953008
 20
201.7019230253912
 30
0.0
 11
508.5633751953007
 21
201.7019230253912
 31
0.0
  0
SOLID
  5
FD4BF
330
FCD7A
100
AcDbEntity
  8
AM_5
440
 16777216
100
AcDbTrace
 10
512.5633751953008
 20
202.1185896920579
 30
0.0
 11
512.5633751953008
 21
201.2852563587246
 31
0.0
 12
510.0633751953008
 22
201.7019230253912
 32
0.0
 13
510.0633751953008
 23
201.7019230253912
 33
0.0
  0
SOLID
  5
FD4C0
330
FCD7A
100
AcDbEntity
  8
AM_5
440
 16777216
100
AcDbTrace
 10
506.0633751953006
 20
202.1185896920579
 30
0.0
 11
506.0633751953006
 21
201.2852563587246
 31
0.0
 12
508.5633751953007
 22
201.7019230253912
 32
0.0
 13
508.5633751953007
 23
201.7019230253912
 33
0.0
  0
MTEXT
  5
FD4C1
330
FCD7A
100
AcDbEntity
  8
AM_5
 62
     2
440
 16777216
100
AcDbMText
 10
499.8908878218855
 20
204.9519230253912
 30
0.0
 40
3.5
 41
0.0
 71
     5
 72
     1
  1
1.5
 73
     1
 44
1.0
  0
POINT
  5
FD4C2
330
FCD7A
100
AcDbEntity
  8
Defpoints
 62
     0
440
 16777216
100
AcDbPoint
 10
510.0633751953008
 20
210.1421902435085
 30
0.0
  0
POINT
  5
FD4C3
330
FCD7A
100
AcDbEntity
  8
Defpoints
 62
     0
440
 16777216
100
AcDbPoint
 10
508.5633751953007
 20
210.1421902435085
 30
0.0
  0
POINT
  5
FD4C4
330
FCD7A
100
AcDbEntity
  8
Defpoints
 62
     0
440
 16777216
100
AcDbPoint
 10
508.5633751953007
 20
201.7019230253912
 30
0.0
  0
ENDBLK
  5
FCD7C
330
FCD7A
100
AcDbEntity
  8
0
100
AcDbBlockEnd
  0
BLOCK
  5
FCD89
330
FCD88
100
AcDbEntity
  8
0
100
AcDbBlockBegin
  2
*D21
 70
     1
 10
0.0
 20
0.0
 30
0.0
  3
*D21
  1

  0
LINE
  5
FD4C5
330
FCD88
100
AcDbEntity
  8
AM_5
440
 16777216
100
AcDbLine
 10
527.1133751953009
 20
211.9378783885459
 30
0.0
 11
529.737504766285
 21
211.9378783885459
 31
0.0
  0
LINE
  5
FD4C6
330
FCD88
100
AcDbEntity
  8
AM_5
440
 16777216
100
AcDbLine
 10
527.1133751953009
 20
215.2678783885459
 30
0.0
 11
529.737504766285
 21
215.2678783885459
 31
0.0
  0
LINE
  5
FD4C7
330
FCD88
100
AcDbEntity
  8
AM_5
440
 16777216
100
AcDbLine
 10
528.737504766285
 20
209.4378783885459
 30
0.0
 11
528.737504766285
 21
206.937878388546
 31
0.0
  0
LINE
  5
FD4C8
330
FCD88
100
AcDbEntity
  8
AM_5
440
 16777216
100
AcDbLine
 10
528.737504766285
 20
217.7678783885458
 30
0.0
 11
528.737504766285
 21
233.9128531353765
 31
0.0
  0
LINE
  5
FD4C9
330
FCD88
100
AcDbEntity
  8
AM_5
440
 16777216
100
AcDbLine
 10
528.737504766285
 20
211.9378783885459
 30
0.0
 11
528.737504766285
 21
215.2678783885459
 31
0.0
  0
SOLID
  5
FD4CA
330
FCD88
100
AcDbEntity
  8
AM_5
440
 16777216
100
AcDbTrace
 10
528.3208380996184
 20
209.4378783885459
 30
0.0
 11
529.1541714329516
 21
209.4378783885459
 31
0.0
 12
528.737504766285
 22
211.9378783885459
 32
0.0
 13
528.737504766285
 23
211.9378783885459
 33
0.0
  0
SOLID
  5
FD4CB
330
FCD88
100
AcDbEntity
  8
AM_5
440
 16777216
100
AcDbTrace
 10
528.3208380996184
 20
217.7678783885458
 30
0.0
 11
529.1541714329516
 21
217.7678783885458
 31
0.0
 12
528.737504766285
 22
215.2678783885459
 32
0.0
 13
528.737504766285
 23
215.2678783885459
 33
0.0
  0
MTEXT
  5
FD4CC
330
FCD88
100
AcDbEntity
  8
AM_5
 62
     2
440
 16777216
100
AcDbMText
 10
525.487504766285
 20
227.0903657619612
 30
0.0
 40
3.5
 41
0.0
 71
     5
 72
     1
  1
%%c3.33
 11
0.0000000000000001
 21
1.0
 31
0.0
 73
     1
 44
1.0
  0
POINT
  5
FD4CD
330
FCD88
100
AcDbEntity
  8
Defpoints
 62
     0
440
 16777216
100
AcDbPoint
 10
526.1133751953009
 20
211.9378783885459
 30
0.0
  0
POINT
  5
FD4CE
330
FCD88
100
AcDbEntity
  8
Defpoints
 62
     0
440
 16777216
100
AcDbPoint
 10
526.1133751953009
 20
215.2678783885459
 30
0.0
  0
POINT
  5
FD4CF
330
FCD88
100
AcDbEntity
  8
Defpoints
 62
     0
440
 16777216
100
AcDbPoint
 10
528.737504766285
 20
215.2678783885459
 30
0.0
  0
ENDBLK
  5
FCD8A
330
FCD88
100
AcDbEntity
  8
0
100
AcDbBlockEnd
  0
BLOCK
  5
FCD97
330
FCD96
100
AcDbEntity
  8
0
100
AcDbBlockBegin
  2
*D22
 70
     1
 10
0.0
 20
0.0
 30
0.0
  3
*D22
  1

  0
LINE
  5
FD4D0
330
FCD96
100
AcDbEntity
  8
AM_5
440
 16777216
100
AcDbLine
 10
671.9280108118963
 20
209.1421902435085
 30
0.0
 11
671.9280108118963
 21
200.2174385859052
 31
0.0
  0
LINE
  5
FD4D1
330
FCD96
100
AcDbEntity
  8
AM_5
440
 16777216
100
AcDbLine
 10
735.428010811896
 20
212.6028783885459
 30
0.0
 11
735.428010811896
 21
200.2174385859052
 31
0.0
  0
LINE
  5
FD4D2
330
FCD96
100
AcDbEntity
  8
AM_5
440
 16777216
100
AcDbLine
 10
674.4280108118963
 20
201.2174385859053
 30
0.0
 11
732.9280108118959
 21
201.2174385859053
 31
0.0
  0
SOLID
  5
FD4D3
330
FCD96
100
AcDbEntity
  8
AM_5
440
 16777216
100
AcDbTrace
 10
674.4280108118963
 20
201.6341052525719
 30
0.0
 11
674.4280108118963
 21
200.8007719192386
 31
0.0
 12
671.9280108118963
 22
201.2174385859053
 32
0.0
 13
671.9280108118963
 23
201.2174385859053
 33
0.0
  0
SOLID
  5
FD4D4
330
FCD96
100
AcDbEntity
  8
AM_5
440
 16777216
100
AcDbTrace
 10
732.9280108118959
 20
201.6341052525719
 30
0.0
 11
732.9280108118959
 21
200.8007719192386
 31
0.0
 12
735.428010811896
 22
201.2174385859053
 32
0.0
 13
735.428010811896
 23
201.2174385859053
 33
0.0
  0
MTEXT
  5
FD4D5
330
FCD96
100
AcDbEntity
  8
AM_5
 62
     2
440
 16777216
100
AcDbMText
 10
703.6780108118962
 20
204.4674385859053
 30
0.0
 40
3.5
 41
0.0
 71
     5
 72
     1
  1
63.5
 73
     1
 44
1.0
  0
POINT
  5
FD4D6
330
FCD96
100
AcDbEntity
  8
Defpoints
 62
     0
440
 16777216
100
AcDbPoint
 10
671.9280108118963
 20
210.1421902435085
 30
0.0
  0
POINT
  5
FD4D7
330
FCD96
100
AcDbEntity
  8
Defpoints
 62
     0
440
 16777216
100
AcDbPoint
 10
735.428010811896
 20
213.602878388546
 30
0.0
  0
POINT
  5
FD4D8
330
FCD96
100
AcDbEntity
  8
Defpoints
 62
     0
440
 16777216
100
AcDbPoint
 10
735.428010811896
 20
201.2174385859053
 30
0.0
  0
ENDBLK
  5
FCD98
330
FCD96
100
AcDbEntity
  8
0
100
AcDbBlockEnd
  0
BLOCK
  5
FCDA3
330
FCDA2
100
AcDbEntity
  8
0
100
AcDbBlockBegin
  2
*D23
 70
     1
 10
0.0
 20
0.0
 30
0.0
  3
*D23
  1

  0
LINE
  5
FD4D9
330
FCDA2
100
AcDbEntity
  8
AM_5
440
 16777216
100
AcDbLine
 10
635.6083276482761
 20
210.0328783885459
 30
0.0
 11
645.669643476386
 21
210.0328783885459
 31
0.0
  0
LINE
  5
FD4DA
330
FCDA2
100
AcDbEntity
  8
AM_5
440
 16777216
100
AcDbLine
 10
635.6083276482761
 20
217.1728783885459
 30
0.0
 11
645.669643476386
 21
217.1728783885459
 31
0.0
  0
LINE
  5
FD4DB
330
FCDA2
100
AcDbEntity
  8
AM_5
440
 16777216
100
AcDbLine
 10
644.6696434763858
 20
207.5328783885459
 30
0.0
 11
644.6696434763858
 21
205.032878388546
 31
0.0
  0
LINE
  5
FD4DC
330
FCDA2
100
AcDbEntity
  8
AM_5
440
 16777216
100
AcDbLine
 10
644.6696434763858
 20
219.6728783885459
 30
0.0
 11
644.6696434763858
 21
235.3228783885459
 31
0.0
  0
LINE
  5
FD4DD
330
FCDA2
100
AcDbEntity
  8
AM_5
440
 16777216
100
AcDbLine
 10
644.6696434763858
 20
210.0328783885459
 30
0.0
 11
644.6696434763858
 21
217.1728783885459
 31
0.0
  0
SOLID
  5
FD4DE
330
FCDA2
100
AcDbEntity
  8
AM_5
440
 16777216
100
AcDbTrace
 10
644.2529768097194
 20
207.5328783885459
 30
0.0
 11
645.0863101430526
 21
207.5328783885459
 31
0.0
 12
644.6696434763858
 22
210.0328783885459
 32
0.0
 13
644.6696434763858
 23
210.0328783885459
 33
0.0
  0
SOLID
  5
FD4DF
330
FCDA2
100
AcDbEntity
  8
AM_5
440
 16777216
100
AcDbTrace
 10
644.2529768097194
 20
219.6728783885459
 30
0.0
 11
645.0863101430526
 21
219.6728783885459
 31
0.0
 12
644.6696434763858
 22
217.1728783885459
 32
0.0
 13
644.6696434763858
 23
217.1728783885459
 33
0.0
  0
MTEXT
  5
FD4E0
330
FCDA2
100
AcDbEntity
  8
AM_5
 62
     2
440
 16777216
100
AcDbMText
 10
641.419643476386
 20
228.7478783885461
 30
0.0
 40
3.5
 41
0.0
 71
     5
 72
     1
  1
%%C7.14
 11
0.0000000000000001
 21
1.0
 31
0.0
 73
     1
 44
1.0
  0
POINT
  5
FD4E1
330
FCDA2
100
AcDbEntity
  8
Defpoints
 62
     0
440
 16777216
100
AcDbPoint
 10
634.6083276482761
 20
210.0328783885459
 30
0.0
  0
POINT
  5
FD4E2
330
FCDA2
100
AcDbEntity
  8
Defpoints
 62
     0
440
 16777216
100
AcDbPoint
 10
634.6083276482761
 20
217.1728783885459
 30
0.0
  0
POINT
  5
FD4E3
330
FCDA2
100
AcDbEntity
  8
Defpoints
 62
     0
440
 16777216
100
AcDbPoint
 10
644.6696434763858
 20
217.1728783885459
 30
0.0
  0
ENDBLK
  5
FCDA4
330
FCDA2
100
AcDbEntity
  8
0
100
AcDbBlockEnd
  0
BLOCK
  5
FCDB1
330
FCDB0
100
AcDbEntity
  8
0
100
AcDbBlockBegin
  2
*D24
 70
     1
 10
0.0
 20
0.0
 30
0.0
  3
*D24
  1

  0
LINE
  5
FD4E4
330
FCDB0
100
AcDbEntity
  8
AM_5
440
 16777216
100
AcDbLine
 10
671.9280108118963
 20
209.1421902435085
 30
0.0
 11
671.9280108118963
 21
200.2174385859052
 31
0.0
  0
LINE
  5
FD4E5
330
FCDB0
100
AcDbEntity
  8
AM_5
440
 16777216
100
AcDbLine
 10
670.4280108118963
 20
209.1421902435085
 30
0.0
 11
670.4280108118963
 21
200.2174385859052
 31
0.0
  0
LINE
  5
FD4E6
330
FCDB0
100
AcDbEntity
  8
AM_5
440
 16777216
100
AcDbLine
 10
674.4280108118963
 20
201.2174385859053
 30
0.0
 11
676.9280108118963
 21
201.2174385859053
 31
0.0
  0
LINE
  5
FD4E7
330
FCDB0
100
AcDbEntity
  8
AM_5
440
 16777216
100
AcDbLine
 10
667.9280108118963
 20
201.2174385859053
 30
0.0
 11
658.0830360650658
 21
201.2174385859053
 31
0.0
  0
LINE
  5
FD4E8
330
FCDB0
100
AcDbEntity
  8
AM_5
440
 16777216
100
AcDbLine
 10
671.9280108118963
 20
201.2174385859053
 30
0.0
 11
670.4280108118963
 21
201.2174385859053
 31
0.0
  0
SOLID
  5
FD4E9
330
FCDB0
100
AcDbEntity
  8
AM_5
440
 16777216
100
AcDbTrace
 10
674.4280108118963
 20
201.6341052525719
 30
0.0
 11
674.4280108118963
 21
200.8007719192386
 31
0.0
 12
671.9280108118963
 22
201.2174385859053
 32
0.0
 13
671.9280108118963
 23
201.2174385859053
 33
0.0
  0
SOLID
  5
FD4EA
330
FCDB0
100
AcDbEntity
  8
AM_5
440
 16777216
100
AcDbTrace
 10
667.9280108118963
 20
201.6341052525719
 30
0.0
 11
667.9280108118963
 21
200.8007719192386
 31
0.0
 12
670.4280108118963
 22
201.2174385859053
 32
0.0
 13
670.4280108118963
 23
201.2174385859053
 33
0.0
  0
MTEXT
  5
FD4EB
330
FCDB0
100
AcDbEntity
  8
AM_5
 62
     2
440
 16777216
100
AcDbMText
 10
661.7555234384809
 20
204.4674385859053
 30
0.0
 40
3.5
 41
0.0
 71
     5
 72
     1
  1
1.5
 73
     1
 44
1.0
  0
POINT
  5
FD4EC
330
FCDB0
100
AcDbEntity
  8
Defpoints
 62
     0
440
 16777216
100
AcDbPoint
 10
671.9280108118963
 20
210.1421902435085
 30
0.0
  0
POINT
  5
FD4ED
330
FCDB0
100
AcDbEntity
  8
Defpoints
 62
     0
440
 16777216
100
AcDbPoint
 10
670.4280108118963
 20
210.1421902435085
 30
0.0
  0
POINT
  5
FD4EE
330
FCDB0
100
AcDbEntity
  8
Defpoints
 62
     0
440
 16777216
100
AcDbPoint
 10
670.4280108118963
 20
201.2174385859053
 30
0.0
  0
ENDBLK
  5
FCDB2
330
FCDB0
100
AcDbEntity
  8
0
100
AcDbBlockEnd
  0
BLOCK
  5
FCDBF
330
FCDBE
100
AcDbEntity
  8
0
100
AcDbBlockBegin
  2
*D25
 70
     1
 10
0.0
 20
0.0
 30
0.0
  3
*D25
  1

  0
LINE
  5
FD4EF
330
FCDBE
100
AcDbEntity
  8
AM_5
440
 16777216
100
AcDbLine
 10
688.3341425683035
 20
211.9378783885458
 30
0.0
 11
691.6021403828798
 21
211.9378783885458
 31
0.0
  0
LINE
  5
FD4F0
330
FCDBE
100
AcDbEntity
  8
AM_5
440
 16777216
100
AcDbLine
 10
688.3341425683035
 20
215.2678783885459
 30
0.0
 11
691.6021403828798
 21
215.2678783885459
 31
0.0
  0
LINE
  5
FD4F1
330
FCDBE
100
AcDbEntity
  8
AM_5
440
 16777216
100
AcDbLine
 10
690.6021403828798
 20
209.4378783885458
 30
0.0
 11
690.6021403828798
 21
206.9378783885458
 31
0.0
  0
LINE
  5
FD4F2
330
FCDBE
100
AcDbEntity
  8
AM_5
440
 16777216
100
AcDbLine
 10
690.6021403828798
 20
217.7678783885458
 30
0.0
 11
690.6021403828798
 21
233.9128531353764
 31
0.0
  0
LINE
  5
FD4F3
330
FCDBE
100
AcDbEntity
  8
AM_5
440
 16777216
100
AcDbLine
 10
690.6021403828798
 20
211.9378783885458
 30
0.0
 11
690.6021403828798
 21
215.2678783885459
 31
0.0
  0
SOLID
  5
FD4F4
330
FCDBE
100
AcDbEntity
  8
AM_5
440
 16777216
100
AcDbTrace
 10
690.1854737162131
 20
209.4378783885458
 30
0.0
 11
691.0188070495462
 21
209.4378783885458
 31
0.0
 12
690.6021403828798
 22
211.9378783885458
 32
0.0
 13
690.6021403828798
 23
211.9378783885458
 33
0.0
  0
SOLID
  5
FD4F5
330
FCDBE
100
AcDbEntity
  8
AM_5
440
 16777216
100
AcDbTrace
 10
690.1854737162131
 20
217.7678783885458
 30
0.0
 11
691.0188070495462
 21
217.7678783885458
 31
0.0
 12
690.6021403828798
 22
215.2678783885459
 32
0.0
 13
690.6021403828798
 23
215.2678783885459
 33
0.0
  0
MTEXT
  5
FD4F6
330
FCDBE
100
AcDbEntity
  8
AM_5
 62
     2
440
 16777216
100
AcDbMText
 10
687.3521403828798
 20
227.0903657619613
 30
0.0
 40
3.5
 41
0.0
 71
     5
 72
     1
  1
%%c3.33
 11
0.0000000000000001
 21
1.0
 31
0.0
 73
     1
 44
1.0
  0
POINT
  5
FD4F7
330
FCDBE
100
AcDbEntity
  8
Defpoints
 62
     0
440
 16777216
100
AcDbPoint
 10
687.3341425683035
 20
211.9378783885458
 30
0.0
  0
POINT
  5
FD4F8
330
FCDBE
100
AcDbEntity
  8
Defpoints
 62
     0
440
 16777216
100
AcDbPoint
 10
687.3341425683035
 20
215.2678783885459
 30
0.0
  0
POINT
  5
FD4F9
330
FCDBE
100
AcDbEntity
  8
Defpoints
 62
     0
440
 16777216
100
AcDbPoint
 10
690.6021403828798
 20
215.2678783885459
 30
0.0
  0
ENDBLK
  5
FCDC0
330
FCDBE
100
AcDbEntity
  8
0
100
AcDbBlockEnd
  0
BLOCK
  5
FD894
330
FD893
100
AcDbEntity
  8
0
100
AcDbBlockBegin
  2
*D26
 70
     1
 10
0.0
 20
0.0
 30
0.0
  3
*D26
  1

  0
LINE
  5
FD8EE
330
FD893
100
AcDbEntity
  8
AM_5
440
 16777216
100
AcDbLine
 10
352.7133900067381
 20
86.94568349605253
 30
0.0
 11
303.5143778011367
 21
135.9031870891518
 31
0.0
  0
LINE
  5
FD8EF
330
FD893
100
AcDbEntity
  8
AM_5
440
 16777216
100
AcDbLine
 10
297.4892001270409
 20
141.8987883096785
 30
0.0
 11
295.7170890464245
 21
143.6622004333627
 31
0.0
  0
MTEXT
  5
FD8F0
102
{ACAD_XDICTIONARY
360
FD9B2
102
}
330
FD893
100
AcDbEntity
  8
AM_5
 62
     2
440
 16777216
100
AcDbMText
 10
346.3963194341998
 20
97.81667180175317
 30
0.0
 40
3.5
 41
0.0
 71
     5
 72
     1
  1
4-\U+22053.5釘孔
 11
0.7088444322465523
 21
-0.7053648494737054
 31
0.0
 73
     1
 44
1.0
  0
LINE
  5
FD8F1
330
FD893
100
AcDbEntity
  8
AM_5
440
 16777216
100
AcDbLine
 10
299.2613112076573
 20
140.1353761859942
 30
0.0
 11
301.7422667205203
 21
137.6665992128361
 31
0.0
  0
SOLID
  5
FD8F2
330
FD893
100
AcDbEntity
  8
AM_5
440
 16777216
100
AcDbTrace
 10
297.783102147655
 20
142.1941401564478
 30
0.0
 11
297.1952981064268
 21
141.603436462909
 31
0.0
 12
299.2613112076573
 22
140.1353761859942
 32
0.0
 13
299.2613112076573
 23
140.1353761859942
 33
0.0
  0
SOLID
  5
FD8F3
330
FD893
100
AcDbEntity
  8
AM_5
440
 16777216
100
AcDbTrace
 10
303.8082798217508
 20
136.1985389359212
 30
0.0
 11
303.2204757805226
 21
135.6078352423824
 31
0.0
 12
301.7422667205203
 22
137.6665992128361
 32
0.0
 13
301.7422667205203
 23
137.6665992128361
 33
0.0
  0
POINT
  5
FD8F4
330
FD893
100
AcDbEntity
  8
Defpoints
 62
     0
440
 16777216
100
AcDbPoint
 10
301.7422667205203
 20
137.6665992128361
 30
0.0
  0
POINT
  5
FD8F5
330
FD893
100
AcDbEntity
  8
Defpoints
 62
     0
440
 16777216
100
AcDbPoint
 10
299.2613112076573
 20
140.1353761859942
 30
0.0
  0
ENDBLK
  5
FD895
330
FD893
100
AcDbEntity
  8
0
100
AcDbBlockEnd
  0
ENDSEC
  0
SECTION
  2
ENTITIES
  0
DIMENSION
  5
FC680
330
1F
100
AcDbEntity
  8
AM_5
100
AcDbDimension
  2
*D1
 10
278.9017889640883
 20
221.0808022950895
 30
0.0
 11
279.7017889640883
 21
221.0808022950895
 31
0.0
 70
   160
  1
t=1.6
 71
     5
 42
1.600000000000022
  3
AM_ISO$0
100
AcDbAlignedDimension
 13
280.5017889640883
 23
203.9009876994151
 33
0.0
 14
278.9017889640883
 24
203.9009876994151
 34
0.0
100
AcDbRotatedDimension
1001
ACAD_DSTYLE_DIMINSPECT
1070
   396
1000
100%
1070
   395
1000

1070
   394
1070
    33
1070
   393
1070
     0
  0
LINE
  5
FC682
330
1F
100
AcDbEntity
  8
AM_5
100
AcDbLine
 10
216.9017889640882
 20
54.12344268462033
 30
0.0
 11
278.9017889640882
 21
54.12344268462033
 31
0.0
  0
LINE
  5
FC683
330
1F
100
AcDbEntity
  8
AM_5
100
AcDbLine
 10
215.3017889640882
 20
84.12344268462033
 30
0.0
 11
280.5017889640883
 21
84.12344268462032
 31
0.0
  0
DIMENSION
  5
FC685
330
1F
100
AcDbEntity
  8
AM_5
100
AcDbDimension
  2
*D2
 10
278.9017889640883
 20
221.0808022950895
 30
0.0
 11
248.2218370191877
 21
221.0808022950895
 31
0.0
 70
   160
 71
     5
 42
62.0
  3
AM_ISO$0
100
AcDbAlignedDimension
 13
216.9017889640883
 23
203.9009876994151
 33
0.0
 14
278.9017889640883
 24
203.9009876994151
 34
0.0
100
AcDbRotatedDimension
1001
ACAD_DSTYLE_DIMINSPECT
1070
   396
1000
100%
1070
   395
1000

1070
   394
1070
    33
1070
   393
1070
     0
  0
LINE
  5
FC686
330
1F
100
AcDbEntity
  8
AM_5
100
AcDbLine
 10
277.9017889640883
 20
117.3009876994151
 30
0.0
 11
217.9017889640883
 21
117.3009876994151
 31
0.0
  0
LINE
  5
FC687
330
1F
100
AcDbEntity
  8
AM_5
100
AcDbLine
 10
217.9017889640883
 20
118.9009876994151
 30
0.0
 11
277.9017889640883
 21
118.9009876994151
 31
0.0
  0
LINE
  5
FC68A
330
1F
100
AcDbEntity
  8
AM_5
100
AcDbLine
 10
100.9024364862135
 20
123.9009876994151
 30
0.0
 11
100.9024364862135
 21
203.9009876994151
 31
0.0
  0
LINE
  5
FC68B
330
1F
100
AcDbEntity
  8
AM_5
100
AcDbLine
 10
140.9024364862135
 20
203.9009876994151
 30
0.0
 11
140.9024364862135
 21
117.3009876994151
 31
0.0
  0
LINE
  5
FC68C
330
1F
100
AcDbEntity
  8
AM_5
100
AcDbLine
 10
99.30243648621349
 20
123.9009876994151
 30
0.0
 11
99.30243648621349
 21
203.9009876994151
 31
0.0
  0
LINE
  5
FC68D
330
1F
100
AcDbEntity
  8
AM_5
100
AcDbLine
 10
100.9024364862135
 20
203.9009876994151
 30
0.0
 11
100.9024364862135
 21
123.9009876994151
 31
0.0
  0
LINE
  5
FC68E
330
1F
100
AcDbEntity
  8
AM_5
100
AcDbLine
 10
99.30243648621349
 20
203.9009876994151
 30
0.0
 11
99.30243648621349
 21
123.9009876994151
 31
0.0
  0
DIMENSION
  5
FC68F
330
1F
100
AcDbEntity
  8
AM_5
100
AcDbDimension
  2
*D3
 10
126.6934135524844
 20
140.462030709916
 30
0.0
 11
107.6601660485367
 21
102.8987191423036
 31
0.0
 70
   163
  1
2-<>釘孔
 71
     5
 42
3.500000000000283
  3
AM_ISO$3
100
AcDbDiametricDimension
 15
125.1114594199424
 25
137.3399446889141
 35
0.0
 40
0.0
1001
ACAD
1000
DSTYLE
1002
{
1070
    74
1070
     0
1070
   172
1070
     1
1070
   288
1070
     0
1070
   289
1070
     3
1002
}
1001
ACAD_DSTYLE_DIMINSPECT
1070
   396
1000
100%
1070
   395
1000

1070
   394
1070
    33
1070
   393
1070
     0
  0
LINE
  5
FC691
330
1F
100
AcDbEntity
  8
AM_5
100
AcDbLine
 10
125.9024364862135
 20
142.6509876994151
 30
0.0
 11
125.9024364862135
 21
135.1509876994151
 31
0.0
  0
LINE
  5
FC693
330
1F
100
AcDbEntity
  8
AM_5
100
AcDbLine
 10
195.3017889640883
 20
142.6509876994151
 30
0.0
 11
195.3017889640883
 21
135.1509876994151
 31
0.0
  0
LINE
  5
FC694
330
1F
100
AcDbEntity
  8
AM_5
100
AcDbLine
 10
215.3017889640883
 20
203.9009876994151
 30
0.0
 11
215.3017889640882
 21
119.9009876994151
 31
0.0
  0
LINE
  5
FC695
330
1F
100
AcDbEntity
  8
AM_5
100
AcDbLine
 10
216.9017889640883
 20
203.9009876994151
 30
0.0
 11
216.9017889640883
 21
119.9009876994151
 31
0.0
  0
LINE
  5
FC696
330
1F
100
AcDbEntity
  8
AM_5
100
AcDbLine
 10
180.3017889640883
 20
123.9009876994151
 30
0.0
 11
180.3017889640883
 21
203.9009876994151
 31
0.0
  0
LINE
  5
FC697
330
1F
100
AcDbEntity
  8
AM_5
100
AcDbLine
 10
140.9024364862135
 20
118.9009876994151
 30
0.0
 11
108.8384945420801
 21
118.9009876994151
 31
0.0
  0
LINE
  5
FC698
330
1F
100
AcDbEntity
  8
AM_5
100
AcDbLine
 10
140.9024364862135
 20
117.3009876994151
 30
0.0
 11
111.2627369663226
 21
117.3009876994151
 31
0.0
  0
LINE
  5
FC69A
330
1F
100
AcDbEntity
  8
AM_5
100
AcDbLine
 10
100.9024364862135
 20
123.9009876994151
 30
0.0
 11
110.6017263163257
 21
117.499456411541
 31
0.0
  0
LINE
  5
FC69B
330
1F
100
AcDbEntity
  8
AM_5
100
AcDbLine
 10
102.9024364862135
 20
138.9009876994151
 30
0.0
 11
97.3024364862135
 21
138.9009876994151
 31
0.0
  0
LINE
  5
FC69C
330
1F
100
AcDbEntity
  8
AM_5
100
AcDbLine
 10
99.30243648621349
 20
123.9009876994151
 30
0.0
 11
100.9024364862135
 21
123.9009876994151
 31
0.0
  0
ARC
  5
FC69D
330
1F
100
AcDbEntity
  8
AM_5
100
AcDbCircle
 10
111.2627369663226
 20
118.5009876994151
 30
0.0
 40
1.199999999999999
100
AcDbArc
 50
236.5751888173965
 51
270.0
  0
ARC
  5
FC69E
330
1F
100
AcDbEntity
  8
AM_5
100
AcDbCircle
 10
108.8384945420801
 20
120.1009876994151
 30
0.0
 40
1.199999999999999
100
AcDbArc
 50
236.5751888173964
 51
270.0
  0
LINE
  5
FC69F
330
1F
100
AcDbEntity
  8
AM_5
100
AcDbLine
 10
129.6524364862135
 20
138.9009876994151
 30
0.0
 11
122.1524364862135
 21
138.9009876994151
 31
0.0
  0
CIRCLE
  5
FC6A0
330
1F
100
AcDbEntity
  8
AM_5
100
AcDbCircle
 10
125.9024364862135
 20
138.9009876994151
 30
0.0
 40
1.75
  0
LINE
  5
FC6A1
330
1F
100
AcDbEntity
  8
AM_5
100
AcDbLine
 10
216.9017889640882
 20
44.92344268462034
 30
0.0
 11
216.9017889640882
 21
54.12344268462033
 31
0.0
  0
LINE
  5
FC6A2
330
1F
100
AcDbEntity
  8
AM_5
100
AcDbLine
 10
215.3017889640882
 20
84.12344268462033
 30
0.0
 11
215.3017889640882
 21
44.92344268462034
 31
0.0
  0
LINE
  5
FC6A4
330
1F
100
AcDbEntity
  8
AM_5
100
AcDbLine
 10
180.3017889640882
 20
42.52344268462031
 30
0.0
 11
214.5017889640882
 21
42.52344268462031
 31
0.0
  0
LINE
  5
FC6A5
330
1F
100
AcDbEntity
  8
AM_5
100
AcDbLine
 10
214.5017889640882
 20
44.12344268462033
 30
0.0
 11
180.3017889640882
 21
44.12344268462033
 31
0.0
  0
LINE
  5
FC6A6
330
1F
100
AcDbEntity
  8
AM_5
100
AcDbLine
 10
180.3017889640882
 20
44.12344268462033
 30
0.0
 11
180.3017889640882
 21
42.52344268462031
 31
0.0
  0
LINE
  5
FC6A8
330
1F
100
AcDbEntity
  8
AM_5
100
AcDbLine
 10
195.3017889640881
 20
40.52344268462029
 30
0.0
 11
195.3017889640881
 21
46.12344268462034
 31
0.0
  0
ARC
  5
FC6A9
330
1F
100
AcDbEntity
  8
AM_5
100
AcDbCircle
 10
214.5017889640882
 20
44.92344268462034
 30
0.0
 40
2.399999999999999
100
AcDbArc
 50
270.0
 51
0.0
  0
ARC
  5
FC6AA
330
1F
100
AcDbEntity
  8
AM_5
100
AcDbCircle
 10
214.5017889640882
 20
44.92344268462034
 30
0.0
 40
0.8
100
AcDbArc
 50
270.0
 51
0.0
  0
LINE
  5
FC6AB
330
1F
100
AcDbEntity
  8
AM_5
100
AcDbLine
 10
180.3017889640883
 20
123.9009876994151
 30
0.0
 11
215.3017889640883
 21
123.9009876994151
 31
0.0
  0
LINE
  5
FC6AE
330
1F
100
AcDbEntity
  8
AM_5
100
AcDbLine
 10
191.5517889640883
 20
138.9009876994151
 30
0.0
 11
199.0517889640883
 21
138.9009876994151
 31
0.0
  0
CIRCLE
  5
FC6AF
330
1F
100
AcDbEntity
  8
AM_5
100
AcDbCircle
 10
195.3017889640883
 20
138.9009876994151
 30
0.0
 40
1.75
  0
LINE
  5
FC6B0
330
1F
100
AcDbEntity
  8
AM_5
100
AcDbLine
 10
216.9017889640882
 20
54.12344268462033
 30
0.0
 11
216.9017889640882
 21
84.12344268462033
 31
0.0
  0
LINE
  5
FC6B1
330
1F
100
AcDbEntity
  8
AM_5
100
AcDbLine
 10
213.3017889640882
 20
69.12344268462033
 30
0.0
 11
218.9017889640882
 21
69.12344268462033
 31
0.0
  0
ARC
  5
FC6B3
330
1F
100
AcDbEntity
  8
AM_5
100
AcDbCircle
 10
217.9017889640883
 20
119.9009876994151
 30
0.0
 40
2.6
100
AcDbArc
 50
180.0
 51
270.0
  0
ARC
  5
FC6B4
330
1F
100
AcDbEntity
  8
AM_5
100
AcDbCircle
 10
217.9017889640883
 20
119.9009876994151
 30
0.0
 40
1.0
100
AcDbArc
 50
180.0
 51
270.0
  0
LINE
  5
FC6B5
330
1F
100
AcDbEntity
  8
AM_5
100
AcDbLine
 10
218.9017889640883
 20
138.9009876994151
 30
0.0
 11
213.3017889640882
 21
138.9009876994151
 31
0.0
  0
DIMENSION
  5
FC6B7
330
1F
100
AcDbEntity
  8
AM_5
100
AcDbDimension
  2
*D4
 10
100.9024364862135
 20
221.0808022950895
 30
0.0
 11
120.9024364862135
 21
224.3308022950895
 31
0.0
 70
    32
 71
     5
 42
40.0
  3
AM_ISO$0
100
AcDbAlignedDimension
 13
140.9024364862135
 23
203.9009876994151
 33
0.0
 14
100.9024364862135
 24
203.9009876994151
 34
0.0
 50
180.0
100
AcDbRotatedDimension
1001
ACAD_DSTYLE_DIMINSPECT
1070
   396
1000
100%
1070
   395
1000

1070
   394
1070
    33
1070
   393
1070
     0
  0
LINE
  5
FC6B8
330
1F
100
AcDbEntity
  8
AM_5
100
AcDbLine
 10
99.30243648621349
 20
203.9009876994151
 30
0.0
 11
140.9024364862135
 21
203.9009876994151
 31
0.0
  0
LINE
  5
FC6BC
330
1F
100
AcDbEntity
  8
AM_5
100
AcDbLine
 10
97.3024364862135
 20
163.900987699415
 30
0.0
 11
102.9024364862135
 21
163.900987699415
 31
0.0
  0
LINE
  5
FC6BD
330
1F
100
AcDbEntity
  8
AM_5
100
AcDbLine
 10
125.9024364862135
 20
182.650987699415
 30
0.0
 11
125.9024364862135
 21
175.1509876994151
 31
0.0
  0
LINE
  5
FC6BE
330
1F
100
AcDbEntity
  8
AM_5
100
AcDbLine
 10
129.6524364862135
 20
178.9009876994151
 30
0.0
 11
122.1524364862135
 21
178.9009876994151
 31
0.0
  0
CIRCLE
  5
FC6BF
330
1F
100
AcDbEntity
  8
AM_5
100
AcDbCircle
 10
125.9024364862135
 20
178.9009876994151
 30
0.0
 40
1.75
  0
DIMENSION
  5
FC6C0
330
1F
100
AcDbEntity
  8
AM_5
100
AcDbDimension
  2
*D5
 10
99.30243648621349
 20
221.0808022950895
 30
0.0
 11
88.34062546259143
 21
224.3308022950895
 31
0.0
 70
    32
  1
t=1.6
 71
     5
 42
1.600000000000022
  3
AM_ISO$0
100
AcDbAlignedDimension
 13
100.9024364862135
 23
203.9009876994151
 33
0.0
 14
99.30243648621349
 24
203.9009876994151
 34
0.0
 50
180.0
100
AcDbRotatedDimension
1001
ACAD_DSTYLE_DIMINSPECT
1070
   396
1000
100%
1070
   395
1000

1070
   394
1070
    33
1070
   393
1070
     0
  0
LINE
  5
FC6C1
330
1F
100
AcDbEntity
  8
AM_5
100
AcDbLine
 10
102.9024364862135
 20
188.900987699415
 30
0.0
 11
97.3024364862135
 21
188.900987699415
 31
0.0
  0
DIMENSION
  5
FC6C2
330
1F
100
AcDbEntity
  8
AM_5
100
AcDbDimension
  2
*D6
 10
196.5235793710456
 20
187.6480997549176
 30
0.0
 11
165.8379589293804
 21
219.1147438715075
 31
0.0
 70
   163
  1
3-<>釘孔
 71
     5
 42
3.500000000000028
  3
AM_ISO$3
100
AcDbDiametricDimension
 15
194.079998557131
 25
190.1538756439126
 35
0.0
 40
0.0
1001
ACAD_DSTYLE_DIMINSPECT
1070
   396
1000
100%
1070
   395
1000

1070
   394
1070
    33
1070
   393
1070
     0
1001
ACAD
1000
DSTYLE
1002
{
1070
     3
1000

1070
    74
1070
     0
1070
   172
1070
     1
1070
   288
1070
     0
1070
   289
1070
     3
1002
}
  0
DIMENSION
  5
FC6C3
330
1F
100
AcDbEntity
  8
AM_5
100
AcDbDimension
  2
*D7
 10
180.3017889640883
 20
221.0808022950895
 30
0.0
 11
197.8017889640883
 21
224.3308022950895
 31
0.0
 70
    32
  1
35
 71
     5
 42
35.0
  3
AM_ISO$0
100
AcDbAlignedDimension
 13
215.3017889640883
 23
203.9009876994151
 33
0.0
 14
180.3017889640883
 24
203.9009876994151
 34
0.0
100
AcDbRotatedDimension
1001
ACAD_DSTYLE_DIMINSPECT
1070
   396
1000
100%
1070
   395
1000

1070
   394
1070
    33
1070
   393
1070
     0
  0
LINE
  5
FC6C5
330
1F
100
AcDbEntity
  8
AM_5
100
AcDbLine
 10
180.3017889640883
 20
203.9009876994151
 30
0.0
 11
216.9017889640883
 21
203.9009876994151
 31
0.0
  0
CIRCLE
  5
FC6C7
330
1F
100
AcDbEntity
  8
AM_5
100
AcDbCircle
 10
195.3017889640883
 20
188.900987699415
 30
0.0
 40
1.75
  0
LINE
  5
FC6C8
330
1F
100
AcDbEntity
  8
AM_5
100
AcDbLine
 10
195.3017889640883
 20
192.6509876994151
 30
0.0
 11
195.3017889640883
 21
185.1509876994151
 31
0.0
  0
LINE
  5
FC6C9
330
1F
100
AcDbEntity
  8
AM_5
100
AcDbLine
 10
195.3017889640883
 20
167.6509876994151
 30
0.0
 11
195.3017889640883
 21
160.1509876994151
 31
0.0
  0
CIRCLE
  5
FC6CA
330
1F
100
AcDbEntity
  8
AM_5
100
AcDbCircle
 10
195.3017889640883
 20
163.900987699415
 30
0.0
 40
1.75
  0
LINE
  5
FC6CC
330
1F
100
AcDbEntity
  8
AM_5
100
AcDbLine
 10
190.3017889640883
 20
155.1509876994151
 30
0.0
 11
190.3017889640883
 21
147.6509876994151
 31
0.0
  0
CIRCLE
  5
FC6CD
330
1F
100
AcDbEntity
  8
AM_5
100
AcDbCircle
 10
190.3017889640883
 20
151.400987699415
 30
0.0
 40
1.75
  0
LINE
  5
FC6CE
330
1F
100
AcDbEntity
  8
AM_5
100
AcDbLine
 10
186.5517889640883
 20
151.400987699415
 30
0.0
 11
194.0517889640883
 21
151.400987699415
 31
0.0
  0
LINE
  5
FC6CF
330
1F
100
AcDbEntity
  8
AM_5
100
AcDbLine
 10
191.5517889640883
 20
163.900987699415
 30
0.0
 11
199.0517889640883
 21
163.900987699415
 31
0.0
  0
LINE
  5
FC6D2
330
1F
100
AcDbEntity
  8
AM_5
100
AcDbLine
 10
191.5517889640883
 20
188.900987699415
 30
0.0
 11
199.0517889640883
 21
188.900987699415
 31
0.0
  0
LINE
  5
FC6D3
330
1F
100
AcDbEntity
  8
AM_5
100
AcDbLine
 10
213.3017889640883
 20
178.9009876994151
 30
0.0
 11
218.9017889640883
 21
178.9009876994151
 31
0.0
  0
DIMENSION
  5
FC6D4
330
1F
100
AcDbEntity
  8
AM_5
100
AcDbDimension
  2
*D8
 10
216.9017889640883
 20
221.0808022950895
 30
0.0
 11
216.1017889640883
 21
221.0808022950895
 31
0.0
 70
   160
  1
t=1.6
 71
     5
 42
1.599999999999965
  3
AM_ISO$0
100
AcDbAlignedDimension
 13
215.3017889640883
 23
203.9009876994151
 33
0.0
 14
216.9017889640883
 24
203.9009876994151
 34
0.0
100
AcDbRotatedDimension
1001
ACAD_DSTYLE_DIMINSPECT
1070
   396
1000
100%
1070
   395
1000

1070
   394
1070
    33
1070
   393
1070
     0
  0
DIMENSION
  5
FC6D9
330
1F
100
AcDbEntity
  8
AM_5
100
AcDbDimension
  2
*D9
 10
384.9362895296413
 20
151.462030709916
 30
0.0
 11
394.2089237612325
 21
133.1619035970039
 31
0.0
 70
    35
  1
2-<>釘孔
 71
     5
 42
3.50000000000017
  3
AM_ISO$3
100
AcDbDiametricDimension
 15
386.5182436621833
 25
148.3399446889142
 35
0.0
 40
0.0
1001
ACAD
1000
DSTYLE
1002
{
1070
    74
1070
     0
1070
   172
1070
     1
1070
   288
1070
     0
1070
   289
1070
     3
1002
}
1001
ACAD_DSTYLE_DIMINSPECT
1070
   396
1000
100%
1070
   395
1000

1070
   394
1070
    33
1070
   393
1070
     0
  0
LINE
  5
FC6DA
330
1F
100
AcDbEntity
  8
AM_5
100
AcDbLine
 10
412.327266595912
 20
203.9009876994151
 30
0.0
 11
412.327266595912
 21
123.9009876994151
 31
0.0
  0
LINE
  5
FC6DB
330
1F
100
AcDbEntity
  8
AM_5
100
AcDbLine
 10
410.7272665959119
 20
203.9009876994151
 30
0.0
 11
410.7272665959119
 21
123.9009876994151
 31
0.0
  0
LINE
  5
FC6DC
330
1F
100
AcDbEntity
  8
AM_5
100
AcDbLine
 10
412.327266595912
 20
123.9009876994151
 30
0.0
 11
412.327266595912
 21
203.9009876994151
 31
0.0
  0
LINE
  5
FC6DD
330
1F
100
AcDbEntity
  8
AM_5
100
AcDbLine
 10
370.7272665959121
 20
203.9009876994151
 30
0.0
 11
370.7272665959121
 21
117.3009876994151
 31
0.0
  0
LINE
  5
FC6DE
330
1F
100
AcDbEntity
  8
AM_5
100
AcDbLine
 10
410.7272665959119
 20
123.9009876994151
 30
0.0
 11
410.7272665959119
 21
203.9009876994151
 31
0.0
  0
DIMENSION
  5
FC6DF
330
1F
100
AcDbEntity
  8
AM_5
100
AcDbDimension
  2
*D10
 10
349.7009462276122
 20
118.9009876994151
 30
0.0
 11
346.4509462276122
 21
161.4009876994151
 31
0.0
 70
    32
  1
85
 71
     5
 42
85.0
  3
AM_ISO$0
100
AcDbAlignedDimension
 13
315.5017889640884
 23
203.9009876994151
 33
0.0
 14
277.9017889640883
 24
118.9009876994151
 34
0.0
 50
90.0
100
AcDbRotatedDimension
1001
ACAD_DSTYLE_DIMINSPECT
1070
   396
1000
100%
1070
   395
1000

1070
   394
1070
    33
1070
   393
1070
     0
  0
LINE
  5
FC6E2
330
1F
100
AcDbEntity
  8
AM_5
100
AcDbLine
 10
300.5017889640884
 20
142.6509876994151
 30
0.0
 11
300.5017889640884
 21
135.1509876994151
 31
0.0
  0
LINE
  5
FC6E3
330
1F
100
AcDbEntity
  8
AM_5
100
AcDbLine
 10
280.5017889640883
 20
203.9009876994151
 30
0.0
 11
280.5017889640883
 21
119.9009876994151
 31
0.0
  0
LINE
  5
FC6E4
330
1F
100
AcDbEntity
  8
AM_5
100
AcDbLine
 10
315.5017889640884
 20
203.9009876994151
 30
0.0
 11
315.5017889640884
 21
123.9009876994151
 31
0.0
  0
LINE
  5
FC6E5
330
1F
100
AcDbEntity
  8
AM_5
100
AcDbLine
 10
278.9017889640883
 20
119.9009876994151
 30
0.0
 11
278.9017889640883
 21
203.9009876994151
 31
0.0
  0
LINE
  5
FC6E6
330
1F
100
AcDbEntity
  8
AM_5
100
AcDbLine
 10
315.5017889640884
 20
123.9009876994151
 30
0.0
 11
315.5017889640884
 21
203.9009876994151
 31
0.0
  0
LINE
  5
FC6E7
330
1F
100
AcDbEntity
  8
AM_5
100
AcDbLine
 10
370.7272665959121
 20
117.3009876994151
 30
0.0
 11
400.366966115803
 21
117.3009876994151
 31
0.0
  0
LINE
  5
FC6E8
330
1F
100
AcDbEntity
  8
AM_5
100
AcDbLine
 10
370.7272665959121
 20
118.9009876994151
 30
0.0
 11
402.7912085400455
 21
118.9009876994151
 31
0.0
  0
LINE
  5
FC6E9
330
1F
100
AcDbEntity
  8
AM_5
100
AcDbLine
 10
278.9017889640882
 20
44.92344268462034
 30
0.0
 11
278.9017889640882
 21
54.12344268462033
 31
0.0
  0
LINE
  5
FC6EA
330
1F
100
AcDbEntity
  8
AM_5
100
AcDbLine
 10
278.9017889640882
 20
54.12344268462033
 30
0.0
 11
278.9017889640882
 21
44.92344268462034
 31
0.0
  0
LINE
  5
FC6EB
330
1F
100
AcDbEntity
  8
AM_5
100
AcDbLine
 10
280.5017889640883
 20
44.92344268462034
 30
0.0
 11
280.5017889640883
 21
84.12344268462033
 31
0.0
  0
DIMENSION
  5
FC6ED
330
1F
100
AcDbEntity
  8
AM_5
100
AcDbDimension
  2
*D11
 10
339.0193477541064
 20
44.12344268462032
 30
0.0
 11
335.7693477541064
 21
64.12344268462037
 31
0.0
 70
    32
 71
     5
 42
40.0
  3
AM_ISO$0
100
AcDbAlignedDimension
 13
280.5017889640883
 23
84.12344268462033
 33
0.0
 14
315.5017889640882
 24
44.12344268462033
 34
0.0
 50
270.0
100
AcDbRotatedDimension
1001
ACAD_DSTYLE_DIMINSPECT
1070
   396
1000
100%
1070
   395
1000

1070
   394
1070
    33
1070
   393
1070
     0
  0
LINE
  5
FC6EE
330
1F
100
AcDbEntity
  8
AM_5
100
AcDbLine
 10
281.3017889640883
 20
42.52344268462031
 30
0.0
 11
315.5017889640882
 21
42.52344268462031
 31
0.0
  0
LINE
  5
FC6EF
330
1F
100
AcDbEntity
  8
AM_5
100
AcDbLine
 10
315.5017889640882
 20
44.12344268462033
 30
0.0
 11
281.3017889640883
 21
44.12344268462033
 31
0.0
  0
ARC
  5
FC6F1
330
1F
100
AcDbEntity
  8
AM_5
100
AcDbCircle
 10
281.3017889640883
 20
44.92344268462034
 30
0.0
 40
2.399999999999999
100
AcDbArc
 50
180.0
 51
270.0
  0
ARC
  5
FC6F2
330
1F
100
AcDbEntity
  8
AM_5
100
AcDbCircle
 10
281.3017889640883
 20
44.92344268462034
 30
0.0
 40
0.8
100
AcDbArc
 50
180.0
 51
270.0
  0
LINE
  5
FC6F3
330
1F
100
AcDbEntity
  8
AM_5
100
AcDbLine
 10
300.5017889640882
 20
40.52344268462029
 30
0.0
 11
300.5017889640882
 21
46.12344268462034
 31
0.0
  0
LINE
  5
FC6F4
330
1F
100
AcDbEntity
  8
AM_5
100
AcDbLine
 10
315.5017889640882
 20
42.52344268462031
 30
0.0
 11
315.5017889640882
 21
44.12344268462033
 31
0.0
  0
DIMENSION
  5
FC6F5
330
1F
100
AcDbEntity
  8
AM_5
100
AcDbDimension
  2
*D12
 10
333.8448546829246
 20
118.9009876994151
 30
0.0
 11
330.5948546829246
 21
121.4009876994151
 31
0.0
 70
    32
 71
     5
 42
5.000000000000013
  3
AM_ISO$0
100
AcDbAlignedDimension
 13
315.5017889640884
 23
123.9009876994151
 33
0.0
 14
315.5017889640884
 24
118.9009876994151
 34
0.0
 50
90.0
100
AcDbRotatedDimension
1001
ACAD_DSTYLE_DIMINSPECT
1070
   396
1000
100%
1070
   395
1000

1070
   394
1070
    33
1070
   393
1070
     0
  0
DIMENSION
  5
FC6F6
330
1F
100
AcDbEntity
  8
AM_5
100
AcDbDimension
  2
*D13
 10
330.7039653081956
 20
54.12344268462033
 30
0.0
 11
327.4539653081955
 21
69.12344268462037
 31
0.0
 70
    32
 71
     5
 42
29.99999999999999
  3
AM_ISO$0
100
AcDbAlignedDimension
 13
280.5017889640883
 23
84.12344268462033
 33
0.0
 14
280.5017889640883
 24
54.12344268462033
 34
0.0
 50
270.0
100
AcDbRotatedDimension
1001
ACAD_DSTYLE_DIMINSPECT
1070
   396
1000
100%
1070
   395
1000

1070
   394
1070
    33
1070
   393
1070
     0
  0
LINE
  5
FC6F8
330
1F
100
AcDbEntity
  8
AM_5
100
AcDbLine
 10
278.9017889640882
 20
54.12344268462033
 30
0.0
 11
278.9017889640882
 21
84.12344268462033
 31
0.0
  0
LINE
  5
FC6F9
330
1F
100
AcDbEntity
  8
AM_5
100
AcDbLine
 10
276.9017889640882
 20
69.12344268462033
 30
0.0
 11
282.5017889640882
 21
69.12344268462033
 31
0.0
  0
LINE
  5
FC6FA
330
1F
100
AcDbEntity
  8
AM_5
100
AcDbLine
 10
296.7517889640884
 20
138.9009876994151
 30
0.0
 11
304.2517889640884
 21
138.9009876994151
 31
0.0
  0
LINE
  5
FC6FB
330
1F
100
AcDbEntity
  8
AM_5
100
AcDbLine
 10
280.5017889640883
 20
123.9009876994151
 30
0.0
 11
315.5017889640884
 21
123.9009876994151
 31
0.0
  0
ARC
  5
FC6FC
330
1F
100
AcDbEntity
  8
AM_5
100
AcDbCircle
 10
277.9017889640883
 20
119.9009876994151
 30
0.0
 40
2.6
100
AcDbArc
 50
270.0
 51
0.0
  0
ARC
  5
FC6FD
330
1F
100
AcDbEntity
  8
AM_5
100
AcDbCircle
 10
277.9017889640883
 20
119.9009876994151
 30
0.0
 40
1.0
100
AcDbArc
 50
270.0
 51
0.0
  0
CIRCLE
  5
FC6FE
330
1F
100
AcDbEntity
  8
AM_5
100
AcDbCircle
 10
300.5017889640884
 20
138.9009876994151
 30
0.0
 40
1.75
  0
LINE
  5
FC700
330
1F
100
AcDbEntity
  8
AM_5
100
AcDbLine
 10
401.0279767657998
 20
117.499456411541
 30
0.0
 11
403.4522191900423
 21
119.0994564115411
 31
0.0
  0
ARC
  5
FC701
330
1F
100
AcDbEntity
  8
AM_5
100
AcDbCircle
 10
400.366966115803
 20
118.5009876994151
 30
0.0
 40
1.199999999999999
100
AcDbArc
 50
270.0
 51
303.4248111826037
  0
LINE
  5
FC702
330
1F
100
AcDbEntity
  8
AM_5
100
AcDbLine
 10
408.7272665959121
 20
138.9009876994151
 30
0.0
 11
414.3272665959121
 21
138.9009876994151
 31
0.0
  0
LINE
  5
FC703
330
1F
100
AcDbEntity
  8
AM_5
100
AcDbLine
 10
410.7272665959119
 20
123.9009876994151
 30
0.0
 11
403.4522191900423
 21
119.0994564115411
 31
0.0
  0
ARC
  5
FC704
330
1F
100
AcDbEntity
  8
AM_5
100
AcDbCircle
 10
402.7912085400455
 20
120.1009876994151
 30
0.0
 40
1.199999999999999
100
AcDbArc
 50
270.0
 51
303.4248111826037
  0
LINE
  5
FC705
330
1F
100
AcDbEntity
  8
AM_5
100
AcDbLine
 10
412.327266595912
 20
123.9009876994151
 30
0.0
 11
410.7272665959119
 21
123.9009876994151
 31
0.0
  0
LINE
  5
FC706
330
1F
100
AcDbEntity
  8
AM_5
100
AcDbLine
 10
412.327266595912
 20
203.9009876994151
 30
0.0
 11
370.7272665959121
 21
203.9009876994151
 31
0.0
  0
DIMENSION
  5
FC707
330
1F
100
AcDbEntity
  8
AM_5
100
AcDbDimension
  2
*D14
 10
410.7272665959119
 20
221.0808022950895
 30
0.0
 11
390.7272665959121
 21
224.3308022950895
 31
0.0
 70
    32
 71
     5
 42
40.0
  3
AM_ISO$0
100
AcDbAlignedDimension
 13
370.7272665959121
 23
203.9009876994151
 33
0.0
 14
410.7272665959119
 24
203.9009876994151
 34
0.0
100
AcDbRotatedDimension
1001
ACAD_DSTYLE_DIMINSPECT
1070
   396
1000
100%
1070
   395
1000

1070
   394
1070
    33
1070
   393
1070
     0
  0
LINE
  5
FC70B
330
1F
100
AcDbEntity
  8
AM_5
100
AcDbLine
 10
300.5017889640884
 20
192.6509876994151
 30
0.0
 11
300.5017889640884
 21
185.1509876994151
 31
0.0
  0
CIRCLE
  5
FC70C
330
1F
100
AcDbEntity
  8
AM_5
100
AcDbCircle
 10
300.5017889640884
 20
188.900987699415
 30
0.0
 40
1.75
  0
LINE
  5
FC70D
330
1F
100
AcDbEntity
  8
AM_5
100
AcDbLine
 10
296.7517889640884
 20
163.900987699415
 30
0.0
 11
304.2517889640884
 21
163.900987699415
 31
0.0
  0
LINE
  5
FC70E
330
1F
100
AcDbEntity
  8
AM_5
100
AcDbLine
 10
282.5017889640884
 20
149.9009876994151
 30
0.0
 11
276.9017889640883
 21
149.9009876994151
 31
0.0
  0
LINE
  5
FC70F
330
1F
100
AcDbEntity
  8
AM_5
100
AcDbLine
 10
300.5017889640884
 20
167.6509876994151
 30
0.0
 11
300.5017889640884
 21
160.1509876994151
 31
0.0
  0
CIRCLE
  5
FC710
330
1F
100
AcDbEntity
  8
AM_5
100
AcDbCircle
 10
300.5017889640884
 20
163.900987699415
 30
0.0
 40
1.75
  0
LINE
  5
FC712
330
1F
100
AcDbEntity
  8
AM_5
100
AcDbLine
 10
305.5017889640883
 20
155.1509876994151
 30
0.0
 11
305.5017889640883
 21
147.6509876994151
 31
0.0
  0
CIRCLE
  5
FC713
330
1F
100
AcDbEntity
  8
AM_5
100
AcDbCircle
 10
305.5017889640883
 20
151.400987699415
 30
0.0
 40
1.75
  0
LINE
  5
FC714
330
1F
100
AcDbEntity
  8
AM_5
100
AcDbLine
 10
301.7517889640883
 20
151.400987699415
 30
0.0
 11
309.2517889640884
 21
151.400987699415
 31
0.0
  0
DIMENSION
  5
FC715
330
1F
100
AcDbEntity
  8
AM_5
100
AcDbDimension
  2
*D15
 10
315.5017889640884
 20
221.0808022950895
 30
0.0
 11
298.0017889640883
 21
224.3308022950895
 31
0.0
 70
    32
  1
 35
 71
     5
 42
35.0
  3
AM_ISO$0
100
AcDbAlignedDimension
 13
280.5017889640883
 23
203.9009876994151
 33
0.0
 14
315.5017889640884
 24
203.9009876994151
 34
0.0
100
AcDbRotatedDimension
1001
ACAD_DSTYLE_DIMINSPECT
1070
   396
1000
100%
1070
   395
1000

1070
   394
1070
    33
1070
   393
1070
     0
  0
LINE
  5
FC717
330
1F
100
AcDbEntity
  8
AM_5
100
AcDbLine
 10
296.7517889640884
 20
188.900987699415
 30
0.0
 11
304.2517889640884
 21
188.900987699415
 31
0.0
  0
LINE
  5
FC718
330
1F
100
AcDbEntity
  8
AM_5
100
AcDbLine
 10
278.9017889640883
 20
203.9009876994151
 30
0.0
 11
315.5017889640884
 21
203.9009876994151
 31
0.0
  0
LINE
  5
FC719
330
1F
100
AcDbEntity
  8
AM_5
100
AcDbLine
 10
282.5017889640884
 20
189.9009876994151
 30
0.0
 11
276.9017889640883
 21
189.9009876994151
 31
0.0
  0
CIRCLE
  5
FC71C
330
1F
100
AcDbEntity
  8
AM_5
100
AcDbCircle
 10
385.7272665959121
 20
189.9009876994151
 30
0.0
 40
1.75
  0
LINE
  5
FC71D
330
1F
100
AcDbEntity
  8
AM_5
100
AcDbLine
 10
385.7272665959121
 20
193.6509876994151
 30
0.0
 11
385.7272665959121
 21
186.1509876994151
 31
0.0
  0
LINE
  5
FC71E
330
1F
100
AcDbEntity
  8
AM_5
100
AcDbLine
 10
385.7272665959121
 20
153.650987699415
 30
0.0
 11
385.7272665959121
 21
146.1509876994151
 31
0.0
  0
LINE
  5
FC71F
330
1F
100
AcDbEntity
  8
AM_5
100
AcDbLine
 10
381.9772665959121
 20
149.9009876994151
 30
0.0
 11
389.4772665959121
 21
149.9009876994151
 31
0.0
  0
CIRCLE
  5
FC720
330
1F
100
AcDbEntity
  8
AM_5
100
AcDbCircle
 10
385.7272665959121
 20
149.9009876994151
 30
0.0
 40
1.75
  0
LINE
  5
FC723
330
1F
100
AcDbEntity
  8
AM_5
100
AcDbLine
 10
381.9772665959121
 20
189.9009876994151
 30
0.0
 11
389.4772665959121
 21
189.9009876994151
 31
0.0
  0
LINE
  5
FC724
330
1F
100
AcDbEntity
  8
AM_5
100
AcDbLine
 10
414.3272665959121
 20
163.900987699415
 30
0.0
 11
408.7272665959121
 21
163.900987699415
 31
0.0
  0
DIMENSION
  5
FC725
330
1F
100
AcDbEntity
  8
AM_5
100
AcDbDimension
  2
*D16
 10
412.327266595912
 20
221.0808022950895
 30
0.0
 11
423.2890776195342
 21
224.3308022950895
 31
0.0
 70
    32
  1
t=1.6
 71
     5
 42
1.600000000000022
  3
AM_ISO$0
100
AcDbAlignedDimension
 13
410.7272665959119
 23
203.9009876994151
 33
0.0
 14
412.327266595912
 24
203.9009876994151
 34
0.0
100
AcDbRotatedDimension
1001
ACAD_DSTYLE_DIMINSPECT
1070
   396
1000
100%
1070
   395
1000

1070
   394
1070
    33
1070
   393
1070
     0
  0
LINE
  5
FC726
330
1F
100
AcDbEntity
  8
AM_5
100
AcDbLine
 10
408.7272665959121
 20
188.900987699415
 30
0.0
 11
414.3272665959121
 21
188.900987699415
 31
0.0
  0
DIMENSION
  5
FCD30
330
1F
100
AcDbEntity
  8
AM_5
100
AcDbDimension
  2
*D18
 10
548.1633751953021
 20
201.7019230253912
 30
0.0
 11
529.1133751953013
 21
204.9519230253912
 31
0.0
 70
    32
 71
     5
 42
38.10000000000128
  3
AM_ISO$0
100
AcDbAlignedDimension
 13
510.0633751953008
 23
210.1421902435085
 33
0.0
 14
548.1633751953021
 24
213.602878388546
 34
0.0
100
AcDbRotatedDimension
1001
ACAD_DSTYLE_DIMINSPECT
1070
   396
1000
100%
1070
   395
1000

1070
   394
1070
    33
1070
   393
1070
     0
  0
LINE
  5
FCD31
330
1F
100
AcDbEntity
  8
AM_5
100
AcDbLine
 10
506.5633751953008
 20
213.602878388546
 30
0.0
 11
550.163375195302
 21
213.602878388546
 31
0.0
  0
DIMENSION
  5
FCD32
330
1F
100
AcDbEntity
  8
AM_5
100
AcDbDimension
  2
*D19
 10
482.805007859791
 20
217.1728783885459
 30
0.0
 11
479.5550078597909
 21
228.747878388546
 31
0.0
 70
    32
  1
%%C<>
 71
     5
 42
7.1400000000001
  3
AM_ISO$0
100
AcDbAlignedDimension
 13
472.7436920316811
 23
210.0328783885458
 33
0.0
 14
472.7436920316811
 24
217.1728783885459
 34
0.0
 50
90.0
100
AcDbRotatedDimension
1001
ACAD_DSTYLE_DIMINSPECT
1070
   396
1000
100%
1070
   395
1000

1070
   394
1070
    33
1070
   393
1070
     0
  0
LINE
  5
FCD33
330
1F
100
AcDbEntity
  8
AM_5
100
AcDbLine
 10
472.7436920316811
 20
219.1728783885459
 30
0.0
 11
472.7436920316811
 21
208.0328783885458
 31
0.0
  0
CIRCLE
  5
FCD34
330
1F
100
AcDbEntity
  8
AM_5
100
AcDbCircle
 10
472.7436920316811
 20
213.602878388546
 30
0.0
 40
3.569999999999998
  0
LINE
  5
FCD35
330
1F
100
AcDbEntity
  8
AM_5
100
AcDbLine
 10
478.3136920316809
 20
213.602878388546
 30
0.0
 11
467.1736920316811
 21
213.602878388546
 31
0.0
  0
LWPOLYLINE
  5
FCD36
330
1F
100
AcDbEntity
  8
AM_5
100
AcDbPolyline
 90
        4
 70
     1
 43
0.0
 10
510.0633751953008
 20
210.1421902435085
 10
508.5633751953007
 20
210.1421902435085
 10
508.5633751953007
 20
217.0635665335832
 10
510.0633751953008
 20
217.0635665335832
  0
DIMENSION
  5
FCD37
330
1F
100
AcDbEntity
  8
AM_5
100
AcDbDimension
  2
*D20
 10
508.5633751953007
 20
201.7019230253912
 30
0.0
 11
499.8908878218855
 21
204.9519230253912
 31
0.0
 70
    32
 71
     5
 42
1.500000000000112
  3
AM_ISO$0
100
AcDbAlignedDimension
 13
510.0633751953008
 23
210.1421902435085
 33
0.0
 14
508.5633751953007
 24
210.1421902435085
 34
0.0
100
AcDbRotatedDimension
1001
ACAD_DSTYLE_DIMINSPECT
1070
   396
1000
100%
1070
   395
1000

1070
   394
1070
    33
1070
   393
1070
     0
  0
ARC
  5
FCD38
330
1F
100
AcDbEntity
  8
AM_5
100
AcDbCircle
 10
541.1633751953009
 20
214.4353783885459
 30
0.0
 40
0.8325000000000031
100
AcDbArc
 50
90.0
 51
270.0
  0
ARC
  5
FCD39
330
1F
100
AcDbEntity
  8
AM_5
100
AcDbCircle
 10
541.1633751953009
 20
212.7703783885459
 30
0.0
 40
0.8325000000000031
100
AcDbArc
 50
90.0
 51
270.0
  0
LINE
  5
FCD3A
330
1F
100
AcDbEntity
  8
AM_5
100
AcDbLine
 10
548.1633751953007
 20
213.602878388546
 30
0.0
 11
541.1633751953009
 21
215.2678783885459
 31
0.0
  0
LINE
  5
FCD3B
330
1F
100
AcDbEntity
  8
AM_5
100
AcDbLine
 10
548.1633751953007
 20
213.602878388546
 30
0.0
 11
541.1633751953009
 21
211.9378783885459
 31
0.0
  0
LINE
  5
FCD3C
330
1F
100
AcDbEntity
  8
AM_5
100
AcDbLine
 10
511.0633751953009
 20
215.2678783885459
 30
0.0
 11
511.0633751953009
 21
211.9378783885459
 31
0.0
  0
LINE
  5
FCD3D
330
1F
100
AcDbEntity
  8
AM_5
100
AcDbLine
 10
512.0633751953008
 20
215.2678783885459
 30
0.0
 11
512.0633751953008
 21
211.9378783885459
 31
0.0
  0
LINE
  5
FCD3E
330
1F
100
AcDbEntity
  8
AM_5
100
AcDbLine
 10
513.0633751953006
 20
215.2678783885459
 30
0.0
 11
513.0633751953006
 21
211.9378783885459
 31
0.0
  0
LINE
  5
FCD3F
330
1F
100
AcDbEntity
  8
AM_5
100
AcDbLine
 10
514.0633751953008
 20
215.2678783885459
 30
0.0
 11
514.0633751953008
 21
211.9378783885459
 31
0.0
  0
LINE
  5
FCD40
330
1F
100
AcDbEntity
  8
AM_5
100
AcDbLine
 10
515.0633751953018
 20
215.2678783885459
 30
0.0
 11
515.0633751953018
 21
211.9378783885459
 31
0.0
  0
LINE
  5
FCD41
330
1F
100
AcDbEntity
  8
AM_5
100
AcDbLine
 10
516.0633751953008
 20
215.2678783885459
 30
0.0
 11
516.0633751953008
 21
211.9378783885459
 31
0.0
  0
ARC
  5
FCD42
330
1F
100
AcDbEntity
  8
AM_5
100
AcDbCircle
 10
511.0633751953009
 20
210.937878388546
 30
0.0
 40
1.0
100
AcDbArc
 50
90.0
 51
180.0
1001
GENIUS_GENODEF_13
1002
{
1000
HIER
1070
     0
1002
}
1002
{
1000
MANEDIT
1070
     0
1002
}
1002
{
1000
NOSEL
1070
     0
1002
}
1002
{
1000
BEHIND
1070
     0
1002
}
1002
{
1000
OTHER
1070
     0
1002
}
1002
{
1000
REACTOR
1002
}
1001
GENIUS_GENOBJ-N-FIL_13
1002
{
1000
OWNER
1000
GEN
1002
}
  0
LINE
  5
FCD43
330
1F
100
AcDbEntity
  8
AM_5
100
AcDbLine
 10
541.1633751953009
 20
215.2678783885457
 30
0.0
 11
511.0633751953009
 21
215.2678783885459
 31
0.0
  0
LINE
  5
FCD44
330
1F
100
AcDbEntity
  8
AM_5
100
AcDbLine
 10
541.1633751953009
 20
211.9378783885459
 30
0.0
 11
511.0633751953009
 21
211.9378783885459
 31
0.0
  0
ARC
  5
FCD45
330
1F
100
AcDbEntity
  8
AM_5
100
AcDbCircle
 10
511.0633751953009
 20
216.2678783885458
 30
0.0
 40
1.0
100
AcDbArc
 50
180.0
 51
270.0
1001
GENIUS_GENODEF_13
1002
{
1000
HIER
1070
     0
1002
}
1002
{
1000
MANEDIT
1070
     0
1002
}
1002
{
1000
NOSEL
1070
     0
1002
}
1002
{
1000
BEHIND
1070
     0
1002
}
1002
{
1000
OTHER
1070
     0
1002
}
1002
{
1000
REACTOR
1002
}
1001
GENIUS_GENOBJ-N-FIL_13
1002
{
1000
OWNER
1000
GEN
1002
}
  0
DIMENSION
  5
FCD46
330
1F
100
AcDbEntity
  8
AM_5
100
AcDbDimension
  2
*D21
 10
528.737504766285
 20
215.2678783885459
 30
0.0
 11
525.487504766285
 21
227.0903657619612
 31
0.0
 70
    32
  1
%%c<>
 71
     5
 42
3.329999999999897
  3
AM_ISO$0
100
AcDbAlignedDimension
 13
526.1133751953009
 23
211.9378783885459
 33
0.0
 14
526.1133751953009
 24
215.2678783885459
 34
0.0
 50
90.0
100
AcDbRotatedDimension
1001
ACAD_DSTYLE_DIMINSPECT
1070
   396
1000
100%
1070
   395
1000

1070
   394
1070
    33
1070
   393
1070
     0
  0
MTEXT
  5
FCD47
330
1F
100
AcDbEntity
  8
AM_5
100
AcDbMText
 10
467.6705558596268
 20
265.6533503201664
 30
0.0
 40
10.0
 41
123.3093076552304
 71
     1
 72
     5
  1
太めくぎＺＮ40
  7
2014++
 73
     1
 44
1.0
1001
ACAD
1000
ACAD_MTEXT_COLUMN_INFO_BEGIN
1070
    75
1070
     2
1070
    79
1070
     0
1070
    76
1070
     1
1070
    78
1070
     0
1070
    48
1040
123.3093076552304
1070
    49
1040
12.5
1070
    50
1070
     1
1040
0.0
1000
ACAD_MTEXT_COLUMN_INFO_END
  0
DIMENSION
  5
FCD48
330
1F
100
AcDbEntity
  8
AM_5
100
AcDbDimension
  2
*D22
 10
735.428010811896
 20
201.2174385859053
 30
0.0
 11
703.6780108118962
 21
204.4674385859053
 31
0.0
 70
    32
 71
     5
 42
63.49999999999977
  3
AM_ISO$0
100
AcDbAlignedDimension
 13
671.9280108118963
 23
210.1421902435085
 33
0.0
 14
735.428010811896
 24
213.602878388546
 34
0.0
100
AcDbRotatedDimension
1001
ACAD_DSTYLE_DIMINSPECT
1070
   396
1000
100%
1070
   395
1000

1070
   394
1070
    33
1070
   393
1070
     0
  0
LINE
  5
FCD49
330
1F
100
AcDbEntity
  8
AM_5
100
AcDbLine
 10
668.4280108118963
 20
213.602878388546
 30
0.0
 11
737.4280108118962
 21
213.602878388546
 31
0.0
  0
DIMENSION
  5
FCD4A
330
1F
100
AcDbEntity
  8
AM_5
100
AcDbDimension
  2
*D23
 10
644.6696434763858
 20
217.1728783885459
 30
0.0
 11
641.419643476386
 21
228.7478783885461
 31
0.0
 70
    32
  1
%%C<>
 71
     5
 42
7.139999999999987
  3
AM_ISO$0
100
AcDbAlignedDimension
 13
634.6083276482761
 23
210.0328783885459
 33
0.0
 14
634.6083276482761
 24
217.1728783885459
 34
0.0
 50
90.0
100
AcDbRotatedDimension
1001
ACAD_DSTYLE_DIMINSPECT
1070
   396
1000
100%
1070
   395
1000

1070
   394
1070
    33
1070
   393
1070
     0
  0
CIRCLE
  5
FCD4B
330
1F
100
AcDbEntity
  8
AM_5
100
AcDbCircle
 10
634.6083276482761
 20
213.602878388546
 30
0.0
 40
3.569999999999998
  0
LINE
  5
FCD4C
330
1F
100
AcDbEntity
  8
AM_5
100
AcDbLine
 10
634.6083276482761
 20
219.1728783885459
 30
0.0
 11
634.6083276482761
 21
208.0328783885458
 31
0.0
  0
LINE
  5
FCD4D
330
1F
100
AcDbEntity
  8
AM_5
100
AcDbLine
 10
640.1783276482762
 20
213.602878388546
 30
0.0
 11
629.0383276482761
 21
213.602878388546
 31
0.0
  0
LWPOLYLINE
  5
FCD4E
330
1F
100
AcDbEntity
  8
AM_5
100
AcDbPolyline
 90
        4
 70
     1
 43
0.0
 10
671.9280108118963
 20
210.1421902435085
 10
670.4280108118963
 20
210.1421902435085
 10
670.4280108118963
 20
217.0635665335831
 10
671.9280108118963
 20
217.0635665335831
  0
DIMENSION
  5
FCD4F
330
1F
100
AcDbEntity
  8
AM_5
100
AcDbDimension
  2
*D24
 10
670.4280108118963
 20
201.2174385859053
 30
0.0
 11
661.7555234384809
 21
204.4674385859053
 31
0.0
 70
    32
 71
     5
 42
1.5
  3
AM_ISO$0
100
AcDbAlignedDimension
 13
671.9280108118963
 23
210.1421902435085
 33
0.0
 14
670.4280108118963
 24
210.1421902435085
 34
0.0
100
AcDbRotatedDimension
1001
ACAD_DSTYLE_DIMINSPECT
1070
   396
1000
100%
1070
   395
1000

1070
   394
1070
    33
1070
   393
1070
     0
  0
ARC
  5
FCD50
330
1F
100
AcDbEntity
  8
AM_5
100
AcDbCircle
 10
728.4280108118959
 20
212.7703783885459
 30
0.0
 40
0.8325000000000031
100
AcDbArc
 50
90.0
 51
270.0
  0
ARC
  5
FCD51
330
1F
100
AcDbEntity
  8
AM_5
100
AcDbCircle
 10
728.4280108118959
 20
214.4353783885458
 30
0.0
 40
0.8325000000000031
100
AcDbArc
 50
90.0
 51
270.0
  0
LINE
  5
FCD52
330
1F
100
AcDbEntity
  8
AM_5
100
AcDbLine
 10
735.428010811896
 20
213.602878388546
 30
0.0
 11
728.4280108118959
 21
211.9378783885458
 31
0.0
  0
LINE
  5
FCD53
330
1F
100
AcDbEntity
  8
AM_5
100
AcDbLine
 10
735.428010811896
 20
213.602878388546
 30
0.0
 11
728.4280108118959
 21
215.2678783885459
 31
0.0
  0
LINE
  5
FCD54
330
1F
100
AcDbEntity
  8
AM_5
100
AcDbLine
 10
674.9280108118963
 20
215.2678783885459
 30
0.0
 11
674.9280108118963
 21
211.9378783885458
 31
0.0
  0
LINE
  5
FCD55
330
1F
100
AcDbEntity
  8
AM_5
100
AcDbLine
 10
673.9280108118963
 20
215.2678783885459
 30
0.0
 11
673.9280108118963
 21
211.9378783885458
 31
0.0
  0
LINE
  5
FCD56
330
1F
100
AcDbEntity
  8
AM_5
100
AcDbLine
 10
672.9280108118963
 20
215.2678783885459
 30
0.0
 11
672.9280108118963
 21
211.9378783885458
 31
0.0
  0
LINE
  5
FCD57
330
1F
100
AcDbEntity
  8
AM_5
100
AcDbLine
 10
675.9280108118963
 20
215.2678783885459
 30
0.0
 11
675.9280108118963
 21
211.9378783885458
 31
0.0
  0
LINE
  5
FCD58
330
1F
100
AcDbEntity
  8
AM_5
100
AcDbLine
 10
677.9280108118963
 20
215.2678783885459
 30
0.0
 11
677.9280108118963
 21
211.9378783885458
 31
0.0
  0
LINE
  5
FCD59
330
1F
100
AcDbEntity
  8
AM_5
100
AcDbLine
 10
676.9280108118963
 20
215.2678783885459
 30
0.0
 11
676.9280108118963
 21
211.9378783885458
 31
0.0
  0
ARC
  5
FCD5A
330
1F
100
AcDbEntity
  8
AM_5
100
AcDbCircle
 10
672.9280108118963
 20
210.9378783885458
 30
0.0
 40
1.0
100
AcDbArc
 50
90.0
 51
180.0
1001
GENIUS_GENODEF_13
1002
{
1000
HIER
1070
     0
1002
}
1002
{
1000
MANEDIT
1070
     0
1002
}
1002
{
1000
NOSEL
1070
     0
1002
}
1002
{
1000
BEHIND
1070
     0
1002
}
1002
{
1000
OTHER
1070
     0
1002
}
1002
{
1000
REACTOR
1002
}
1001
GENIUS_GENOBJ-N-FIL_13
1002
{
1000
OWNER
1000
GEN
1002
}
  0
LINE
  5
FCD5B
330
1F
100
AcDbEntity
  8
AM_5
100
AcDbLine
 10
728.4280108118959
 20
211.9378783885458
 30
0.0
 11
672.9280108118963
 21
211.9378783885458
 31
0.0
  0
LINE
  5
FCD5C
330
1F
100
AcDbEntity
  8
AM_5
100
AcDbLine
 10
728.4280108118959
 20
215.2678783885459
 30
0.0
 11
672.9280108118963
 21
215.2678783885459
 31
0.0
  0
ARC
  5
FCD5D
330
1F
100
AcDbEntity
  8
AM_5
100
AcDbCircle
 10
672.9280108118963
 20
216.267878388546
 30
0.0
 40
1.0
100
AcDbArc
 50
180.0
 51
270.0
1001
GENIUS_GENODEF_13
1002
{
1000
HIER
1070
     0
1002
}
1002
{
1000
MANEDIT
1070
     0
1002
}
1002
{
1000
NOSEL
1070
     0
1002
}
1002
{
1000
BEHIND
1070
     0
1002
}
1002
{
1000
OTHER
1070
     0
1002
}
1002
{
1000
REACTOR
1002
}
1001
GENIUS_GENOBJ-N-FIL_13
1002
{
1000
OWNER
1000
GEN
1002
}
  0
DIMENSION
  5
FCD5E
330
1F
100
AcDbEntity
  8
AM_5
100
AcDbDimension
  2
*D25
 10
690.6021403828798
 20
215.2678783885459
 30
0.0
 11
687.3521403828798
 21
227.0903657619613
 31
0.0
 70
    32
  1
%%c<>
 71
     5
 42
3.33000000000004
  3
AM_ISO$0
100
AcDbAlignedDimension
 13
687.3341425683035
 23
211.9378783885458
 33
0.0
 14
687.3341425683035
 24
215.2678783885459
 34
0.0
 50
90.0
100
AcDbRotatedDimension
1001
ACAD_DSTYLE_DIMINSPECT
1070
   396
1000
100%
1070
   395
1000

1070
   394
1070
    33
1070
   393
1070
     0
  0
MTEXT
  5
FCD5F
330
1F
100
AcDbEntity
  8
AM_5
100
AcDbMText
 10
629.5731450027752
 20
265.6533503201664
 30
0.0
 40
10.0
 41
268.9308047476279
 71
     1
 72
     5
  1
{\Fsimplex,bigfont|c128;\W0.8;太めくぎＺＮ65}
 73
     1
 44
1.0
1001
ACAD
1000
ACAD_MTEXT_COLUMN_INFO_BEGIN
1070
    75
1070
     2
1070
    79
1070
     0
1070
    76
1070
     1
1070
    78
1070
     0
1070
    48
1040
268.9308047476279
1070
    49
1040
35.0
1070
    50
1070
     1
1040
0.0
1000
ACAD_MTEXT_COLUMN_INFO_END
  0
MTEXT
  5
FCE27
330
1F
100
AcDbEntity
  8
AM_5
100
AcDbMText
 10
99.3024408450934
 20
265.6533503201665
 30
0.0
 40
10.0
 41
123.3093076552304
 71
     1
 72
     5
  1
根太受け金物（MD304）
  7
2014++
 73
     1
 44
1.0
1001
ACAD
1000
ACAD_MTEXT_COLUMN_INFO_BEGIN
1070
    75
1070
     2
1070
    79
1070
     0
1070
    76
1070
     1
1070
    78
1070
     0
1070
    48
1040
123.3093076552304
1070
    49
1040
12.5
1070
    50
1070
     1
1040
0.0
1000
ACAD_MTEXT_COLUMN_INFO_END
  0
DIMENSION
  5
FD892
330
1F
100
AcDbEntity
  8
AM_5
100
AcDbDimension
  2
*D26
 10
299.2613112076573
 20
140.1353761859942
 30
0.0
 11
344.1038836734102
 21
95.51292739695185
 31
0.0
 70
   163
  1
4-<>釘孔
 71
     5
 42
3.500000000000156
  3
AM_ISO$3
100
AcDbDiametricDimension
 15
301.7422667205203
 25
137.6665992128361
 35
0.0
 40
0.0
1001
ACAD_DSTYLE_DIMINSPECT
1070
   396
1000
100%
1070
   395
1000

1070
   394
1070
    33
1070
   393
1070
     0
1001
ACAD
1000
DSTYLE
1002
{
1070
    74
1070
     0
1070
   172
1070
     1
1070
   288
1070
     0
1070
   289
1070
     3
1002
}
  0
VIEWPORT
  5
FCC74
102
{ACAD_XDICTIONARY
360
FCC75
102
}
330
FCC6B
100
AcDbEntity
 67
     1
  8
0
100
AcDbViewport
 10
142.5892486572266
 20
99.1129140853882
 30
0.0
 40
559.8972648098853
 41
222.1517806396485
 68
     1
 69
     1
 12
142.5892486572266
 22
99.1129140853882
 13
0.0
 23
0.0
 14
10.0
 24
10.0
 15
10.0
 25
10.0
 16
0.0
 26
0.0
 36
1.0
 17
0.0
 27
0.0
 37
0.0
 42
50.0
 43
0.0
 44
0.0
 45
222.1517806396485
 50
0.0
 51
0.0
 72
   100
 90
   819232
  1

281
     0
 71
     1
 74
     0
110
0.0
120
0.0
130
0.0
111
1.0
121
0.0
131
0.0
112
0.0
122
1.0
132
0.0
 79
     0
146
0.0
170
     0
1001
GENIUS_GENSCREG_15
1000
PF
1040
1.0
1000
DF
1040
1.0
1000
MIN
1011
-137.359383747716
1021
-11.96297623443604
1031
0.0
1000
MAX
1011
422.5378810621692
1021
210.1888044052125
1031
0.0
1000
FLAGS
1070
     4
1001
GENIUS_GENOBJ-N-SDF_13
1002
{
1000
OWNER
1000
GEN
1002
}
1001
GENIUS_GENODEF_13
1002
{
1000
HIER
1070
     0
1002
}
1002
{
1000
MANEDIT
1070
     0
1002
}
1002
{
1000
NOSEL
1070
     0
1002
}
1002
{
1000
BEHIND
1070
     0
1002
}
1002
{
1000
OTHER
1070
     0
1002
}
1002
{
1000
REACTOR
1002
}
  0
ENDSEC
  0
SECTION
  2
OBJECTS
  0
DICTIONARY
  5
C
330
0
100
AcDbDictionary
281
     1
  3
ACAD_CIP_PREVIOUS_PRODUCT_INFO
350
FCC1D
  3
ACAD_COLOR
350
8712
  3
ACAD_DETAILVIEWSTYLE
350
FCC06
  3
ACAD_FIELDLIST
350
FCC3D
  3
ACAD_GROUP
350
D
  3
ACAD_LAYOUT
350
1A
  3
ACAD_MATERIAL
350
8711
  3
ACAD_MLEADERSTYLE
350
FCC02
  3
ACAD_MLINESTYLE
350
17
  3
ACAD_PLOTSETTINGS
350
19
  3
ACAD_PLOTSTYLENAME
350
E
  3
ACAD_SCALELIST
350
FCBF0
  3
ACAD_SECTIONVIEWSTYLE
350
FCC04
  3
ACAD_TABLESTYLE
350
FCBEE
  3
ACAD_VISUALSTYLE
350
FCBD5
  3
AcadDim
350
CCA4E
  3
ACDB_RECOMPOSE_DATA
350
FDA4C
  3
AcDbVariableDictionary
350
6B9
  3
AcmDictionary
350
16D31
  3
AMG
350
16D13
  3
AMGSNAPSETTINGS
350
17AE6
  3
ASE_INDEX_DICTIONARY
350
F4A75
  0
DICTIONARY
  5
F82BD
330
2
100
AcDbDictionary
280
     1
281
     1
  3
ACAD_LAYERFILTERS
360
F82C0
  3
ACAD_LAYERSTATES
360
F82BE
  0
DICTIONARY
  5
FD4FA
330
10
100
AcDbDictionary
280
     1
281
     1
  3
ADSK_XREC_LAYER_RECONCILED
360
FD4FB
  0
DICTIONARY
  5
FD508
330
86C9
100
AcDbDictionary
280
     1
281
     1
  3
ADSK_XREC_LAYER_RECONCILED
360
FD509
  0
DICTIONARY
  5
FCCED
330
FCCEC
100
AcDbDictionary
280
     1
281
     1
  3
ADSK_XREC_LAYER_RECONCILED
360
FD52A
  0
DICTIONARY
  5
16D78
330
1F
100
AcDbDictionary
280
     1
281
     1
  0
DICTIONARY
  5
FD9AC
330
FD41D
100
AcDbDictionary
280
     1
281
     1
  3
ACAD_MTEXT_2008_RT
360
FDA84
  0
DICTIONARY
  5
FD9B0
330
FD7C3
100
AcDbDictionary
280
     1
281
     1
  3
ACAD_MTEXT_2008_RT
360
FDA86
  0
DICTIONARY
  5
FD9AE
330
FD441
100
AcDbDictionary
280
     1
281
     1
  3
ACAD_MTEXT_2008_RT
360
FDA85
  0
DICTIONARY
  5
FD9B2
330
FD8F0
100
AcDbDictionary
280
     1
281
     1
  3
ACAD_MTEXT_2008_RT
360
FDA87
  0
DICTIONARY
  5
FCC75
330
FCC74
100
AcDbDictionary
280
     1
281
     1
  3
ASDK_XREC_ANNOTATION_SCALE_INFO
360
FCC76
  0
XRECORD
  5
FCC1D
102
{ACAD_REACTORS
330
C
102
}
330
C
100
AcDbXrecord
280
     1
300
AMECH_PP
300
2016
300
AMECH_PP_F_S
  0
DICTIONARY
  5
8712
102
{ACAD_REACTORS
330
C
102
}
330
C
100
AcDbDictionary
281
     1
  0
DICTIONARY
  5
FCC06
102
{ACAD_REACTORS
330
C
102
}
330
C
100
AcDbDictionary
281
     1
  3
Metric50
350
FCC07
  0
FIELDLIST
  5
FCC3D
102
{ACAD_REACTORS
330
C
102
}
330
C
100
AcDbIdSet
 90
        3
330
FDA04
330
FDA05
330
FDA06
100
AcDbFieldList
  0
DICTIONARY
  5
D
102
{ACAD_REACTORS
330
C
102
}
330
C
100
AcDbDictionary
281
     1
  0
DICTIONARY
  5
1A
102
{ACAD_REACTORS
330
C
102
}
330
C
100
AcDbDictionary
281
     1
  3
Model
350
22
  3
レイアウト1
350
FCC6C
  0
DICTIONARY
  5
8711
102
{ACAD_REACTORS
330
C
102
}
330
C
100
AcDbDictionary
281
     1
  3
ByBlock
350
FCBC5
  3
ByLayer
350
FCBBD
  3
Global
350
FCBCD
  0
DICTIONARY
  5
FCC02
102
{ACAD_REACTORS
330
C
102
}
330
C
100
AcDbDictionary
281
     1
  3
Standard
350
FCC03
  0
DICTIONARY
  5
17
102
{ACAD_REACTORS
330
C
102
}
330
C
100
AcDbDictionary
281
     1
  3
Standard
350
18
  0
DICTIONARY
  5
19
102
{ACAD_REACTORS
330
C
102
}
330
C
100
AcDbDictionary
281
     1
  0
ACDBDICTIONARYWDFLT
  5
E
102
{ACAD_REACTORS
330
C
102
}
330
C
100
AcDbDictionary
281
     1
  3
Normal
350
F
100
AcDbDictionaryWithDefault
340
F
  0
DICTIONARY
  5
FCBF0
102
{ACAD_REACTORS
330
C
102
}
330
C
100
AcDbDictionary
281
     1
  3
A0
350
FCBF1
  3
A1
350
FCBF2
  3
A2
350
FCBF3
  3
A3
350
FCBF4
  3
A4
350
FCBF5
  3
A5
350
FCBF6
  3
A6
350
FCBF7
  3
A7
350
FCBF8
  3
A8
350
FCBF9
  3
A9
350
FCBFA
  3
B0
350
FCBFB
  3
B1
350
FCBFC
  3
B2
350
FCBFD
  3
B3
350
FCBFE
  3
B4
350
FCBFF
  3
B5
350
FCC00
  3
B6
350
FCC01
  0
DICTIONARY
  5
FCC04
102
{ACAD_REACTORS
330
C
102
}
330
C
100
AcDbDictionary
281
     1
  3
Metric50
350
FCC05
  0
DICTIONARY
  5
FCBEE
102
{ACAD_REACTORS
330
C
102
}
330
C
100
AcDbDictionary
281
     1
  3
Standard
350
FCBEF
  0
DICTIONARY
  5
FCBD5
102
{ACAD_REACTORS
330
C
102
}
330
C
100
AcDbDictionary
281
     1
  3
2dWireframe
350
FCBDB
  3
Basic
350
FCBDA
  3
Brighten
350
FCBE1
  3
ColorChange
350
FCBE5
  3
Conceptual
350
FCBDE
  3
Dim
350
FCBE0
  3
EdgeColorOff
350
FCBED
  3
Facepattern
350
FCBE4
  3
Flat
350
FCBD6
  3
FlatWithEdges
350
FCBD7
  3
Gouraud
350
FCBD8
  3
GouraudWithEdges
350
FCBD9
  3
Hidden
350
FCBDD
  3
JitterOff
350
FCBEB
  3
Linepattern
350
FCBE3
  3
OverhangOff
350
FCBEC
  3
Realistic
350
FCBDF
  3
Shaded
350
FCBEA
  3
Shaded with edges
350
FCBE9
  3
Shades of Gray
350
FCBE6
  3
Sketchy
350
FCBE7
  3
Thicken
350
FCBE2
  3
Wireframe
350
FCBDC
  3
X-Ray
350
FCBE8
  0
XRECORD
  5
CCA4E
102
{ACAD_REACTORS
330
C
102
}
330
C
100
AcDbXrecord
280
     1
 90
   990106
  3

 60
     0
 61
     0
 62
     1
 63
     3
 64
     0
 65
     0
 66
     0
 67
     3
 68
     1
 69
     0
 70
     0
 71
     0
 72
     0
 40
17.73254125325911
170
     0
  0
XRECORD
  5
FDA4C
102
{ACAD_REACTORS
330
C
102
}
330
C
100
AcDbXrecord
280
     1
 90
        1
330
FCBEF
330
FCD47
330
FCD5F
330
FCE27
  0
DICTIONARY
  5
6B9
102
{ACAD_REACTORS
330
C
102
}
330
C
100
AcDbDictionary
281
     1
  3
CANNOSCALE
350
FD965
  3
CMLEADERSTYLE
350
FD962
  3
CTABLESTYLE
350
FD961
  3
CVIEWDETAILSTYLE
350
FD963
  3
CVIEWSECTIONSTYLE
350
FD964
  3
DIMASSOC
350
F4248
  3
INDEXCTL
350
F4247
  3
PROJECTNAME
350
F4249
  3
SORTENTS
350
6BA
  0
DICTIONARY
  5
16D31
102
{ACAD_REACTORS
330
C
102
}
330
C
100
AcDbDictionary
281
     1
  3
AcmStdDictionary
350
16D3E
  3
AMDTSECTSYM_ARROWCOLOR
350
16DB5
  0
DICTIONARY
  5
16D13
102
{ACAD_REACTORS
330
C
102
}
330
C
100
AcDbDictionary
281
     1
  0
DICTIONARY
  5
17AE6
102
{ACAD_REACTORS
330
C
102
}
330
C
100
AcDbDictionary
281
     1
  0
DICTIONARY
  5
F4A75
102
{ACAD_REACTORS
330
C
102
}
330
C
100
AcDbDictionary
281
     1
  3
ASEBlockHierarchyIndexRecord
350
F4A77
1001
DCO15
1040
1654516794.149
  0
DICTIONARY
  5
F82C0
102
{ACAD_REACTORS
330
F82BD
102
}
330
F82BD
100
AcDbDictionary
281
     1
  0
DICTIONARY
  5
F82BE
102
{ACAD_REACTORS
330
F82BD
102
}
330
F82BD
100
AcDbDictionary
281
     1
  3
2014++
350
F82D2
  3
2014+++
350
F82BF
  0
XRECORD
  5
FD4FB
102
{ACAD_REACTORS
330
FD4FA
102
}
330
FD4FA
100
AcDbXrecord
280
     1
290
     1
  0
XRECORD
  5
FD509
102
{ACAD_REACTORS
330
FD508
102
}
330
FD508
100
AcDbXrecord
280
     1
290
     1
  0
XRECORD
  5
FD52A
102
{ACAD_REACTORS
330
FCCED
102
}
330
FCCED
100
AcDbXrecord
280
     1
290
     1
  0
XRECORD
  5
FDA84
102
{ACAD_REACTORS
330
FD9AC
102
}
330
FD9AC
100
AcDbXrecord
280
     1
 40
3020.0
  1
2-\U+22053.5釘孔
  0
XRECORD
  5
FDA86
102
{ACAD_REACTORS
330
FD9B0
102
}
330
FD9B0
100
AcDbXrecord
280
     1
 40
3021.0
  1
3-\U+22053.5釘孔
  0
XRECORD
  5
FDA85
102
{ACAD_REACTORS
330
FD9AE
102
}
330
FD9AE
100
AcDbXrecord
280
     1
 40
3020.0
  1
2-\U+22053.5釘孔
  0
XRECORD
  5
FDA87
102
{ACAD_REACTORS
330
FD9B2
102
}
330
FD9B2
100
AcDbXrecord
280
     1
 40
3022.0
  1
4-\U+22053.5釘孔
  0
XRECORD
  5
FCC76
102
{ACAD_REACTORS
330
FCC75
102
}
330
FCC75
100
AcDbXrecord
280
     1
 90
        1
340
FCBF1
  0
ACDBDETAILVIEWSTYLE
  5
FCC07
102
{ACAD_XDICTIONARY
360
FDA82
102
}
102
{ACAD_REACTORS
330
FCC06
330
FD9FF
102
}
330
FCC06
100
AcDbModelDocViewStyle
 70
     0
  3
Metric50
290
     0
100
AcDbDetailViewStyle
 70
     0
 71
     0
 90
        3
 71
     1
340
11
 62
   256
 40
5.0
340
0
 62
   256
 40
5.0
300

 40
0.0
280
     1
 71
     2
340
16
 90
       25
 62
   256
 71
     3
340
11
 62
   256
 40
5.0
 90
        0
 40
15.0
 90
        1
300
%<\AcVar ViewDetailId>% (%<\AcVar ViewScale \f "%sn">%)
 71
     4
340
16
 90
       25
 62
   256
340
16
 90
       25
 62
   256
280
     0
  0
LAYOUT
  5
22
102
{ACAD_REACTORS
330
1A
102
}
330
1A
100
AcDbPlotSettings
  1

  2
FUJITSU FAX Print Driver
  4
User261
  6

 40
3.174999952316281
 41
3.174999952316281
 42
3.17498779296875
 43
3.17498779296875
 44
297.0244750976562
 45
419.8775329589842
 46
0.0
 47
0.0
 48
0.0
 49
0.0
140
0.0
141
0.0
142
1.0
143
1.197207273994177
 70
 11952
 72
     1
 73
     1
 74
     0
  7
monochrome.ctb
 75
     0
147
0.8352772504160906
 76
     0
 77
     2
 78
   300
148
-6.027674911478015
149
-7.671586470139232
100
AcDbLayout
  1
Model
 70
     1
 71
     0
 10
0.0
 20
0.0
 11
12.0
 21
9.0
 12
0.0
 22
0.0
 32
0.0
 14
0.0
 24
0.0
 34
0.0
 15
0.0
 25
0.0
 35
0.0
146
0.0
 13
0.0
 23
0.0
 33
0.0
 16
1.0
 26
0.0
 36
0.0
 17
0.0
 27
1.0
 37
0.0
 76
     0
330
1F
331
FCB73
  0
LAYOUT
  5
FCC6C
102
{ACAD_REACTORS
330
1A
102
}
330
1A
100
AcDbPlotSettings
  1

  2
RICOH imagio MP C5001 RPCS
  4
A4
  6

 40
5.873749732971191
 41
5.873748779296875
 42
5.873733520507812
 43
5.873748779296875
 44
209.9733276367186
 45
296.9259948730469
 46
0.0
 47
0.0
 48
0.0
 49
0.0
140
0.0
141
0.0
142
1.0
143
1.0
 70
   688
 72
     1
 73
     1
 74
     5
  7

 75
    16
147
1.0
 76
     0
 77
     2
 78
   300
148
0.0
149
0.0
100
AcDbLayout
  1
レイアウト1
 70
     1
 71
     1
 10
-5.873748779296875
 20
-5.873749732971191
 11
291.05224609375
 21
204.0995779037475
 12
0.0
 22
0.0
 32
0.0
 14
1.000000000000000E+20
 24
1.000000000000000E+20
 34
1.000000000000000E+20
 15
-1.000000000000000E+20
 25
-1.000000000000000E+20
 35
-1.000000000000000E+20
146
0.0
 13
0.0
 23
0.0
 33
0.0
 16
1.0
 26
0.0
 36
0.0
 17
0.0
 27
1.0
 37
0.0
 76
     0
330
FCC6B
331
FCC74
1001
ACAD_PSEXT
1000
RICOH imagio MP C5001 RPCS
1000
RICOH imagio MP C5001 RPCS
1000
IP_192.168.13.100
1000
RPCS Driver (For Windows)
1070
     0
  0
MATERIAL
  5
FCBC5
102
{ACAD_XDICTIONARY
360
FCBC6
102
}
102
{ACAD_REACTORS
330
8711
102
}
330
8711
100
AcDbMaterial
  1
ByBlock
 72
     0
 43
0.0008202099737533
 43
0.0
 43
0.0
 43
0.0
 43
0.0
 43
0.0008202099737533
 43
0.0
 43
0.0
 43
0.0
 43
0.0
 43
1.0
 43
0.0
 43
0.0
 43
0.0
 43
0.0
 43
1.0
 77
     0
 47
0.0008202099737533
 47
0.0
 47
0.0
 47
0.0
 47
0.0
 47
0.0008202099737533
 47
0.0
 47
0.0
 47
0.0
 47
0.0
 47
1.0
 47
0.0
 47
0.0
 47
0.0
 47
0.0
 47
1.0
171
     0
 49
0.0008202099737533
 49
0.0
 49
0.0
 49
0.0
 49
0.0
 49
0.0008202099737533
 49
0.0
 49
0.0
 49
0.0
 49
0.0
 49
1.0
 49
0.0
 49
0.0
 49
0.0
 49
0.0
 49
1.0
175
     0
142
0.0008202099737533
142
0.0
142
0.0
142
0.0
142
0.0
142
0.0008202099737533
142
0.0
142
0.0
142
0.0
142
0.0
142
1.0
142
0.0
142
0.0
142
0.0
142
0.0
142
1.0
179
     0
144
0.0008202099737533
144
0.0
144
0.0
144
0.0
144
0.0
144
0.0008202099737533
144
0.0
144
0.0
144
0.0
144
0.0
144
1.0
144
0.0
144
0.0
144
0.0
144
0.0
144
1.0
147
0.0008202099737533
147
0.0
147
0.0
147
0.0
147
0.0
147
0.0008202099737533
147
0.0
147
0.0
147
0.0
147
0.0
147
1.0
147
0.0
147
0.0
147
0.0
147
0.0
147
1.0
  0
MATERIAL
  5
FCBBD
102
{ACAD_XDICTIONARY
360
FCBBE
102
}
102
{ACAD_REACTORS
330
8711
102
}
330
8711
100
AcDbMaterial
  1
ByLayer
 72
     0
 43
0.0008202099737533
 43
0.0
 43
0.0
 43
0.0
 43
0.0
 43
0.0008202099737533
 43
0.0
 43
0.0
 43
0.0
 43
0.0
 43
1.0
 43
0.0
 43
0.0
 43
0.0
 43
0.0
 43
1.0
 77
     0
 47
0.0008202099737533
 47
0.0
 47
0.0
 47
0.0
 47
0.0
 47
0.0008202099737533
 47
0.0
 47
0.0
 47
0.0
 47
0.0
 47
1.0
 47
0.0
 47
0.0
 47
0.0
 47
0.0
 47
1.0
171
     0
 49
0.0008202099737533
 49
0.0
 49
0.0
 49
0.0
 49
0.0
 49
0.0008202099737533
 49
0.0
 49
0.0
 49
0.0
 49
0.0
 49
1.0
 49
0.0
 49
0.0
 49
0.0
 49
0.0
 49
1.0
175
     0
142
0.0008202099737533
142
0.0
142
0.0
142
0.0
142
0.0
142
0.0008202099737533
142
0.0
142
0.0
142
0.0
142
0.0
142
1.0
142
0.0
142
0.0
142
0.0
142
0.0
142
1.0
179
     0
144
0.0008202099737533
144
0.0
144
0.0
144
0.0
144
0.0
144
0.0008202099737533
144
0.0
144
0.0
144
0.0
144
0.0
144
1.0
144
0.0
144
0.0
144
0.0
144
0.0
144
1.0
147
0.0008202099737533
147
0.0
147
0.0
147
0.0
147
0.0
147
0.0008202099737533
147
0.0
147
0.0
147
0.0
147
0.0
147
1.0
147
0.0
147
0.0
147
0.0
147
0.0
147
1.0
  0
MATERIAL
  5
FCBCD
102
{ACAD_XDICTIONARY
360
FCBCE
102
}
102
{ACAD_REACTORS
330
8711
102
}
330
8711
100
AcDbMaterial
  1
Global
 72
     0
 43
0.0008202099737533
 43
0.0
 43
0.0
 43
0.0
 43
0.0
 43
0.0008202099737533
 43
0.0
 43
0.0
 43
0.0
 43
0.0
 43
1.0
 43
0.0
 43
0.0
 43
0.0
 43
0.0
 43
1.0
 77
     0
 47
0.0008202099737533
 47
0.0
 47
0.0
 47
0.0
 47
0.0
 47
0.0008202099737533
 47
0.0
 47
0.0
 47
0.0
 47
0.0
 47
1.0
 47
0.0
 47
0.0
 47
0.0
 47
0.0
 47
1.0
171
     0
 49
0.0008202099737533
 49
0.0
 49
0.0
 49
0.0
 49
0.0
 49
0.0008202099737533
 49
0.0
 49
0.0
 49
0.0
 49
0.0
 49
1.0
 49
0.0
 49
0.0
 49
0.0
 49
0.0
 49
1.0
175
     0
142
0.0008202099737533
142
0.0
142
0.0
142
0.0
142
0.0
142
0.0008202099737533
142
0.0
142
0.0
142
0.0
142
0.0
142
1.0
142
0.0
142
0.0
142
0.0
142
0.0
142
1.0
179
     0
144
0.0008202099737533
144
0.0
144
0.0
144
0.0
144
0.0
144
0.0008202099737533
144
0.0
144
0.0
144
0.0
144
0.0
144
1.0
144
0.0
144
0.0
144
0.0
144
0.0
144
1.0
147
0.0008202099737533
147
0.0
147
0.0
147
0.0
147
0.0
147
0.0008202099737533
147
0.0
147
0.0
147
0.0
147
0.0
147
1.0
147
0.0
147
0.0
147
0.0
147
0.0
147
1.0
  0
MLEADERSTYLE
  5
FCC03
102
{ACAD_XDICTIONARY
360
FDA7E
102
}
102
{ACAD_REACTORS
330
FCC02
102
}
330
FCC02
100
AcDbMLeaderStyle
170
     2
171
     1
172
     0
 90
        2
 40
0.0
 41
0.0
173
     1
 91
-1056964608
340
14
 92
       -2
290
     1
 42
2.0
291
     1
 43
0.36
  3
Standard
 44
4.0
300

342
11
174
     1
178
     6
175
     1
176
     0
 93
-1056964608
 45
4.0
292
     0
297
     0
 46
4.0
 94
-1056964608
 47
1.0
 49
1.0
140
1.0
293
     1
141
0.0
294
     1
177
     0
142
1.0
295
     0
296
     0
143
0.125
1001
ACAD_MLEADERVER
1070
     2
  0
MLINESTYLE
  5
18
102
{ACAD_REACTORS
330
17
102
}
330
17
100
AcDbMlineStyle
  2
STANDARD
 70
     0
  3

 62
   256
 51
90.0
 52
90.0
 71
     2
 49
0.5
 62
   256
  6
BYLAYER
 49
-0.5
 62
   256
  6
BYLAYER
  0
ACDBPLACEHOLDER
  5
F
102
{ACAD_REACTORS
330
E
102
}
330
E
  0
SCALE
  5
FCBF1
102
{ACAD_REACTORS
330
FCBF0
102
}
330
FCBF0
100
AcDbScale
 70
     0
300
1:1
140
1.0
141
1.0
290
     1
  0
SCALE
  5
FCBF2
102
{ACAD_REACTORS
330
FCBF0
102
}
330
FCBF0
100
AcDbScale
 70
     0
300
1:2
140
1.0
141
2.0
290
     0
  0
SCALE
  5
FCBF3
102
{ACAD_REACTORS
330
FCBF0
102
}
330
FCBF0
100
AcDbScale
 70
     0
300
1:4
140
1.0
141
4.0
290
     0
  0
SCALE
  5
FCBF4
102
{ACAD_REACTORS
330
FCBF0
102
}
330
FCBF0
100
AcDbScale
 70
     0
300
1:5
140
1.0
141
5.0
290
     0
  0
SCALE
  5
FCBF5
102
{ACAD_REACTORS
330
FCBF0
102
}
330
FCBF0
100
AcDbScale
 70
     0
300
1:8
140
1.0
141
8.0
290
     0
  0
SCALE
  5
FCBF6
102
{ACAD_REACTORS
330
FCBF0
102
}
330
FCBF0
100
AcDbScale
 70
     0
300
1:10
140
1.0
141
10.0
290
     0
  0
SCALE
  5
FCBF7
102
{ACAD_REACTORS
330
FCBF0
102
}
330
FCBF0
100
AcDbScale
 70
     0
300
1:16
140
1.0
141
16.0
290
     0
  0
SCALE
  5
FCBF8
102
{ACAD_REACTORS
330
FCBF0
102
}
330
FCBF0
100
AcDbScale
 70
     0
300
1:20
140
1.0
141
20.0
290
     0
  0
SCALE
  5
FCBF9
102
{ACAD_REACTORS
330
FCBF0
102
}
330
FCBF0
100
AcDbScale
 70
     0
300
1:30
140
1.0
141
30.0
290
     0
  0
SCALE
  5
FCBFA
102
{ACAD_REACTORS
330
FCBF0
102
}
330
FCBF0
100
AcDbScale
 70
     0
300
1:40
140
1.0
141
40.0
290
     0
  0
SCALE
  5
FCBFB
102
{ACAD_REACTORS
330
FCBF0
102
}
330
FCBF0
100
AcDbScale
 70
     0
300
1:50
140
1.0
141
50.0
290
     0
  0
SCALE
  5
FCBFC
102
{ACAD_REACTORS
330
FCBF0
102
}
330
FCBF0
100
AcDbScale
 70
     0
300
1:100
140
1.0
141
100.0
290
     0
  0
SCALE
  5
FCBFD
102
{ACAD_REACTORS
330
FCBF0
102
}
330
FCBF0
100
AcDbScale
 70
     0
300
2:1
140
2.0
141
1.0
290
     0
  0
SCALE
  5
FCBFE
102
{ACAD_REACTORS
330
FCBF0
102
}
330
FCBF0
100
AcDbScale
 70
     0
300
4:1
140
4.0
141
1.0
290
     0
  0
SCALE
  5
FCBFF
102
{ACAD_REACTORS
330
FCBF0
102
}
330
FCBF0
100
AcDbScale
 70
     0
300
8:1
140
8.0
141
1.0
290
     0
  0
SCALE
  5
FCC00
102
{ACAD_REACTORS
330
FCBF0
102
}
330
FCBF0
100
AcDbScale
 70
     0
300
10:1
140
10.0
141
1.0
290
     0
  0
SCALE
  5
FCC01
102
{ACAD_REACTORS
330
FCBF0
102
}
330
FCBF0
100
AcDbScale
 70
     0
300
100:1
140
100.0
141
1.0
290
     0
  0
ACDBSECTIONVIEWSTYLE
  5
FCC05
102
{ACAD_XDICTIONARY
360
FDA80
102
}
102
{ACAD_REACTORS
330
FCC04
330
FD9FE
102
}
330
FCC04
100
AcDbModelDocViewStyle
 70
     0
  3
Metric50
290
     0
100
AcDbSectionViewStyle
 70
     0
 71
     0
 90
      102
 71
     1
340
11
 62
   256
 40
5.0
340
0
340
0
 62
   256
 40
5.0
300
I, O, Q, S, X, Z
 40
10.0
 90
        0
 40
2.5
 90
        0
 71
     2
340
16
 90
       25
 62
   256
340
16
 90
       50
 62
   256
 40
5.0
 40
2.5
 40
5.0
 71
     3
340
11
 62
   256
 40
5.0
 90
        0
 40
15.0
 90
        1
300
%<\AcVar ViewSectionStartId>%-%<\AcVar ViewSectionEndId>% (%<\AcVar ViewScale \f "%sn">%)
 71
     4
 62
   256
 62
   257
300
ANSI31
 40
1.0
 90
        0
290
     0
290
     0
 90
        6
 40
0.0
 40
1.570796326794896
 40
0.2617993877991494
 40
1.308996938995747
 40
-0.2617993877991494
 40
1.832595714594045
  0
TABLESTYLE
  5
FCBEF
102
{ACAD_XDICTIONARY
360
FD966
102
}
102
{ACAD_REACTORS
330
FCBEE
102
}
330
FCBEE
100
AcDbTableStyle
  3
Standard
 70
     0
 71
     0
 40
1.5
 41
1.5
280
     0
281
     0
  7
STANDARD
140
4.5
170
     2
 62
     0
 63
     7
283
     0
274
    -2
284
     1
 64
     0
275
    -2
285
     1
 65
     0
276
    -2
286
     1
 66
     0
277
    -2
287
     1
 67
     0
278
    -2
288
     1
 68
     0
279
    -2
289
     1
 69
     0
  7
STANDARD
140
6.0
170
     5
 62
     0
 63
     7
283
     0
274
    -2
284
     1
 64
     0
275
    -2
285
     1
 65
     0
276
    -2
286
     1
 66
     0
277
    -2
287
     1
 67
     0
278
    -2
288
     1
 68
     0
279
    -2
289
     1
 69
     0
  7
STANDARD
140
4.5
170
     5
 62
     0
 63
     7
283
     0
274
    -2
284
     1
 64
     0
275
    -2
285
     1
 65
     0
276
    -2
286
     1
 66
     0
277
    -2
287
     1
 67
     0
278
    -2
288
     1
 68
     0
279
    -2
289
     1
 69
     0
  0
VISUALSTYLE
  5
FCBDB
102
{ACAD_XDICTIONARY
360
FDA57
102
}
102
{ACAD_REACTORS
330
FCBD5
102
}
330
FCBD5
100
AcDbVisualStyle
  2

 70
     4
 71
     0
 72
     2
 73
     0
 90
        0
 40
-0.6
 41
-30.0
 62
     5
 63
     7
421
 16777215
 74
     1
 91
        4
 64
     7
 65
   257
 75
     1
175
     1
 42
1.0
 92
        0
 66
   257
 43
1.0
 76
     1
 77
     6
 78
     2
 67
     7
 79
     5
170
     0
171
     0
290
     0
174
     0
 93
        1
 44
0.0
173
     0
291
     0
 45
0.0
1001
ACAD
1000
AcDbSavedByObjectVersion
1070
     0
  0
VISUALSTYLE
  5
FCBDA
102
{ACAD_XDICTIONARY
360
FDA55
102
}
102
{ACAD_REACTORS
330
FCBD5
102
}
330
FCBD5
100
AcDbVisualStyle
  2

 70
     7
 71
     1
 72
     0
 73
     1
 90
        0
 40
-0.6
 41
-30.0
 62
     5
 63
     7
421
 16777215
 74
     0
 91
        4
 64
     7
 65
   257
 75
     1
175
     1
 42
1.0
 92
        8
 66
     7
 43
1.0
 76
     1
 77
     6
 78
     2
 67
     7
 79
     5
170
     0
171
     0
290
     0
174
     0
 93
        1
 44
0.0
173
     0
291
     1
 45
0.0
1001
ACAD
1000
AcDbSavedByObjectVersion
1070
     0
  0
VISUALSTYLE
  5
FCBE1
102
{ACAD_XDICTIONARY
360
FDA63
102
}
102
{ACAD_REACTORS
330
FCBD5
102
}
330
FCBD5
100
AcDbVisualStyle
  2

 70
    12
 71
     2
 72
     2
 73
     0
 90
        0
 40
-0.6
 41
-30.0
 62
     5
 63
     7
421
 16777215
 74
     1
 91
        4
 64
     7
 65
   257
 75
     1
175
     1
 42
1.0
 92
        8
 66
     7
 43
1.0
 76
     1
 77
     6
 78
     2
 67
     7
 79
     5
170
     0
171
     0
290
     0
174
     0
 93
        1
 44
50.0
173
     0
291
     1
 45
0.0
1001
ACAD
1000
AcDbSavedByObjectVersion
1070
     0
  0
VISUALSTYLE
  5
FCBE5
102
{ACAD_XDICTIONARY
360
FDA6B
102
}
102
{ACAD_REACTORS
330
FCBD5
102
}
330
FCBD5
100
AcDbVisualStyle
  2

 70
    16
 71
     2
 72
     2
 73
     3
 90
        0
 40
-0.6
 41
-30.0
 62
     5
 63
     8
421
  8421504
 74
     1
 91
        4
 64
     7
 65
   257
 75
     1
175
     1
 42
1.0
 92
        8
 66
     8
424
  8421504
 43
1.0
 76
     1
 77
     6
 78
     2
 67
     7
 79
     5
170
     0
171
     0
290
     0
174
     0
 93
        1
 44
0.0
173
     0
291
     1
 45
0.0
1001
ACAD
1000
AcDbSavedByObjectVersion
1070
     0
  0
VISUALSTYLE
  5
FCBDE
102
{ACAD_XDICTIONARY
360
FDA5D
102
}
102
{ACAD_REACTORS
330
FCBD5
102
}
330
FCBD5
100
AcDbVisualStyle
  2

 70
     9
 71
     3
 72
     2
 73
     0
 90
        0
 40
-0.6
 41
-30.0
 62
     5
 63
     7
421
 16777215
 74
     2
 91
        2
 64
     7
 65
   257
 75
     1
175
     1
 42
179.0
 92
        8
 66
     7
 43
1.0
 76
     1
 77
     6
 78
     2
 67
     7
 79
     3
170
     0
171
     0
290
     0
174
     0
 93
        1
 44
0.0
173
     0
291
     0
 45
0.0
1001
ACAD
1000
AcDbSavedByObjectVersion
1070
     0
  0
VISUALSTYLE
  5
FCBE0
102
{ACAD_XDICTIONARY
360
FDA61
102
}
102
{ACAD_REACTORS
330
FCBD5
102
}
330
FCBD5
100
AcDbVisualStyle
  2

 70
    11
 71
     2
 72
     2
 73
     0
 90
        0
 40
-0.6
 41
-30.0
 62
     5
 63
     7
421
 16777215
 74
     1
 91
        4
 64
     7
 65
   257
 75
     1
175
     1
 42
1.0
 92
        8
 66
     7
 43
1.0
 76
     1
 77
     6
 78
     2
 67
     7
 79
     5
170
     0
171
     0
290
     0
174
     0
 93
        1
 44
-50.0
173
     0
291
     1
 45
0.0
1001
ACAD
1000
AcDbSavedByObjectVersion
1070
     0
  0
VISUALSTYLE
  5
FCBED
102
{ACAD_XDICTIONARY
360
FDA7B
102
}
102
{ACAD_REACTORS
330
FCBD5
102
}
330
FCBD5
100
AcDbVisualStyle
  2

 70
    22
 71
     2
 72
     2
 73
     0
 90
        0
 40
-0.6
 41
-30.0
 62
     5
 63
     7
421
 16777215
 74
     1
 91
        4
 64
     7
 65
   257
 75
     1
175
     1
 42
1.0
 92
        8
 66
     7
 43
1.0
 76
     1
 77
     6
 78
     2
 67
     7
 79
     5
170
     0
171
     0
290
     0
174
     0
 93
        1
 44
0.0
173
     0
291
     1
 45
0.0
1001
ACAD
1000
AcDbSavedByObjectVersion
1070
     0
  0
VISUALSTYLE
  5
FCBE4
102
{ACAD_XDICTIONARY
360
FDA69
102
}
102
{ACAD_REACTORS
330
FCBD5
102
}
330
FCBD5
100
AcDbVisualStyle
  2

 70
    15
 71
     2
 72
     2
 73
     0
 90
        0
 40
-0.6
 41
-30.0
 62
     5
 63
     7
421
 16777215
 74
     1
 91
        4
 64
     7
 65
   257
 75
     1
175
     1
 42
1.0
 92
        8
 66
     7
 43
1.0
 76
     1
 77
     6
 78
     2
 67
     7
 79
     5
170
     0
171
     0
290
     0
174
     0
 93
        1
 44
0.0
173
     0
291
     1
 45
0.0
1001
ACAD
1000
AcDbSavedByObjectVersion
1070
     0
  0
VISUALSTYLE
  5
FCBD6
102
{ACAD_XDICTIONARY
360
FDA4D
102
}
102
{ACAD_REACTORS
330
FCBD5
102
}
330
FCBD5
100
AcDbVisualStyle
  2

 70
     0
 71
     2
 72
     1
 73
     1
 90
        2
 40
-0.6
 41
30.0
 62
     5
 63
     7
421
 16777215
 74
     0
 91
        0
 64
     7
 65
   257
 75
     1
175
     1
 42
1.0
 92
        8
 66
     7
 43
1.0
 76
     1
 77
     6
 78
     2
 67
     7
 79
     5
170
     0
171
     0
290
     0
174
     0
 93
       13
 44
0.0
173
     0
291
     1
 45
0.0
1001
ACAD
1000
AcDbSavedByObjectVersion
1070
     0
  0
VISUALSTYLE
  5
FCBD7
102
{ACAD_XDICTIONARY
360
FDA4F
102
}
102
{ACAD_REACTORS
330
FCBD5
102
}
330
FCBD5
100
AcDbVisualStyle
  2

 70
     1
 71
     2
 72
     1
 73
     1
 90
        2
 40
-0.6
 41
30.0
 62
     5
 63
     7
421
 16777215
 74
     1
 91
        0
 64
     7
 65
   257
 75
     1
175
     1
 42
1.0
 92
        0
 66
   257
 43
1.0
 76
     1
 77
     6
 78
     2
 67
     7
 79
     5
170
     0
171
     0
290
     0
174
     0
 93
       13
 44
0.0
173
     0
291
     1
 45
0.0
1001
ACAD
1000
AcDbSavedByObjectVersion
1070
     0
  0
VISUALSTYLE
  5
FCBD8
102
{ACAD_XDICTIONARY
360
FDA51
102
}
102
{ACAD_REACTORS
330
FCBD5
102
}
330
FCBD5
100
AcDbVisualStyle
  2

 70
     2
 71
     2
 72
     2
 73
     1
 90
        2
 40
-0.6
 41
30.0
 62
     5
 63
     7
421
 16777215
 74
     0
 91
        0
 64
     7
 65
   257
 75
     1
175
     1
 42
1.0
 92
        0
 66
     7
 43
1.0
 76
     1
 77
     6
 78
     2
 67
     7
 79
     5
170
     0
171
     0
290
     0
174
     0
 93
       13
 44
0.0
173
     0
291
     1
 45
0.0
1001
ACAD
1000
AcDbSavedByObjectVersion
1070
     0
  0
VISUALSTYLE
  5
FCBD9
102
{ACAD_XDICTIONARY
360
FDA53
102
}
102
{ACAD_REACTORS
330
FCBD5
102
}
330
FCBD5
100
AcDbVisualStyle
  2

 70
     3
 71
     2
 72
     2
 73
     1
 90
        2
 40
-0.6
 41
30.0
 62
     5
 63
     7
421
 16777215
 74
     1
 91
        0
 64
     7
 65
   257
 75
     1
175
     1
 42
1.0
 92
        0
 66
   257
 43
1.0
 76
     1
 77
     6
 78
     2
 67
     7
 79
     5
170
     0
171
     0
290
     0
174
     0
 93
       13
 44
0.0
173
     0
291
     1
 45
0.0
1001
ACAD
1000
AcDbSavedByObjectVersion
1070
     0
  0
VISUALSTYLE
  5
FCBDD
102
{ACAD_XDICTIONARY
360
FDA5B
102
}
102
{ACAD_REACTORS
330
FCBD5
102
}
330
FCBD5
100
AcDbVisualStyle
  2

 70
     6
 71
     1
 72
     2
 73
     2
 90
        0
 40
-0.6
 41
-30.0
 62
     5
 63
     7
421
 16777215
 74
     2
 91
        2
 64
     7
 65
   257
 75
     2
175
     1
 42
40.0
 92
        0
 66
   257
 43
1.0
 76
     1
 77
     6
 78
     2
 67
     7
 79
     3
170
     0
171
     0
290
     0
174
     0
 93
        1
 44
0.0
173
     0
291
     0
 45
0.0
1001
ACAD
1000
AcDbSavedByObjectVersion
1070
     0
  0
VISUALSTYLE
  5
FCBEB
102
{ACAD_XDICTIONARY
360
FDA77
102
}
102
{ACAD_REACTORS
330
FCBD5
102
}
330
FCBD5
100
AcDbVisualStyle
  2

 70
    20
 71
     2
 72
     2
 73
     0
 90
        0
 40
-0.6
 41
-30.0
 62
     5
 63
     7
421
 16777215
 74
     1
 91
        4
 64
     7
 65
   257
 75
     1
175
     1
 42
1.0
 92
       10
 66
     7
 43
1.0
 76
     1
 77
     6
 78
     2
 67
     7
 79
     5
170
     0
171
     0
290
     0
174
     0
 93
        1
 44
0.0
173
     0
291
     1
 45
0.0
1001
ACAD
1000
AcDbSavedByObjectVersion
1070
     0
  0
VISUALSTYLE
  5
FCBE3
102
{ACAD_XDICTIONARY
360
FDA67
102
}
102
{ACAD_REACTORS
330
FCBD5
102
}
330
FCBD5
100
AcDbVisualStyle
  2

 70
    14
 71
     2
 72
     2
 73
     0
 90
        0
 40
-0.6
 41
-30.0
 62
     5
 63
     7
421
 16777215
 74
     1
 91
        4
 64
     7
 65
   257
 75
     7
175
     7
 42
1.0
 92
        8
 66
     7
 43
1.0
 76
     1
 77
     6
 78
     2
 67
     7
 79
     5
170
     0
171
     0
290
     0
174
     0
 93
        1
 44
0.0
173
     0
291
     1
 45
0.0
1001
ACAD
1000
AcDbSavedByObjectVersion
1070
     0
  0
VISUALSTYLE
  5
FCBEC
102
{ACAD_XDICTIONARY
360
FDA79
102
}
102
{ACAD_REACTORS
330
FCBD5
102
}
330
FCBD5
100
AcDbVisualStyle
  2

 70
    21
 71
     2
 72
     2
 73
     0
 90
        0
 40
-0.6
 41
-30.0
 62
     5
 63
     7
421
 16777215
 74
     1
 91
        4
 64
     7
 65
   257
 75
     1
175
     1
 42
1.0
 92
        9
 66
     7
 43
1.0
 76
     1
 77
     6
 78
     2
 67
     7
 79
     5
170
     0
171
     0
290
     0
174
     0
 93
        1
 44
0.0
173
     0
291
     1
 45
0.0
1001
ACAD
1000
AcDbSavedByObjectVersion
1070
     0
  0
VISUALSTYLE
  5
FCBDF
102
{ACAD_XDICTIONARY
360
FDA5F
102
}
102
{ACAD_REACTORS
330
FCBD5
102
}
330
FCBD5
100
AcDbVisualStyle
  2

 70
     8
 71
     2
 72
     3
 73
     0
 90
        2
 40
-0.6
 41
30.0
 62
     5
 63
     7
421
 16777215
 74
     0
 91
        0
 64
     7
 65
   257
 75
     1
175
     1
 42
1.0
 92
        8
 66
   257
 43
1.0
 76
     1
 77
     6
 78
     2
 67
     7
 79
     3
170
     0
171
     0
290
     0
174
     0
 93
       13
 44
0.0
173
     0
291
     0
 45
0.0
1001
ACAD
1000
AcDbSavedByObjectVersion
1070
     0
  0
VISUALSTYLE
  5
FCBEA
102
{ACAD_XDICTIONARY
360
FDA75
102
}
102
{ACAD_REACTORS
330
FCBD5
102
}
330
FCBD5
100
AcDbVisualStyle
  2

 70
    27
 71
     2
 72
     2
 73
     1
 90
        2
 40
-0.6
 41
30.0
 62
     5
 63
     7
421
 16777215
 74
     0
 91
        4
 64
     7
 65
   257
 75
     1
175
     1
 42
1.0
 92
        8
 66
   257
 43
1.0
 76
     1
 77
     6
 78
     2
 67
     8
425
  7895160
 79
     3
170
     0
171
     0
290
     0
174
     0
 93
        5
 44
0.0
173
     0
291
     0
 45
0.0
1001
ACAD
1000
AcDbSavedByObjectVersion
1070
     0
  0
VISUALSTYLE
  5
FCBE9
102
{ACAD_XDICTIONARY
360
FDA73
102
}
102
{ACAD_REACTORS
330
FCBD5
102
}
330
FCBD5
100
AcDbVisualStyle
  2

 70
    26
 71
     2
 72
     2
 73
     1
 90
        2
 40
-0.6
 41
30.0
 62
     5
 63
     7
421
 16777215
 74
     1
 91
       10
 64
     7
 65
   257
 75
     2
175
     1
 42
1.0
 92
        8
 66
   257
 43
1.0
 76
     1
 77
     6
 78
     2
 67
     7
 79
     3
170
     0
171
     0
290
     0
174
     0
 93
        5
 44
0.0
173
     0
291
     0
 45
0.0
1001
ACAD
1000
AcDbSavedByObjectVersion
1070
     0
  0
VISUALSTYLE
  5
FCBE6
102
{ACAD_XDICTIONARY
360
FDA6D
102
}
102
{ACAD_REACTORS
330
FCBD5
102
}
330
FCBD5
100
AcDbVisualStyle
  2

 70
    23
 71
     2
 72
     2
 73
     3
 90
        0
 40
-0.6
 41
-30.0
 62
     5
 63
     7
421
 16777215
 74
     2
 91
        2
 64
     7
 65
     7
 75
     1
175
     1
 42
40.0
 92
        8
 66
     7
 43
1.0
 76
     1
 77
     6
 78
     2
 67
     7
 79
     3
170
     0
171
     0
290
     0
174
     0
 93
        1
 44
0.0
173
     0
291
     0
 45
0.0
1001
ACAD
1000
AcDbSavedByObjectVersion
1070
     0
  0
VISUALSTYLE
  5
FCBE7
102
{ACAD_XDICTIONARY
360
FDA6F
102
}
102
{ACAD_REACTORS
330
FCBD5
102
}
330
FCBD5
100
AcDbVisualStyle
  2

 70
    24
 71
     1
 72
     2
 73
     2
 90
        0
 40
-0.6
 41
-30.0
 62
     5
 63
     7
421
 16777215
 74
     2
 91
        2
 64
     7
 65
     7
 75
     1
175
     1
 42
40.0
 92
       11
 66
     7
 43
1.0
 76
     1
 77
     6
 78
     2
 67
     7
 79
     6
170
     0
171
     0
290
     0
174
     0
 93
        1
 44
0.0
173
     0
291
     0
 45
0.0
1001
ACAD
1000
AcDbSavedByObjectVersion
1070
     0
  0
VISUALSTYLE
  5
FCBE2
102
{ACAD_XDICTIONARY
360
FDA65
102
}
102
{ACAD_REACTORS
330
FCBD5
102
}
330
FCBD5
100
AcDbVisualStyle
  2

 70
    13
 71
     2
 72
     2
 73
     0
 90
        0
 40
-0.6
 41
-30.0
 62
     5
 63
     7
421
 16777215
 74
     1
 91
        4
 64
     7
 65
   257
 75
     1
175
     1
 42
1.0
 92
       12
 66
     7
 43
1.0
 76
     1
 77
     6
 78
     2
 67
     7
 79
     5
170
     0
171
     0
290
     0
174
     0
 93
        1
 44
0.0
173
     0
291
     1
 45
0.0
1001
ACAD
1000
AcDbSavedByObjectVersion
1070
     0
  0
VISUALSTYLE
  5
FCBDC
102
{ACAD_XDICTIONARY
360
FDA59
102
}
102
{ACAD_REACTORS
330
FCBD5
102
}
330
FCBD5
100
AcDbVisualStyle
  2

 70
     5
 71
     0
 72
     2
 73
     0
 90
        0
 40
-0.6
 41
-30.0
 62
     5
 63
     7
421
 16777215
 74
     1
 91
        4
 64
     7
 65
   257
 75
     1
175
     1
 42
1.0
 92
        0
 66
   257
 43
1.0
 76
     1
 77
     6
 78
     2
 67
     7
 79
     3
170
     0
171
     0
290
     0
174
     0
 93
        1
 44
0.0
173
     0
291
     0
 45
0.0
1001
ACAD
1000
AcDbSavedByObjectVersion
1070
     0
  0
VISUALSTYLE
  5
FCBE8
102
{ACAD_XDICTIONARY
360
FDA71
102
}
102
{ACAD_REACTORS
330
FCBD5
102
}
330
FCBD5
100
AcDbVisualStyle
  2

 70
    25
 71
     2
 72
     2
 73
     1
 90
        1
 40
0.5
 41
-30.0
 62
     5
 63
     7
421
 16777215
 74
     1
 91
        0
 64
     7
 65
   257
 75
     1
175
     1
 42
1.0
 92
        8
 66
     7
 43
1.0
 76
     1
 77
     6
 78
     2
 67
     7
 79
     3
170
     0
171
     0
290
     0
174
     0
 93
       13
 44
0.0
173
     0
291
     0
 45
0.0
1001
ACAD
1000
AcDbSavedByObjectVersion
1070
     0
  0
DICTIONARYVAR
  5
FD965
102
{ACAD_REACTORS
330
6B9
102
}
330
6B9
100
DictionaryVariables
280
     0
  1
1:1
  0
DICTIONARYVAR
  5
FD962
102
{ACAD_REACTORS
330
6B9
102
}
330
6B9
100
DictionaryVariables
280
     0
  1
STANDARD
  0
DICTIONARYVAR
  5
FD961
102
{ACAD_REACTORS
330
6B9
102
}
330
6B9
100
DictionaryVariables
280
     0
  1
STANDARD
  0
DICTIONARYVAR
  5
FD963
102
{ACAD_REACTORS
330
6B9
102
}
330
6B9
100
DictionaryVariables
280
     0
  1
Metric50
  0
DICTIONARYVAR
  5
FD964
102
{ACAD_REACTORS
330
6B9
102
}
330
6B9
100
DictionaryVariables
280
     0
  1
Metric50
  0
DICTIONARYVAR
  5
F4248
102
{ACAD_REACTORS
330
6B9
102
}
330
6B9
100
DictionaryVariables
280
     0
  1
1
  0
DICTIONARYVAR
  5
F4247
102
{ACAD_REACTORS
330
6B9
102
}
330
6B9
100
DictionaryVariables
280
     0
  1
1
  0
DICTIONARYVAR
  5
F4249
102
{ACAD_REACTORS
330
6B9
102
}
330
6B9
100
DictionaryVariables
280
     0
  1

  0
DICTIONARYVAR
  5
6BA
102
{ACAD_REACTORS
330
6B9
102
}
330
6B9
100
DictionaryVariables
280
     0
  1
96
  0
DICTIONARY
  5
16D3E
102
{ACAD_REACTORS
330
16D31
102
}
330
16D31
100
AcDbDictionary
281
     1
  0
XRECORD
  5
16DB5
102
{ACAD_REACTORS
330
16D31
102
}
330
16D31
100
AcDbXrecord
280
     1
 90
-1023410169
  0
XRECORD
  5
F4A77
102
{ACAD_REACTORS
330
F4A75
102
}
330
F4A75
100
AcDbXrecord
280
     1
330
0
330
0
330
0
330
0
330
0
330
0
330
0
330
0
330
0
  0
XRECORD
  5
F82D2
102
{ACAD_REACTORS
330
F82BE
102
}
330
F82BE
100
AcDbXrecord
280
     1
 91
      484
330
4C
 90
        8
 62
     2
370
    40
331
16
  1
色_2
330
30
 90
        8
 62
    30
370
     9
331
F3ACE
  1
色_30
330
3AE4
 90
        8
 62
   123
370
     9
331
3AE3
  1
色_123
330
F3AD3
 90
        8
 62
   233
370
     9
331
16CF6
  1
色_233
330
33
 90
        8
 62
     8
370
     9
331
16
  1
色_8
330
86CB
 90
        8
 62
     7
370
    20
331
16
  1
色_7
330
86C9
 90
        8
 62
     4
370
    15
331
16
  1
色_4
330
86C8
 90
        8
 62
   173
370
     9
331
16
  1
色_173
420
-1034792193
330
86CC
 90
        8
 62
     1
370
     5
331
16
  1
色_1
330
548
 90
        0
 62
     6
370
    -3
331
16
  1
色_6
330
86FE
 90
        8
 62
   241
370
     5
331
58DA
  1
色_241
330
54
 90
        0
 62
     7
370
    -3
331
16
  1
色_7
330
F61AE
 90
        0
 62
     1
370
    25
331
16
  1
色_1
330
10
 90
        8
 62
     7
370
    20
331
16
  1
色_7
  0
XRECORD
  5
F82BF
102
{ACAD_REACTORS
330
F82BE
102
}
330
F82BE
100
AcDbXrecord
280
     1
 91
      484
330
4C
 90
        8
 62
     2
370
    40
331
16
  1
色_2
330
30
 90
        8
 62
    30
370
     9
331
F3ACE
  1
色_30
330
3AE4
 90
        8
 62
   123
370
     9
331
3AE3
  1
色_123
330
F3AD3
 90
        8
 62
   233
370
     9
331
16CF6
  1
色_233
330
33
 90
        8
 62
     8
370
     9
331
16
  1
色_8
330
86C8
 90
        8
 62
   173
370
     5
331
16
  1
色_173
420
-1034792193
330
548
 90
        0
 62
     6
370
    -3
331
16
  1
色_6
330
86FE
 90
        8
 62
   241
370
     5
331
58DA
  1
色_241
330
86CC
 90
        8
 62
     1
370
     9
331
16
  1
色_1
330
86CB
 90
        8
 62
     5
370
    20
331
16
  1
色_5
330
86C9
 90
        8
 62
     4
370
    15
331
16
  1
色_4
330
54
 90
        0
 62
     7
370
    -3
331
16
  1
色_7
330
F61AE
 90
        0
 62
     1
370
    25
331
16
  1
色_1
330
10
 90
        8
 62
     7
370
    20
331
16
  1
色_7
  0
DICTIONARY
  5
FDA82
330
FCC07
100
AcDbDictionary
280
     1
281
     1
  3
ACAD_XREC_ROUNDTRIP
360
FDA83
  0
DICTIONARY
  5
FCBC6
330
FCBC5
100
AcDbDictionary
280
     1
281
     1
  3
ACAD_XREC_ROUNDTRIP
360
FD972
  3
BUMPTILE
360
FCBC8
  3
DIFFUSETILE
360
FCBC7
  3
OPACITYTILE
360
FCBCB
  3
REFLECTIONTILE
360
FCBCA
  3
REFRACTIONTILE
360
FCBCC
  3
SPECULARTILE
360
FCBC9
  0
DICTIONARY
  5
FCBBE
330
FCBBD
100
AcDbDictionary
280
     1
281
     1
  3
ACAD_XREC_ROUNDTRIP
360
FD971
  3
BUMPTILE
360
FCBC0
  3
DIFFUSETILE
360
FCBBF
  3
OPACITYTILE
360
FCBC3
  3
REFLECTIONTILE
360
FCBC2
  3
REFRACTIONTILE
360
FCBC4
  3
SPECULARTILE
360
FCBC1
  0
DICTIONARY
  5
FCBCE
330
FCBCD
100
AcDbDictionary
280
     1
281
     1
  3
ACAD_XREC_ROUNDTRIP
360
FD973
  3
BUMPTILE
360
FCBD0
  3
DIFFUSETILE
360
FCBCF
  3
OPACITYTILE
360
FCBD3
  3
REFLECTIONTILE
360
FCBD2
  3
REFRACTIONTILE
360
FCBD4
  3
SPECULARTILE
360
FCBD1
  0
DICTIONARY
  5
FDA7E
330
FCC03
100
AcDbDictionary
280
     1
281
     1
  3
ACAD_XREC_ROUNDTRIP
360
FDA7F
  0
DICTIONARY
  5
FDA80
330
FCC05
100
AcDbDictionary
280
     1
281
     1
  3
ACAD_XREC_ROUNDTRIP
360
FDA81
  0
DICTIONARY
  5
FD966
330
FCBEF
100
AcDbDictionary
280
     1
281
     1
  3
ACAD_ROUNDTRIP_2008_TABLESTYLE_CELLSTYLEMAP
360
FDA4B
  3
ACAD_XREC_ROUNDTRIP
360
FDA7D
  0
DICTIONARY
  5
FDA57
330
FCBDB
100
AcDbDictionary
280
     1
281
     1
  3
ACAD_XREC_ROUNDTRIP
360
FDA58
  0
DICTIONARY
  5
FDA55
330
FCBDA
100
AcDbDictionary
280
     1
281
     1
  3
ACAD_XREC_ROUNDTRIP
360
FDA56
  0
DICTIONARY
  5
FDA63
330
FCBE1
100
AcDbDictionary
280
     1
281
     1
  3
ACAD_XREC_ROUNDTRIP
360
FDA64
  0
DICTIONARY
  5
FDA6B
330
FCBE5
100
AcDbDictionary
280
     1
281
     1
  3
ACAD_XREC_ROUNDTRIP
360
FDA6C
  0
DICTIONARY
  5
FDA5D
330
FCBDE
100
AcDbDictionary
280
     1
281
     1
  3
ACAD_XREC_ROUNDTRIP
360
FDA5E
  0
DICTIONARY
  5
FDA61
330
FCBE0
100
AcDbDictionary
280
     1
281
     1
  3
ACAD_XREC_ROUNDTRIP
360
FDA62
  0
DICTIONARY
  5
FDA7B
330
FCBED
100
AcDbDictionary
280
     1
281
     1
  3
ACAD_XREC_ROUNDTRIP
360
FDA7C
  0
DICTIONARY
  5
FDA69
330
FCBE4
100
AcDbDictionary
280
     1
281
     1
  3
ACAD_XREC_ROUNDTRIP
360
FDA6A
  0
DICTIONARY
  5
FDA4D
330
FCBD6
100
AcDbDictionary
280
     1
281
     1
  3
ACAD_XREC_ROUNDTRIP
360
FDA4E
  0
DICTIONARY
  5
FDA4F
330
FCBD7
100
AcDbDictionary
280
     1
281
     1
  3
ACAD_XREC_ROUNDTRIP
360
FDA50
  0
DICTIONARY
  5
FDA51
330
FCBD8
100
AcDbDictionary
280
     1
281
     1
  3
ACAD_XREC_ROUNDTRIP
360
FDA52
  0
DICTIONARY
  5
FDA53
330
FCBD9
100
AcDbDictionary
280
     1
281
     1
  3
ACAD_XREC_ROUNDTRIP
360
FDA54
  0
DICTIONARY
  5
FDA5B
330
FCBDD
100
AcDbDictionary
280
     1
281
     1
  3
ACAD_XREC_ROUNDTRIP
360
FDA5C
  0
DICTIONARY
  5
FDA77
330
FCBEB
100
AcDbDictionary
280
     1
281
     1
  3
ACAD_XREC_ROUNDTRIP
360
FDA78
  0
DICTIONARY
  5
FDA67
330
FCBE3
100
AcDbDictionary
280
     1
281
     1
  3
ACAD_XREC_ROUNDTRIP
360
FDA68
  0
DICTIONARY
  5
FDA79
330
FCBEC
100
AcDbDictionary
280
     1
281
     1
  3
ACAD_XREC_ROUNDTRIP
360
FDA7A
  0
DICTIONARY
  5
FDA5F
330
FCBDF
100
AcDbDictionary
280
     1
281
     1
  3
ACAD_XREC_ROUNDTRIP
360
FDA60
  0
DICTIONARY
  5
FDA75
330
FCBEA
100
AcDbDictionary
280
     1
281
     1
  3
ACAD_XREC_ROUNDTRIP
360
FDA76
  0
DICTIONARY
  5
FDA73
330
FCBE9
100
AcDbDictionary
280
     1
281
     1
  3
ACAD_XREC_ROUNDTRIP
360
FDA74
  0
DICTIONARY
  5
FDA6D
330
FCBE6
100
AcDbDictionary
280
     1
281
     1
  3
ACAD_XREC_ROUNDTRIP
360
FDA6E
  0
DICTIONARY
  5
FDA6F
330
FCBE7
100
AcDbDictionary
280
     1
281
     1
  3
ACAD_XREC_ROUNDTRIP
360
FDA70
  0
DICTIONARY
  5
FDA65
330
FCBE2
100
AcDbDictionary
280
     1
281
     1
  3
ACAD_XREC_ROUNDTRIP
360
FDA66
  0
DICTIONARY
  5
FDA59
330
FCBDC
100
AcDbDictionary
280
     1
281
     1
  3
ACAD_XREC_ROUNDTRIP
360
FDA5A
  0
DICTIONARY
  5
FDA71
330
FCBE8
100
AcDbDictionary
280
     1
281
     1
  3
ACAD_XREC_ROUNDTRIP
360
FDA72
  0
XRECORD
  5
FDA83
102
{ACAD_REACTORS
330
FDA82
102
}
330
FDA82
100
AcDbXrecord
280
     1
102
DISPLAYNAME
  1
Metric50
102
FLAGS
 90
        0
  0
XRECORD
  5
FD972
102
{ACAD_REACTORS
330
FCBC6
102
}
330
FCBC6
100
AcDbXrecord
280
     1
102
MATERIAL
148
0.0
149
0.0
149
0.0
 93
        0
 94
      127
282
     0
 72
     0
 77
     0
171
     0
175
     0
179
     0
273
     0
  0
XRECORD
  5
FCBC8
102
{ACAD_REACTORS
330
FCBC6
102
}
330
FCBC6
100
AcDbXrecord
280
     1
270
     1
271
     1
  0
XRECORD
  5
FCBC7
102
{ACAD_REACTORS
330
FCBC6
102
}
330
FCBC6
100
AcDbXrecord
280
     1
270
     1
271
     1
  0
XRECORD
  5
FCBCB
102
{ACAD_REACTORS
330
FCBC6
102
}
330
FCBC6
100
AcDbXrecord
280
     1
270
     1
271
     1
  0
XRECORD
  5
FCBCA
102
{ACAD_REACTORS
330
FCBC6
102
}
330
FCBC6
100
AcDbXrecord
280
     1
270
     1
271
     1
  0
XRECORD
  5
FCBCC
102
{ACAD_REACTORS
330
FCBC6
102
}
330
FCBC6
100
AcDbXrecord
280
     1
270
     1
271
     1
  0
XRECORD
  5
FCBC9
102
{ACAD_REACTORS
330
FCBC6
102
}
330
FCBC6
100
AcDbXrecord
280
     1
270
     1
271
     1
  0
XRECORD
  5
FD971
102
{ACAD_REACTORS
330
FCBBE
102
}
330
FCBBE
100
AcDbXrecord
280
     1
102
MATERIAL
148
0.0
149
0.0
149
0.0
 93
        0
 94
      127
282
     0
 72
     0
 77
     0
171
     0
175
     0
179
     0
273
     0
  0
XRECORD
  5
FCBC0
102
{ACAD_REACTORS
330
FCBBE
102
}
330
FCBBE
100
AcDbXrecord
280
     1
270
     1
271
     1
  0
XRECORD
  5
FCBBF
102
{ACAD_REACTORS
330
FCBBE
102
}
330
FCBBE
100
AcDbXrecord
280
     1
270
     1
271
     1
  0
XRECORD
  5
FCBC3
102
{ACAD_REACTORS
330
FCBBE
102
}
330
FCBBE
100
AcDbXrecord
280
     1
270
     1
271
     1
  0
XRECORD
  5
FCBC2
102
{ACAD_REACTORS
330
FCBBE
102
}
330
FCBBE
100
AcDbXrecord
280
     1
270
     1
271
     1
  0
XRECORD
  5
FCBC4
102
{ACAD_REACTORS
330
FCBBE
102
}
330
FCBBE
100
AcDbXrecord
280
     1
270
     1
271
     1
  0
XRECORD
  5
FCBC1
102
{ACAD_REACTORS
330
FCBBE
102
}
330
FCBBE
100
AcDbXrecord
280
     1
270
     1
271
     1
  0
XRECORD
  5
FD973
102
{ACAD_REACTORS
330
FCBCE
102
}
330
FCBCE
100
AcDbXrecord
280
     1
102
MATERIAL
148
0.0
149
0.0
149
0.0
 93
        0
 94
      127
282
     0
 72
     0
 77
     0
171
     0
175
     0
179
     0
273
     0
  0
XRECORD
  5
FCBD0
102
{ACAD_REACTORS
330
FCBCE
102
}
330
FCBCE
100
AcDbXrecord
280
     1
270
     1
271
     1
  0
XRECORD
  5
FCBCF
102
{ACAD_REACTORS
330
FCBCE
102
}
330
FCBCE
100
AcDbXrecord
280
     1
270
     1
271
     1
  0
XRECORD
  5
FCBD3
102
{ACAD_REACTORS
330
FCBCE
102
}
330
FCBCE
100
AcDbXrecord
280
     1
270
     1
271
     1
  0
XRECORD
  5
FCBD2
102
{ACAD_REACTORS
330
FCBCE
102
}
330
FCBCE
100
AcDbXrecord
280
     1
270
     1
271
     1
  0
XRECORD
  5
FCBD4
102
{ACAD_REACTORS
330
FCBCE
102
}
330
FCBCE
100
AcDbXrecord
280
     1
270
     1
271
     1
  0
XRECORD
  5
FCBD1
102
{ACAD_REACTORS
330
FCBCE
102
}
330
FCBCE
100
AcDbXrecord
280
     1
270
     1
271
     1
  0
XRECORD
  5
FDA7F
102
{ACAD_REACTORS
330
FDA7E
102
}
330
FDA7E
100
AcDbXrecord
280
     1
102
ACAD_ROUNDTRIP_2012_MLEADER_STYLE
298
     1
  0
XRECORD
  5
FDA81
102
{ACAD_REACTORS
330
FDA80
102
}
330
FDA80
100
AcDbXrecord
280
     1
102
DISPLAYNAME
  1
Metric50
102
FLAGS
 90
        0
  0
CELLSTYLEMAP
  5
FDA4B
102
{ACAD_REACTORS
330
FD966
102
}
330
FD966
100
AcDbCellStyleMap
 90
        3
300
CELLSTYLE
  1
TABLEFORMAT_BEGIN
 90
        5
170
     1
 91
        0
 92
    32768
 62
   257
 93
        1
300
CONTENTFORMAT
  1
CONTENTFORMAT_BEGIN
 90
        0
 91
        0
 92
      512
 93
        0
300

 40
0.0
140
1.0
 94
        5
 62
     0
340
11
144
6.0
309
CONTENTFORMAT_END
171
     1
301
MARGIN
  1
CELLMARGIN_BEGIN
 40
1.5
 40
1.5
 40
1.5
 40
1.5
 40
0.18
 40
0.18
309
CELLMARGIN_END
 94
        6
 95
        1
302
GRIDFORMAT
  1
GRIDFORMAT_BEGIN
 90
        0
 91
        1
 62
     0
 92
       -2
340
0
 93
        0
 40
1.125
309
GRIDFORMAT_END
 95
        2
302
GRIDFORMAT
  1
GRIDFORMAT_BEGIN
 90
        0
 91
        1
 62
     0
 92
       -2
340
0
 93
        0
 40
1.125
309
GRIDFORMAT_END
 95
        4
302
GRIDFORMAT
  1
GRIDFORMAT_BEGIN
 90
        0
 91
        1
 62
     0
 92
       -2
340
0
 93
        0
 40
1.125
309
GRIDFORMAT_END
 95
        8
302
GRIDFORMAT
  1
GRIDFORMAT_BEGIN
 90
        0
 91
        1
 62
     0
 92
       -2
340
0
 93
        0
 40
1.125
309
GRIDFORMAT_END
 95
       16
302
GRIDFORMAT
  1
GRIDFORMAT_BEGIN
 90
        0
 91
        1
 62
     0
 92
       -2
340
0
 93
        0
 40
1.125
309
GRIDFORMAT_END
 95
       32
302
GRIDFORMAT
  1
GRIDFORMAT_BEGIN
 90
        0
 91
        1
 62
     0
 92
       -2
340
0
 93
        0
 40
1.125
309
GRIDFORMAT_END
309
TABLEFORMAT_END
  1
CELLSTYLE_BEGIN
 90
        1
 91
        1
300
_TITLE
309
CELLSTYLE_END
300
CELLSTYLE
  1
TABLEFORMAT_BEGIN
 90
        5
170
     1
 91
        0
 92
        0
 62
   257
 93
        1
300
CONTENTFORMAT
  1
CONTENTFORMAT_BEGIN
 90
        0
 91
        0
 92
      512
 93
        0
300

 40
0.0
140
1.0
 94
        5
 62
     0
340
11
144
4.5
309
CONTENTFORMAT_END
171
     1
301
MARGIN
  1
CELLMARGIN_BEGIN
 40
1.5
 40
1.5
 40
1.5
 40
1.5
 40
0.18
 40
0.18
309
CELLMARGIN_END
 94
        6
 95
        1
302
GRIDFORMAT
  1
GRIDFORMAT_BEGIN
 90
        0
 91
        1
 62
     0
 92
       -2
340
0
 93
        0
 40
1.125
309
GRIDFORMAT_END
 95
        2
302
GRIDFORMAT
  1
GRIDFORMAT_BEGIN
 90
        0
 91
        1
 62
     0
 92
       -2
340
0
 93
        0
 40
1.125
309
GRIDFORMAT_END
 95
        4
302
GRIDFORMAT
  1
GRIDFORMAT_BEGIN
 90
        0
 91
        1
 62
     0
 92
       -2
340
0
 93
        0
 40
1.125
309
GRIDFORMAT_END
 95
        8
302
GRIDFORMAT
  1
GRIDFORMAT_BEGIN
 90
        0
 91
        1
 62
     0
 92
       -2
340
0
 93
        0
 40
1.125
309
GRIDFORMAT_END
 95
       16
302
GRIDFORMAT
  1
GRIDFORMAT_BEGIN
 90
        0
 91
        1
 62
     0
 92
       -2
340
0
 93
        0
 40
1.125
309
GRIDFORMAT_END
 95
       32
302
GRIDFORMAT
  1
GRIDFORMAT_BEGIN
 90
        0
 91
        1
 62
     0
 92
       -2
340
0
 93
        0
 40
1.125
309
GRIDFORMAT_END
309
TABLEFORMAT_END
  1
CELLSTYLE_BEGIN
 90
        2
 91
        1
300
_HEADER
309
CELLSTYLE_END
300
CELLSTYLE
  1
TABLEFORMAT_BEGIN
 90
        5
170
     1
 91
        0
 92
        0
 62
   257
 93
        1
300
CONTENTFORMAT
  1
CONTENTFORMAT_BEGIN
 90
        0
 91
        0
 92
      512
 93
        0
300

 40
0.0
140
1.0
 94
        2
 62
     0
340
11
144
4.5
309
CONTENTFORMAT_END
171
     1
301
MARGIN
  1
CELLMARGIN_BEGIN
 40
1.5
 40
1.5
 40
1.5
 40
1.5
 40
0.18
 40
0.18
309
CELLMARGIN_END
 94
        6
 95
        1
302
GRIDFORMAT
  1
GRIDFORMAT_BEGIN
 90
        0
 91
        1
 62
     0
 92
       -2
340
0
 93
        0
 40
1.125
309
GRIDFORMAT_END
 95
        2
302
GRIDFORMAT
  1
GRIDFORMAT_BEGIN
 90
        0
 91
        1
 62
     0
 92
       -2
340
0
 93
        0
 40
1.125
309
GRIDFORMAT_END
 95
        4
302
GRIDFORMAT
  1
GRIDFORMAT_BEGIN
 90
        0
 91
        1
 62
     0
 92
       -2
340
0
 93
        0
 40
1.125
309
GRIDFORMAT_END
 95
        8
302
GRIDFORMAT
  1
GRIDFORMAT_BEGIN
 90
        0
 91
        1
 62
     0
 92
       -2
340
0
 93
        0
 40
1.125
309
GRIDFORMAT_END
 95
       16
302
GRIDFORMAT
  1
GRIDFORMAT_BEGIN
 90
        0
 91
        1
 62
     0
 92
       -2
340
0
 93
        0
 40
1.125
309
GRIDFORMAT_END
 95
       32
302
GRIDFORMAT
  1
GRIDFORMAT_BEGIN
 90
        0
 91
        1
 62
     0
 92
       -2
340
0
 93
        0
 40
1.125
309
GRIDFORMAT_END
309
TABLEFORMAT_END
  1
CELLSTYLE_BEGIN
 90
        3
 91
        2
300
_DATA
309
CELLSTYLE_END
  0
XRECORD
  5
FDA7D
102
{ACAD_REACTORS
330
FD966
102
}
330
FD966
100
AcDbXrecord
280
     1
102
ACAD_ROUNDTRIP_PRE2007_TABLESTYLE
 90
      512
 91
        0
  1

 92
      512
 93
        0
  2

 94
      512
 95
        0
  3

  0
XRECORD
  5
FDA58
102
{ACAD_REACTORS
330
FDA57
102
}
330
FDA57
100
AcDbXrecord
280
     1
102
RTVSPost2010Prop28
280
     1
102
RTVSPost2010PropOp28
 70
     1
102
RTVSPost2010Prop29
280
     1
102
RTVSPost2010PropOp29
 70
     1
102
RTVSPost2010Prop30
280
     0
102
RTVSPost2010PropOp30
 70
     1
102
RTVSPost2010Prop31
280
     0
102
RTVSPost2010PropOp31
 70
     1
102
RTVSPost2010Prop32
280
     0
102
RTVSPost2010PropOp32
 70
     1
102
RTVSPost2010Prop33
280
     0
102
RTVSPost2010PropOp33
 70
     1
102
RTVSPost2010Prop34
280
     0
102
RTVSPost2010PropOp34
 70
     1
102
RTVSPost2010Prop35
280
     0
102
RTVSPost2010PropOp35
 70
     1
102
RTVSPost2010Prop36
280
     0
102
RTVSPost2010PropOp36
 70
     1
102
RTVSPost2010Prop37
 90
       50
102
RTVSPost2010PropOp37
 70
     1
102
RTVSPost2010Prop38
140
0.0
102
RTVSPost2010PropOp38
 70
     1
102
RTVSPost2010Prop39
140
1.0
102
RTVSPost2010PropOp39
 70
     1
102
RTVSPost2010Prop40
 90
        0
102
RTVSPost2010PropOp40
 70
     1
102
RTVSPost2010Prop41ColorIndex
 90
       18
102
RTVSPost2010Prop41ColorRGB
 90
        0
102
RTVSPost2010PropOp41
 70
     1
102
RTVSPost2010Prop42
 90
       50
102
RTVSPost2010PropOp42
 70
     1
102
RTVSPost2010Prop43
 90
        3
102
RTVSPost2010PropOp43
 70
     1
102
RTVSPost2010Prop44ColorIndex
 90
        5
102
RTVSPost2010Prop44ColorRGB
 90
      255
102
RTVSPost2010PropOp44
 70
     1
102
RTVSPost2010Prop45
280
     0
102
RTVSPost2010PropOp45
 70
     1
102
RTVSPost2010Prop46
 90
       50
102
RTVSPost2010PropOp46
 70
     1
102
RTVSPost2010Prop47
 90
       50
102
RTVSPost2010PropOp47
 70
     1
102
RTVSPost2010Prop48
 90
       50
102
RTVSPost2010PropOp48
 70
     1
102
RTVSPost2010Prop49
280
     0
102
RTVSPost2010PropOp49
 70
     1
102
RTVSPost2010Prop50
 90
       50
102
RTVSPost2010PropOp50
 70
     1
102
RTVSPost2010Prop51ColorIndex
 90
      256
102
RTVSPost2010Prop51ColorRGB
 90
-16777216
102
RTVSPost2010PropOp51
 70
     0
102
RTVSPost2010Prop52
140
1.0
102
RTVSPost2010PropOp52
 70
     0
102
RTVSPost2010Prop53
 90
        2
102
RTVSPost2010PropOp53
 70
     1
102
RTVSPost2010Prop54
  1
strokes_ogs.tif
102
RTVSPost2010PropOp54
 70
     1
102
RTVSPost2010Prop55
280
     0
102
RTVSPost2010PropOp55
 70
     1
102
RTVSPost2010Prop56
140
1.0
102
RTVSPost2010PropOp56
 70
     1
102
RTVSPost2010Prop57
140
1.0
102
RTVSPost2010PropOp57
 70
     1
102
RTVSPropertyOp0
 70
     1
102
RTVSPropertyOp1
 70
     1
102
RTVSPropertyOp2
 70
     1
102
RTVSPropertyOp3
 70
     1
102
RTVSPropertyOp4
 70
     1
102
RTVSPropertyOp5
 70
     1
102
RTVSPropertyOp6
 70
     1
102
RTVSPropertyOp7
 70
     1
102
RTVSPropertyOp8
 70
     1
102
RTVSPropertyOp9
 70
     1
102
RTVSPropertyOp10
 70
     1
102
RTVSPropertyOp11
 70
     1
102
RTVSPropertyOp12
 70
     1
102
RTVSPropertyOp13
 70
     1
102
RTVSPropertyOp14
 70
     1
102
RTVSPropertyOp15
 70
     1
102
RTVSPropertyOp16
 70
     1
102
RTVSPropertyOp17
 70
     1
102
RTVSPropertyOp18
 70
     1
102
RTVSPropertyOp19
 70
     1
102
RTVSPropertyOp20
 70
     1
102
RTVSPropertyOp21
 70
     1
102
RTVSPropertyOp22
 70
     1
102
RTVSPropertyOp23
 70
     1
102
RTVSPropertyOp24
 70
     1
102
RTVSPropertyOp25
 70
     1
102
RTVSPropertyOp26
 70
     1
102
RTVSPropertyOp27
 70
     1
102
RTVSPropertyOp28
 70
     1
102
RTVSPropertyOp29
 70
     1
102
RTVSPropertyOp30
 70
     1
102
RTVSPropertyOp31
 70
     1
102
RTVSPropertyOp32
 70
     1
102
RTVSPropertyOp33
 70
     1
102
RTVSPropertyOp34
 70
     1
102
RTVSPropertyOp35
 70
     1
102
RTVSPropertyOp36
 70
     1
102
RTVSPropertyOp37
 70
     1
102
RTVSPropertyOp38
 70
     1
102
RTVSPropertyOp39
 70
     1
102
RTVSPropertyOp40
 70
     1
102
RTVSPropertyOp41
 70
     1
102
RTVSPropertyOp42
 70
     1
102
RTVSPropertyOp43
 70
     1
102
RTVSPropertyOp44
 70
     1
102
RTVSPropertyOp45
 70
     1
102
RTVSPropertyOp46
 70
     1
102
RTVSPropertyOp47
 70
     1
102
RTVSPropertyOp48
 70
     1
102
RTVSPropertyOp49
 70
     1
102
RTVSPropertyOp50
 70
     1
102
RTVSPropertyOp51
 70
     0
102
RTVSPropertyOp52
 70
     0
102
RTVSPropertyOp53
 70
     1
102
RTVSPropertyOp54
 70
     1
102
RTVSPropertyOp55
 70
     1
102
RTVSPropertyOp56
 70
     1
102
RTVSPropertyOp57
 70
     1
102
RTVSPropertyOp58
 70
     1
102
RTVSPropertyOp59
 70
     1
102
RTVSPropertyOp60
 70
     1
102
RTVSPropertyOp61
 70
     1
102
RTVSPropertyOp62
 70
     1
  0
XRECORD
  5
FDA56
102
{ACAD_REACTORS
330
FDA55
102
}
330
FDA55
100
AcDbXrecord
280
     1
102
RTVSPost2010Prop28
280
     0
102
RTVSPost2010PropOp28
 70
     1
102
RTVSPost2010Prop29
280
     1
102
RTVSPost2010PropOp29
 70
     1
102
RTVSPost2010Prop30
280
     1
102
RTVSPost2010PropOp30
 70
     1
102
RTVSPost2010Prop31
280
     0
102
RTVSPost2010PropOp31
 70
     1
102
RTVSPost2010Prop32
280
     0
102
RTVSPost2010PropOp32
 70
     1
102
RTVSPost2010Prop33
280
     0
102
RTVSPost2010PropOp33
 70
     1
102
RTVSPost2010Prop34
280
     0
102
RTVSPost2010PropOp34
 70
     1
102
RTVSPost2010Prop35
280
     0
102
RTVSPost2010PropOp35
 70
     1
102
RTVSPost2010Prop36
280
     0
102
RTVSPost2010PropOp36
 70
     1
102
RTVSPost2010Prop37
 90
       50
102
RTVSPost2010PropOp37
 70
     1
102
RTVSPost2010Prop38
140
0.0
102
RTVSPost2010PropOp38
 70
     1
102
RTVSPost2010Prop39
140
1.0
102
RTVSPost2010PropOp39
 70
     1
102
RTVSPost2010Prop40
 90
        0
102
RTVSPost2010PropOp40
 70
     1
102
RTVSPost2010Prop41ColorIndex
 90
       18
102
RTVSPost2010Prop41ColorRGB
 90
        0
102
RTVSPost2010PropOp41
 70
     1
102
RTVSPost2010Prop42
 90
       50
102
RTVSPost2010PropOp42
 70
     1
102
RTVSPost2010Prop43
 90
        3
102
RTVSPost2010PropOp43
 70
     1
102
RTVSPost2010Prop44ColorIndex
 90
        5
102
RTVSPost2010Prop44ColorRGB
 90
      255
102
RTVSPost2010PropOp44
 70
     1
102
RTVSPost2010Prop45
280
     0
102
RTVSPost2010PropOp45
 70
     1
102
RTVSPost2010Prop46
 90
       50
102
RTVSPost2010PropOp46
 70
     1
102
RTVSPost2010Prop47
 90
       50
102
RTVSPost2010PropOp47
 70
     1
102
RTVSPost2010Prop48
 90
       50
102
RTVSPost2010PropOp48
 70
     1
102
RTVSPost2010Prop49
280
     0
102
RTVSPost2010PropOp49
 70
     1
102
RTVSPost2010Prop50
 90
       50
102
RTVSPost2010PropOp50
 70
     1
102
RTVSPost2010Prop51ColorIndex
 90
      256
102
RTVSPost2010Prop51ColorRGB
 90
-16777216
102
RTVSPost2010PropOp51
 70
     0
102
RTVSPost2010Prop52
140
1.0
102
RTVSPost2010PropOp52
 70
     0
102
RTVSPost2010Prop53
 90
        2
102
RTVSPost2010PropOp53
 70
     1
102
RTVSPost2010Prop54
  1
strokes_ogs.tif
102
RTVSPost2010PropOp54
 70
     1
102
RTVSPost2010Prop55
280
     0
102
RTVSPost2010PropOp55
 70
     1
102
RTVSPost2010Prop56
140
1.0
102
RTVSPost2010PropOp56
 70
     1
102
RTVSPost2010Prop57
140
1.0
102
RTVSPost2010PropOp57
 70
     1
102
RTVSPropertyOp0
 70
     1
102
RTVSPropertyOp1
 70
     1
102
RTVSPropertyOp2
 70
     1
102
RTVSPropertyOp3
 70
     1
102
RTVSPropertyOp4
 70
     1
102
RTVSPropertyOp5
 70
     1
102
RTVSPropertyOp6
 70
     1
102
RTVSPropertyOp7
 70
     1
102
RTVSPropertyOp8
 70
     1
102
RTVSPropertyOp9
 70
     1
102
RTVSPropertyOp10
 70
     1
102
RTVSPropertyOp11
 70
     1
102
RTVSPropertyOp12
 70
     1
102
RTVSPropertyOp13
 70
     1
102
RTVSPropertyOp14
 70
     1
102
RTVSPropertyOp15
 70
     1
102
RTVSPropertyOp16
 70
     1
102
RTVSPropertyOp17
 70
     1
102
RTVSPropertyOp18
 70
     1
102
RTVSPropertyOp19
 70
     1
102
RTVSPropertyOp20
 70
     1
102
RTVSPropertyOp21
 70
     1
102
RTVSPropertyOp22
 70
     1
102
RTVSPropertyOp23
 70
     1
102
RTVSPropertyOp24
 70
     1
102
RTVSPropertyOp25
 70
     1
102
RTVSPropertyOp26
 70
     1
102
RTVSPropertyOp27
 70
     1
102
RTVSPropertyOp28
 70
     1
102
RTVSPropertyOp29
 70
     1
102
RTVSPropertyOp30
 70
     1
102
RTVSPropertyOp31
 70
     1
102
RTVSPropertyOp32
 70
     1
102
RTVSPropertyOp33
 70
     1
102
RTVSPropertyOp34
 70
     1
102
RTVSPropertyOp35
 70
     1
102
RTVSPropertyOp36
 70
     1
102
RTVSPropertyOp37
 70
     1
102
RTVSPropertyOp38
 70
     1
102
RTVSPropertyOp39
 70
     1
102
RTVSPropertyOp40
 70
     1
102
RTVSPropertyOp41
 70
     1
102
RTVSPropertyOp42
 70
     1
102
RTVSPropertyOp43
 70
     1
102
RTVSPropertyOp44
 70
     1
102
RTVSPropertyOp45
 70
     1
102
RTVSPropertyOp46
 70
     1
102
RTVSPropertyOp47
 70
     1
102
RTVSPropertyOp48
 70
     1
102
RTVSPropertyOp49
 70
     1
102
RTVSPropertyOp50
 70
     1
102
RTVSPropertyOp51
 70
     0
102
RTVSPropertyOp52
 70
     0
102
RTVSPropertyOp53
 70
     1
102
RTVSPropertyOp54
 70
     1
102
RTVSPropertyOp55
 70
     1
102
RTVSPropertyOp56
 70
     1
102
RTVSPropertyOp57
 70
     1
102
RTVSPropertyOp58
 70
     1
102
RTVSPropertyOp59
 70
     1
102
RTVSPropertyOp60
 70
     1
102
RTVSPropertyOp61
 70
     1
102
RTVSPropertyOp62
 70
     1
  0
XRECORD
  5
FDA64
102
{ACAD_REACTORS
330
FDA63
102
}
330
FDA63
100
AcDbXrecord
280
     1
102
RTVSPost2010Prop28
280
     0
102
RTVSPost2010PropOp28
 70
     1
102
RTVSPost2010Prop29
280
     1
102
RTVSPost2010PropOp29
 70
     1
102
RTVSPost2010Prop30
280
     1
102
RTVSPost2010PropOp30
 70
     1
102
RTVSPost2010Prop31
280
     0
102
RTVSPost2010PropOp31
 70
     1
102
RTVSPost2010Prop32
280
     0
102
RTVSPost2010PropOp32
 70
     1
102
RTVSPost2010Prop33
280
     0
102
RTVSPost2010PropOp33
 70
     1
102
RTVSPost2010Prop34
280
     0
102
RTVSPost2010PropOp34
 70
     1
102
RTVSPost2010Prop35
280
     0
102
RTVSPost2010PropOp35
 70
     1
102
RTVSPost2010Prop36
280
     0
102
RTVSPost2010PropOp36
 70
     1
102
RTVSPost2010Prop37
 90
       50
102
RTVSPost2010PropOp37
 70
     1
102
RTVSPost2010Prop38
140
0.0
102
RTVSPost2010PropOp38
 70
     1
102
RTVSPost2010Prop39
140
1.0
102
RTVSPost2010PropOp39
 70
     1
102
RTVSPost2010Prop40
 90
        0
102
RTVSPost2010PropOp40
 70
     1
102
RTVSPost2010Prop41ColorIndex
 90
       18
102
RTVSPost2010Prop41ColorRGB
 90
        0
102
RTVSPost2010PropOp41
 70
     1
102
RTVSPost2010Prop42
 90
       50
102
RTVSPost2010PropOp42
 70
     1
102
RTVSPost2010Prop43
 90
        3
102
RTVSPost2010PropOp43
 70
     1
102
RTVSPost2010Prop44ColorIndex
 90
        5
102
RTVSPost2010Prop44ColorRGB
 90
      255
102
RTVSPost2010PropOp44
 70
     1
102
RTVSPost2010Prop45
280
     0
102
RTVSPost2010PropOp45
 70
     1
102
RTVSPost2010Prop46
 90
       50
102
RTVSPost2010PropOp46
 70
     1
102
RTVSPost2010Prop47
 90
       50
102
RTVSPost2010PropOp47
 70
     1
102
RTVSPost2010Prop48
 90
       50
102
RTVSPost2010PropOp48
 70
     1
102
RTVSPost2010Prop49
280
     0
102
RTVSPost2010PropOp49
 70
     1
102
RTVSPost2010Prop50
 90
       50
102
RTVSPost2010PropOp50
 70
     1
102
RTVSPost2010Prop51ColorIndex
 90
      256
102
RTVSPost2010Prop51ColorRGB
 90
-16777216
102
RTVSPost2010PropOp51
 70
     0
102
RTVSPost2010Prop52
140
1.0
102
RTVSPost2010PropOp52
 70
     0
102
RTVSPost2010Prop53
 90
        2
102
RTVSPost2010PropOp53
 70
     1
102
RTVSPost2010Prop54
  1
strokes_ogs.tif
102
RTVSPost2010PropOp54
 70
     1
102
RTVSPost2010Prop55
280
     0
102
RTVSPost2010PropOp55
 70
     1
102
RTVSPost2010Prop56
140
1.0
102
RTVSPost2010PropOp56
 70
     1
102
RTVSPost2010Prop57
140
1.0
102
RTVSPost2010PropOp57
 70
     1
102
RTVSPropertyOp0
 70
     1
102
RTVSPropertyOp1
 70
     1
102
RTVSPropertyOp2
 70
     1
102
RTVSPropertyOp3
 70
     1
102
RTVSPropertyOp4
 70
     1
102
RTVSPropertyOp5
 70
     1
102
RTVSPropertyOp6
 70
     1
102
RTVSPropertyOp7
 70
     1
102
RTVSPropertyOp8
 70
     1
102
RTVSPropertyOp9
 70
     1
102
RTVSPropertyOp10
 70
     1
102
RTVSPropertyOp11
 70
     1
102
RTVSPropertyOp12
 70
     1
102
RTVSPropertyOp13
 70
     1
102
RTVSPropertyOp14
 70
     1
102
RTVSPropertyOp15
 70
     1
102
RTVSPropertyOp16
 70
     1
102
RTVSPropertyOp17
 70
     1
102
RTVSPropertyOp18
 70
     1
102
RTVSPropertyOp19
 70
     1
102
RTVSPropertyOp20
 70
     1
102
RTVSPropertyOp21
 70
     1
102
RTVSPropertyOp22
 70
     1
102
RTVSPropertyOp23
 70
     1
102
RTVSPropertyOp24
 70
     1
102
RTVSPropertyOp25
 70
     1
102
RTVSPropertyOp26
 70
     1
102
RTVSPropertyOp27
 70
     1
102
RTVSPropertyOp28
 70
     1
102
RTVSPropertyOp29
 70
     1
102
RTVSPropertyOp30
 70
     1
102
RTVSPropertyOp31
 70
     1
102
RTVSPropertyOp32
 70
     1
102
RTVSPropertyOp33
 70
     1
102
RTVSPropertyOp34
 70
     1
102
RTVSPropertyOp35
 70
     1
102
RTVSPropertyOp36
 70
     1
102
RTVSPropertyOp37
 70
     1
102
RTVSPropertyOp38
 70
     1
102
RTVSPropertyOp39
 70
     1
102
RTVSPropertyOp40
 70
     1
102
RTVSPropertyOp41
 70
     1
102
RTVSPropertyOp42
 70
     1
102
RTVSPropertyOp43
 70
     1
102
RTVSPropertyOp44
 70
     1
102
RTVSPropertyOp45
 70
     1
102
RTVSPropertyOp46
 70
     1
102
RTVSPropertyOp47
 70
     1
102
RTVSPropertyOp48
 70
     1
102
RTVSPropertyOp49
 70
     1
102
RTVSPropertyOp50
 70
     1
102
RTVSPropertyOp51
 70
     0
102
RTVSPropertyOp52
 70
     0
102
RTVSPropertyOp53
 70
     1
102
RTVSPropertyOp54
 70
     1
102
RTVSPropertyOp55
 70
     1
102
RTVSPropertyOp56
 70
     1
102
RTVSPropertyOp57
 70
     1
102
RTVSPropertyOp58
 70
     1
102
RTVSPropertyOp59
 70
     1
102
RTVSPropertyOp60
 70
     1
102
RTVSPropertyOp61
 70
     1
102
RTVSPropertyOp62
 70
     1
  0
XRECORD
  5
FDA6C
102
{ACAD_REACTORS
330
FDA6B
102
}
330
FDA6B
100
AcDbXrecord
280
     1
102
RTVSPost2010Prop28
280
     0
102
RTVSPost2010PropOp28
 70
     1
102
RTVSPost2010Prop29
280
     1
102
RTVSPost2010PropOp29
 70
     1
102
RTVSPost2010Prop30
280
     1
102
RTVSPost2010PropOp30
 70
     1
102
RTVSPost2010Prop31
280
     0
102
RTVSPost2010PropOp31
 70
     1
102
RTVSPost2010Prop32
280
     0
102
RTVSPost2010PropOp32
 70
     1
102
RTVSPost2010Prop33
280
     0
102
RTVSPost2010PropOp33
 70
     1
102
RTVSPost2010Prop34
280
     0
102
RTVSPost2010PropOp34
 70
     1
102
RTVSPost2010Prop35
280
     0
102
RTVSPost2010PropOp35
 70
     1
102
RTVSPost2010Prop36
280
     0
102
RTVSPost2010PropOp36
 70
     1
102
RTVSPost2010Prop37
 90
       50
102
RTVSPost2010PropOp37
 70
     1
102
RTVSPost2010Prop38
140
0.0
102
RTVSPost2010PropOp38
 70
     1
102
RTVSPost2010Prop39
140
1.0
102
RTVSPost2010PropOp39
 70
     1
102
RTVSPost2010Prop40
 90
        0
102
RTVSPost2010PropOp40
 70
     1
102
RTVSPost2010Prop41ColorIndex
 90
       18
102
RTVSPost2010Prop41ColorRGB
 90
        0
102
RTVSPost2010PropOp41
 70
     1
102
RTVSPost2010Prop42
 90
       50
102
RTVSPost2010PropOp42
 70
     1
102
RTVSPost2010Prop43
 90
        3
102
RTVSPost2010PropOp43
 70
     1
102
RTVSPost2010Prop44ColorIndex
 90
        5
102
RTVSPost2010Prop44ColorRGB
 90
      255
102
RTVSPost2010PropOp44
 70
     1
102
RTVSPost2010Prop45
280
     0
102
RTVSPost2010PropOp45
 70
     1
102
RTVSPost2010Prop46
 90
       50
102
RTVSPost2010PropOp46
 70
     1
102
RTVSPost2010Prop47
 90
       50
102
RTVSPost2010PropOp47
 70
     1
102
RTVSPost2010Prop48
 90
       50
102
RTVSPost2010PropOp48
 70
     1
102
RTVSPost2010Prop49
280
     0
102
RTVSPost2010PropOp49
 70
     1
102
RTVSPost2010Prop50
 90
       50
102
RTVSPost2010PropOp50
 70
     1
102
RTVSPost2010Prop51ColorIndex
 90
      256
102
RTVSPost2010Prop51ColorRGB
 90
-16777216
102
RTVSPost2010PropOp51
 70
     0
102
RTVSPost2010Prop52
140
1.0
102
RTVSPost2010PropOp52
 70
     0
102
RTVSPost2010Prop53
 90
        2
102
RTVSPost2010PropOp53
 70
     1
102
RTVSPost2010Prop54
  1
strokes_ogs.tif
102
RTVSPost2010PropOp54
 70
     1
102
RTVSPost2010Prop55
280
     0
102
RTVSPost2010PropOp55
 70
     1
102
RTVSPost2010Prop56
140
1.0
102
RTVSPost2010PropOp56
 70
     1
102
RTVSPost2010Prop57
140
1.0
102
RTVSPost2010PropOp57
 70
     1
102
RTVSPropertyOp0
 70
     1
102
RTVSPropertyOp1
 70
     1
102
RTVSPropertyOp2
 70
     1
102
RTVSPropertyOp3
 70
     1
102
RTVSPropertyOp4
 70
     1
102
RTVSPropertyOp5
 70
     1
102
RTVSPropertyOp6
 70
     1
102
RTVSPropertyOp7
 70
     1
102
RTVSPropertyOp8
 70
     1
102
RTVSPropertyOp9
 70
     1
102
RTVSPropertyOp10
 70
     1
102
RTVSPropertyOp11
 70
     1
102
RTVSPropertyOp12
 70
     1
102
RTVSPropertyOp13
 70
     1
102
RTVSPropertyOp14
 70
     1
102
RTVSPropertyOp15
 70
     1
102
RTVSPropertyOp16
 70
     1
102
RTVSPropertyOp17
 70
     1
102
RTVSPropertyOp18
 70
     1
102
RTVSPropertyOp19
 70
     1
102
RTVSPropertyOp20
 70
     1
102
RTVSPropertyOp21
 70
     1
102
RTVSPropertyOp22
 70
     1
102
RTVSPropertyOp23
 70
     1
102
RTVSPropertyOp24
 70
     1
102
RTVSPropertyOp25
 70
     1
102
RTVSPropertyOp26
 70
     1
102
RTVSPropertyOp27
 70
     1
102
RTVSPropertyOp28
 70
     1
102
RTVSPropertyOp29
 70
     1
102
RTVSPropertyOp30
 70
     1
102
RTVSPropertyOp31
 70
     1
102
RTVSPropertyOp32
 70
     1
102
RTVSPropertyOp33
 70
     1
102
RTVSPropertyOp34
 70
     1
102
RTVSPropertyOp35
 70
     1
102
RTVSPropertyOp36
 70
     1
102
RTVSPropertyOp37
 70
     1
102
RTVSPropertyOp38
 70
     1
102
RTVSPropertyOp39
 70
     1
102
RTVSPropertyOp40
 70
     1
102
RTVSPropertyOp41
 70
     1
102
RTVSPropertyOp42
 70
     1
102
RTVSPropertyOp43
 70
     1
102
RTVSPropertyOp44
 70
     1
102
RTVSPropertyOp45
 70
     1
102
RTVSPropertyOp46
 70
     1
102
RTVSPropertyOp47
 70
     1
102
RTVSPropertyOp48
 70
     1
102
RTVSPropertyOp49
 70
     1
102
RTVSPropertyOp50
 70
     1
102
RTVSPropertyOp51
 70
     0
102
RTVSPropertyOp52
 70
     0
102
RTVSPropertyOp53
 70
     1
102
RTVSPropertyOp54
 70
     1
102
RTVSPropertyOp55
 70
     1
102
RTVSPropertyOp56
 70
     1
102
RTVSPropertyOp57
 70
     1
102
RTVSPropertyOp58
 70
     1
102
RTVSPropertyOp59
 70
     1
102
RTVSPropertyOp60
 70
     1
102
RTVSPropertyOp61
 70
     1
102
RTVSPropertyOp62
 70
     1
  0
XRECORD
  5
FDA5E
102
{ACAD_REACTORS
330
FDA5D
102
}
330
FDA5D
100
AcDbXrecord
280
     1
102
RTVSPost2010Prop28
280
     0
102
RTVSPost2010PropOp28
 70
     1
102
RTVSPost2010Prop29
280
     1
102
RTVSPost2010PropOp29
 70
     1
102
RTVSPost2010Prop30
280
     1
102
RTVSPost2010PropOp30
 70
     1
102
RTVSPost2010Prop31
280
     0
102
RTVSPost2010PropOp31
 70
     1
102
RTVSPost2010Prop32
280
     0
102
RTVSPost2010PropOp32
 70
     1
102
RTVSPost2010Prop33
280
     0
102
RTVSPost2010PropOp33
 70
     1
102
RTVSPost2010Prop34
280
     0
102
RTVSPost2010PropOp34
 70
     1
102
RTVSPost2010Prop35
280
     0
102
RTVSPost2010PropOp35
 70
     1
102
RTVSPost2010Prop36
280
     0
102
RTVSPost2010PropOp36
 70
     1
102
RTVSPost2010Prop37
 90
       50
102
RTVSPost2010PropOp37
 70
     1
102
RTVSPost2010Prop38
140
0.0
102
RTVSPost2010PropOp38
 70
     1
102
RTVSPost2010Prop39
140
1.0
102
RTVSPost2010PropOp39
 70
     1
102
RTVSPost2010Prop40
 90
        0
102
RTVSPost2010PropOp40
 70
     1
102
RTVSPost2010Prop41ColorIndex
 90
       18
102
RTVSPost2010Prop41ColorRGB
 90
        0
102
RTVSPost2010PropOp41
 70
     1
102
RTVSPost2010Prop42
 90
       50
102
RTVSPost2010PropOp42
 70
     1
102
RTVSPost2010Prop43
 90
        3
102
RTVSPost2010PropOp43
 70
     1
102
RTVSPost2010Prop44ColorIndex
 90
        5
102
RTVSPost2010Prop44ColorRGB
 90
      255
102
RTVSPost2010PropOp44
 70
     1
102
RTVSPost2010Prop45
280
     0
102
RTVSPost2010PropOp45
 70
     1
102
RTVSPost2010Prop46
 90
       50
102
RTVSPost2010PropOp46
 70
     1
102
RTVSPost2010Prop47
 90
       50
102
RTVSPost2010PropOp47
 70
     1
102
RTVSPost2010Prop48
 90
       50
102
RTVSPost2010PropOp48
 70
     1
102
RTVSPost2010Prop49
280
     0
102
RTVSPost2010PropOp49
 70
     1
102
RTVSPost2010Prop50
 90
       50
102
RTVSPost2010PropOp50
 70
     1
102
RTVSPost2010Prop51ColorIndex
 90
      256
102
RTVSPost2010Prop51ColorRGB
 90
-16777216
102
RTVSPost2010PropOp51
 70
     0
102
RTVSPost2010Prop52
140
1.0
102
RTVSPost2010PropOp52
 70
     0
102
RTVSPost2010Prop53
 90
        2
102
RTVSPost2010PropOp53
 70
     1
102
RTVSPost2010Prop54
  1
strokes_ogs.tif
102
RTVSPost2010PropOp54
 70
     1
102
RTVSPost2010Prop55
280
     0
102
RTVSPost2010PropOp55
 70
     1
102
RTVSPost2010Prop56
140
1.0
102
RTVSPost2010PropOp56
 70
     1
102
RTVSPost2010Prop57
140
1.0
102
RTVSPost2010PropOp57
 70
     1
102
RTVSPropertyOp0
 70
     1
102
RTVSPropertyOp1
 70
     1
102
RTVSPropertyOp2
 70
     1
102
RTVSPropertyOp3
 70
     1
102
RTVSPropertyOp4
 70
     1
102
RTVSPropertyOp5
 70
     1
102
RTVSPropertyOp6
 70
     1
102
RTVSPropertyOp7
 70
     1
102
RTVSPropertyOp8
 70
     1
102
RTVSPropertyOp9
 70
     1
102
RTVSPropertyOp10
 70
     1
102
RTVSPropertyOp11
 70
     1
102
RTVSPropertyOp12
 70
     1
102
RTVSPropertyOp13
 70
     1
102
RTVSPropertyOp14
 70
     1
102
RTVSPropertyOp15
 70
     1
102
RTVSPropertyOp16
 70
     1
102
RTVSPropertyOp17
 70
     1
102
RTVSPropertyOp18
 70
     1
102
RTVSPropertyOp19
 70
     1
102
RTVSPropertyOp20
 70
     1
102
RTVSPropertyOp21
 70
     1
102
RTVSPropertyOp22
 70
     1
102
RTVSPropertyOp23
 70
     1
102
RTVSPropertyOp24
 70
     1
102
RTVSPropertyOp25
 70
     1
102
RTVSPropertyOp26
 70
     1
102
RTVSPropertyOp27
 70
     1
102
RTVSPropertyOp28
 70
     1
102
RTVSPropertyOp29
 70
     1
102
RTVSPropertyOp30
 70
     1
102
RTVSPropertyOp31
 70
     1
102
RTVSPropertyOp32
 70
     1
102
RTVSPropertyOp33
 70
     1
102
RTVSPropertyOp34
 70
     1
102
RTVSPropertyOp35
 70
     1
102
RTVSPropertyOp36
 70
     1
102
RTVSPropertyOp37
 70
     1
102
RTVSPropertyOp38
 70
     1
102
RTVSPropertyOp39
 70
     1
102
RTVSPropertyOp40
 70
     1
102
RTVSPropertyOp41
 70
     1
102
RTVSPropertyOp42
 70
     1
102
RTVSPropertyOp43
 70
     1
102
RTVSPropertyOp44
 70
     1
102
RTVSPropertyOp45
 70
     1
102
RTVSPropertyOp46
 70
     1
102
RTVSPropertyOp47
 70
     1
102
RTVSPropertyOp48
 70
     1
102
RTVSPropertyOp49
 70
     1
102
RTVSPropertyOp50
 70
     1
102
RTVSPropertyOp51
 70
     0
102
RTVSPropertyOp52
 70
     0
102
RTVSPropertyOp53
 70
     1
102
RTVSPropertyOp54
 70
     1
102
RTVSPropertyOp55
 70
     1
102
RTVSPropertyOp56
 70
     1
102
RTVSPropertyOp57
 70
     1
102
RTVSPropertyOp58
 70
     1
102
RTVSPropertyOp59
 70
     1
102
RTVSPropertyOp60
 70
     1
102
RTVSPropertyOp61
 70
     1
102
RTVSPropertyOp62
 70
     1
  0
XRECORD
  5
FDA62
102
{ACAD_REACTORS
330
FDA61
102
}
330
FDA61
100
AcDbXrecord
280
     1
102
RTVSPost2010Prop28
280
     0
102
RTVSPost2010PropOp28
 70
     1
102
RTVSPost2010Prop29
280
     1
102
RTVSPost2010PropOp29
 70
     1
102
RTVSPost2010Prop30
280
     1
102
RTVSPost2010PropOp30
 70
     1
102
RTVSPost2010Prop31
280
     0
102
RTVSPost2010PropOp31
 70
     1
102
RTVSPost2010Prop32
280
     0
102
RTVSPost2010PropOp32
 70
     1
102
RTVSPost2010Prop33
280
     0
102
RTVSPost2010PropOp33
 70
     1
102
RTVSPost2010Prop34
280
     0
102
RTVSPost2010PropOp34
 70
     1
102
RTVSPost2010Prop35
280
     0
102
RTVSPost2010PropOp35
 70
     1
102
RTVSPost2010Prop36
280
     0
102
RTVSPost2010PropOp36
 70
     1
102
RTVSPost2010Prop37
 90
       50
102
RTVSPost2010PropOp37
 70
     1
102
RTVSPost2010Prop38
140
0.0
102
RTVSPost2010PropOp38
 70
     1
102
RTVSPost2010Prop39
140
1.0
102
RTVSPost2010PropOp39
 70
     1
102
RTVSPost2010Prop40
 90
        0
102
RTVSPost2010PropOp40
 70
     1
102
RTVSPost2010Prop41ColorIndex
 90
       18
102
RTVSPost2010Prop41ColorRGB
 90
        0
102
RTVSPost2010PropOp41
 70
     1
102
RTVSPost2010Prop42
 90
       50
102
RTVSPost2010PropOp42
 70
     1
102
RTVSPost2010Prop43
 90
        3
102
RTVSPost2010PropOp43
 70
     1
102
RTVSPost2010Prop44ColorIndex
 90
        5
102
RTVSPost2010Prop44ColorRGB
 90
      255
102
RTVSPost2010PropOp44
 70
     1
102
RTVSPost2010Prop45
280
     0
102
RTVSPost2010PropOp45
 70
     1
102
RTVSPost2010Prop46
 90
       50
102
RTVSPost2010PropOp46
 70
     1
102
RTVSPost2010Prop47
 90
       50
102
RTVSPost2010PropOp47
 70
     1
102
RTVSPost2010Prop48
 90
       50
102
RTVSPost2010PropOp48
 70
     1
102
RTVSPost2010Prop49
280
     0
102
RTVSPost2010PropOp49
 70
     1
102
RTVSPost2010Prop50
 90
       50
102
RTVSPost2010PropOp50
 70
     1
102
RTVSPost2010Prop51ColorIndex
 90
      256
102
RTVSPost2010Prop51ColorRGB
 90
-16777216
102
RTVSPost2010PropOp51
 70
     0
102
RTVSPost2010Prop52
140
1.0
102
RTVSPost2010PropOp52
 70
     0
102
RTVSPost2010Prop53
 90
        2
102
RTVSPost2010PropOp53
 70
     1
102
RTVSPost2010Prop54
  1
strokes_ogs.tif
102
RTVSPost2010PropOp54
 70
     1
102
RTVSPost2010Prop55
280
     0
102
RTVSPost2010PropOp55
 70
     1
102
RTVSPost2010Prop56
140
1.0
102
RTVSPost2010PropOp56
 70
     1
102
RTVSPost2010Prop57
140
1.0
102
RTVSPost2010PropOp57
 70
     1
102
RTVSPropertyOp0
 70
     1
102
RTVSPropertyOp1
 70
     1
102
RTVSPropertyOp2
 70
     1
102
RTVSPropertyOp3
 70
     1
102
RTVSPropertyOp4
 70
     1
102
RTVSPropertyOp5
 70
     1
102
RTVSPropertyOp6
 70
     1
102
RTVSPropertyOp7
 70
     1
102
RTVSPropertyOp8
 70
     1
102
RTVSPropertyOp9
 70
     1
102
RTVSPropertyOp10
 70
     1
102
RTVSPropertyOp11
 70
     1
102
RTVSPropertyOp12
 70
     1
102
RTVSPropertyOp13
 70
     1
102
RTVSPropertyOp14
 70
     1
102
RTVSPropertyOp15
 70
     1
102
RTVSPropertyOp16
 70
     1
102
RTVSPropertyOp17
 70
     1
102
RTVSPropertyOp18
 70
     1
102
RTVSPropertyOp19
 70
     1
102
RTVSPropertyOp20
 70
     1
102
RTVSPropertyOp21
 70
     1
102
RTVSPropertyOp22
 70
     1
102
RTVSPropertyOp23
 70
     1
102
RTVSPropertyOp24
 70
     1
102
RTVSPropertyOp25
 70
     1
102
RTVSPropertyOp26
 70
     1
102
RTVSPropertyOp27
 70
     1
102
RTVSPropertyOp28
 70
     1
102
RTVSPropertyOp29
 70
     1
102
RTVSPropertyOp30
 70
     1
102
RTVSPropertyOp31
 70
     1
102
RTVSPropertyOp32
 70
     1
102
RTVSPropertyOp33
 70
     1
102
RTVSPropertyOp34
 70
     1
102
RTVSPropertyOp35
 70
     1
102
RTVSPropertyOp36
 70
     1
102
RTVSPropertyOp37
 70
     1
102
RTVSPropertyOp38
 70
     1
102
RTVSPropertyOp39
 70
     1
102
RTVSPropertyOp40
 70
     1
102
RTVSPropertyOp41
 70
     1
102
RTVSPropertyOp42
 70
     1
102
RTVSPropertyOp43
 70
     1
102
RTVSPropertyOp44
 70
     1
102
RTVSPropertyOp45
 70
     1
102
RTVSPropertyOp46
 70
     1
102
RTVSPropertyOp47
 70
     1
102
RTVSPropertyOp48
 70
     1
102
RTVSPropertyOp49
 70
     1
102
RTVSPropertyOp50
 70
     1
102
RTVSPropertyOp51
 70
     0
102
RTVSPropertyOp52
 70
     0
102
RTVSPropertyOp53
 70
     1
102
RTVSPropertyOp54
 70
     1
102
RTVSPropertyOp55
 70
     1
102
RTVSPropertyOp56
 70
     1
102
RTVSPropertyOp57
 70
     1
102
RTVSPropertyOp58
 70
     1
102
RTVSPropertyOp59
 70
     1
102
RTVSPropertyOp60
 70
     1
102
RTVSPropertyOp61
 70
     1
102
RTVSPropertyOp62
 70
     1
  0
XRECORD
  5
FDA7C
102
{ACAD_REACTORS
330
FDA7B
102
}
330
FDA7B
100
AcDbXrecord
280
     1
102
RTVSPost2010Prop28
280
     0
102
RTVSPost2010PropOp28
 70
     0
102
RTVSPost2010Prop29
280
     1
102
RTVSPost2010PropOp29
 70
     0
102
RTVSPost2010Prop30
280
     1
102
RTVSPost2010PropOp30
 70
     0
102
RTVSPost2010Prop31
280
     0
102
RTVSPost2010PropOp31
 70
     0
102
RTVSPost2010Prop32
280
     0
102
RTVSPost2010PropOp32
 70
     0
102
RTVSPost2010Prop33
280
     0
102
RTVSPost2010PropOp33
 70
     0
102
RTVSPost2010Prop34
280
     0
102
RTVSPost2010PropOp34
 70
     0
102
RTVSPost2010Prop35
280
     0
102
RTVSPost2010PropOp35
 70
     0
102
RTVSPost2010Prop36
280
     0
102
RTVSPost2010PropOp36
 70
     0
102
RTVSPost2010Prop37
 90
       50
102
RTVSPost2010PropOp37
 70
     0
102
RTVSPost2010Prop38
140
0.0
102
RTVSPost2010PropOp38
 70
     0
102
RTVSPost2010Prop39
140
1.0
102
RTVSPost2010PropOp39
 70
     0
102
RTVSPost2010Prop40
 90
        0
102
RTVSPost2010PropOp40
 70
     0
102
RTVSPost2010Prop41ColorIndex
 90
       18
102
RTVSPost2010Prop41ColorRGB
 90
        0
102
RTVSPost2010PropOp41
 70
     0
102
RTVSPost2010Prop42
 90
       50
102
RTVSPost2010PropOp42
 70
     0
102
RTVSPost2010Prop43
 90
        3
102
RTVSPost2010PropOp43
 70
     0
102
RTVSPost2010Prop44ColorIndex
 90
        5
102
RTVSPost2010Prop44ColorRGB
 90
      255
102
RTVSPost2010PropOp44
 70
     0
102
RTVSPost2010Prop45
280
     0
102
RTVSPost2010PropOp45
 70
     0
102
RTVSPost2010Prop46
 90
       50
102
RTVSPost2010PropOp46
 70
     0
102
RTVSPost2010Prop47
 90
       50
102
RTVSPost2010PropOp47
 70
     0
102
RTVSPost2010Prop48
 90
       50
102
RTVSPost2010PropOp48
 70
     0
102
RTVSPost2010Prop49
280
     0
102
RTVSPost2010PropOp49
 70
     0
102
RTVSPost2010Prop50
 90
       50
102
RTVSPost2010PropOp50
 70
     0
102
RTVSPost2010Prop51ColorIndex
 90
      256
102
RTVSPost2010Prop51ColorRGB
 90
-16777216
102
RTVSPost2010PropOp51
 70
     0
102
RTVSPost2010Prop52
140
1.0
102
RTVSPost2010PropOp52
 70
     0
102
RTVSPost2010Prop53
 90
        2
102
RTVSPost2010PropOp53
 70
     0
102
RTVSPost2010Prop54
  1
strokes_ogs.tif
102
RTVSPost2010PropOp54
 70
     0
102
RTVSPost2010Prop55
280
     0
102
RTVSPost2010PropOp55
 70
     0
102
RTVSPost2010Prop56
140
1.0
102
RTVSPost2010PropOp56
 70
     0
102
RTVSPost2010Prop57
140
1.0
102
RTVSPost2010PropOp57
 70
     0
102
RTVSPropertyOp0
 70
     0
102
RTVSPropertyOp1
 70
     0
102
RTVSPropertyOp2
 70
     0
102
RTVSPropertyOp3
 70
     0
102
RTVSPropertyOp4
 70
     0
102
RTVSPropertyOp5
 70
     0
102
RTVSPropertyOp6
 70
     0
102
RTVSPropertyOp7
 70
     0
102
RTVSPropertyOp8
 70
     0
102
RTVSPropertyOp9
 70
     0
102
RTVSPropertyOp10
 70
     0
102
RTVSPropertyOp11
 70
     0
102
RTVSPropertyOp12
 70
     0
102
RTVSPropertyOp13
 70
     0
102
RTVSPropertyOp14
 70
     2
102
RTVSPropertyOp15
 70
     0
102
RTVSPropertyOp16
 70
     0
102
RTVSPropertyOp17
 70
     0
102
RTVSPropertyOp18
 70
     0
102
RTVSPropertyOp19
 70
     0
102
RTVSPropertyOp20
 70
     0
102
RTVSPropertyOp21
 70
     0
102
RTVSPropertyOp22
 70
     0
102
RTVSPropertyOp23
 70
     0
102
RTVSPropertyOp24
 70
     0
102
RTVSPropertyOp25
 70
     0
102
RTVSPropertyOp26
 70
     0
102
RTVSPropertyOp27
 70
     0
102
RTVSPropertyOp28
 70
     0
102
RTVSPropertyOp29
 70
     0
102
RTVSPropertyOp30
 70
     0
102
RTVSPropertyOp31
 70
     0
102
RTVSPropertyOp32
 70
     0
102
RTVSPropertyOp33
 70
     0
102
RTVSPropertyOp34
 70
     0
102
RTVSPropertyOp35
 70
     0
102
RTVSPropertyOp36
 70
     0
102
RTVSPropertyOp37
 70
     0
102
RTVSPropertyOp38
 70
     0
102
RTVSPropertyOp39
 70
     0
102
RTVSPropertyOp40
 70
     0
102
RTVSPropertyOp41
 70
     0
102
RTVSPropertyOp42
 70
     0
102
RTVSPropertyOp43
 70
     0
102
RTVSPropertyOp44
 70
     0
102
RTVSPropertyOp45
 70
     0
102
RTVSPropertyOp46
 70
     0
102
RTVSPropertyOp47
 70
     0
102
RTVSPropertyOp48
 70
     0
102
RTVSPropertyOp49
 70
     0
102
RTVSPropertyOp50
 70
     0
102
RTVSPropertyOp51
 70
     0
102
RTVSPropertyOp52
 70
     0
102
RTVSPropertyOp53
 70
     0
102
RTVSPropertyOp54
 70
     0
102
RTVSPropertyOp55
 70
     0
102
RTVSPropertyOp56
 70
     0
102
RTVSPropertyOp57
 70
     0
102
RTVSPropertyOp58
 70
     0
102
RTVSPropertyOp59
 70
     0
102
RTVSPropertyOp60
 70
     0
102
RTVSPropertyOp61
 70
     0
102
RTVSPropertyOp62
 70
     0
  0
XRECORD
  5
FDA6A
102
{ACAD_REACTORS
330
FDA69
102
}
330
FDA69
100
AcDbXrecord
280
     1
102
RTVSPost2010Prop28
280
     0
102
RTVSPost2010PropOp28
 70
     1
102
RTVSPost2010Prop29
280
     1
102
RTVSPost2010PropOp29
 70
     1
102
RTVSPost2010Prop30
280
     1
102
RTVSPost2010PropOp30
 70
     1
102
RTVSPost2010Prop31
280
     0
102
RTVSPost2010PropOp31
 70
     1
102
RTVSPost2010Prop32
280
     0
102
RTVSPost2010PropOp32
 70
     1
102
RTVSPost2010Prop33
280
     0
102
RTVSPost2010PropOp33
 70
     1
102
RTVSPost2010Prop34
280
     0
102
RTVSPost2010PropOp34
 70
     1
102
RTVSPost2010Prop35
280
     0
102
RTVSPost2010PropOp35
 70
     1
102
RTVSPost2010Prop36
280
     0
102
RTVSPost2010PropOp36
 70
     1
102
RTVSPost2010Prop37
 90
       50
102
RTVSPost2010PropOp37
 70
     1
102
RTVSPost2010Prop38
140
0.0
102
RTVSPost2010PropOp38
 70
     1
102
RTVSPost2010Prop39
140
1.0
102
RTVSPost2010PropOp39
 70
     1
102
RTVSPost2010Prop40
 90
        0
102
RTVSPost2010PropOp40
 70
     1
102
RTVSPost2010Prop41ColorIndex
 90
       18
102
RTVSPost2010Prop41ColorRGB
 90
        0
102
RTVSPost2010PropOp41
 70
     1
102
RTVSPost2010Prop42
 90
       50
102
RTVSPost2010PropOp42
 70
     1
102
RTVSPost2010Prop43
 90
        3
102
RTVSPost2010PropOp43
 70
     1
102
RTVSPost2010Prop44ColorIndex
 90
        5
102
RTVSPost2010Prop44ColorRGB
 90
      255
102
RTVSPost2010PropOp44
 70
     1
102
RTVSPost2010Prop45
280
     0
102
RTVSPost2010PropOp45
 70
     1
102
RTVSPost2010Prop46
 90
       50
102
RTVSPost2010PropOp46
 70
     1
102
RTVSPost2010Prop47
 90
       50
102
RTVSPost2010PropOp47
 70
     1
102
RTVSPost2010Prop48
 90
       50
102
RTVSPost2010PropOp48
 70
     1
102
RTVSPost2010Prop49
280
     0
102
RTVSPost2010PropOp49
 70
     1
102
RTVSPost2010Prop50
 90
       50
102
RTVSPost2010PropOp50
 70
     1
102
RTVSPost2010Prop51ColorIndex
 90
      256
102
RTVSPost2010Prop51ColorRGB
 90
-16777216
102
RTVSPost2010PropOp51
 70
     0
102
RTVSPost2010Prop52
140
1.0
102
RTVSPost2010PropOp52
 70
     0
102
RTVSPost2010Prop53
 90
        2
102
RTVSPost2010PropOp53
 70
     1
102
RTVSPost2010Prop54
  1
strokes_ogs.tif
102
RTVSPost2010PropOp54
 70
     1
102
RTVSPost2010Prop55
280
     0
102
RTVSPost2010PropOp55
 70
     1
102
RTVSPost2010Prop56
140
1.0
102
RTVSPost2010PropOp56
 70
     1
102
RTVSPost2010Prop57
140
1.0
102
RTVSPost2010PropOp57
 70
     1
102
RTVSPropertyOp0
 70
     1
102
RTVSPropertyOp1
 70
     1
102
RTVSPropertyOp2
 70
     1
102
RTVSPropertyOp3
 70
     1
102
RTVSPropertyOp4
 70
     1
102
RTVSPropertyOp5
 70
     1
102
RTVSPropertyOp6
 70
     1
102
RTVSPropertyOp7
 70
     1
102
RTVSPropertyOp8
 70
     1
102
RTVSPropertyOp9
 70
     1
102
RTVSPropertyOp10
 70
     1
102
RTVSPropertyOp11
 70
     1
102
RTVSPropertyOp12
 70
     1
102
RTVSPropertyOp13
 70
     1
102
RTVSPropertyOp14
 70
     1
102
RTVSPropertyOp15
 70
     1
102
RTVSPropertyOp16
 70
     1
102
RTVSPropertyOp17
 70
     1
102
RTVSPropertyOp18
 70
     1
102
RTVSPropertyOp19
 70
     1
102
RTVSPropertyOp20
 70
     1
102
RTVSPropertyOp21
 70
     1
102
RTVSPropertyOp22
 70
     1
102
RTVSPropertyOp23
 70
     1
102
RTVSPropertyOp24
 70
     1
102
RTVSPropertyOp25
 70
     1
102
RTVSPropertyOp26
 70
     1
102
RTVSPropertyOp27
 70
     1
102
RTVSPropertyOp28
 70
     1
102
RTVSPropertyOp29
 70
     1
102
RTVSPropertyOp30
 70
     1
102
RTVSPropertyOp31
 70
     1
102
RTVSPropertyOp32
 70
     1
102
RTVSPropertyOp33
 70
     1
102
RTVSPropertyOp34
 70
     1
102
RTVSPropertyOp35
 70
     1
102
RTVSPropertyOp36
 70
     1
102
RTVSPropertyOp37
 70
     1
102
RTVSPropertyOp38
 70
     1
102
RTVSPropertyOp39
 70
     1
102
RTVSPropertyOp40
 70
     1
102
RTVSPropertyOp41
 70
     1
102
RTVSPropertyOp42
 70
     1
102
RTVSPropertyOp43
 70
     1
102
RTVSPropertyOp44
 70
     1
102
RTVSPropertyOp45
 70
     1
102
RTVSPropertyOp46
 70
     1
102
RTVSPropertyOp47
 70
     1
102
RTVSPropertyOp48
 70
     1
102
RTVSPropertyOp49
 70
     1
102
RTVSPropertyOp50
 70
     1
102
RTVSPropertyOp51
 70
     0
102
RTVSPropertyOp52
 70
     0
102
RTVSPropertyOp53
 70
     1
102
RTVSPropertyOp54
 70
     1
102
RTVSPropertyOp55
 70
     1
102
RTVSPropertyOp56
 70
     1
102
RTVSPropertyOp57
 70
     1
102
RTVSPropertyOp58
 70
     1
102
RTVSPropertyOp59
 70
     1
102
RTVSPropertyOp60
 70
     1
102
RTVSPropertyOp61
 70
     1
102
RTVSPropertyOp62
 70
     1
  0
XRECORD
  5
FDA4E
102
{ACAD_REACTORS
330
FDA4D
102
}
330
FDA4D
100
AcDbXrecord
280
     1
102
RTVSPost2010Prop28
280
     0
102
RTVSPost2010PropOp28
 70
     1
102
RTVSPost2010Prop29
280
     1
102
RTVSPost2010PropOp29
 70
     1
102
RTVSPost2010Prop30
280
     1
102
RTVSPost2010PropOp30
 70
     1
102
RTVSPost2010Prop31
280
     0
102
RTVSPost2010PropOp31
 70
     1
102
RTVSPost2010Prop32
280
     0
102
RTVSPost2010PropOp32
 70
     1
102
RTVSPost2010Prop33
280
     0
102
RTVSPost2010PropOp33
 70
     1
102
RTVSPost2010Prop34
280
     0
102
RTVSPost2010PropOp34
 70
     1
102
RTVSPost2010Prop35
280
     0
102
RTVSPost2010PropOp35
 70
     1
102
RTVSPost2010Prop36
280
     0
102
RTVSPost2010PropOp36
 70
     1
102
RTVSPost2010Prop37
 90
       50
102
RTVSPost2010PropOp37
 70
     1
102
RTVSPost2010Prop38
140
0.0
102
RTVSPost2010PropOp38
 70
     1
102
RTVSPost2010Prop39
140
1.0
102
RTVSPost2010PropOp39
 70
     1
102
RTVSPost2010Prop40
 90
        0
102
RTVSPost2010PropOp40
 70
     1
102
RTVSPost2010Prop41ColorIndex
 90
       18
102
RTVSPost2010Prop41ColorRGB
 90
        0
102
RTVSPost2010PropOp41
 70
     1
102
RTVSPost2010Prop42
 90
       50
102
RTVSPost2010PropOp42
 70
     1
102
RTVSPost2010Prop43
 90
        3
102
RTVSPost2010PropOp43
 70
     1
102
RTVSPost2010Prop44ColorIndex
 90
        5
102
RTVSPost2010Prop44ColorRGB
 90
      255
102
RTVSPost2010PropOp44
 70
     1
102
RTVSPost2010Prop45
280
     0
102
RTVSPost2010PropOp45
 70
     1
102
RTVSPost2010Prop46
 90
       50
102
RTVSPost2010PropOp46
 70
     1
102
RTVSPost2010Prop47
 90
       50
102
RTVSPost2010PropOp47
 70
     1
102
RTVSPost2010Prop48
 90
       50
102
RTVSPost2010PropOp48
 70
     1
102
RTVSPost2010Prop49
280
     0
102
RTVSPost2010PropOp49
 70
     1
102
RTVSPost2010Prop50
 90
       50
102
RTVSPost2010PropOp50
 70
     1
102
RTVSPost2010Prop51ColorIndex
 90
      256
102
RTVSPost2010Prop51ColorRGB
 90
-16777216
102
RTVSPost2010PropOp51
 70
     0
102
RTVSPost2010Prop52
140
1.0
102
RTVSPost2010PropOp52
 70
     0
102
RTVSPost2010Prop53
 90
        2
102
RTVSPost2010PropOp53
 70
     1
102
RTVSPost2010Prop54
  1
strokes_ogs.tif
102
RTVSPost2010PropOp54
 70
     1
102
RTVSPost2010Prop55
280
     0
102
RTVSPost2010PropOp55
 70
     1
102
RTVSPost2010Prop56
140
1.0
102
RTVSPost2010PropOp56
 70
     1
102
RTVSPost2010Prop57
140
1.0
102
RTVSPost2010PropOp57
 70
     1
102
RTVSPropertyOp0
 70
     1
102
RTVSPropertyOp1
 70
     1
102
RTVSPropertyOp2
 70
     1
102
RTVSPropertyOp3
 70
     1
102
RTVSPropertyOp4
 70
     1
102
RTVSPropertyOp5
 70
     1
102
RTVSPropertyOp6
 70
     1
102
RTVSPropertyOp7
 70
     1
102
RTVSPropertyOp8
 70
     1
102
RTVSPropertyOp9
 70
     1
102
RTVSPropertyOp10
 70
     1
102
RTVSPropertyOp11
 70
     1
102
RTVSPropertyOp12
 70
     1
102
RTVSPropertyOp13
 70
     1
102
RTVSPropertyOp14
 70
     1
102
RTVSPropertyOp15
 70
     1
102
RTVSPropertyOp16
 70
     1
102
RTVSPropertyOp17
 70
     1
102
RTVSPropertyOp18
 70
     1
102
RTVSPropertyOp19
 70
     1
102
RTVSPropertyOp20
 70
     1
102
RTVSPropertyOp21
 70
     1
102
RTVSPropertyOp22
 70
     1
102
RTVSPropertyOp23
 70
     1
102
RTVSPropertyOp24
 70
     1
102
RTVSPropertyOp25
 70
     1
102
RTVSPropertyOp26
 70
     1
102
RTVSPropertyOp27
 70
     1
102
RTVSPropertyOp28
 70
     1
102
RTVSPropertyOp29
 70
     1
102
RTVSPropertyOp30
 70
     1
102
RTVSPropertyOp31
 70
     1
102
RTVSPropertyOp32
 70
     1
102
RTVSPropertyOp33
 70
     1
102
RTVSPropertyOp34
 70
     1
102
RTVSPropertyOp35
 70
     1
102
RTVSPropertyOp36
 70
     1
102
RTVSPropertyOp37
 70
     1
102
RTVSPropertyOp38
 70
     1
102
RTVSPropertyOp39
 70
     1
102
RTVSPropertyOp40
 70
     1
102
RTVSPropertyOp41
 70
     1
102
RTVSPropertyOp42
 70
     1
102
RTVSPropertyOp43
 70
     1
102
RTVSPropertyOp44
 70
     1
102
RTVSPropertyOp45
 70
     1
102
RTVSPropertyOp46
 70
     1
102
RTVSPropertyOp47
 70
     1
102
RTVSPropertyOp48
 70
     1
102
RTVSPropertyOp49
 70
     1
102
RTVSPropertyOp50
 70
     1
102
RTVSPropertyOp51
 70
     0
102
RTVSPropertyOp52
 70
     0
102
RTVSPropertyOp53
 70
     1
102
RTVSPropertyOp54
 70
     1
102
RTVSPropertyOp55
 70
     1
102
RTVSPropertyOp56
 70
     1
102
RTVSPropertyOp57
 70
     1
102
RTVSPropertyOp58
 70
     1
102
RTVSPropertyOp59
 70
     1
102
RTVSPropertyOp60
 70
     1
102
RTVSPropertyOp61
 70
     1
102
RTVSPropertyOp62
 70
     1
  0
XRECORD
  5
FDA50
102
{ACAD_REACTORS
330
FDA4F
102
}
330
FDA4F
100
AcDbXrecord
280
     1
102
RTVSPost2010Prop28
280
     0
102
RTVSPost2010PropOp28
 70
     1
102
RTVSPost2010Prop29
280
     1
102
RTVSPost2010PropOp29
 70
     1
102
RTVSPost2010Prop30
280
     1
102
RTVSPost2010PropOp30
 70
     1
102
RTVSPost2010Prop31
280
     0
102
RTVSPost2010PropOp31
 70
     1
102
RTVSPost2010Prop32
280
     0
102
RTVSPost2010PropOp32
 70
     1
102
RTVSPost2010Prop33
280
     0
102
RTVSPost2010PropOp33
 70
     1
102
RTVSPost2010Prop34
280
     0
102
RTVSPost2010PropOp34
 70
     1
102
RTVSPost2010Prop35
280
     0
102
RTVSPost2010PropOp35
 70
     1
102
RTVSPost2010Prop36
280
     0
102
RTVSPost2010PropOp36
 70
     1
102
RTVSPost2010Prop37
 90
       50
102
RTVSPost2010PropOp37
 70
     1
102
RTVSPost2010Prop38
140
0.0
102
RTVSPost2010PropOp38
 70
     1
102
RTVSPost2010Prop39
140
1.0
102
RTVSPost2010PropOp39
 70
     1
102
RTVSPost2010Prop40
 90
        0
102
RTVSPost2010PropOp40
 70
     1
102
RTVSPost2010Prop41ColorIndex
 90
       18
102
RTVSPost2010Prop41ColorRGB
 90
        0
102
RTVSPost2010PropOp41
 70
     1
102
RTVSPost2010Prop42
 90
       50
102
RTVSPost2010PropOp42
 70
     1
102
RTVSPost2010Prop43
 90
        3
102
RTVSPost2010PropOp43
 70
     1
102
RTVSPost2010Prop44ColorIndex
 90
        5
102
RTVSPost2010Prop44ColorRGB
 90
      255
102
RTVSPost2010PropOp44
 70
     1
102
RTVSPost2010Prop45
280
     0
102
RTVSPost2010PropOp45
 70
     1
102
RTVSPost2010Prop46
 90
       50
102
RTVSPost2010PropOp46
 70
     1
102
RTVSPost2010Prop47
 90
       50
102
RTVSPost2010PropOp47
 70
     1
102
RTVSPost2010Prop48
 90
       50
102
RTVSPost2010PropOp48
 70
     1
102
RTVSPost2010Prop49
280
     0
102
RTVSPost2010PropOp49
 70
     1
102
RTVSPost2010Prop50
 90
       50
102
RTVSPost2010PropOp50
 70
     1
102
RTVSPost2010Prop51ColorIndex
 90
      256
102
RTVSPost2010Prop51ColorRGB
 90
-16777216
102
RTVSPost2010PropOp51
 70
     0
102
RTVSPost2010Prop52
140
1.0
102
RTVSPost2010PropOp52
 70
     0
102
RTVSPost2010Prop53
 90
        2
102
RTVSPost2010PropOp53
 70
     1
102
RTVSPost2010Prop54
  1
strokes_ogs.tif
102
RTVSPost2010PropOp54
 70
     1
102
RTVSPost2010Prop55
280
     0
102
RTVSPost2010PropOp55
 70
     1
102
RTVSPost2010Prop56
140
1.0
102
RTVSPost2010PropOp56
 70
     1
102
RTVSPost2010Prop57
140
1.0
102
RTVSPost2010PropOp57
 70
     1
102
RTVSPropertyOp0
 70
     1
102
RTVSPropertyOp1
 70
     1
102
RTVSPropertyOp2
 70
     1
102
RTVSPropertyOp3
 70
     1
102
RTVSPropertyOp4
 70
     1
102
RTVSPropertyOp5
 70
     1
102
RTVSPropertyOp6
 70
     1
102
RTVSPropertyOp7
 70
     1
102
RTVSPropertyOp8
 70
     1
102
RTVSPropertyOp9
 70
     1
102
RTVSPropertyOp10
 70
     1
102
RTVSPropertyOp11
 70
     1
102
RTVSPropertyOp12
 70
     1
102
RTVSPropertyOp13
 70
     1
102
RTVSPropertyOp14
 70
     1
102
RTVSPropertyOp15
 70
     1
102
RTVSPropertyOp16
 70
     1
102
RTVSPropertyOp17
 70
     1
102
RTVSPropertyOp18
 70
     1
102
RTVSPropertyOp19
 70
     1
102
RTVSPropertyOp20
 70
     1
102
RTVSPropertyOp21
 70
     1
102
RTVSPropertyOp22
 70
     1
102
RTVSPropertyOp23
 70
     1
102
RTVSPropertyOp24
 70
     1
102
RTVSPropertyOp25
 70
     1
102
RTVSPropertyOp26
 70
     1
102
RTVSPropertyOp27
 70
     1
102
RTVSPropertyOp28
 70
     1
102
RTVSPropertyOp29
 70
     1
102
RTVSPropertyOp30
 70
     1
102
RTVSPropertyOp31
 70
     1
102
RTVSPropertyOp32
 70
     1
102
RTVSPropertyOp33
 70
     1
102
RTVSPropertyOp34
 70
     1
102
RTVSPropertyOp35
 70
     1
102
RTVSPropertyOp36
 70
     1
102
RTVSPropertyOp37
 70
     1
102
RTVSPropertyOp38
 70
     1
102
RTVSPropertyOp39
 70
     1
102
RTVSPropertyOp40
 70
     1
102
RTVSPropertyOp41
 70
     1
102
RTVSPropertyOp42
 70
     1
102
RTVSPropertyOp43
 70
     1
102
RTVSPropertyOp44
 70
     1
102
RTVSPropertyOp45
 70
     1
102
RTVSPropertyOp46
 70
     1
102
RTVSPropertyOp47
 70
     1
102
RTVSPropertyOp48
 70
     1
102
RTVSPropertyOp49
 70
     1
102
RTVSPropertyOp50
 70
     1
102
RTVSPropertyOp51
 70
     0
102
RTVSPropertyOp52
 70
     0
102
RTVSPropertyOp53
 70
     1
102
RTVSPropertyOp54
 70
     1
102
RTVSPropertyOp55
 70
     1
102
RTVSPropertyOp56
 70
     1
102
RTVSPropertyOp57
 70
     1
102
RTVSPropertyOp58
 70
     1
102
RTVSPropertyOp59
 70
     1
102
RTVSPropertyOp60
 70
     1
102
RTVSPropertyOp61
 70
     1
102
RTVSPropertyOp62
 70
     1
  0
XRECORD
  5
FDA52
102
{ACAD_REACTORS
330
FDA51
102
}
330
FDA51
100
AcDbXrecord
280
     1
102
RTVSPost2010Prop28
280
     0
102
RTVSPost2010PropOp28
 70
     1
102
RTVSPost2010Prop29
280
     1
102
RTVSPost2010PropOp29
 70
     1
102
RTVSPost2010Prop30
280
     1
102
RTVSPost2010PropOp30
 70
     1
102
RTVSPost2010Prop31
280
     0
102
RTVSPost2010PropOp31
 70
     1
102
RTVSPost2010Prop32
280
     0
102
RTVSPost2010PropOp32
 70
     1
102
RTVSPost2010Prop33
280
     0
102
RTVSPost2010PropOp33
 70
     1
102
RTVSPost2010Prop34
280
     0
102
RTVSPost2010PropOp34
 70
     1
102
RTVSPost2010Prop35
280
     0
102
RTVSPost2010PropOp35
 70
     1
102
RTVSPost2010Prop36
280
     0
102
RTVSPost2010PropOp36
 70
     1
102
RTVSPost2010Prop37
 90
       50
102
RTVSPost2010PropOp37
 70
     1
102
RTVSPost2010Prop38
140
0.0
102
RTVSPost2010PropOp38
 70
     1
102
RTVSPost2010Prop39
140
1.0
102
RTVSPost2010PropOp39
 70
     1
102
RTVSPost2010Prop40
 90
        0
102
RTVSPost2010PropOp40
 70
     1
102
RTVSPost2010Prop41ColorIndex
 90
       18
102
RTVSPost2010Prop41ColorRGB
 90
        0
102
RTVSPost2010PropOp41
 70
     1
102
RTVSPost2010Prop42
 90
       50
102
RTVSPost2010PropOp42
 70
     1
102
RTVSPost2010Prop43
 90
        3
102
RTVSPost2010PropOp43
 70
     1
102
RTVSPost2010Prop44ColorIndex
 90
        5
102
RTVSPost2010Prop44ColorRGB
 90
      255
102
RTVSPost2010PropOp44
 70
     1
102
RTVSPost2010Prop45
280
     0
102
RTVSPost2010PropOp45
 70
     1
102
RTVSPost2010Prop46
 90
       50
102
RTVSPost2010PropOp46
 70
     1
102
RTVSPost2010Prop47
 90
       50
102
RTVSPost2010PropOp47
 70
     1
102
RTVSPost2010Prop48
 90
       50
102
RTVSPost2010PropOp48
 70
     1
102
RTVSPost2010Prop49
280
     0
102
RTVSPost2010PropOp49
 70
     1
102
RTVSPost2010Prop50
 90
       50
102
RTVSPost2010PropOp50
 70
     1
102
RTVSPost2010Prop51ColorIndex
 90
      256
102
RTVSPost2010Prop51ColorRGB
 90
-16777216
102
RTVSPost2010PropOp51
 70
     0
102
RTVSPost2010Prop52
140
1.0
102
RTVSPost2010PropOp52
 70
     0
102
RTVSPost2010Prop53
 90
        2
102
RTVSPost2010PropOp53
 70
     1
102
RTVSPost2010Prop54
  1
strokes_ogs.tif
102
RTVSPost2010PropOp54
 70
     1
102
RTVSPost2010Prop55
280
     0
102
RTVSPost2010PropOp55
 70
     1
102
RTVSPost2010Prop56
140
1.0
102
RTVSPost2010PropOp56
 70
     1
102
RTVSPost2010Prop57
140
1.0
102
RTVSPost2010PropOp57
 70
     1
102
RTVSPropertyOp0
 70
     1
102
RTVSPropertyOp1
 70
     1
102
RTVSPropertyOp2
 70
     1
102
RTVSPropertyOp3
 70
     1
102
RTVSPropertyOp4
 70
     1
102
RTVSPropertyOp5
 70
     1
102
RTVSPropertyOp6
 70
     1
102
RTVSPropertyOp7
 70
     1
102
RTVSPropertyOp8
 70
     1
102
RTVSPropertyOp9
 70
     1
102
RTVSPropertyOp10
 70
     1
102
RTVSPropertyOp11
 70
     1
102
RTVSPropertyOp12
 70
     1
102
RTVSPropertyOp13
 70
     1
102
RTVSPropertyOp14
 70
     1
102
RTVSPropertyOp15
 70
     1
102
RTVSPropertyOp16
 70
     1
102
RTVSPropertyOp17
 70
     1
102
RTVSPropertyOp18
 70
     1
102
RTVSPropertyOp19
 70
     1
102
RTVSPropertyOp20
 70
     1
102
RTVSPropertyOp21
 70
     1
102
RTVSPropertyOp22
 70
     1
102
RTVSPropertyOp23
 70
     1
102
RTVSPropertyOp24
 70
     1
102
RTVSPropertyOp25
 70
     1
102
RTVSPropertyOp26
 70
     1
102
RTVSPropertyOp27
 70
     1
102
RTVSPropertyOp28
 70
     1
102
RTVSPropertyOp29
 70
     1
102
RTVSPropertyOp30
 70
     1
102
RTVSPropertyOp31
 70
     1
102
RTVSPropertyOp32
 70
     1
102
RTVSPropertyOp33
 70
     1
102
RTVSPropertyOp34
 70
     1
102
RTVSPropertyOp35
 70
     1
102
RTVSPropertyOp36
 70
     1
102
RTVSPropertyOp37
 70
     1
102
RTVSPropertyOp38
 70
     1
102
RTVSPropertyOp39
 70
     1
102
RTVSPropertyOp40
 70
     1
102
RTVSPropertyOp41
 70
     1
102
RTVSPropertyOp42
 70
     1
102
RTVSPropertyOp43
 70
     1
102
RTVSPropertyOp44
 70
     1
102
RTVSPropertyOp45
 70
     1
102
RTVSPropertyOp46
 70
     1
102
RTVSPropertyOp47
 70
     1
102
RTVSPropertyOp48
 70
     1
102
RTVSPropertyOp49
 70
     1
102
RTVSPropertyOp50
 70
     1
102
RTVSPropertyOp51
 70
     0
102
RTVSPropertyOp52
 70
     0
102
RTVSPropertyOp53
 70
     1
102
RTVSPropertyOp54
 70
     1
102
RTVSPropertyOp55
 70
     1
102
RTVSPropertyOp56
 70
     1
102
RTVSPropertyOp57
 70
     1
102
RTVSPropertyOp58
 70
     1
102
RTVSPropertyOp59
 70
     1
102
RTVSPropertyOp60
 70
     1
102
RTVSPropertyOp61
 70
     1
102
RTVSPropertyOp62
 70
     1
  0
XRECORD
  5
FDA54
102
{ACAD_REACTORS
330
FDA53
102
}
330
FDA53
100
AcDbXrecord
280
     1
102
RTVSPost2010Prop28
280
     0
102
RTVSPost2010PropOp28
 70
     1
102
RTVSPost2010Prop29
280
     1
102
RTVSPost2010PropOp29
 70
     1
102
RTVSPost2010Prop30
280
     1
102
RTVSPost2010PropOp30
 70
     1
102
RTVSPost2010Prop31
280
     0
102
RTVSPost2010PropOp31
 70
     1
102
RTVSPost2010Prop32
280
     0
102
RTVSPost2010PropOp32
 70
     1
102
RTVSPost2010Prop33
280
     0
102
RTVSPost2010PropOp33
 70
     1
102
RTVSPost2010Prop34
280
     0
102
RTVSPost2010PropOp34
 70
     1
102
RTVSPost2010Prop35
280
     0
102
RTVSPost2010PropOp35
 70
     1
102
RTVSPost2010Prop36
280
     0
102
RTVSPost2010PropOp36
 70
     1
102
RTVSPost2010Prop37
 90
       50
102
RTVSPost2010PropOp37
 70
     1
102
RTVSPost2010Prop38
140
0.0
102
RTVSPost2010PropOp38
 70
     1
102
RTVSPost2010Prop39
140
1.0
102
RTVSPost2010PropOp39
 70
     1
102
RTVSPost2010Prop40
 90
        0
102
RTVSPost2010PropOp40
 70
     1
102
RTVSPost2010Prop41ColorIndex
 90
       18
102
RTVSPost2010Prop41ColorRGB
 90
        0
102
RTVSPost2010PropOp41
 70
     1
102
RTVSPost2010Prop42
 90
       50
102
RTVSPost2010PropOp42
 70
     1
102
RTVSPost2010Prop43
 90
        3
102
RTVSPost2010PropOp43
 70
     1
102
RTVSPost2010Prop44ColorIndex
 90
        5
102
RTVSPost2010Prop44ColorRGB
 90
      255
102
RTVSPost2010PropOp44
 70
     1
102
RTVSPost2010Prop45
280
     0
102
RTVSPost2010PropOp45
 70
     1
102
RTVSPost2010Prop46
 90
       50
102
RTVSPost2010PropOp46
 70
     1
102
RTVSPost2010Prop47
 90
       50
102
RTVSPost2010PropOp47
 70
     1
102
RTVSPost2010Prop48
 90
       50
102
RTVSPost2010PropOp48
 70
     1
102
RTVSPost2010Prop49
280
     0
102
RTVSPost2010PropOp49
 70
     1
102
RTVSPost2010Prop50
 90
       50
102
RTVSPost2010PropOp50
 70
     1
102
RTVSPost2010Prop51ColorIndex
 90
      256
102
RTVSPost2010Prop51ColorRGB
 90
-16777216
102
RTVSPost2010PropOp51
 70
     0
102
RTVSPost2010Prop52
140
1.0
102
RTVSPost2010PropOp52
 70
     0
102
RTVSPost2010Prop53
 90
        2
102
RTVSPost2010PropOp53
 70
     1
102
RTVSPost2010Prop54
  1
strokes_ogs.tif
102
RTVSPost2010PropOp54
 70
     1
102
RTVSPost2010Prop55
280
     0
102
RTVSPost2010PropOp55
 70
     1
102
RTVSPost2010Prop56
140
1.0
102
RTVSPost2010PropOp56
 70
     1
102
RTVSPost2010Prop57
140
1.0
102
RTVSPost2010PropOp57
 70
     1
102
RTVSPropertyOp0
 70
     1
102
RTVSPropertyOp1
 70
     1
102
RTVSPropertyOp2
 70
     1
102
RTVSPropertyOp3
 70
     1
102
RTVSPropertyOp4
 70
     1
102
RTVSPropertyOp5
 70
     1
102
RTVSPropertyOp6
 70
     1
102
RTVSPropertyOp7
 70
     1
102
RTVSPropertyOp8
 70
     1
102
RTVSPropertyOp9
 70
     1
102
RTVSPropertyOp10
 70
     1
102
RTVSPropertyOp11
 70
     1
102
RTVSPropertyOp12
 70
     1
102
RTVSPropertyOp13
 70
     1
102
RTVSPropertyOp14
 70
     1
102
RTVSPropertyOp15
 70
     1
102
RTVSPropertyOp16
 70
     1
102
RTVSPropertyOp17
 70
     1
102
RTVSPropertyOp18
 70
     1
102
RTVSPropertyOp19
 70
     1
102
RTVSPropertyOp20
 70
     1
102
RTVSPropertyOp21
 70
     1
102
RTVSPropertyOp22
 70
     1
102
RTVSPropertyOp23
 70
     1
102
RTVSPropertyOp24
 70
     1
102
RTVSPropertyOp25
 70
     1
102
RTVSPropertyOp26
 70
     1
102
RTVSPropertyOp27
 70
     1
102
RTVSPropertyOp28
 70
     1
102
RTVSPropertyOp29
 70
     1
102
RTVSPropertyOp30
 70
     1
102
RTVSPropertyOp31
 70
     1
102
RTVSPropertyOp32
 70
     1
102
RTVSPropertyOp33
 70
     1
102
RTVSPropertyOp34
 70
     1
102
RTVSPropertyOp35
 70
     1
102
RTVSPropertyOp36
 70
     1
102
RTVSPropertyOp37
 70
     1
102
RTVSPropertyOp38
 70
     1
102
RTVSPropertyOp39
 70
     1
102
RTVSPropertyOp40
 70
     1
102
RTVSPropertyOp41
 70
     1
102
RTVSPropertyOp42
 70
     1
102
RTVSPropertyOp43
 70
     1
102
RTVSPropertyOp44
 70
     1
102
RTVSPropertyOp45
 70
     1
102
RTVSPropertyOp46
 70
     1
102
RTVSPropertyOp47
 70
     1
102
RTVSPropertyOp48
 70
     1
102
RTVSPropertyOp49
 70
     1
102
RTVSPropertyOp50
 70
     1
102
RTVSPropertyOp51
 70
     0
102
RTVSPropertyOp52
 70
     0
102
RTVSPropertyOp53
 70
     1
102
RTVSPropertyOp54
 70
     1
102
RTVSPropertyOp55
 70
     1
102
RTVSPropertyOp56
 70
     1
102
RTVSPropertyOp57
 70
     1
102
RTVSPropertyOp58
 70
     1
102
RTVSPropertyOp59
 70
     1
102
RTVSPropertyOp60
 70
     1
102
RTVSPropertyOp61
 70
     1
102
RTVSPropertyOp62
 70
     1
  0
XRECORD
  5
FDA5C
102
{ACAD_REACTORS
330
FDA5B
102
}
330
FDA5B
100
AcDbXrecord
280
     1
102
RTVSPost2010Prop28
280
     0
102
RTVSPost2010PropOp28
 70
     1
102
RTVSPost2010Prop29
280
     1
102
RTVSPost2010PropOp29
 70
     1
102
RTVSPost2010Prop30
280
     1
102
RTVSPost2010PropOp30
 70
     1
102
RTVSPost2010Prop31
280
     0
102
RTVSPost2010PropOp31
 70
     1
102
RTVSPost2010Prop32
280
     0
102
RTVSPost2010PropOp32
 70
     1
102
RTVSPost2010Prop33
280
     0
102
RTVSPost2010PropOp33
 70
     1
102
RTVSPost2010Prop34
280
     0
102
RTVSPost2010PropOp34
 70
     1
102
RTVSPost2010Prop35
280
     0
102
RTVSPost2010PropOp35
 70
     1
102
RTVSPost2010Prop36
280
     0
102
RTVSPost2010PropOp36
 70
     1
102
RTVSPost2010Prop37
 90
       50
102
RTVSPost2010PropOp37
 70
     1
102
RTVSPost2010Prop38
140
0.0
102
RTVSPost2010PropOp38
 70
     1
102
RTVSPost2010Prop39
140
1.0
102
RTVSPost2010PropOp39
 70
     1
102
RTVSPost2010Prop40
 90
        0
102
RTVSPost2010PropOp40
 70
     1
102
RTVSPost2010Prop41ColorIndex
 90
       18
102
RTVSPost2010Prop41ColorRGB
 90
        0
102
RTVSPost2010PropOp41
 70
     1
102
RTVSPost2010Prop42
 90
       50
102
RTVSPost2010PropOp42
 70
     1
102
RTVSPost2010Prop43
 90
        3
102
RTVSPost2010PropOp43
 70
     1
102
RTVSPost2010Prop44ColorIndex
 90
        5
102
RTVSPost2010Prop44ColorRGB
 90
      255
102
RTVSPost2010PropOp44
 70
     1
102
RTVSPost2010Prop45
280
     0
102
RTVSPost2010PropOp45
 70
     1
102
RTVSPost2010Prop46
 90
       50
102
RTVSPost2010PropOp46
 70
     1
102
RTVSPost2010Prop47
 90
       50
102
RTVSPost2010PropOp47
 70
     1
102
RTVSPost2010Prop48
 90
       50
102
RTVSPost2010PropOp48
 70
     1
102
RTVSPost2010Prop49
280
     0
102
RTVSPost2010PropOp49
 70
     1
102
RTVSPost2010Prop50
 90
       50
102
RTVSPost2010PropOp50
 70
     1
102
RTVSPost2010Prop51ColorIndex
 90
      256
102
RTVSPost2010Prop51ColorRGB
 90
-16777216
102
RTVSPost2010PropOp51
 70
     0
102
RTVSPost2010Prop52
140
1.0
102
RTVSPost2010PropOp52
 70
     0
102
RTVSPost2010Prop53
 90
        2
102
RTVSPost2010PropOp53
 70
     1
102
RTVSPost2010Prop54
  1
strokes_ogs.tif
102
RTVSPost2010PropOp54
 70
     1
102
RTVSPost2010Prop55
280
     0
102
RTVSPost2010PropOp55
 70
     1
102
RTVSPost2010Prop56
140
1.0
102
RTVSPost2010PropOp56
 70
     1
102
RTVSPost2010Prop57
140
1.0
102
RTVSPost2010PropOp57
 70
     1
102
RTVSPropertyOp0
 70
     1
102
RTVSPropertyOp1
 70
     1
102
RTVSPropertyOp2
 70
     1
102
RTVSPropertyOp3
 70
     1
102
RTVSPropertyOp4
 70
     1
102
RTVSPropertyOp5
 70
     1
102
RTVSPropertyOp6
 70
     1
102
RTVSPropertyOp7
 70
     1
102
RTVSPropertyOp8
 70
     1
102
RTVSPropertyOp9
 70
     1
102
RTVSPropertyOp10
 70
     1
102
RTVSPropertyOp11
 70
     1
102
RTVSPropertyOp12
 70
     1
102
RTVSPropertyOp13
 70
     1
102
RTVSPropertyOp14
 70
     1
102
RTVSPropertyOp15
 70
     1
102
RTVSPropertyOp16
 70
     1
102
RTVSPropertyOp17
 70
     1
102
RTVSPropertyOp18
 70
     1
102
RTVSPropertyOp19
 70
     1
102
RTVSPropertyOp20
 70
     1
102
RTVSPropertyOp21
 70
     1
102
RTVSPropertyOp22
 70
     1
102
RTVSPropertyOp23
 70
     1
102
RTVSPropertyOp24
 70
     1
102
RTVSPropertyOp25
 70
     1
102
RTVSPropertyOp26
 70
     1
102
RTVSPropertyOp27
 70
     1
102
RTVSPropertyOp28
 70
     1
102
RTVSPropertyOp29
 70
     1
102
RTVSPropertyOp30
 70
     1
102
RTVSPropertyOp31
 70
     1
102
RTVSPropertyOp32
 70
     1
102
RTVSPropertyOp33
 70
     1
102
RTVSPropertyOp34
 70
     1
102
RTVSPropertyOp35
 70
     1
102
RTVSPropertyOp36
 70
     1
102
RTVSPropertyOp37
 70
     1
102
RTVSPropertyOp38
 70
     1
102
RTVSPropertyOp39
 70
     1
102
RTVSPropertyOp40
 70
     1
102
RTVSPropertyOp41
 70
     1
102
RTVSPropertyOp42
 70
     1
102
RTVSPropertyOp43
 70
     1
102
RTVSPropertyOp44
 70
     1
102
RTVSPropertyOp45
 70
     1
102
RTVSPropertyOp46
 70
     1
102
RTVSPropertyOp47
 70
     1
102
RTVSPropertyOp48
 70
     1
102
RTVSPropertyOp49
 70
     1
102
RTVSPropertyOp50
 70
     1
102
RTVSPropertyOp51
 70
     0
102
RTVSPropertyOp52
 70
     0
102
RTVSPropertyOp53
 70
     1
102
RTVSPropertyOp54
 70
     1
102
RTVSPropertyOp55
 70
     1
102
RTVSPropertyOp56
 70
     1
102
RTVSPropertyOp57
 70
     1
102
RTVSPropertyOp58
 70
     1
102
RTVSPropertyOp59
 70
     1
102
RTVSPropertyOp60
 70
     1
102
RTVSPropertyOp61
 70
     1
102
RTVSPropertyOp62
 70
     1
  0
XRECORD
  5
FDA78
102
{ACAD_REACTORS
330
FDA77
102
}
330
FDA77
100
AcDbXrecord
280
     1
102
RTVSPost2010Prop28
280
     0
102
RTVSPost2010PropOp28
 70
     0
102
RTVSPost2010Prop29
280
     1
102
RTVSPost2010PropOp29
 70
     0
102
RTVSPost2010Prop30
280
     1
102
RTVSPost2010PropOp30
 70
     0
102
RTVSPost2010Prop31
280
     0
102
RTVSPost2010PropOp31
 70
     0
102
RTVSPost2010Prop32
280
     0
102
RTVSPost2010PropOp32
 70
     0
102
RTVSPost2010Prop33
280
     0
102
RTVSPost2010PropOp33
 70
     0
102
RTVSPost2010Prop34
280
     0
102
RTVSPost2010PropOp34
 70
     0
102
RTVSPost2010Prop35
280
     0
102
RTVSPost2010PropOp35
 70
     0
102
RTVSPost2010Prop36
280
     0
102
RTVSPost2010PropOp36
 70
     0
102
RTVSPost2010Prop37
 90
       50
102
RTVSPost2010PropOp37
 70
     0
102
RTVSPost2010Prop38
140
0.0
102
RTVSPost2010PropOp38
 70
     0
102
RTVSPost2010Prop39
140
1.0
102
RTVSPost2010PropOp39
 70
     0
102
RTVSPost2010Prop40
 90
        0
102
RTVSPost2010PropOp40
 70
     0
102
RTVSPost2010Prop41ColorIndex
 90
       18
102
RTVSPost2010Prop41ColorRGB
 90
        0
102
RTVSPost2010PropOp41
 70
     0
102
RTVSPost2010Prop42
 90
       50
102
RTVSPost2010PropOp42
 70
     0
102
RTVSPost2010Prop43
 90
        3
102
RTVSPost2010PropOp43
 70
     0
102
RTVSPost2010Prop44ColorIndex
 90
        5
102
RTVSPost2010Prop44ColorRGB
 90
      255
102
RTVSPost2010PropOp44
 70
     0
102
RTVSPost2010Prop45
280
     0
102
RTVSPost2010PropOp45
 70
     0
102
RTVSPost2010Prop46
 90
       50
102
RTVSPost2010PropOp46
 70
     0
102
RTVSPost2010Prop47
 90
       50
102
RTVSPost2010PropOp47
 70
     0
102
RTVSPost2010Prop48
 90
       50
102
RTVSPost2010PropOp48
 70
     0
102
RTVSPost2010Prop49
280
     0
102
RTVSPost2010PropOp49
 70
     0
102
RTVSPost2010Prop50
 90
       50
102
RTVSPost2010PropOp50
 70
     0
102
RTVSPost2010Prop51ColorIndex
 90
      256
102
RTVSPost2010Prop51ColorRGB
 90
-16777216
102
RTVSPost2010PropOp51
 70
     0
102
RTVSPost2010Prop52
140
1.0
102
RTVSPost2010PropOp52
 70
     0
102
RTVSPost2010Prop53
 90
        2
102
RTVSPost2010PropOp53
 70
     0
102
RTVSPost2010Prop54
  1
strokes_ogs.tif
102
RTVSPost2010PropOp54
 70
     0
102
RTVSPost2010Prop55
280
     0
102
RTVSPost2010PropOp55
 70
     0
102
RTVSPost2010Prop56
140
1.0
102
RTVSPost2010PropOp56
 70
     0
102
RTVSPost2010Prop57
140
1.0
102
RTVSPost2010PropOp57
 70
     0
102
RTVSPropertyOp0
 70
     0
102
RTVSPropertyOp1
 70
     0
102
RTVSPropertyOp2
 70
     0
102
RTVSPropertyOp3
 70
     0
102
RTVSPropertyOp4
 70
     0
102
RTVSPropertyOp5
 70
     0
102
RTVSPropertyOp6
 70
     0
102
RTVSPropertyOp7
 70
     0
102
RTVSPropertyOp8
 70
     0
102
RTVSPropertyOp9
 70
     0
102
RTVSPropertyOp10
 70
     0
102
RTVSPropertyOp11
 70
     0
102
RTVSPropertyOp12
 70
     0
102
RTVSPropertyOp13
 70
     0
102
RTVSPropertyOp14
 70
     2
102
RTVSPropertyOp15
 70
     0
102
RTVSPropertyOp16
 70
     0
102
RTVSPropertyOp17
 70
     0
102
RTVSPropertyOp18
 70
     0
102
RTVSPropertyOp19
 70
     0
102
RTVSPropertyOp20
 70
     0
102
RTVSPropertyOp21
 70
     0
102
RTVSPropertyOp22
 70
     0
102
RTVSPropertyOp23
 70
     0
102
RTVSPropertyOp24
 70
     0
102
RTVSPropertyOp25
 70
     0
102
RTVSPropertyOp26
 70
     0
102
RTVSPropertyOp27
 70
     0
102
RTVSPropertyOp28
 70
     0
102
RTVSPropertyOp29
 70
     0
102
RTVSPropertyOp30
 70
     0
102
RTVSPropertyOp31
 70
     0
102
RTVSPropertyOp32
 70
     0
102
RTVSPropertyOp33
 70
     0
102
RTVSPropertyOp34
 70
     0
102
RTVSPropertyOp35
 70
     0
102
RTVSPropertyOp36
 70
     0
102
RTVSPropertyOp37
 70
     0
102
RTVSPropertyOp38
 70
     0
102
RTVSPropertyOp39
 70
     0
102
RTVSPropertyOp40
 70
     0
102
RTVSPropertyOp41
 70
     0
102
RTVSPropertyOp42
 70
     0
102
RTVSPropertyOp43
 70
     0
102
RTVSPropertyOp44
 70
     0
102
RTVSPropertyOp45
 70
     0
102
RTVSPropertyOp46
 70
     0
102
RTVSPropertyOp47
 70
     0
102
RTVSPropertyOp48
 70
     0
102
RTVSPropertyOp49
 70
     0
102
RTVSPropertyOp50
 70
     0
102
RTVSPropertyOp51
 70
     0
102
RTVSPropertyOp52
 70
     0
102
RTVSPropertyOp53
 70
     0
102
RTVSPropertyOp54
 70
     0
102
RTVSPropertyOp55
 70
     0
102
RTVSPropertyOp56
 70
     0
102
RTVSPropertyOp57
 70
     0
102
RTVSPropertyOp58
 70
     0
102
RTVSPropertyOp59
 70
     0
102
RTVSPropertyOp60
 70
     0
102
RTVSPropertyOp61
 70
     0
102
RTVSPropertyOp62
 70
     0
  0
XRECORD
  5
FDA68
102
{ACAD_REACTORS
330
FDA67
102
}
330
FDA67
100
AcDbXrecord
280
     1
102
RTVSPost2010Prop28
280
     0
102
RTVSPost2010PropOp28
 70
     1
102
RTVSPost2010Prop29
280
     1
102
RTVSPost2010PropOp29
 70
     1
102
RTVSPost2010Prop30
280
     1
102
RTVSPost2010PropOp30
 70
     1
102
RTVSPost2010Prop31
280
     0
102
RTVSPost2010PropOp31
 70
     1
102
RTVSPost2010Prop32
280
     0
102
RTVSPost2010PropOp32
 70
     1
102
RTVSPost2010Prop33
280
     0
102
RTVSPost2010PropOp33
 70
     1
102
RTVSPost2010Prop34
280
     0
102
RTVSPost2010PropOp34
 70
     1
102
RTVSPost2010Prop35
280
     0
102
RTVSPost2010PropOp35
 70
     1
102
RTVSPost2010Prop36
280
     0
102
RTVSPost2010PropOp36
 70
     1
102
RTVSPost2010Prop37
 90
       50
102
RTVSPost2010PropOp37
 70
     1
102
RTVSPost2010Prop38
140
0.0
102
RTVSPost2010PropOp38
 70
     1
102
RTVSPost2010Prop39
140
1.0
102
RTVSPost2010PropOp39
 70
     1
102
RTVSPost2010Prop40
 90
        0
102
RTVSPost2010PropOp40
 70
     1
102
RTVSPost2010Prop41ColorIndex
 90
       18
102
RTVSPost2010Prop41ColorRGB
 90
        0
102
RTVSPost2010PropOp41
 70
     1
102
RTVSPost2010Prop42
 90
       50
102
RTVSPost2010PropOp42
 70
     1
102
RTVSPost2010Prop43
 90
        3
102
RTVSPost2010PropOp43
 70
     1
102
RTVSPost2010Prop44ColorIndex
 90
        5
102
RTVSPost2010Prop44ColorRGB
 90
      255
102
RTVSPost2010PropOp44
 70
     1
102
RTVSPost2010Prop45
280
     0
102
RTVSPost2010PropOp45
 70
     1
102
RTVSPost2010Prop46
 90
       50
102
RTVSPost2010PropOp46
 70
     1
102
RTVSPost2010Prop47
 90
       50
102
RTVSPost2010PropOp47
 70
     1
102
RTVSPost2010Prop48
 90
       50
102
RTVSPost2010PropOp48
 70
     1
102
RTVSPost2010Prop49
280
     0
102
RTVSPost2010PropOp49
 70
     1
102
RTVSPost2010Prop50
 90
       50
102
RTVSPost2010PropOp50
 70
     1
102
RTVSPost2010Prop51ColorIndex
 90
      256
102
RTVSPost2010Prop51ColorRGB
 90
-16777216
102
RTVSPost2010PropOp51
 70
     0
102
RTVSPost2010Prop52
140
1.0
102
RTVSPost2010PropOp52
 70
     0
102
RTVSPost2010Prop53
 90
        2
102
RTVSPost2010PropOp53
 70
     1
102
RTVSPost2010Prop54
  1
strokes_ogs.tif
102
RTVSPost2010PropOp54
 70
     1
102
RTVSPost2010Prop55
280
     0
102
RTVSPost2010PropOp55
 70
     1
102
RTVSPost2010Prop56
140
1.0
102
RTVSPost2010PropOp56
 70
     1
102
RTVSPost2010Prop57
140
1.0
102
RTVSPost2010PropOp57
 70
     1
102
RTVSPropertyOp0
 70
     1
102
RTVSPropertyOp1
 70
     1
102
RTVSPropertyOp2
 70
     1
102
RTVSPropertyOp3
 70
     1
102
RTVSPropertyOp4
 70
     1
102
RTVSPropertyOp5
 70
     1
102
RTVSPropertyOp6
 70
     1
102
RTVSPropertyOp7
 70
     1
102
RTVSPropertyOp8
 70
     1
102
RTVSPropertyOp9
 70
     1
102
RTVSPropertyOp10
 70
     1
102
RTVSPropertyOp11
 70
     1
102
RTVSPropertyOp12
 70
     1
102
RTVSPropertyOp13
 70
     1
102
RTVSPropertyOp14
 70
     1
102
RTVSPropertyOp15
 70
     1
102
RTVSPropertyOp16
 70
     1
102
RTVSPropertyOp17
 70
     1
102
RTVSPropertyOp18
 70
     1
102
RTVSPropertyOp19
 70
     1
102
RTVSPropertyOp20
 70
     1
102
RTVSPropertyOp21
 70
     1
102
RTVSPropertyOp22
 70
     1
102
RTVSPropertyOp23
 70
     1
102
RTVSPropertyOp24
 70
     1
102
RTVSPropertyOp25
 70
     1
102
RTVSPropertyOp26
 70
     1
102
RTVSPropertyOp27
 70
     1
102
RTVSPropertyOp28
 70
     1
102
RTVSPropertyOp29
 70
     1
102
RTVSPropertyOp30
 70
     1
102
RTVSPropertyOp31
 70
     1
102
RTVSPropertyOp32
 70
     1
102
RTVSPropertyOp33
 70
     1
102
RTVSPropertyOp34
 70
     1
102
RTVSPropertyOp35
 70
     1
102
RTVSPropertyOp36
 70
     1
102
RTVSPropertyOp37
 70
     1
102
RTVSPropertyOp38
 70
     1
102
RTVSPropertyOp39
 70
     1
102
RTVSPropertyOp40
 70
     1
102
RTVSPropertyOp41
 70
     1
102
RTVSPropertyOp42
 70
     1
102
RTVSPropertyOp43
 70
     1
102
RTVSPropertyOp44
 70
     1
102
RTVSPropertyOp45
 70
     1
102
RTVSPropertyOp46
 70
     1
102
RTVSPropertyOp47
 70
     1
102
RTVSPropertyOp48
 70
     1
102
RTVSPropertyOp49
 70
     1
102
RTVSPropertyOp50
 70
     1
102
RTVSPropertyOp51
 70
     0
102
RTVSPropertyOp52
 70
     0
102
RTVSPropertyOp53
 70
     1
102
RTVSPropertyOp54
 70
     1
102
RTVSPropertyOp55
 70
     1
102
RTVSPropertyOp56
 70
     1
102
RTVSPropertyOp57
 70
     1
102
RTVSPropertyOp58
 70
     1
102
RTVSPropertyOp59
 70
     1
102
RTVSPropertyOp60
 70
     1
102
RTVSPropertyOp61
 70
     1
102
RTVSPropertyOp62
 70
     1
  0
XRECORD
  5
FDA7A
102
{ACAD_REACTORS
330
FDA79
102
}
330
FDA79
100
AcDbXrecord
280
     1
102
RTVSPost2010Prop28
280
     0
102
RTVSPost2010PropOp28
 70
     0
102
RTVSPost2010Prop29
280
     1
102
RTVSPost2010PropOp29
 70
     0
102
RTVSPost2010Prop30
280
     1
102
RTVSPost2010PropOp30
 70
     0
102
RTVSPost2010Prop31
280
     0
102
RTVSPost2010PropOp31
 70
     0
102
RTVSPost2010Prop32
280
     0
102
RTVSPost2010PropOp32
 70
     0
102
RTVSPost2010Prop33
280
     0
102
RTVSPost2010PropOp33
 70
     0
102
RTVSPost2010Prop34
280
     0
102
RTVSPost2010PropOp34
 70
     0
102
RTVSPost2010Prop35
280
     0
102
RTVSPost2010PropOp35
 70
     0
102
RTVSPost2010Prop36
280
     0
102
RTVSPost2010PropOp36
 70
     0
102
RTVSPost2010Prop37
 90
       50
102
RTVSPost2010PropOp37
 70
     0
102
RTVSPost2010Prop38
140
0.0
102
RTVSPost2010PropOp38
 70
     0
102
RTVSPost2010Prop39
140
1.0
102
RTVSPost2010PropOp39
 70
     0
102
RTVSPost2010Prop40
 90
        0
102
RTVSPost2010PropOp40
 70
     0
102
RTVSPost2010Prop41ColorIndex
 90
       18
102
RTVSPost2010Prop41ColorRGB
 90
        0
102
RTVSPost2010PropOp41
 70
     0
102
RTVSPost2010Prop42
 90
       50
102
RTVSPost2010PropOp42
 70
     0
102
RTVSPost2010Prop43
 90
        3
102
RTVSPost2010PropOp43
 70
     0
102
RTVSPost2010Prop44ColorIndex
 90
        5
102
RTVSPost2010Prop44ColorRGB
 90
      255
102
RTVSPost2010PropOp44
 70
     0
102
RTVSPost2010Prop45
280
     0
102
RTVSPost2010PropOp45
 70
     0
102
RTVSPost2010Prop46
 90
       50
102
RTVSPost2010PropOp46
 70
     0
102
RTVSPost2010Prop47
 90
       50
102
RTVSPost2010PropOp47
 70
     0
102
RTVSPost2010Prop48
 90
       50
102
RTVSPost2010PropOp48
 70
     0
102
RTVSPost2010Prop49
280
     0
102
RTVSPost2010PropOp49
 70
     0
102
RTVSPost2010Prop50
 90
       50
102
RTVSPost2010PropOp50
 70
     0
102
RTVSPost2010Prop51ColorIndex
 90
      256
102
RTVSPost2010Prop51ColorRGB
 90
-16777216
102
RTVSPost2010PropOp51
 70
     0
102
RTVSPost2010Prop52
140
1.0
102
RTVSPost2010PropOp52
 70
     0
102
RTVSPost2010Prop53
 90
        2
102
RTVSPost2010PropOp53
 70
     0
102
RTVSPost2010Prop54
  1
strokes_ogs.tif
102
RTVSPost2010PropOp54
 70
     0
102
RTVSPost2010Prop55
280
     0
102
RTVSPost2010PropOp55
 70
     0
102
RTVSPost2010Prop56
140
1.0
102
RTVSPost2010PropOp56
 70
     0
102
RTVSPost2010Prop57
140
1.0
102
RTVSPost2010PropOp57
 70
     0
102
RTVSPropertyOp0
 70
     0
102
RTVSPropertyOp1
 70
     0
102
RTVSPropertyOp2
 70
     0
102
RTVSPropertyOp3
 70
     0
102
RTVSPropertyOp4
 70
     0
102
RTVSPropertyOp5
 70
     0
102
RTVSPropertyOp6
 70
     0
102
RTVSPropertyOp7
 70
     0
102
RTVSPropertyOp8
 70
     0
102
RTVSPropertyOp9
 70
     0
102
RTVSPropertyOp10
 70
     0
102
RTVSPropertyOp11
 70
     0
102
RTVSPropertyOp12
 70
     0
102
RTVSPropertyOp13
 70
     0
102
RTVSPropertyOp14
 70
     2
102
RTVSPropertyOp15
 70
     0
102
RTVSPropertyOp16
 70
     0
102
RTVSPropertyOp17
 70
     0
102
RTVSPropertyOp18
 70
     0
102
RTVSPropertyOp19
 70
     0
102
RTVSPropertyOp20
 70
     0
102
RTVSPropertyOp21
 70
     0
102
RTVSPropertyOp22
 70
     0
102
RTVSPropertyOp23
 70
     0
102
RTVSPropertyOp24
 70
     0
102
RTVSPropertyOp25
 70
     0
102
RTVSPropertyOp26
 70
     0
102
RTVSPropertyOp27
 70
     0
102
RTVSPropertyOp28
 70
     0
102
RTVSPropertyOp29
 70
     0
102
RTVSPropertyOp30
 70
     0
102
RTVSPropertyOp31
 70
     0
102
RTVSPropertyOp32
 70
     0
102
RTVSPropertyOp33
 70
     0
102
RTVSPropertyOp34
 70
     0
102
RTVSPropertyOp35
 70
     0
102
RTVSPropertyOp36
 70
     0
102
RTVSPropertyOp37
 70
     0
102
RTVSPropertyOp38
 70
     0
102
RTVSPropertyOp39
 70
     0
102
RTVSPropertyOp40
 70
     0
102
RTVSPropertyOp41
 70
     0
102
RTVSPropertyOp42
 70
     0
102
RTVSPropertyOp43
 70
     0
102
RTVSPropertyOp44
 70
     0
102
RTVSPropertyOp45
 70
     0
102
RTVSPropertyOp46
 70
     0
102
RTVSPropertyOp47
 70
     0
102
RTVSPropertyOp48
 70
     0
102
RTVSPropertyOp49
 70
     0
102
RTVSPropertyOp50
 70
     0
102
RTVSPropertyOp51
 70
     0
102
RTVSPropertyOp52
 70
     0
102
RTVSPropertyOp53
 70
     0
102
RTVSPropertyOp54
 70
     0
102
RTVSPropertyOp55
 70
     0
102
RTVSPropertyOp56
 70
     0
102
RTVSPropertyOp57
 70
     0
102
RTVSPropertyOp58
 70
     0
102
RTVSPropertyOp59
 70
     0
102
RTVSPropertyOp60
 70
     0
102
RTVSPropertyOp61
 70
     0
102
RTVSPropertyOp62
 70
     0
  0
XRECORD
  5
FDA60
102
{ACAD_REACTORS
330
FDA5F
102
}
330
FDA5F
100
AcDbXrecord
280
     1
102
RTVSPost2010Prop28
280
     0
102
RTVSPost2010PropOp28
 70
     1
102
RTVSPost2010Prop29
280
     1
102
RTVSPost2010PropOp29
 70
     1
102
RTVSPost2010Prop30
280
     1
102
RTVSPost2010PropOp30
 70
     1
102
RTVSPost2010Prop31
280
     0
102
RTVSPost2010PropOp31
 70
     1
102
RTVSPost2010Prop32
280
     0
102
RTVSPost2010PropOp32
 70
     1
102
RTVSPost2010Prop33
280
     0
102
RTVSPost2010PropOp33
 70
     1
102
RTVSPost2010Prop34
280
     0
102
RTVSPost2010PropOp34
 70
     1
102
RTVSPost2010Prop35
280
     0
102
RTVSPost2010PropOp35
 70
     1
102
RTVSPost2010Prop36
280
     0
102
RTVSPost2010PropOp36
 70
     1
102
RTVSPost2010Prop37
 90
       50
102
RTVSPost2010PropOp37
 70
     1
102
RTVSPost2010Prop38
140
0.0
102
RTVSPost2010PropOp38
 70
     1
102
RTVSPost2010Prop39
140
1.0
102
RTVSPost2010PropOp39
 70
     1
102
RTVSPost2010Prop40
 90
        0
102
RTVSPost2010PropOp40
 70
     1
102
RTVSPost2010Prop41ColorIndex
 90
       18
102
RTVSPost2010Prop41ColorRGB
 90
        0
102
RTVSPost2010PropOp41
 70
     1
102
RTVSPost2010Prop42
 90
       50
102
RTVSPost2010PropOp42
 70
     1
102
RTVSPost2010Prop43
 90
        3
102
RTVSPost2010PropOp43
 70
     1
102
RTVSPost2010Prop44ColorIndex
 90
        5
102
RTVSPost2010Prop44ColorRGB
 90
      255
102
RTVSPost2010PropOp44
 70
     1
102
RTVSPost2010Prop45
280
     0
102
RTVSPost2010PropOp45
 70
     1
102
RTVSPost2010Prop46
 90
       50
102
RTVSPost2010PropOp46
 70
     1
102
RTVSPost2010Prop47
 90
       50
102
RTVSPost2010PropOp47
 70
     1
102
RTVSPost2010Prop48
 90
       50
102
RTVSPost2010PropOp48
 70
     1
102
RTVSPost2010Prop49
280
     0
102
RTVSPost2010PropOp49
 70
     1
102
RTVSPost2010Prop50
 90
       50
102
RTVSPost2010PropOp50
 70
     1
102
RTVSPost2010Prop51ColorIndex
 90
      256
102
RTVSPost2010Prop51ColorRGB
 90
-16777216
102
RTVSPost2010PropOp51
 70
     0
102
RTVSPost2010Prop52
140
1.0
102
RTVSPost2010PropOp52
 70
     0
102
RTVSPost2010Prop53
 90
        2
102
RTVSPost2010PropOp53
 70
     1
102
RTVSPost2010Prop54
  1
strokes_ogs.tif
102
RTVSPost2010PropOp54
 70
     1
102
RTVSPost2010Prop55
280
     0
102
RTVSPost2010PropOp55
 70
     1
102
RTVSPost2010Prop56
140
1.0
102
RTVSPost2010PropOp56
 70
     1
102
RTVSPost2010Prop57
140
1.0
102
RTVSPost2010PropOp57
 70
     1
102
RTVSPropertyOp0
 70
     1
102
RTVSPropertyOp1
 70
     1
102
RTVSPropertyOp2
 70
     1
102
RTVSPropertyOp3
 70
     1
102
RTVSPropertyOp4
 70
     1
102
RTVSPropertyOp5
 70
     1
102
RTVSPropertyOp6
 70
     1
102
RTVSPropertyOp7
 70
     1
102
RTVSPropertyOp8
 70
     1
102
RTVSPropertyOp9
 70
     1
102
RTVSPropertyOp10
 70
     1
102
RTVSPropertyOp11
 70
     1
102
RTVSPropertyOp12
 70
     1
102
RTVSPropertyOp13
 70
     1
102
RTVSPropertyOp14
 70
     1
102
RTVSPropertyOp15
 70
     1
102
RTVSPropertyOp16
 70
     1
102
RTVSPropertyOp17
 70
     1
102
RTVSPropertyOp18
 70
     1
102
RTVSPropertyOp19
 70
     1
102
RTVSPropertyOp20
 70
     1
102
RTVSPropertyOp21
 70
     1
102
RTVSPropertyOp22
 70
     1
102
RTVSPropertyOp23
 70
     1
102
RTVSPropertyOp24
 70
     1
102
RTVSPropertyOp25
 70
     1
102
RTVSPropertyOp26
 70
     1
102
RTVSPropertyOp27
 70
     1
102
RTVSPropertyOp28
 70
     1
102
RTVSPropertyOp29
 70
     1
102
RTVSPropertyOp30
 70
     1
102
RTVSPropertyOp31
 70
     1
102
RTVSPropertyOp32
 70
     1
102
RTVSPropertyOp33
 70
     1
102
RTVSPropertyOp34
 70
     1
102
RTVSPropertyOp35
 70
     1
102
RTVSPropertyOp36
 70
     1
102
RTVSPropertyOp37
 70
     1
102
RTVSPropertyOp38
 70
     1
102
RTVSPropertyOp39
 70
     1
102
RTVSPropertyOp40
 70
     1
102
RTVSPropertyOp41
 70
     1
102
RTVSPropertyOp42
 70
     1
102
RTVSPropertyOp43
 70
     1
102
RTVSPropertyOp44
 70
     1
102
RTVSPropertyOp45
 70
     1
102
RTVSPropertyOp46
 70
     1
102
RTVSPropertyOp47
 70
     1
102
RTVSPropertyOp48
 70
     1
102
RTVSPropertyOp49
 70
     1
102
RTVSPropertyOp50
 70
     1
102
RTVSPropertyOp51
 70
     0
102
RTVSPropertyOp52
 70
     0
102
RTVSPropertyOp53
 70
     1
102
RTVSPropertyOp54
 70
     1
102
RTVSPropertyOp55
 70
     1
102
RTVSPropertyOp56
 70
     1
102
RTVSPropertyOp57
 70
     1
102
RTVSPropertyOp58
 70
     1
102
RTVSPropertyOp59
 70
     1
102
RTVSPropertyOp60
 70
     1
102
RTVSPropertyOp61
 70
     1
102
RTVSPropertyOp62
 70
     1
  0
XRECORD
  5
FDA76
102
{ACAD_REACTORS
330
FDA75
102
}
330
FDA75
100
AcDbXrecord
280
     1
102
RTVSPost2010Prop28
280
     0
102
RTVSPost2010PropOp28
 70
     1
102
RTVSPost2010Prop29
280
     1
102
RTVSPost2010PropOp29
 70
     1
102
RTVSPost2010Prop30
280
     1
102
RTVSPost2010PropOp30
 70
     1
102
RTVSPost2010Prop31
280
     0
102
RTVSPost2010PropOp31
 70
     1
102
RTVSPost2010Prop32
280
     0
102
RTVSPost2010PropOp32
 70
     1
102
RTVSPost2010Prop33
280
     0
102
RTVSPost2010PropOp33
 70
     1
102
RTVSPost2010Prop34
280
     0
102
RTVSPost2010PropOp34
 70
     1
102
RTVSPost2010Prop35
280
     0
102
RTVSPost2010PropOp35
 70
     1
102
RTVSPost2010Prop36
280
     0
102
RTVSPost2010PropOp36
 70
     1
102
RTVSPost2010Prop37
 90
       50
102
RTVSPost2010PropOp37
 70
     1
102
RTVSPost2010Prop38
140
0.0
102
RTVSPost2010PropOp38
 70
     1
102
RTVSPost2010Prop39
140
1.0
102
RTVSPost2010PropOp39
 70
     1
102
RTVSPost2010Prop40
 90
        0
102
RTVSPost2010PropOp40
 70
     1
102
RTVSPost2010Prop41ColorIndex
 90
       18
102
RTVSPost2010Prop41ColorRGB
 90
        0
102
RTVSPost2010PropOp41
 70
     1
102
RTVSPost2010Prop42
 90
       50
102
RTVSPost2010PropOp42
 70
     1
102
RTVSPost2010Prop43
 90
        3
102
RTVSPost2010PropOp43
 70
     1
102
RTVSPost2010Prop44ColorIndex
 90
        5
102
RTVSPost2010Prop44ColorRGB
 90
      255
102
RTVSPost2010PropOp44
 70
     1
102
RTVSPost2010Prop45
280
     0
102
RTVSPost2010PropOp45
 70
     1
102
RTVSPost2010Prop46
 90
       50
102
RTVSPost2010PropOp46
 70
     1
102
RTVSPost2010Prop47
 90
       50
102
RTVSPost2010PropOp47
 70
     1
102
RTVSPost2010Prop48
 90
       50
102
RTVSPost2010PropOp48
 70
     1
102
RTVSPost2010Prop49
280
     0
102
RTVSPost2010PropOp49
 70
     1
102
RTVSPost2010Prop50
 90
       50
102
RTVSPost2010PropOp50
 70
     1
102
RTVSPost2010Prop51ColorIndex
 90
      256
102
RTVSPost2010Prop51ColorRGB
 90
-16777216
102
RTVSPost2010PropOp51
 70
     0
102
RTVSPost2010Prop52
140
1.0
102
RTVSPost2010PropOp52
 70
     0
102
RTVSPost2010Prop53
 90
        2
102
RTVSPost2010PropOp53
 70
     1
102
RTVSPost2010Prop54
  1
strokes_ogs.tif
102
RTVSPost2010PropOp54
 70
     1
102
RTVSPost2010Prop55
280
     0
102
RTVSPost2010PropOp55
 70
     1
102
RTVSPost2010Prop56
140
1.0
102
RTVSPost2010PropOp56
 70
     1
102
RTVSPost2010Prop57
140
1.0
102
RTVSPost2010PropOp57
 70
     1
102
RTVSPropertyOp0
 70
     1
102
RTVSPropertyOp1
 70
     1
102
RTVSPropertyOp2
 70
     1
102
RTVSPropertyOp3
 70
     1
102
RTVSPropertyOp4
 70
     1
102
RTVSPropertyOp5
 70
     1
102
RTVSPropertyOp6
 70
     1
102
RTVSPropertyOp7
 70
     1
102
RTVSPropertyOp8
 70
     1
102
RTVSPropertyOp9
 70
     1
102
RTVSPropertyOp10
 70
     1
102
RTVSPropertyOp11
 70
     1
102
RTVSPropertyOp12
 70
     1
102
RTVSPropertyOp13
 70
     1
102
RTVSPropertyOp14
 70
     1
102
RTVSPropertyOp15
 70
     1
102
RTVSPropertyOp16
 70
     1
102
RTVSPropertyOp17
 70
     1
102
RTVSPropertyOp18
 70
     1
102
RTVSPropertyOp19
 70
     1
102
RTVSPropertyOp20
 70
     1
102
RTVSPropertyOp21
 70
     1
102
RTVSPropertyOp22
 70
     1
102
RTVSPropertyOp23
 70
     1
102
RTVSPropertyOp24
 70
     1
102
RTVSPropertyOp25
 70
     1
102
RTVSPropertyOp26
 70
     1
102
RTVSPropertyOp27
 70
     1
102
RTVSPropertyOp28
 70
     1
102
RTVSPropertyOp29
 70
     1
102
RTVSPropertyOp30
 70
     1
102
RTVSPropertyOp31
 70
     1
102
RTVSPropertyOp32
 70
     1
102
RTVSPropertyOp33
 70
     1
102
RTVSPropertyOp34
 70
     1
102
RTVSPropertyOp35
 70
     1
102
RTVSPropertyOp36
 70
     1
102
RTVSPropertyOp37
 70
     1
102
RTVSPropertyOp38
 70
     1
102
RTVSPropertyOp39
 70
     1
102
RTVSPropertyOp40
 70
     1
102
RTVSPropertyOp41
 70
     1
102
RTVSPropertyOp42
 70
     1
102
RTVSPropertyOp43
 70
     1
102
RTVSPropertyOp44
 70
     1
102
RTVSPropertyOp45
 70
     1
102
RTVSPropertyOp46
 70
     1
102
RTVSPropertyOp47
 70
     1
102
RTVSPropertyOp48
 70
     1
102
RTVSPropertyOp49
 70
     1
102
RTVSPropertyOp50
 70
     1
102
RTVSPropertyOp51
 70
     0
102
RTVSPropertyOp52
 70
     0
102
RTVSPropertyOp53
 70
     1
102
RTVSPropertyOp54
 70
     1
102
RTVSPropertyOp55
 70
     1
102
RTVSPropertyOp56
 70
     1
102
RTVSPropertyOp57
 70
     1
102
RTVSPropertyOp58
 70
     1
102
RTVSPropertyOp59
 70
     1
102
RTVSPropertyOp60
 70
     1
102
RTVSPropertyOp61
 70
     1
102
RTVSPropertyOp62
 70
     1
  0
XRECORD
  5
FDA74
102
{ACAD_REACTORS
330
FDA73
102
}
330
FDA73
100
AcDbXrecord
280
     1
102
RTVSPost2010Prop28
280
     0
102
RTVSPost2010PropOp28
 70
     1
102
RTVSPost2010Prop29
280
     1
102
RTVSPost2010PropOp29
 70
     1
102
RTVSPost2010Prop30
280
     1
102
RTVSPost2010PropOp30
 70
     1
102
RTVSPost2010Prop31
280
     0
102
RTVSPost2010PropOp31
 70
     1
102
RTVSPost2010Prop32
280
     0
102
RTVSPost2010PropOp32
 70
     1
102
RTVSPost2010Prop33
280
     0
102
RTVSPost2010PropOp33
 70
     1
102
RTVSPost2010Prop34
280
     0
102
RTVSPost2010PropOp34
 70
     1
102
RTVSPost2010Prop35
280
     0
102
RTVSPost2010PropOp35
 70
     1
102
RTVSPost2010Prop36
280
     0
102
RTVSPost2010PropOp36
 70
     1
102
RTVSPost2010Prop37
 90
       50
102
RTVSPost2010PropOp37
 70
     1
102
RTVSPost2010Prop38
140
0.0
102
RTVSPost2010PropOp38
 70
     1
102
RTVSPost2010Prop39
140
1.0
102
RTVSPost2010PropOp39
 70
     1
102
RTVSPost2010Prop40
 90
        0
102
RTVSPost2010PropOp40
 70
     1
102
RTVSPost2010Prop41ColorIndex
 90
       18
102
RTVSPost2010Prop41ColorRGB
 90
        0
102
RTVSPost2010PropOp41
 70
     1
102
RTVSPost2010Prop42
 90
       50
102
RTVSPost2010PropOp42
 70
     1
102
RTVSPost2010Prop43
 90
        3
102
RTVSPost2010PropOp43
 70
     1
102
RTVSPost2010Prop44ColorIndex
 90
        5
102
RTVSPost2010Prop44ColorRGB
 90
      255
102
RTVSPost2010PropOp44
 70
     1
102
RTVSPost2010Prop45
280
     0
102
RTVSPost2010PropOp45
 70
     1
102
RTVSPost2010Prop46
 90
       50
102
RTVSPost2010PropOp46
 70
     1
102
RTVSPost2010Prop47
 90
       50
102
RTVSPost2010PropOp47
 70
     1
102
RTVSPost2010Prop48
 90
       50
102
RTVSPost2010PropOp48
 70
     1
102
RTVSPost2010Prop49
280
     0
102
RTVSPost2010PropOp49
 70
     1
102
RTVSPost2010Prop50
 90
       50
102
RTVSPost2010PropOp50
 70
     1
102
RTVSPost2010Prop51ColorIndex
 90
      256
102
RTVSPost2010Prop51ColorRGB
 90
-16777216
102
RTVSPost2010PropOp51
 70
     0
102
RTVSPost2010Prop52
140
1.0
102
RTVSPost2010PropOp52
 70
     0
102
RTVSPost2010Prop53
 90
        2
102
RTVSPost2010PropOp53
 70
     1
102
RTVSPost2010Prop54
  1
strokes_ogs.tif
102
RTVSPost2010PropOp54
 70
     1
102
RTVSPost2010Prop55
280
     0
102
RTVSPost2010PropOp55
 70
     1
102
RTVSPost2010Prop56
140
1.0
102
RTVSPost2010PropOp56
 70
     1
102
RTVSPost2010Prop57
140
1.0
102
RTVSPost2010PropOp57
 70
     1
102
RTVSPropertyOp0
 70
     1
102
RTVSPropertyOp1
 70
     1
102
RTVSPropertyOp2
 70
     1
102
RTVSPropertyOp3
 70
     1
102
RTVSPropertyOp4
 70
     1
102
RTVSPropertyOp5
 70
     1
102
RTVSPropertyOp6
 70
     1
102
RTVSPropertyOp7
 70
     1
102
RTVSPropertyOp8
 70
     1
102
RTVSPropertyOp9
 70
     1
102
RTVSPropertyOp10
 70
     1
102
RTVSPropertyOp11
 70
     1
102
RTVSPropertyOp12
 70
     1
102
RTVSPropertyOp13
 70
     1
102
RTVSPropertyOp14
 70
     1
102
RTVSPropertyOp15
 70
     1
102
RTVSPropertyOp16
 70
     1
102
RTVSPropertyOp17
 70
     1
102
RTVSPropertyOp18
 70
     1
102
RTVSPropertyOp19
 70
     1
102
RTVSPropertyOp20
 70
     1
102
RTVSPropertyOp21
 70
     1
102
RTVSPropertyOp22
 70
     1
102
RTVSPropertyOp23
 70
     1
102
RTVSPropertyOp24
 70
     1
102
RTVSPropertyOp25
 70
     1
102
RTVSPropertyOp26
 70
     1
102
RTVSPropertyOp27
 70
     1
102
RTVSPropertyOp28
 70
     1
102
RTVSPropertyOp29
 70
     1
102
RTVSPropertyOp30
 70
     1
102
RTVSPropertyOp31
 70
     1
102
RTVSPropertyOp32
 70
     1
102
RTVSPropertyOp33
 70
     1
102
RTVSPropertyOp34
 70
     1
102
RTVSPropertyOp35
 70
     1
102
RTVSPropertyOp36
 70
     1
102
RTVSPropertyOp37
 70
     1
102
RTVSPropertyOp38
 70
     1
102
RTVSPropertyOp39
 70
     1
102
RTVSPropertyOp40
 70
     1
102
RTVSPropertyOp41
 70
     1
102
RTVSPropertyOp42
 70
     1
102
RTVSPropertyOp43
 70
     1
102
RTVSPropertyOp44
 70
     1
102
RTVSPropertyOp45
 70
     1
102
RTVSPropertyOp46
 70
     1
102
RTVSPropertyOp47
 70
     1
102
RTVSPropertyOp48
 70
     1
102
RTVSPropertyOp49
 70
     1
102
RTVSPropertyOp50
 70
     1
102
RTVSPropertyOp51
 70
     0
102
RTVSPropertyOp52
 70
     0
102
RTVSPropertyOp53
 70
     1
102
RTVSPropertyOp54
 70
     1
102
RTVSPropertyOp55
 70
     1
102
RTVSPropertyOp56
 70
     1
102
RTVSPropertyOp57
 70
     1
102
RTVSPropertyOp58
 70
     1
102
RTVSPropertyOp59
 70
     1
102
RTVSPropertyOp60
 70
     1
102
RTVSPropertyOp61
 70
     1
102
RTVSPropertyOp62
 70
     1
  0
XRECORD
  5
FDA6E
102
{ACAD_REACTORS
330
FDA6D
102
}
330
FDA6D
100
AcDbXrecord
280
     1
102
RTVSPost2010Prop28
280
     0
102
RTVSPost2010PropOp28
 70
     1
102
RTVSPost2010Prop29
280
     1
102
RTVSPost2010PropOp29
 70
     1
102
RTVSPost2010Prop30
280
     1
102
RTVSPost2010PropOp30
 70
     1
102
RTVSPost2010Prop31
280
     0
102
RTVSPost2010PropOp31
 70
     1
102
RTVSPost2010Prop32
280
     0
102
RTVSPost2010PropOp32
 70
     1
102
RTVSPost2010Prop33
280
     0
102
RTVSPost2010PropOp33
 70
     1
102
RTVSPost2010Prop34
280
     0
102
RTVSPost2010PropOp34
 70
     1
102
RTVSPost2010Prop35
280
     0
102
RTVSPost2010PropOp35
 70
     1
102
RTVSPost2010Prop36
280
     0
102
RTVSPost2010PropOp36
 70
     1
102
RTVSPost2010Prop37
 90
       50
102
RTVSPost2010PropOp37
 70
     1
102
RTVSPost2010Prop38
140
0.0
102
RTVSPost2010PropOp38
 70
     1
102
RTVSPost2010Prop39
140
1.0
102
RTVSPost2010PropOp39
 70
     1
102
RTVSPost2010Prop40
 90
        0
102
RTVSPost2010PropOp40
 70
     1
102
RTVSPost2010Prop41ColorIndex
 90
       18
102
RTVSPost2010Prop41ColorRGB
 90
        0
102
RTVSPost2010PropOp41
 70
     1
102
RTVSPost2010Prop42
 90
       50
102
RTVSPost2010PropOp42
 70
     1
102
RTVSPost2010Prop43
 90
        3
102
RTVSPost2010PropOp43
 70
     1
102
RTVSPost2010Prop44ColorIndex
 90
        5
102
RTVSPost2010Prop44ColorRGB
 90
      255
102
RTVSPost2010PropOp44
 70
     1
102
RTVSPost2010Prop45
280
     0
102
RTVSPost2010PropOp45
 70
     1
102
RTVSPost2010Prop46
 90
       50
102
RTVSPost2010PropOp46
 70
     1
102
RTVSPost2010Prop47
 90
       50
102
RTVSPost2010PropOp47
 70
     1
102
RTVSPost2010Prop48
 90
       50
102
RTVSPost2010PropOp48
 70
     1
102
RTVSPost2010Prop49
280
     0
102
RTVSPost2010PropOp49
 70
     1
102
RTVSPost2010Prop50
 90
       50
102
RTVSPost2010PropOp50
 70
     1
102
RTVSPost2010Prop51ColorIndex
 90
      256
102
RTVSPost2010Prop51ColorRGB
 90
-16777216
102
RTVSPost2010PropOp51
 70
     0
102
RTVSPost2010Prop52
140
1.0
102
RTVSPost2010PropOp52
 70
     0
102
RTVSPost2010Prop53
 90
        2
102
RTVSPost2010PropOp53
 70
     1
102
RTVSPost2010Prop54
  1
strokes_ogs.tif
102
RTVSPost2010PropOp54
 70
     1
102
RTVSPost2010Prop55
280
     0
102
RTVSPost2010PropOp55
 70
     1
102
RTVSPost2010Prop56
140
1.0
102
RTVSPost2010PropOp56
 70
     1
102
RTVSPost2010Prop57
140
1.0
102
RTVSPost2010PropOp57
 70
     1
102
RTVSPropertyOp0
 70
     1
102
RTVSPropertyOp1
 70
     1
102
RTVSPropertyOp2
 70
     1
102
RTVSPropertyOp3
 70
     1
102
RTVSPropertyOp4
 70
     1
102
RTVSPropertyOp5
 70
     1
102
RTVSPropertyOp6
 70
     1
102
RTVSPropertyOp7
 70
     1
102
RTVSPropertyOp8
 70
     1
102
RTVSPropertyOp9
 70
     1
102
RTVSPropertyOp10
 70
     1
102
RTVSPropertyOp11
 70
     1
102
RTVSPropertyOp12
 70
     1
102
RTVSPropertyOp13
 70
     1
102
RTVSPropertyOp14
 70
     1
102
RTVSPropertyOp15
 70
     1
102
RTVSPropertyOp16
 70
     1
102
RTVSPropertyOp17
 70
     1
102
RTVSPropertyOp18
 70
     1
102
RTVSPropertyOp19
 70
     1
102
RTVSPropertyOp20
 70
     1
102
RTVSPropertyOp21
 70
     1
102
RTVSPropertyOp22
 70
     1
102
RTVSPropertyOp23
 70
     1
102
RTVSPropertyOp24
 70
     1
102
RTVSPropertyOp25
 70
     1
102
RTVSPropertyOp26
 70
     1
102
RTVSPropertyOp27
 70
     1
102
RTVSPropertyOp28
 70
     1
102
RTVSPropertyOp29
 70
     1
102
RTVSPropertyOp30
 70
     1
102
RTVSPropertyOp31
 70
     1
102
RTVSPropertyOp32
 70
     1
102
RTVSPropertyOp33
 70
     1
102
RTVSPropertyOp34
 70
     1
102
RTVSPropertyOp35
 70
     1
102
RTVSPropertyOp36
 70
     1
102
RTVSPropertyOp37
 70
     1
102
RTVSPropertyOp38
 70
     1
102
RTVSPropertyOp39
 70
     1
102
RTVSPropertyOp40
 70
     1
102
RTVSPropertyOp41
 70
     1
102
RTVSPropertyOp42
 70
     1
102
RTVSPropertyOp43
 70
     1
102
RTVSPropertyOp44
 70
     1
102
RTVSPropertyOp45
 70
     1
102
RTVSPropertyOp46
 70
     1
102
RTVSPropertyOp47
 70
     1
102
RTVSPropertyOp48
 70
     1
102
RTVSPropertyOp49
 70
     1
102
RTVSPropertyOp50
 70
     1
102
RTVSPropertyOp51
 70
     0
102
RTVSPropertyOp52
 70
     0
102
RTVSPropertyOp53
 70
     1
102
RTVSPropertyOp54
 70
     1
102
RTVSPropertyOp55
 70
     1
102
RTVSPropertyOp56
 70
     1
102
RTVSPropertyOp57
 70
     1
102
RTVSPropertyOp58
 70
     1
102
RTVSPropertyOp59
 70
     1
102
RTVSPropertyOp60
 70
     1
102
RTVSPropertyOp61
 70
     1
102
RTVSPropertyOp62
 70
     1
  0
XRECORD
  5
FDA70
102
{ACAD_REACTORS
330
FDA6F
102
}
330
FDA6F
100
AcDbXrecord
280
     1
102
RTVSPost2010Prop28
280
     0
102
RTVSPost2010PropOp28
 70
     1
102
RTVSPost2010Prop29
280
     1
102
RTVSPost2010PropOp29
 70
     1
102
RTVSPost2010Prop30
280
     1
102
RTVSPost2010PropOp30
 70
     1
102
RTVSPost2010Prop31
280
     0
102
RTVSPost2010PropOp31
 70
     1
102
RTVSPost2010Prop32
280
     0
102
RTVSPost2010PropOp32
 70
     1
102
RTVSPost2010Prop33
280
     0
102
RTVSPost2010PropOp33
 70
     1
102
RTVSPost2010Prop34
280
     0
102
RTVSPost2010PropOp34
 70
     1
102
RTVSPost2010Prop35
280
     0
102
RTVSPost2010PropOp35
 70
     1
102
RTVSPost2010Prop36
280
     0
102
RTVSPost2010PropOp36
 70
     1
102
RTVSPost2010Prop37
 90
       50
102
RTVSPost2010PropOp37
 70
     1
102
RTVSPost2010Prop38
140
0.0
102
RTVSPost2010PropOp38
 70
     1
102
RTVSPost2010Prop39
140
1.0
102
RTVSPost2010PropOp39
 70
     1
102
RTVSPost2010Prop40
 90
        0
102
RTVSPost2010PropOp40
 70
     1
102
RTVSPost2010Prop41ColorIndex
 90
       18
102
RTVSPost2010Prop41ColorRGB
 90
        0
102
RTVSPost2010PropOp41
 70
     1
102
RTVSPost2010Prop42
 90
       50
102
RTVSPost2010PropOp42
 70
     1
102
RTVSPost2010Prop43
 90
        3
102
RTVSPost2010PropOp43
 70
     1
102
RTVSPost2010Prop44ColorIndex
 90
        5
102
RTVSPost2010Prop44ColorRGB
 90
      255
102
RTVSPost2010PropOp44
 70
     1
102
RTVSPost2010Prop45
280
     0
102
RTVSPost2010PropOp45
 70
     1
102
RTVSPost2010Prop46
 90
       50
102
RTVSPost2010PropOp46
 70
     1
102
RTVSPost2010Prop47
 90
       50
102
RTVSPost2010PropOp47
 70
     1
102
RTVSPost2010Prop48
 90
       50
102
RTVSPost2010PropOp48
 70
     1
102
RTVSPost2010Prop49
280
     0
102
RTVSPost2010PropOp49
 70
     1
102
RTVSPost2010Prop50
 90
       50
102
RTVSPost2010PropOp50
 70
     1
102
RTVSPost2010Prop51ColorIndex
 90
      256
102
RTVSPost2010Prop51ColorRGB
 90
-16777216
102
RTVSPost2010PropOp51
 70
     0
102
RTVSPost2010Prop52
140
1.0
102
RTVSPost2010PropOp52
 70
     0
102
RTVSPost2010Prop53
 90
        2
102
RTVSPost2010PropOp53
 70
     1
102
RTVSPost2010Prop54
  1
strokes_ogs.tif
102
RTVSPost2010PropOp54
 70
     1
102
RTVSPost2010Prop55
280
     0
102
RTVSPost2010PropOp55
 70
     1
102
RTVSPost2010Prop56
140
1.0
102
RTVSPost2010PropOp56
 70
     1
102
RTVSPost2010Prop57
140
1.0
102
RTVSPost2010PropOp57
 70
     1
102
RTVSPropertyOp0
 70
     1
102
RTVSPropertyOp1
 70
     1
102
RTVSPropertyOp2
 70
     1
102
RTVSPropertyOp3
 70
     1
102
RTVSPropertyOp4
 70
     1
102
RTVSPropertyOp5
 70
     1
102
RTVSPropertyOp6
 70
     1
102
RTVSPropertyOp7
 70
     1
102
RTVSPropertyOp8
 70
     1
102
RTVSPropertyOp9
 70
     1
102
RTVSPropertyOp10
 70
     1
102
RTVSPropertyOp11
 70
     1
102
RTVSPropertyOp12
 70
     1
102
RTVSPropertyOp13
 70
     1
102
RTVSPropertyOp14
 70
     1
102
RTVSPropertyOp15
 70
     1
102
RTVSPropertyOp16
 70
     1
102
RTVSPropertyOp17
 70
     1
102
RTVSPropertyOp18
 70
     1
102
RTVSPropertyOp19
 70
     1
102
RTVSPropertyOp20
 70
     1
102
RTVSPropertyOp21
 70
     1
102
RTVSPropertyOp22
 70
     1
102
RTVSPropertyOp23
 70
     1
102
RTVSPropertyOp24
 70
     1
102
RTVSPropertyOp25
 70
     1
102
RTVSPropertyOp26
 70
     1
102
RTVSPropertyOp27
 70
     1
102
RTVSPropertyOp28
 70
     1
102
RTVSPropertyOp29
 70
     1
102
RTVSPropertyOp30
 70
     1
102
RTVSPropertyOp31
 70
     1
102
RTVSPropertyOp32
 70
     1
102
RTVSPropertyOp33
 70
     1
102
RTVSPropertyOp34
 70
     1
102
RTVSPropertyOp35
 70
     1
102
RTVSPropertyOp36
 70
     1
102
RTVSPropertyOp37
 70
     1
102
RTVSPropertyOp38
 70
     1
102
RTVSPropertyOp39
 70
     1
102
RTVSPropertyOp40
 70
     1
102
RTVSPropertyOp41
 70
     1
102
RTVSPropertyOp42
 70
     1
102
RTVSPropertyOp43
 70
     1
102
RTVSPropertyOp44
 70
     1
102
RTVSPropertyOp45
 70
     1
102
RTVSPropertyOp46
 70
     1
102
RTVSPropertyOp47
 70
     1
102
RTVSPropertyOp48
 70
     1
102
RTVSPropertyOp49
 70
     1
102
RTVSPropertyOp50
 70
     1
102
RTVSPropertyOp51
 70
     0
102
RTVSPropertyOp52
 70
     0
102
RTVSPropertyOp53
 70
     1
102
RTVSPropertyOp54
 70
     1
102
RTVSPropertyOp55
 70
     1
102
RTVSPropertyOp56
 70
     1
102
RTVSPropertyOp57
 70
     1
102
RTVSPropertyOp58
 70
     1
102
RTVSPropertyOp59
 70
     1
102
RTVSPropertyOp60
 70
     1
102
RTVSPropertyOp61
 70
     1
102
RTVSPropertyOp62
 70
     1
  0
XRECORD
  5
FDA66
102
{ACAD_REACTORS
330
FDA65
102
}
330
FDA65
100
AcDbXrecord
280
     1
102
RTVSPost2010Prop28
280
     0
102
RTVSPost2010PropOp28
 70
     1
102
RTVSPost2010Prop29
280
     1
102
RTVSPost2010PropOp29
 70
     1
102
RTVSPost2010Prop30
280
     1
102
RTVSPost2010PropOp30
 70
     1
102
RTVSPost2010Prop31
280
     0
102
RTVSPost2010PropOp31
 70
     1
102
RTVSPost2010Prop32
280
     0
102
RTVSPost2010PropOp32
 70
     1
102
RTVSPost2010Prop33
280
     0
102
RTVSPost2010PropOp33
 70
     1
102
RTVSPost2010Prop34
280
     0
102
RTVSPost2010PropOp34
 70
     1
102
RTVSPost2010Prop35
280
     0
102
RTVSPost2010PropOp35
 70
     1
102
RTVSPost2010Prop36
280
     0
102
RTVSPost2010PropOp36
 70
     1
102
RTVSPost2010Prop37
 90
       50
102
RTVSPost2010PropOp37
 70
     1
102
RTVSPost2010Prop38
140
0.0
102
RTVSPost2010PropOp38
 70
     1
102
RTVSPost2010Prop39
140
1.0
102
RTVSPost2010PropOp39
 70
     1
102
RTVSPost2010Prop40
 90
        0
102
RTVSPost2010PropOp40
 70
     1
102
RTVSPost2010Prop41ColorIndex
 90
       18
102
RTVSPost2010Prop41ColorRGB
 90
        0
102
RTVSPost2010PropOp41
 70
     1
102
RTVSPost2010Prop42
 90
       50
102
RTVSPost2010PropOp42
 70
     1
102
RTVSPost2010Prop43
 90
        3
102
RTVSPost2010PropOp43
 70
     1
102
RTVSPost2010Prop44ColorIndex
 90
        5
102
RTVSPost2010Prop44ColorRGB
 90
      255
102
RTVSPost2010PropOp44
 70
     1
102
RTVSPost2010Prop45
280
     0
102
RTVSPost2010PropOp45
 70
     1
102
RTVSPost2010Prop46
 90
       50
102
RTVSPost2010PropOp46
 70
     1
102
RTVSPost2010Prop47
 90
       50
102
RTVSPost2010PropOp47
 70
     1
102
RTVSPost2010Prop48
 90
       50
102
RTVSPost2010PropOp48
 70
     1
102
RTVSPost2010Prop49
280
     0
102
RTVSPost2010PropOp49
 70
     1
102
RTVSPost2010Prop50
 90
       50
102
RTVSPost2010PropOp50
 70
     1
102
RTVSPost2010Prop51ColorIndex
 90
      256
102
RTVSPost2010Prop51ColorRGB
 90
-16777216
102
RTVSPost2010PropOp51
 70
     0
102
RTVSPost2010Prop52
140
1.0
102
RTVSPost2010PropOp52
 70
     0
102
RTVSPost2010Prop53
 90
        2
102
RTVSPost2010PropOp53
 70
     1
102
RTVSPost2010Prop54
  1
strokes_ogs.tif
102
RTVSPost2010PropOp54
 70
     1
102
RTVSPost2010Prop55
280
     0
102
RTVSPost2010PropOp55
 70
     1
102
RTVSPost2010Prop56
140
1.0
102
RTVSPost2010PropOp56
 70
     1
102
RTVSPost2010Prop57
140
1.0
102
RTVSPost2010PropOp57
 70
     1
102
RTVSPropertyOp0
 70
     1
102
RTVSPropertyOp1
 70
     1
102
RTVSPropertyOp2
 70
     1
102
RTVSPropertyOp3
 70
     1
102
RTVSPropertyOp4
 70
     1
102
RTVSPropertyOp5
 70
     1
102
RTVSPropertyOp6
 70
     1
102
RTVSPropertyOp7
 70
     1
102
RTVSPropertyOp8
 70
     1
102
RTVSPropertyOp9
 70
     1
102
RTVSPropertyOp10
 70
     1
102
RTVSPropertyOp11
 70
     1
102
RTVSPropertyOp12
 70
     1
102
RTVSPropertyOp13
 70
     1
102
RTVSPropertyOp14
 70
     1
102
RTVSPropertyOp15
 70
     1
102
RTVSPropertyOp16
 70
     1
102
RTVSPropertyOp17
 70
     1
102
RTVSPropertyOp18
 70
     1
102
RTVSPropertyOp19
 70
     1
102
RTVSPropertyOp20
 70
     1
102
RTVSPropertyOp21
 70
     1
102
RTVSPropertyOp22
 70
     1
102
RTVSPropertyOp23
 70
     1
102
RTVSPropertyOp24
 70
     1
102
RTVSPropertyOp25
 70
     1
102
RTVSPropertyOp26
 70
     1
102
RTVSPropertyOp27
 70
     1
102
RTVSPropertyOp28
 70
     1
102
RTVSPropertyOp29
 70
     1
102
RTVSPropertyOp30
 70
     1
102
RTVSPropertyOp31
 70
     1
102
RTVSPropertyOp32
 70
     1
102
RTVSPropertyOp33
 70
     1
102
RTVSPropertyOp34
 70
     1
102
RTVSPropertyOp35
 70
     1
102
RTVSPropertyOp36
 70
     1
102
RTVSPropertyOp37
 70
     1
102
RTVSPropertyOp38
 70
     1
102
RTVSPropertyOp39
 70
     1
102
RTVSPropertyOp40
 70
     1
102
RTVSPropertyOp41
 70
     1
102
RTVSPropertyOp42
 70
     1
102
RTVSPropertyOp43
 70
     1
102
RTVSPropertyOp44
 70
     1
102
RTVSPropertyOp45
 70
     1
102
RTVSPropertyOp46
 70
     1
102
RTVSPropertyOp47
 70
     1
102
RTVSPropertyOp48
 70
     1
102
RTVSPropertyOp49
 70
     1
102
RTVSPropertyOp50
 70
     1
102
RTVSPropertyOp51
 70
     0
102
RTVSPropertyOp52
 70
     0
102
RTVSPropertyOp53
 70
     1
102
RTVSPropertyOp54
 70
     1
102
RTVSPropertyOp55
 70
     1
102
RTVSPropertyOp56
 70
     1
102
RTVSPropertyOp57
 70
     1
102
RTVSPropertyOp58
 70
     1
102
RTVSPropertyOp59
 70
     1
102
RTVSPropertyOp60
 70
     1
102
RTVSPropertyOp61
 70
     1
102
RTVSPropertyOp62
 70
     1
  0
XRECORD
  5
FDA5A
102
{ACAD_REACTORS
330
FDA59
102
}
330
FDA59
100
AcDbXrecord
280
     1
102
RTVSPost2010Prop28
280
     0
102
RTVSPost2010PropOp28
 70
     1
102
RTVSPost2010Prop29
280
     1
102
RTVSPost2010PropOp29
 70
     1
102
RTVSPost2010Prop30
280
     1
102
RTVSPost2010PropOp30
 70
     1
102
RTVSPost2010Prop31
280
     0
102
RTVSPost2010PropOp31
 70
     1
102
RTVSPost2010Prop32
280
     0
102
RTVSPost2010PropOp32
 70
     1
102
RTVSPost2010Prop33
280
     0
102
RTVSPost2010PropOp33
 70
     1
102
RTVSPost2010Prop34
280
     0
102
RTVSPost2010PropOp34
 70
     1
102
RTVSPost2010Prop35
280
     0
102
RTVSPost2010PropOp35
 70
     1
102
RTVSPost2010Prop36
280
     0
102
RTVSPost2010PropOp36
 70
     1
102
RTVSPost2010Prop37
 90
       50
102
RTVSPost2010PropOp37
 70
     1
102
RTVSPost2010Prop38
140
0.0
102
RTVSPost2010PropOp38
 70
     1
102
RTVSPost2010Prop39
140
1.0
102
RTVSPost2010PropOp39
 70
     1
102
RTVSPost2010Prop40
 90
        0
102
RTVSPost2010PropOp40
 70
     1
102
RTVSPost2010Prop41ColorIndex
 90
       18
102
RTVSPost2010Prop41ColorRGB
 90
        0
102
RTVSPost2010PropOp41
 70
     1
102
RTVSPost2010Prop42
 90
       50
102
RTVSPost2010PropOp42
 70
     1
102
RTVSPost2010Prop43
 90
        3
102
RTVSPost2010PropOp43
 70
     1
102
RTVSPost2010Prop44ColorIndex
 90
        5
102
RTVSPost2010Prop44ColorRGB
 90
      255
102
RTVSPost2010PropOp44
 70
     1
102
RTVSPost2010Prop45
280
     0
102
RTVSPost2010PropOp45
 70
     1
102
RTVSPost2010Prop46
 90
       50
102
RTVSPost2010PropOp46
 70
     1
102
RTVSPost2010Prop47
 90
       50
102
RTVSPost2010PropOp47
 70
     1
102
RTVSPost2010Prop48
 90
       50
102
RTVSPost2010PropOp48
 70
     1
102
RTVSPost2010Prop49
280
     0
102
RTVSPost2010PropOp49
 70
     1
102
RTVSPost2010Prop50
 90
       50
102
RTVSPost2010PropOp50
 70
     1
102
RTVSPost2010Prop51ColorIndex
 90
      256
102
RTVSPost2010Prop51ColorRGB
 90
-16777216
102
RTVSPost2010PropOp51
 70
     0
102
RTVSPost2010Prop52
140
1.0
102
RTVSPost2010PropOp52
 70
     0
102
RTVSPost2010Prop53
 90
        2
102
RTVSPost2010PropOp53
 70
     1
102
RTVSPost2010Prop54
  1
strokes_ogs.tif
102
RTVSPost2010PropOp54
 70
     1
102
RTVSPost2010Prop55
280
     0
102
RTVSPost2010PropOp55
 70
     1
102
RTVSPost2010Prop56
140
1.0
102
RTVSPost2010PropOp56
 70
     1
102
RTVSPost2010Prop57
140
1.0
102
RTVSPost2010PropOp57
 70
     1
102
RTVSPropertyOp0
 70
     1
102
RTVSPropertyOp1
 70
     1
102
RTVSPropertyOp2
 70
     1
102
RTVSPropertyOp3
 70
     1
102
RTVSPropertyOp4
 70
     1
102
RTVSPropertyOp5
 70
     1
102
RTVSPropertyOp6
 70
     1
102
RTVSPropertyOp7
 70
     1
102
RTVSPropertyOp8
 70
     1
102
RTVSPropertyOp9
 70
     1
102
RTVSPropertyOp10
 70
     1
102
RTVSPropertyOp11
 70
     1
102
RTVSPropertyOp12
 70
     1
102
RTVSPropertyOp13
 70
     1
102
RTVSPropertyOp14
 70
     1
102
RTVSPropertyOp15
 70
     1
102
RTVSPropertyOp16
 70
     1
102
RTVSPropertyOp17
 70
     1
102
RTVSPropertyOp18
 70
     1
102
RTVSPropertyOp19
 70
     1
102
RTVSPropertyOp20
 70
     1
102
RTVSPropertyOp21
 70
     1
102
RTVSPropertyOp22
 70
     1
102
RTVSPropertyOp23
 70
     1
102
RTVSPropertyOp24
 70
     1
102
RTVSPropertyOp25
 70
     1
102
RTVSPropertyOp26
 70
     1
102
RTVSPropertyOp27
 70
     1
102
RTVSPropertyOp28
 70
     1
102
RTVSPropertyOp29
 70
     1
102
RTVSPropertyOp30
 70
     1
102
RTVSPropertyOp31
 70
     1
102
RTVSPropertyOp32
 70
     1
102
RTVSPropertyOp33
 70
     1
102
RTVSPropertyOp34
 70
     1
102
RTVSPropertyOp35
 70
     1
102
RTVSPropertyOp36
 70
     1
102
RTVSPropertyOp37
 70
     1
102
RTVSPropertyOp38
 70
     1
102
RTVSPropertyOp39
 70
     1
102
RTVSPropertyOp40
 70
     1
102
RTVSPropertyOp41
 70
     1
102
RTVSPropertyOp42
 70
     1
102
RTVSPropertyOp43
 70
     1
102
RTVSPropertyOp44
 70
     1
102
RTVSPropertyOp45
 70
     1
102
RTVSPropertyOp46
 70
     1
102
RTVSPropertyOp47
 70
     1
102
RTVSPropertyOp48
 70
     1
102
RTVSPropertyOp49
 70
     1
102
RTVSPropertyOp50
 70
     1
102
RTVSPropertyOp51
 70
     0
102
RTVSPropertyOp52
 70
     0
102
RTVSPropertyOp53
 70
     1
102
RTVSPropertyOp54
 70
     1
102
RTVSPropertyOp55
 70
     1
102
RTVSPropertyOp56
 70
     1
102
RTVSPropertyOp57
 70
     1
102
RTVSPropertyOp58
 70
     1
102
RTVSPropertyOp59
 70
     1
102
RTVSPropertyOp60
 70
     1
102
RTVSPropertyOp61
 70
     1
102
RTVSPropertyOp62
 70
     1
  0
XRECORD
  5
FDA72
102
{ACAD_REACTORS
330
FDA71
102
}
330
FDA71
100
AcDbXrecord
280
     1
102
RTVSPost2010Prop28
280
     0
102
RTVSPost2010PropOp28
 70
     1
102
RTVSPost2010Prop29
280
     1
102
RTVSPost2010PropOp29
 70
     1
102
RTVSPost2010Prop30
280
     1
102
RTVSPost2010PropOp30
 70
     1
102
RTVSPost2010Prop31
280
     0
102
RTVSPost2010PropOp31
 70
     1
102
RTVSPost2010Prop32
280
     0
102
RTVSPost2010PropOp32
 70
     1
102
RTVSPost2010Prop33
280
     0
102
RTVSPost2010PropOp33
 70
     1
102
RTVSPost2010Prop34
280
     0
102
RTVSPost2010PropOp34
 70
     1
102
RTVSPost2010Prop35
280
     0
102
RTVSPost2010PropOp35
 70
     1
102
RTVSPost2010Prop36
280
     0
102
RTVSPost2010PropOp36
 70
     1
102
RTVSPost2010Prop37
 90
       50
102
RTVSPost2010PropOp37
 70
     1
102
RTVSPost2010Prop38
140
0.0
102
RTVSPost2010PropOp38
 70
     1
102
RTVSPost2010Prop39
140
1.0
102
RTVSPost2010PropOp39
 70
     1
102
RTVSPost2010Prop40
 90
        0
102
RTVSPost2010PropOp40
 70
     1
102
RTVSPost2010Prop41ColorIndex
 90
       18
102
RTVSPost2010Prop41ColorRGB
 90
        0
102
RTVSPost2010PropOp41
 70
     1
102
RTVSPost2010Prop42
 90
       50
102
RTVSPost2010PropOp42
 70
     1
102
RTVSPost2010Prop43
 90
        3
102
RTVSPost2010PropOp43
 70
     1
102
RTVSPost2010Prop44ColorIndex
 90
        5
102
RTVSPost2010Prop44ColorRGB
 90
      255
102
RTVSPost2010PropOp44
 70
     1
102
RTVSPost2010Prop45
280
     0
102
RTVSPost2010PropOp45
 70
     1
102
RTVSPost2010Prop46
 90
       50
102
RTVSPost2010PropOp46
 70
     1
102
RTVSPost2010Prop47
 90
       50
102
RTVSPost2010PropOp47
 70
     1
102
RTVSPost2010Prop48
 90
       50
102
RTVSPost2010PropOp48
 70
     1
102
RTVSPost2010Prop49
280
     0
102
RTVSPost2010PropOp49
 70
     1
102
RTVSPost2010Prop50
 90
       50
102
RTVSPost2010PropOp50
 70
     1
102
RTVSPost2010Prop51ColorIndex
 90
      256
102
RTVSPost2010Prop51ColorRGB
 90
-16777216
102
RTVSPost2010PropOp51
 70
     0
102
RTVSPost2010Prop52
140
1.0
102
RTVSPost2010PropOp52
 70
     0
102
RTVSPost2010Prop53
 90
        2
102
RTVSPost2010PropOp53
 70
     1
102
RTVSPost2010Prop54
  1
strokes_ogs.tif
102
RTVSPost2010PropOp54
 70
     1
102
RTVSPost2010Prop55
280
     0
102
RTVSPost2010PropOp55
 70
     1
102
RTVSPost2010Prop56
140
1.0
102
RTVSPost2010PropOp56
 70
     1
102
RTVSPost2010Prop57
140
1.0
102
RTVSPost2010PropOp57
 70
     1
102
RTVSPropertyOp0
 70
     1
102
RTVSPropertyOp1
 70
     1
102
RTVSPropertyOp2
 70
     1
102
RTVSPropertyOp3
 70
     1
102
RTVSPropertyOp4
 70
     1
102
RTVSPropertyOp5
 70
     1
102
RTVSPropertyOp6
 70
     1
102
RTVSPropertyOp7
 70
     1
102
RTVSPropertyOp8
 70
     1
102
RTVSPropertyOp9
 70
     1
102
RTVSPropertyOp10
 70
     1
102
RTVSPropertyOp11
 70
     1
102
RTVSPropertyOp12
 70
     1
102
RTVSPropertyOp13
 70
     1
102
RTVSPropertyOp14
 70
     1
102
RTVSPropertyOp15
 70
     1
102
RTVSPropertyOp16
 70
     1
102
RTVSPropertyOp17
 70
     1
102
RTVSPropertyOp18
 70
     1
102
RTVSPropertyOp19
 70
     1
102
RTVSPropertyOp20
 70
     1
102
RTVSPropertyOp21
 70
     1
102
RTVSPropertyOp22
 70
     1
102
RTVSPropertyOp23
 70
     1
102
RTVSPropertyOp24
 70
     1
102
RTVSPropertyOp25
 70
     1
102
RTVSPropertyOp26
 70
     1
102
RTVSPropertyOp27
 70
     1
102
RTVSPropertyOp28
 70
     1
102
RTVSPropertyOp29
 70
     1
102
RTVSPropertyOp30
 70
     1
102
RTVSPropertyOp31
 70
     1
102
RTVSPropertyOp32
 70
     1
102
RTVSPropertyOp33
 70
     1
102
RTVSPropertyOp34
 70
     1
102
RTVSPropertyOp35
 70
     1
102
RTVSPropertyOp36
 70
     1
102
RTVSPropertyOp37
 70
     1
102
RTVSPropertyOp38
 70
     1
102
RTVSPropertyOp39
 70
     1
102
RTVSPropertyOp40
 70
     1
102
RTVSPropertyOp41
 70
     1
102
RTVSPropertyOp42
 70
     1
102
RTVSPropertyOp43
 70
     1
102
RTVSPropertyOp44
 70
     1
102
RTVSPropertyOp45
 70
     1
102
RTVSPropertyOp46
 70
     1
102
RTVSPropertyOp47
 70
     1
102
RTVSPropertyOp48
 70
     1
102
RTVSPropertyOp49
 70
     1
102
RTVSPropertyOp50
 70
     1
102
RTVSPropertyOp51
 70
     0
102
RTVSPropertyOp52
 70
     0
102
RTVSPropertyOp53
 70
     1
102
RTVSPropertyOp54
 70
     1
102
RTVSPropertyOp55
 70
     1
102
RTVSPropertyOp56
 70
     1
102
RTVSPropertyOp57
 70
     1
102
RTVSPropertyOp58
 70
     1
102
RTVSPropertyOp59
 70
     1
102
RTVSPropertyOp60
 70
     1
102
RTVSPropertyOp61
 70
     1
102
RTVSPropertyOp62
 70
     1
  0
ENDSEC
  0
EOF
