  0
SECTION
  2
HEADER
  9
$ACADVER
  1
AC1018
  9
$ACADMAINTVER
 70
   104
  9
$DWGCODEPAGE
  3
ANSI_932
  9
$LASTSAVEDBY
  1
開発
  9
$INSBASE
 10
0.0
 20
0.0
 30
0.0
  9
$EXTMIN
 10
366.8106000869477
 20
259.0021267701934
 30
-0.0000000349181948
  9
$EXTMAX
 10
728.8290274930059
 20
461.1628269304869
 30
0.0000000814935746
  9
$LIMMIN
 10
0.0
 20
0.0
  9
$LIMMAX
 10
420.0
 20
297.0
  9
$ORTHOMODE
 70
     0
  9
$REGENMODE
 70
     1
  9
$FILLMODE
 70
     1
  9
$QTEXTMODE
 70
     0
  9
$MIRRTEXT
 70
     0
  9
$LTSCALE
 40
0.25
  9
$ATTMODE
 70
     1
  9
$TEXTSIZE
 40
2.5
  9
$TRACEWID
 40
1.0
  9
$TEXTSTYLE
  7
2014++
  9
$CLAYER
  8
04_ele1_0.15
  9
$CELTYPE
  6
ByLayer
  9
$CECOLOR
 62
   256
  9
$CELTSCALE
 40
1.0
  9
$DISPSILH
 70
     0
  9
$DIMSCALE
 40
1.0
  9
$DIMASZ
 40
2.5
  9
$DIMEXO
 40
1.0
  9
$DIMDLI
 40
10.0
  9
$DIMRND
 40
0.0
  9
$DIMDLE
 40
0.0
  9
$DIMEXE
 40
1.0
  9
$DIMTP
 40
0.1
  9
$DIMTM
 40
0.1
  9
$DIMTXT
 40
3.5
  9
$DIMCEN
 40
0.0
  9
$DIMTSZ
 40
0.0
  9
$DIMTOL
 70
     0
  9
$DIMLIM
 70
     0
  9
$DIMTIH
 70
     0
  9
$DIMTOH
 70
     0
  9
$DIMSE1
 70
     0
  9
$DIMSE2
 70
     0
  9
$DIMTAD
 70
     1
  9
$DIMZIN
 70
     8
  9
$DIMBLK
  1

  9
$DIMASO
 70
     1
  9
$DIMSHO
 70
     1
  9
$DIMPOST
  1

  9
$DIMAPOST
  1
"
  9
$DIMALT
 70
     0
  9
$DIMALTD
 70
     2
  9
$DIMALTF
 40
0.0393701
  9
$DIMLFAC
 40
1.0
  9
$DIMTOFL
 70
     1
  9
$DIMTVP
 40
0.0
  9
$DIMTIX
 70
     0
  9
$DIMSOXD
 70
     0
  9
$DIMSAH
 70
     0
  9
$DIMBLK1
  1

  9
$DIMBLK2
  1

  9
$DIMSTYLE
  2
AM_ISO
  9
$DIMCLRD
 70
   256
  9
$DIMCLRE
 70
   256
  9
$DIMCLRT
 70
     2
  9
$DIMTFAC
 40
0.71
  9
$DIMGAP
 40
1.5
  9
$DIMJUST
 70
     0
  9
$DIMSD1
 70
     0
  9
$DIMSD2
 70
     0
  9
$DIMTOLJ
 70
     0
  9
$DIMTZIN
 70
     8
  9
$DIMALTZ
 70
     0
  9
$DIMALTTZ
 70
     0
  9
$DIMUPT
 70
     0
  9
$DIMDEC
 70
     2
  9
$DIMTDEC
 70
     3
  9
$DIMALTU
 70
     2
  9
$DIMALTTD
 70
     4
  9
$DIMTXSTY
  7
STANDARD
  9
$DIMAUNIT
 70
     0
  9
$DIMADEC
 70
     0
  9
$DIMALTRND
 40
0.0
  9
$DIMAZIN
 70
     2
  9
$DIMDSEP
 70
    46
  9
$DIMATFIT
 70
     3
  9
$DIMFRAC
 70
     0
  9
$DIMLDRBLK
  1

  9
$DIMLUNIT
 70
     2
  9
$DIMLWD
 70
    -1
  9
$DIMLWE
 70
    -1
  9
$DIMTMOVE
 70
     0
  9
$LUNITS
 70
     2
  9
$LUPREC
 70
     2
  9
$SKETCHINC
 40
1.0
  9
$FILLETRAD
 40
2.5
  9
$AUNITS
 70
     0
  9
$AUPREC
 70
     0
  9
$MENU
  1
.
  9
$ELEVATION
 40
0.0
  9
$PELEVATION
 40
0.0
  9
$THICKNESS
 40
0.0
  9
$LIMCHECK
 70
     0
  9
$CHAMFERA
 40
2.5
  9
$CHAMFERB
 40
2.5
  9
$CHAMFERC
 40
20.0
  9
$CHAMFERD
 40
0.0
  9
$SKPOLY
 70
     0
  9
$TDCREATE
 40
2457318.388718287
  9
$TDUCREATE
 40
2457318.013718287
  9
$TDUPDATE
 40
2458423.375526840
  9
$TDUUPDATE
 40
2458423.000526841
  9
$TDINDWG
 40
0.0450475810
  9
$TDUSRTIMER
 40
0.0450474190
  9
$USRTIMER
 70
     1
  9
$ANGBASE
 50
0.0
  9
$ANGDIR
 70
     0
  9
$PDMODE
 70
     0
  9
$PDSIZE
 40
0.0
  9
$PLINEWID
 40
0.0
  9
$SPLFRAME
 70
     0
  9
$SPLINETYPE
 70
     6
  9
$SPLINESEGS
 70
     8
  9
$HANDSEED
  5
10124C
  9
$SURFTAB1
 70
     6
  9
$SURFTAB2
 70
     6
  9
$SURFTYPE
 70
     6
  9
$SURFU
 70
     6
  9
$SURFV
 70
     6
  9
$UCSBASE
  2

  9
$UCSNAME
  2

  9
$UCSORG
 10
0.0
 20
0.0
 30
0.0
  9
$UCSXDIR
 10
1.0
 20
0.0
 30
0.0
  9
$UCSYDIR
 10
0.0
 20
1.0
 30
0.0
  9
$UCSORTHOREF
  2

  9
$UCSORTHOVIEW
 70
     0
  9
$UCSORGTOP
 10
0.0
 20
0.0
 30
0.0
  9
$UCSORGBOTTOM
 10
0.0
 20
0.0
 30
0.0
  9
$UCSORGLEFT
 10
0.0
 20
0.0
 30
0.0
  9
$UCSORGRIGHT
 10
0.0
 20
0.0
 30
0.0
  9
$UCSORGFRONT
 10
0.0
 20
0.0
 30
0.0
  9
$UCSORGBACK
 10
0.0
 20
0.0
 30
0.0
  9
$PUCSBASE
  2

  9
$PUCSNAME
  2

  9
$PUCSORG
 10
0.0
 20
0.0
 30
0.0
  9
$PUCSXDIR
 10
1.0
 20
0.0
 30
0.0
  9
$PUCSYDIR
 10
0.0
 20
1.0
 30
0.0
  9
$PUCSORTHOREF
  2

  9
$PUCSORTHOVIEW
 70
     0
  9
$PUCSORGTOP
 10
0.0
 20
0.0
 30
0.0
  9
$PUCSORGBOTTOM
 10
0.0
 20
0.0
 30
0.0
  9
$PUCSORGLEFT
 10
0.0
 20
0.0
 30
0.0
  9
$PUCSORGRIGHT
 10
0.0
 20
0.0
 30
0.0
  9
$PUCSORGFRONT
 10
0.0
 20
0.0
 30
0.0
  9
$PUCSORGBACK
 10
0.0
 20
0.0
 30
0.0
  9
$USERI1
 70
     0
  9
$USERI2
 70
     0
  9
$USERI3
 70
     0
  9
$USERI4
 70
     0
  9
$USERI5
 70
     0
  9
$USERR1
 40
0.0
  9
$USERR2
 40
0.0
  9
$USERR3
 40
0.0
  9
$USERR4
 40
0.0
  9
$USERR5
 40
0.0
  9
$WORLDVIEW
 70
     1
  9
$SHADEDGE
 70
     3
  9
$SHADEDIF
 70
    70
  9
$TILEMODE
 70
     1
  9
$MAXACTVP
 70
    64
  9
$PINSBASE
 10
0.0
 20
0.0
 30
0.0
  9
$PLIMCHECK
 70
     0
  9
$PEXTMIN
 10
1.000000000000000E+20
 20
1.000000000000000E+20
 30
1.000000000000000E+20
  9
$PEXTMAX
 10
-1.000000000000000E+20
 20
-1.000000000000000E+20
 30
-1.000000000000000E+20
  9
$PLIMMIN
 10
-5.873748779296875
 20
-5.873749732971191
  9
$PLIMMAX
 10
291.05224609375
 20
204.0995779037475
  9
$UNITMODE
 70
     0
  9
$VISRETAIN
 70
     1
  9
$PLINEGEN
 70
     0
  9
$PSLTSCALE
 70
     1
  9
$TREEDEPTH
 70
  3020
  9
$CMLSTYLE
  2
Standard
  9
$CMLJUST
 70
     0
  9
$CMLSCALE
 40
20.0
  9
$PROXYGRAPHICS
 70
     1
  9
$MEASUREMENT
 70
     1
  9
$CELWEIGHT
370
    -1
  9
$ENDCAPS
280
     0
  9
$JOINSTYLE
280
     0
  9
$LWDISPLAY
290
     0
  9
$INSUNITS
 70
     4
  9
$HYPERLINKBASE
  1

  9
$STYLESHEET
  1
MONOCHROME.CTB
  9
$XEDIT
290
     1
  9
$CEPSNTYPE
380
     0
  9
$PSTYLEMODE
290
     1
  9
$FINGERPRINTGUID
  2
{2FD1ECC3-C719-4041-88BE-38BA84D18783}
  9
$VERSIONGUID
  2
{6A4E7376-E9AE-40FE-AC1C-29E3D331AF2F}
  9
$EXTNAMES
290
     1
  9
$PSVPSCALE
 40
0.0
  9
$OLESTARTUP
290
     0
  9
$SORTENTS
280
    96
  9
$INDEXCTL
280
     0
  9
$HIDETEXT
280
     0
  9
$XCLIPFRAME
290
     0
  9
$HALOGAP
280
     0
  9
$OBSCOLOR
 70
   257
  9
$OBSLTYPE
280
     0
  9
$INTERSECTIONDISPLAY
280
     0
  9
$INTERSECTIONCOLOR
 70
   257
  9
$DIMASSOC
280
     1
  9
$PROJECTNAME
  1

  0
ENDSEC
  0
SECTION
  2
CLASSES
  0
CLASS
  1
ACDBDICTIONARYWDFLT
  2
AcDbDictionaryWithDefault
  3
ObjectDBX Classes
 90
        0
 91
        1
280
     0
281
     0
  0
CLASS
  1
DICTIONARYVAR
  2
AcDbDictionaryVar
  3
ObjectDBX Classes
 90
        0
 91
       13
280
     0
281
     0
  0
CLASS
  1
ACME_DOCUMENT
  2
AcMeDbDoc
  3
AcMeServices
 90
     1024
 91
        2
280
     0
281
     0
  0
CLASS
  1
ACMESCOPE
  2
AcMeScope
  3
AcMeServices
 90
     1024
 91
        1
280
     0
281
     0
  0
CLASS
  1
ACMECOMMANDHISTORY
  2
AcMeCommandHistory
  3
AcMeServices
 90
     1024
 91
        1
280
     0
281
     0
  0
CLASS
  1
ACIMSYSVARMAN
  2
AcImSysVarManager
  3
AcMeServices
 90
     1024
 91
        4
280
     0
281
     0
  0
CLASS
  1
ACIMINTSYSVAR
  2
AcImIntSysVar
  3
AcMeServices
 90
     1024
 91
       28
280
     0
281
     0
  0
CLASS
  1
ACMEDRAWINGMAN
  2
AcMeDrawingMan
  3
AcMeServices
 90
     1024
 91
        0
280
     0
281
     0
  0
CLASS
  1
ACMEVIEW
  2
AcMeView
  3
AcMeServices
 90
     1024
 91
        0
280
     0
281
     0
  0
CLASS
  1
ACDBENTITYCACHE
  2
AcMeEntityCache
  3
AcMeServices
 90
     1024
 91
        1
280
     0
281
     0
  0
CLASS
  1
GSMANAGER
  2
AcMeGSManager
  3
AcMeServices
 90
        0
 91
        0
280
     0
281
     0
  0
CLASS
  1
AMDTINTERNALREACTOR
  2
AmdtInternalReactor
  3
AcMeServices
 90
     1024
 91
        0
280
     0
281
     0
  0
CLASS
  1
ACMESTATEMGR
  2
AcMeStateMgr
  3
AcMeServices
 90
     1024
 91
        1
280
     0
281
     0
  0
CLASS
  1
ACGREFMASTER
  2
AcGrefMaster
  3
AcAttribServices
 90
     1024
 91
        1
280
     0
281
     0
  0
CLASS
  1
AM_DRAWING_MGR
  2
AcDmDwgMgr
  3
AcMechDwgViewMgmt
 90
     1024
 91
        0
280
     0
281
     0
  0
CLASS
  1
AM_DWG_DOCUMENT
  2
AcDmDwgDocument
  3
AcMechDwgViewMgmt
 90
     1024
 91
        0
280
     0
281
     0
  0
CLASS
  1
AM_DWG_SHEET
  2
AcDmSheet
  3
AcMechDwgViewMgmt
 90
     1024
 91
        0
280
     0
281
     0
  0
CLASS
  1
AM_VIEWDIMPARMAP
  2
AcDmViewDimParMap
  3
AcMechDwgViewMgmt
 90
     1024
 91
        0
280
     0
281
     0
  0
CLASS
  1
ACIMREALSYSVAR
  2
AcImRealSysVar
  3
AcMeServices
 90
     1024
 91
        1
280
     0
281
     0
  0
CLASS
  1
AM_DWGMGR_NAME
  2
AcDmDwgMgrName
  3
AcMechDwgViewMgmt
 90
     1024
 91
        0
280
     0
281
     0
  0
CLASS
  1
ACME_DATABASE
  2
AcMeDbDatabase
  3
AcMeServices
 90
     1024
 91
        1
280
     0
281
     0
  0
CLASS
  1
ACRFINSADJUSTERMGR
  2
AcRfInsAdjusterMgr
  3
AcMeServices
 90
     1024
 91
        1
280
     0
281
     0
  0
CLASS
  1
ACGREFACADMASTER
  2
AcGrefacadMaster
  3
AcGrefServices
 90
     1024
 91
        1
280
     0
281
     0
  0
CLASS
  1
AMDTMENUSTATEMGR
  2
AmdtMenuStateMgr
  3
McadcomServices
 90
     1024
 91
        1
280
     0
281
     0
  0
CLASS
  1
AMDTMCOMMENUSTATE
  2
AmdtMcomMenuState
  3
McadcomServices
 90
     1024
 91
        1
280
     0
281
     0
  0
CLASS
  1
AMIMASTER
  2
AmiMaster
  3
AmiServices
 90
     1024
 91
        1
280
     0
281
     0
  0
CLASS
  1
AMGSETTINGSOBJ
  2
AmgSettingsObj
  3
"AcadM|Product Description: AutoCAD Mechanical|Company: Autodesk, Inc."
 90
     1024
 91
        3
280
     0
281
     0
  0
CLASS
  1
MAPIAMMOUDLE
  2
MApiAmModule
  3
MApiAmServices
 90
     1024
 91
        1
280
     0
281
     0
  0
CLASS
  1
AMDTADMENUSTATE
  2
AmdtAdMenuState
  3
DesignerServices
 90
        0
 91
        0
280
     0
281
     0
  0
CLASS
  1
ADAPPL
  2
AcAdAppl
  3
DesignerAssemblies
 90
     1024
 91
        0
280
     0
281
     0
  0
CLASS
  1
DEPMGR
  2
AcAdDepMgr
  3
DesignerAssemblies
 90
     1024
 91
        0
280
     0
281
     0
  0
CLASS
  1
PARAMMGR
  2
AcAdParamMgr
  3
DesignerAssemblies
 90
     1024
 91
        0
280
     0
281
     0
  0
CLASS
  1
PARAMSCOPE
  2
AcAdParamScope
  3
DesignerAssemblies
 90
     1024
 91
        0
280
     0
281
     0
  0
CLASS
  1
NAMEDAPPL
  2
AcAdNamedAppl
  3
DesignerAssemblies
 90
     1024
 91
        0
280
     0
281
     0
  0
CLASS
  1
AMDTDMMENUSTATE
  2
AmdtDmMenuState
  3
AcMechDwgViewMgmt
 90
        0
 91
        0
280
     0
281
     0
  0
CLASS
  1
AMDTAMMENUSTATE
  2
AmdtAmMenuState
  3
DesignerAssemblies
 90
     1024
 91
        1
280
     0
281
     0
  0
CLASS
  1
ACIMSTRSYSVAR
  2
AcImStrSysVar
  3
AcMeServices
 90
     1024
 91
        5
280
     0
281
     0
  0
CLASS
  1
ACAMPROJECT
  2
AcAmProject
  3
DesignerAssemblies
 90
     1024
 91
        1
280
     0
281
     0
  0
CLASS
  1
ACAMGRCOMPDEF
  2
AcAmGrCompDef
  3
DesignerAssemblies
 90
     1024
 91
        1
280
     0
281
     0
  0
CLASS
  1
ACCMCONTEXT
  2
AcCmContext
  3
DesignerAssemblies
 90
     1024
 91
        1
280
     0
281
     0
  0
CLASS
  1
ACAMCOMPDEF
  2
AcAmCompDef
  3
DesignerAssemblies
 90
     1024
 91
        1
280
     0
281
     0
  0
CLASS
  1
ACAMCOMPDEFMGR
  2
AcAmCompDefMgr
  3
DesignerAssemblies
 90
     1024
 91
        1
280
     0
281
     0
  0
CLASS
  1
AMCONTEXTMGR
  2
AcAmContextMgr
  3
DesignerAssemblies
 90
     1024
 91
        1
280
     0
281
     0
  0
CLASS
  1
ACAMCONTEXTMODELER
  2
AcAmContextModeler
  3
DesignerAssemblies
 90
     1024
 91
        1
280
     0
281
     0
  0
CLASS
  1
ACMDATADICTIONARY
  2
AcmDataDictionary
  3
"AcmSymBB|Product Description: AutoCAD Mechanical|Company: Autodesk, Inc."
 90
     1024
 91
        1
280
     0
281
     0
  0
CLASS
  1
CATALOGSTATE
  2
AcAmCatalogState
  3
DesignerAssemblies
 90
     1024
 91
        0
280
     0
281
     0
  0
CLASS
  1
ACAMGRCOMPDEFSET
  2
AcAmGrCompDefSet
  3
DesignerAssemblies
 90
     1024
 91
        1
280
     0
281
     0
  0
CLASS
  1
AMDTBROWSERDBTAB
  2
AmdtBrowserDbTab
  3
McadcomServices
 90
     1024
 91
        1
280
     0
281
     0
  0
CLASS
  1
CBROWSERAPPOBJECT
  2
CBrowserAppObject
  3
McadcomServices
 90
     1024
 91
        2
280
     0
281
     0
  0
CLASS
  1
DM_PLACEHOLDER
  2
AcDmSelsetPlaceholder
  3
McadcomServices
 90
     1024
 91
        1
280
     0
281
     0
  0
CLASS
  1
ACMSTANDARDISO
  2
AcmStandardISO
  3
"Amdt_StdImp|Product Description: AutoCAD Mechanical|Company: Autodesk, Inc."
 90
     1024
 91
        1
280
     0
281
     0
  0
CLASS
  1
AMGOBJPROPCFG
  2
AmgObjPropCfg
  3
"AmgLay|Product Description: AutoCAD Mechanical|Company: Autodesk, Inc."
 90
     1024
 91
        1
280
     0
281
     0
  0
CLASS
  1
AMDTEDGESTANDARDISO
  2
AmdtEdgeStdISO
  3
"Amdt_StdImp|Product Description: AutoCAD Mechanical|Company: Autodesk, Inc."
 90
     1024
 91
        1
280
     0
281
     0
  0
CLASS
  1
ACMSURFSTANDARDISO
  2
AcmSurfTextStdISO
  3
"Amdt_StdImp|Product Description: AutoCAD Mechanical|Company: Autodesk, Inc."
 90
     1024
 91
        1
280
     0
281
     0
  0
CLASS
  1
ACMFCFSTANDARDISO
  2
AcmFCFStdISO
  3
"Amdt_StdImp|Product Description: AutoCAD Mechanical|Company: Autodesk, Inc."
 90
     1024
 91
        1
280
     0
281
     0
  0
CLASS
  1
ACMWELDSTANDARDISO
  2
AcmWeldingStdISO
  3
"Amdt_StdImp|Product Description: AutoCAD Mechanical|Company: Autodesk, Inc."
 90
     1024
 91
        1
280
     0
281
     0
  0
CLASS
  1
ACMIDSTANDARDISO
  2
AcmIdStdISO
  3
"Amdt_StdImp|Product Description: AutoCAD Mechanical|Company: Autodesk, Inc."
 90
     1024
 91
        1
280
     0
281
     0
  0
CLASS
  1
ACMDATUMSTANDARDISO
  2
AcmDatumStdISO
  3
"Amdt_StdImp|Product Description: AutoCAD Mechanical|Company: Autodesk, Inc."
 90
     1024
 91
        1
280
     0
281
     0
  0
CLASS
  1
ACMBOMSTANDARDISO
  2
AcmBOMStdISO
  3
"Amdt_StdImp|Product Description: AutoCAD Mechanical|Company: Autodesk, Inc."
 90
     1024
 91
        1
280
     0
281
     0
  0
CLASS
  1
ACMDETAILSTANDARDISO
  2
AmdtDetailSymStdISO
  3
"Amdt_StdImp|Product Description: AutoCAD Mechanical|Company: Autodesk, Inc."
 90
     1024
 91
        1
280
     0
281
     0
  0
CLASS
  1
ACMSECTIONSTANDARDISO
  2
AmdtSectionSymStdISO
  3
"Amdt_StdImp|Product Description: AutoCAD Mechanical|Company: Autodesk, Inc."
 90
     1024
 91
        1
280
     0
281
     0
  0
CLASS
  1
ACMCENTERLINESTANDARDISO
  2
AmdtCenterLineStdISO
  3
"Amdt_StdImp|Product Description: AutoCAD Mechanical|Company: Autodesk, Inc."
 90
     1024
 91
        1
280
     0
281
     0
  0
CLASS
  1
ACMTHREADLINESTANDARDISO
  2
AmdtThreadLineStdISO
  3
"Amdt_StdImp|Product Description: AutoCAD Mechanical|Company: Autodesk, Inc."
 90
     1024
 91
        1
280
     0
281
     0
  0
CLASS
  1
ACMNOTESTANDARDISO
  2
AmdtNoteStdISO
  3
"Amdt_StdImp|Product Description: AutoCAD Mechanical|Company: Autodesk, Inc."
 90
     1024
 91
        1
280
     0
281
     0
  0
CLASS
  1
AMDTNOTETEMPLATEDB
  2
AmdtNoteTemplateDB
  3
AcmSymBB|Product Description: AutoCAD Mechanical|Company: Autodesk, Inc.
 90
     1024
 91
        8
280
     0
281
     0
  0
CLASS
  1
ACAMGLAYSTD
  2
AcAmgLayStd
  3
"AmgLay|Product Description: AutoCAD Mechanical|Company: Autodesk, Inc."
 90
     1024
 91
        2
280
     0
281
     0
  0
CLASS
  1
ACAMGDIMSTD
  2
AcAmgDimStd
  3
"AmgDim|Product Description: AutoCAD Mechanical|Company: Autodesk, Inc."
 90
     1024
 91
        2
280
     0
281
     0
  0
CLASS
  1
ACAMGHOLECHARTSTDISO
  2
AcAmgHoleChartStdISO
  3
AmgDim|Product Description: AutoCAD Mechanical|Company: Autodesk, Inc.
 90
     1024
 91
        1
280
     0
281
     0
  0
CLASS
  1
ACAMGTITLESTD
  2
AcAmgTitleStd
  3
"AmgTitle|Product Description: AutoCAD Mechanical|Company: Autodesk, Inc."
 90
     1024
 91
        2
280
     0
281
     0
  0
CLASS
  1
LAYER_INDEX
  2
AcDbLayerIndex
  3
ObjectDBX Classes
 90
        0
 91
        0
280
     0
281
     0
  0
CLASS
  1
IDBUFFER
  2
AcDbIdBuffer
  3
ObjectDBX Classes
 90
        0
 91
        0
280
     0
281
     0
  0
CLASS
  1
ACMSTANDARDANSI
  2
AcmStandardANSI
  3
"Amdt_StdImp|Product Description: AutoCAD Mechanical|Company: Autodesk, Inc."
 90
     1024
 91
        1
280
     0
281
     0
  0
CLASS
  1
ACMSURFSTANDARDANSI
  2
AcmSurfTextStdANSI
  3
"Amdt_StdImp|Product Description: AutoCAD Mechanical|Company: Autodesk, Inc."
 90
     1024
 91
        1
280
     0
281
     0
  0
CLASS
  1
ACMFCFSTANDARDANSI
  2
AcmFCFStdANSI
  3
"Amdt_StdImp|Product Description: AutoCAD Mechanical|Company: Autodesk, Inc."
 90
     1024
 91
        1
280
     0
281
     0
  0
CLASS
  1
ACMWELDSTANDARDANSI
  2
AcmWeldingStdANSI
  3
"Amdt_StdImp|Product Description: AutoCAD Mechanical|Company: Autodesk, Inc."
 90
     1024
 91
        1
280
     0
281
     0
  0
CLASS
  1
ACMIDSTANDARDANSI
  2
AcmIdStdANSI
  3
"Amdt_StdImp|Product Description: AutoCAD Mechanical|Company: Autodesk, Inc."
 90
     1024
 91
        1
280
     0
281
     0
  0
CLASS
  1
ACMDATUMSTANDARDANSI
  2
AcmDatumStdANSI
  3
"Amdt_StdImp|Product Description: AutoCAD Mechanical|Company: Autodesk, Inc."
 90
     1024
 91
        1
280
     0
281
     0
  0
CLASS
  1
ACMBOMSTANDARDANSI
  2
AcmBOMStdANSI
  3
"Amdt_StdImp|Product Description: AutoCAD Mechanical|Company: Autodesk, Inc."
 90
     1024
 91
        1
280
     0
281
     0
  0
CLASS
  1
ACMDETAILSTANDARDANSI
  2
AmdtDetailSymStdANSI
  3
"Amdt_StdImp|Product Description: AutoCAD Mechanical|Company: Autodesk, Inc."
 90
     1024
 91
        1
280
     0
281
     0
  0
CLASS
  1
ACMSECTIONSTANDARDANSI
  2
AmdtSectionSymStdANSI
  3
"Amdt_StdImp|Product Description: AutoCAD Mechanical|Company: Autodesk, Inc."
 90
     1024
 91
        1
280
     0
281
     0
  0
CLASS
  1
ACMCENTERLINESTANDARDANSI
  2
AmdtCenterLineStdANSI
  3
"Amdt_StdImp|Product Description: AutoCAD Mechanical|Company: Autodesk, Inc."
 90
     1024
 91
        1
280
     0
281
     0
  0
CLASS
  1
ACMTHREADLINESTANDARDANSI
  2
AmdtThreadLineStdANSI
  3
"Amdt_StdImp|Product Description: AutoCAD Mechanical|Company: Autodesk, Inc."
 90
     1024
 91
        1
280
     0
281
     0
  0
CLASS
  1
ACMNOTESTANDARDANSI
  2
AmdtNoteStdANSI
  3
"Amdt_StdImp|Product Description: AutoCAD Mechanical|Company: Autodesk, Inc."
 90
     1024
 91
        1
280
     0
281
     0
  0
CLASS
  1
ACAMGHOLECHARTSTDANSI
  2
AcAmgHoleChartStdANSI
  3
AmgDim|Product Description: AutoCAD Mechanical|Company: Autodesk, Inc.
 90
     1024
 91
        1
280
     0
281
     0
  0
CLASS
  1
ACAMGFILTERDAT
  2
AcAmgFilterDat
  3
"AcadM|Product Description: AutoCAD Mechanical|Company: Autodesk, Inc."
 90
     1024
 91
        0
280
     0
281
     0
  0
CLASS
  1
ACRFATTGENMGR
  2
AcRfAttGeneralMgr
  3
AcAttribServices
 90
     1024
 91
        0
280
     0
281
     0
  0
CLASS
  1
MATERIAL
  2
AcDbMaterial
  3
ObjectDBX Classes
 90
     1153
 91
        3
280
     0
281
     0
  0
CLASS
  1
VISUALSTYLE
  2
AcDbVisualStyle
  3
ObjectDBX Classes
 90
     4095
 91
       24
280
     0
281
     0
  0
CLASS
  1
TABLESTYLE
  2
AcDbTableStyle
  3
ObjectDBX Classes
 90
     4095
 91
        1
280
     0
281
     0
  0
CLASS
  1
SCALE
  2
AcDbScale
  3
ObjectDBX Classes
 90
     1153
 91
       17
280
     0
281
     0
  0
CLASS
  1
MLEADERSTYLE
  2
AcDbMLeaderStyle
  3
ACDB_MLEADERSTYLE_CLASS
 90
     4095
 91
        1
280
     0
281
     0
  0
CLASS
  1
ACDBSECTIONVIEWSTYLE
  2
AcDbSectionViewStyle
  3
ObjectDBX Classes
 90
     1025
 91
        6
280
     0
281
     0
  0
CLASS
  1
ACDBDETAILVIEWSTYLE
  2
AcDbDetailViewStyle
  3
ObjectDBX Classes
 90
     1025
 91
        6
280
     0
281
     0
  0
CLASS
  1
ACMTAPERSTANDARDISO
  2
AcmTaperStdISO
  3
"Amdt_StdImp|Product Description: AutoCAD Mechanical|Company: Autodesk, Inc."
 90
     1024
 91
        1
280
     0
281
     0
  0
CLASS
  1
ACMANOOTATIONVIEWSTANDARDISO
  2
AmdtAnViewStdISO
  3
"Amdt_StdImp|Product Description: AutoCAD Mechanical|Company: Autodesk, Inc."
 90
     1024
 91
        1
280
     0
281
     0
  0
CLASS
  1
ACMSECTIONSTANDARDCUSTOM
  2
AmdtSectionSymStdCustom
  3
"Amdt_StdImp|Product Description: AutoCAD Mechanical|Company: Autodesk, Inc."
 90
     1024
 91
        8
280
     0
281
     0
  0
CLASS
  1
ACMDETAILTANDARDCUSTOM
  2
AmdtDetailSymStdCustom
  3
"Amdt_StdImp|Product Description: AutoCAD Mechanical|Company: Autodesk, Inc."
 90
     1024
 91
        8
280
     0
281
     0
  0
CLASS
  1
FIELD
  2
AcDbField
  3
ObjectDBX Classes
 90
     1152
 91
       18
280
     0
281
     0
  0
CLASS
  1
FIELDLIST
  2
AcDbFieldList
  3
ObjectDBX Classes
 90
     1152
 91
        1
280
     0
281
     0
  0
CLASS
  1
CELLSTYLEMAP
  2
AcDbCellStyleMap
  3
ObjectDBX Classes
 90
     1152
 91
        2
280
     0
281
     0
  0
CLASS
  1
ACMTAPERSTANDARDANSI
  2
AcmTaperStdANSI
  3
"Amdt_StdImp|Product Description: AutoCAD Mechanical|Company: Autodesk, Inc."
 90
     1024
 91
        1
280
     0
281
     0
  0
CLASS
  1
ACMANOOTATIONVIEWSTANDARDANSI
  2
AmdtAnViewStdANSI
  3
"Amdt_StdImp|Product Description: AutoCAD Mechanical|Company: Autodesk, Inc."
 90
     1024
 91
        1
280
     0
281
     0
  0
CLASS
  1
SORTENTSTABLE
  2
AcDbSortentsTable
  3
ObjectDBX Classes
 90
        0
 91
        0
280
     0
281
     0
  0
CLASS
  1
CAMSSTRUCTBTNSTATE
  2
StructBtnState
  3
DesignerAssemblies
 90
     1024
 91
        1
280
     0
281
     0
  0
ENDSEC
  0
SECTION
  2
TABLES
  0
TABLE
  2
VPORT
  5
8
102
{ACAD_XDICTIONARY
360
FA821
102
}
330
0
100
AcDbSymbolTable
 70
     1
  0
VPORT
  5
F98FB
330
8
100
AcDbSymbolTableRecord
100
AcDbViewportTableRecord
  2
*Active
 70
     0
 10
0.0
 20
0.0
 11
1.0
 21
1.0
 12
547.8198137899767
 22
360.0824768503402
 13
0.0
 23
0.0
 14
2.5
 24
2.5
 15
10.0
 25
10.0
 16
0.0
 26
0.0
 36
1.0
 17
0.0
 27
0.0
 37
0.0
 40
203.9340396353839
 41
2.654465592972181
 42
50.0
 43
0.0
 44
0.0
 50
0.0
 51
0.0
 71
     0
 72
   100
 73
     1
 74
     3
 75
     0
 76
     0
 77
     0
 78
     0
281
     0
 65
     0
110
0.0
120
0.0
130
0.0
111
1.0
121
0.0
131
0.0
112
0.0
122
1.0
132
0.0
 79
     0
146
0.0
1001
ACAD_NAV_VCDISPLAY
1070
     3
  0
ENDTAB
  0
TABLE
  2
LTYPE
  5
5
330
0
100
AcDbSymbolTable
 70
    26
  0
LTYPE
  5
14
330
5
100
AcDbSymbolTableRecord
100
AcDbLinetypeTableRecord
  2
ByBlock
 70
     0
  3

 72
    65
 73
     0
 40
0.0
  0
LTYPE
  5
15
330
5
100
AcDbSymbolTableRecord
100
AcDbLinetypeTableRecord
  2
ByLayer
 70
     0
  3

 72
    65
 73
     0
 40
0.0
  0
LTYPE
  5
16
330
5
100
AcDbSymbolTableRecord
100
AcDbLinetypeTableRecord
  2
Continuous
 70
     0
  3
Solid line
 72
    65
 73
     0
 40
0.0
  0
LTYPE
  5
2D
330
5
100
AcDbSymbolTableRecord
100
AcDbLinetypeTableRecord
  2
CENTER
 70
     0
  3
Center ____ _ ____ _ ____ _ ____ _ ____ _ ____
 72
    65
 73
     4
 40
50.8
 49
31.75
 74
     0
 49
-6.349999999999997
 74
     0
 49
6.349999999999997
 74
     0
 49
-6.349999999999997
 74
     0
  0
LTYPE
  5
3AE3
330
5
100
AcDbSymbolTableRecord
100
AcDbLinetypeTableRecord
  2
HIDDEN
 70
     0
  3
Hidden __ __ __ __ __ __ __ __ __ __ __ __ __ _
 72
    65
 73
     2
 40
9.524999999999996
 49
6.349999999999997
 74
     0
 49
-3.174999999999998
 74
     0
  0
LTYPE
  5
58DA
330
5
100
AcDbSymbolTableRecord
100
AcDbLinetypeTableRecord
  2
HIDDEN2
 70
     0
  3
Hidden (.5x) _ _ _ _ _ _ _ _ _ _ _ _ _ _ _ _ _
 72
    65
 73
     2
 40
4.762499999999998
 49
3.174999999999998
 74
     0
 49
-1.587499999999999
 74
     0
  0
LTYPE
  5
16CF6
330
5
100
AcDbSymbolTableRecord
100
AcDbLinetypeTableRecord
  2
PHANTOM2
 70
     0
  3
Phantom (.5x) ___ _ _ ___ _ _ ___ _ _ ___ _ _
 72
    65
 73
     6
 40
31.75
 49
15.875
 74
     0
 49
-3.174999999999998
 74
     0
 49
3.174999999999998
 74
     0
 49
-3.174999999999998
 74
     0
 49
3.174999999999998
 74
     0
 49
-3.174999999999998
 74
     0
  0
LTYPE
  5
16D41
330
5
100
AcDbSymbolTableRecord
100
AcDbLinetypeTableRecord
  2
AM_ISO02W050
 70
     0
  3
__ __ __ __ __ __ __ __ __ __ __ __ __ __ __
 72
    65
 73
     2
 40
7.5
 49
6.0
 74
     0
 49
-1.5
 74
     0
  0
LTYPE
  5
16D42
330
5
100
AcDbSymbolTableRecord
100
AcDbLinetypeTableRecord
  2
AM_ISO08W050
 70
     0
  3
____ . ____ . ____ . ____ . ____ . ____ . ____
 72
    65
 73
     4
 40
18.0
 49
12.0
 74
     0
 49
-1.5
 74
     0
 49
3.0
 74
     0
 49
-1.5
 74
     0
  0
LTYPE
  5
16D43
330
5
100
AcDbSymbolTableRecord
100
AcDbLinetypeTableRecord
  2
AM_ISO09W050
 70
     0
  3
_____ . . _____ . . _____ . . ____ .. ____
 72
    65
 73
     6
 40
22.5
 49
12.0
 74
     0
 49
-1.5
 74
     0
 49
3.0
 74
     0
 49
-1.5
 74
     0
 49
3.0
 74
     0
 49
-1.5
 74
     0
  0
LTYPE
  5
16D44
330
5
100
AcDbSymbolTableRecord
100
AcDbLinetypeTableRecord
  2
Amconstr
 70
     0
  3
_______________________
 72
    65
 73
     2
 40
9999.0
 49
9999.0
 74
     0
 49
0.0
 74
     0
  0
LTYPE
  5
16D45
330
5
100
AcDbSymbolTableRecord
100
AcDbLinetypeTableRecord
  2
AM_ISO08W050x2
 70
     0
  3
__ . __ . __ . __ . __ . __
 72
    65
 73
     4
 40
9.0
 49
6.0
 74
     0
 49
-0.75
 74
     0
 49
1.5
 74
     0
 49
-0.75
 74
     0
  0
LTYPE
  5
16D46
330
5
100
AcDbSymbolTableRecord
100
AcDbLinetypeTableRecord
  2
AM_ISO02W050x2
 70
     0
  3
 _ _ _ _ _ _ _ _ _ _ _ _
 72
    65
 73
     2
 40
3.75
 49
3.0
 74
     0
 49
-0.75
 74
     0
  0
LTYPE
  5
16D47
330
5
100
AcDbSymbolTableRecord
100
AcDbLinetypeTableRecord
  2
Amzigzag
 70
     0
  3
/\/-/\/-/\/-/\/-/\/-/\/
 72
    65
 73
     2
 40
11.0001
 49
0.0001
 74
     4
 75
   135
340
3AE2
 46
0.04
 50
0.0
 44
0.0
 45
0.0
 49
-11.0
 74
     0
  0
LTYPE
  5
16D56
330
5
100
AcDbSymbolTableRecord
100
AcDbLinetypeTableRecord
  2
ACISOWELD
 70
     0
  3
_ _ _ _ _
 72
    65
 73
     2
 40
2.0
 49
2.0
 74
     0
 49
-1.0
 74
     0
  0
LTYPE
  5
16D57
330
5
100
AcDbSymbolTableRecord
100
AcDbLinetypeTableRecord
  2
ACISOTGB
 70
     0
  3
__ . . __ . .
 72
    65
 73
     6
 40
9.0
 49
4.0
 74
     0
 49
-1.0
 74
     0
 49
1.0
 74
     0
 49
-1.0
 74
     0
 49
1.0
 74
     0
 49
-1.0
 74
     0
  0
LTYPE
  5
16D58
330
5
100
AcDbSymbolTableRecord
100
AcDbLinetypeTableRecord
  2
ACISOTGL
 70
     0
  3
_ _ _ _ _
 72
    65
 73
     2
 40
3.0
 49
2.0
 74
     0
 49
-1.0
 74
     0
  0
LTYPE
  5
16DCA
330
5
100
AcDbSymbolTableRecord
100
AcDbLinetypeTableRecord
  2
ACANSTGB
 70
     0
  3
__ . . __ . .
 72
    65
 73
     6
 40
0.35433070866
 49
0.15748031496
 74
     0
 49
-0.03937007874
 74
     0
 49
0.03937007874
 74
     0
 49
-0.03937007874
 74
     0
 49
0.03937007874
 74
     0
 49
-0.03937007874
 74
     0
  0
LTYPE
  5
16DCB
330
5
100
AcDbSymbolTableRecord
100
AcDbLinetypeTableRecord
  2
ACANSTGL
 70
     0
  3
_ _ _ _ _
 72
    65
 73
     2
 40
0.11811023622
 49
0.07874015748
 74
     0
 49
-0.03937007874
 74
     0
  0
LTYPE
  5
F3ACE
330
5
100
AcDbSymbolTableRecord
100
AcDbLinetypeTableRecord
  2
CENTER2
 70
     0
  3
Center (.5x) ___ _ ___ _ ___ _ ___ _ ___ _ ___
 72
    65
 73
     4
 40
28.575
 49
19.05
 74
     0
 49
-3.174999999999998
 74
     0
 49
3.174999999999998
 74
     0
 49
-3.174999999999998
 74
     0
  0
LTYPE
  5
FBA26
330
5
100
AcDbSymbolTableRecord
100
AcDbLinetypeTableRecord
  2
Amzigzag2
 70
     0
  3
/\/-/\/-/\/-/\/-/\/-/\/
 72
    65
 73
     2
 40
0.4401
 49
0.0001
 74
     4
 75
   135
340
3AE2
 46
0.0016
 50
0.0
 44
0.0
 45
0.0
 49
-0.4400000000000001
 74
     0
  0
ENDTAB
  0
TABLE
  2
LAYER
  5
2
102
{ACAD_XDICTIONARY
360
F82BD
102
}
330
0
100
AcDbSymbolTable
 70
    30
  0
LAYER
  5
10
102
{ACAD_XDICTIONARY
360
FA7EA
102
}
330
2
100
AcDbSymbolTableRecord
100
AcDbLayerTableRecord
  2
0
 70
     0
 62
     7
  6
Continuous
370
    20
390
F
  0
LAYER
  5
54
330
2
100
AcDbSymbolTableRecord
100
AcDbLayerTableRecord
  2
Defpoints
 70
     0
 62
     7
  6
Continuous
290
     0
370
    -3
390
F
  0
LAYER
  5
86C9
102
{ACAD_XDICTIONARY
360
FA7F8
102
}
330
2
100
AcDbSymbolTableRecord
100
AcDbLayerTableRecord
  2
04_ele1_0.15
 70
     0
 62
     4
  6
Continuous
370
    15
390
F
  0
LAYER
  5
100C70
330
2
100
AcDbSymbolTableRecord
100
AcDbLayerTableRecord
  2
AM_5
 70
     0
 62
     3
  6
Continuous
370
    25
390
F
1001
AcAecLayerStandard
1000

1000

  0
ENDTAB
  0
TABLE
  2
STYLE
  5
3
330
0
100
AcDbSymbolTable
 70
    14
  0
STYLE
  5
11
330
3
100
AcDbSymbolTableRecord
100
AcDbTextStyleTableRecord
  2
STANDARD
 70
     0
 40
0.0
 41
1.0
 50
0.0
 71
     0
 42
2.5
  3
ISOCP.SHX
  4
EXTFONT.SHX
  0
STYLE
  5
3AE2
330
3
100
AcDbSymbolTableRecord
100
AcDbTextStyleTableRecord
  2

 70
     1
 40
0.0
 41
1.0
 50
0.0
 71
     0
 42
2.5
  3
ltypeshp.shx
  4

  0
STYLE
  5
16D48
330
3
100
AcDbSymbolTableRecord
100
AcDbTextStyleTableRecord
  2
ACISOTS
 70
     0
 40
1.0
 41
1.0
 50
0.0
 71
     0
 42
2.5
  3
isocp.shx
  4
extfont.shx
  0
STYLE
  5
16D55
330
3
100
AcDbSymbolTableRecord
100
AcDbTextStyleTableRecord
  2
ACISOGDT
 70
     0
 40
0.0
 41
1.0
 50
0.0
 71
     0
 42
2.5
  3
amgdt.shx
  4

  0
STYLE
  5
16DCC
330
3
100
AcDbSymbolTableRecord
100
AcDbTextStyleTableRecord
  2
ACANSTS
 70
     0
 40
1.0
 41
1.0
 50
0.0
 71
     0
 42
0.2
  3
romans.shx
  4
extfont.shx
  0
STYLE
  5
16DCD
330
3
100
AcDbSymbolTableRecord
100
AcDbTextStyleTableRecord
  2
ACANSGDT
 70
     0
 40
0.0
 41
1.0
 50
0.0
 71
     0
 42
0.2
  3
amgdtans.shx
  4

  0
STYLE
  5
F61F9
330
3
100
AcDbSymbolTableRecord
100
AcDbTextStyleTableRecord
  2
2014++
 70
     0
 40
0.0
 41
0.8
 50
0.0
 71
     0
 42
2.5
  3
simplex.shx
  4
bigfont.shx
  0
ENDTAB
  0
TABLE
  2
VIEW
  5
6
330
0
100
AcDbSymbolTable
 70
     2
  0
ENDTAB
  0
TABLE
  2
UCS
  5
7
330
0
100
AcDbSymbolTable
 70
     0
  0
ENDTAB
  0
TABLE
  2
APPID
  5
9
330
0
100
AcDbSymbolTable
 70
    23
  0
APPID
  5
12
330
9
100
AcDbSymbolTableRecord
100
AcDbRegAppTableRecord
  2
ACAD
 70
     0
  0
APPID
  5
16CD8
330
9
100
AcDbSymbolTableRecord
100
AcDbRegAppTableRecord
  2
MCAD_NO_VIS
 70
     0
  0
APPID
  5
16CD9
330
9
100
AcDbSymbolTableRecord
100
AcDbRegAppTableRecord
  2
ACAD_TEMP_GRAPHIC
 70
     0
  0
APPID
  5
16D0B
330
9
100
AcDbSymbolTableRecord
100
AcDbRegAppTableRecord
  2
AD_DRAW
 70
     0
  0
APPID
  5
16D0E
330
9
100
AcDbSymbolTableRecord
100
AcDbRegAppTableRecord
  2
ACATTRIBSERVICES
 70
     0
  0
APPID
  5
16D30
330
9
100
AcDbSymbolTableRecord
100
AcDbRegAppTableRecord
  2
DESIGNERASSEMBLIES
 70
     0
  0
APPID
  5
16D36
330
9
100
AcDbSymbolTableRecord
100
AcDbRegAppTableRecord
  2
ACADM_DIM_EDIT
 70
     0
  0
APPID
  5
16D37
330
9
100
AcDbSymbolTableRecord
100
AcDbRegAppTableRecord
  2
AMDT_DM_ADJ
 70
     0
  0
APPID
  5
16D6D
330
9
100
AcDbSymbolTableRecord
100
AcDbRegAppTableRecord
  2
GENIUS_GENSCREG_15
 70
     0
  0
APPID
  5
16D6E
330
9
100
AcDbSymbolTableRecord
100
AcDbRegAppTableRecord
  2
GENIUS_GENOBJ-N-SDF_13
 70
     0
  0
APPID
  5
16D6F
330
9
100
AcDbSymbolTableRecord
100
AcDbRegAppTableRecord
  2
GENIUS_GENODEF_13
 70
     0
  0
APPID
  5
ADC12
330
9
100
AcDbSymbolTableRecord
100
AcDbRegAppTableRecord
  2
GENIUS_GENDTOL_13
 70
     0
  0
APPID
  5
BA934
330
9
100
AcDbSymbolTableRecord
100
AcDbRegAppTableRecord
  2
GENIUS_GENOBJ-N-FIL_13
 70
     0
  0
APPID
  5
F4A76
330
9
100
AcDbSymbolTableRecord
100
AcDbRegAppTableRecord
  2
DCO15
 70
     0
  0
APPID
  5
F9B0F
330
9
100
AcDbSymbolTableRecord
100
AcDbRegAppTableRecord
  2
ACAD_NAV_VCDISPLAY
 70
     0
  0
APPID
  5
FA7E4
330
9
100
AcDbSymbolTableRecord
100
AcDbRegAppTableRecord
  2
ACAD_EXEMPT_FROM_CAD_STANDARDS
 70
     0
  0
APPID
  5
FA85F
330
9
100
AcDbSymbolTableRecord
100
AcDbRegAppTableRecord
  2
ACAD_MLEADERVER
 70
     0
  0
APPID
  5
FD11B
330
9
100
AcDbSymbolTableRecord
100
AcDbRegAppTableRecord
  2
ACAD_DSTYLE_DIMINSPECT
 70
     0
  0
APPID
  5
1001DC
330
9
100
AcDbSymbolTableRecord
100
AcDbRegAppTableRecord
  2
ACAD_PSEXT
 70
     0
  0
APPID
  5
100AC8
330
9
100
AcDbSymbolTableRecord
100
AcDbRegAppTableRecord
  2
AcadAnnoMonitorAlertIconDisabled
 70
     0
  0
APPID
  5
100C71
330
9
100
AcDbSymbolTableRecord
100
AcDbRegAppTableRecord
  2
AcAecLayerStandard
 70
     0
  0
APPID
  5
100CA7
330
9
100
AcDbSymbolTableRecord
100
AcDbRegAppTableRecord
  2
ACAD_DSTYLE_DIMBREAK
 70
     0
  0
APPID
  5
100CA8
330
9
100
AcDbSymbolTableRecord
100
AcDbRegAppTableRecord
  2
ACAD_DSTYLE_DIMJAG
 70
     0
  0
ENDTAB
  0
TABLE
  2
DIMSTYLE
  5
A
330
0
100
AcDbSymbolTable
 70
    20
100
AcDbDimStyleTable
 71
     3
340
16D60
340
16DCE
340
16D65
  0
DIMSTYLE
105
16D60
330
A
100
AcDbSymbolTableRecord
100
AcDbDimStyleTableRecord
  2
AM_ISO
 70
     0
  4
"
 41
2.5
 42
1.0
 43
10.0
 44
1.0
 47
0.1
 48
0.1
 73
     0
 74
     0
 77
     1
 78
     8
 79
     2
140
3.5
141
0.0
143
0.0393701
146
0.71
147
1.5
172
     1
176
   256
177
   256
178
     2
271
     2
272
     3
274
     4
283
     0
284
     8
340
11
371
    -1
372
    -1
  0
DIMSTYLE
105
16D61
330
A
100
AcDbSymbolTableRecord
100
AcDbDimStyleTableRecord
  2
AM_ISO$3
 70
     0
  4
"
 41
2.5
 42
1.0
 43
10.0
 44
1.0
 47
0.1
 48
0.1
 73
     0
 77
     1
 78
     8
 79
     2
140
3.5
141
0.0
143
0.0393701
146
0.71
147
1.5
176
   256
177
   256
178
     2
271
     2
272
     3
274
     4
283
     0
284
     8
288
     1
289
     0
340
11
371
    -1
372
    -1
  0
DIMSTYLE
105
16D62
330
A
100
AcDbSymbolTableRecord
100
AcDbDimStyleTableRecord
  2
AM_ISO$4
 70
     0
  4
"
 41
2.5
 42
1.0
 43
10.0
 44
1.0
 47
0.1
 48
0.1
 73
     0
 77
     1
 78
     8
 79
     2
140
3.5
141
0.0
143
0.0393701
146
0.71
147
1.5
176
   256
177
   256
178
     2
271
     2
272
     3
274
     4
283
     0
284
     8
288
     1
289
     0
340
11
371
    -1
372
    -1
  0
DIMSTYLE
105
16D63
330
A
100
AcDbSymbolTableRecord
100
AcDbDimStyleTableRecord
  2
AM_ISO$6
 70
     0
  4
"
 41
2.5
 42
1.0
 43
10.0
 44
1.0
 47
0.1
 48
0.1
 73
     0
 74
     0
 78
     8
 79
     2
140
3.5
141
0.0
143
0.0393701
146
0.71
147
1.5
172
     1
176
   256
177
   256
178
     2
271
     2
272
     3
274
     4
283
     0
284
     8
340
11
371
    -1
372
    -1
  0
DIMSTYLE
105
16D64
330
A
100
AcDbSymbolTableRecord
100
AcDbDimStyleTableRecord
  2
AM_ISO$7
 70
     0
  4
"
 41
2.5
 42
1.0
 43
10.0
 44
1.0
 47
0.1
 48
0.1
 73
     0
 74
     0
 77
     1
 78
     8
 79
     2
140
5.0
141
0.0
143
0.0393701
146
0.71
147
1.5
172
     1
176
   256
177
   256
178
     2
271
     2
272
     3
274
     4
283
     0
284
     8
340
11
371
    -1
372
    -1
  0
DIMSTYLE
105
16D65
330
A
100
AcDbSymbolTableRecord
100
AcDbDimStyleTableRecord
  2
AM_ISO$SF
 70
     0
  4
"
 41
2.5
 42
1.0
 43
10.0
 44
1.0
 47
0.1
 48
0.1
 73
     0
 74
     0
 75
     1
 76
     1
 77
     1
 78
     8
 79
     2
140
3.5
141
0.0
143
0.0393701
146
0.71
147
1.5
172
     1
176
   256
177
   256
178
     2
271
     2
272
     3
274
     4
283
     0
284
     8
340
11
371
    -1
372
    -1
  0
DIMSTYLE
105
16D6A
330
A
100
AcDbSymbolTableRecord
100
AcDbDimStyleTableRecord
  2
AM_ISO$SH
 70
     0
  4
"
 41
2.5
 42
1.0
 43
10.0
 44
1.0
 47
0.1
 48
0.1
 73
     0
 74
     0
 75
     1
 76
     1
 77
     1
 78
     8
 79
     2
140
3.5
141
0.0
143
0.0393701
144
2.0
146
0.71
147
1.5
172
     1
173
     1
176
   256
177
   256
178
     2
271
     2
272
     3
274
     4
283
     0
284
     8
340
11
343
16D66
371
    -1
372
    -1
  0
DIMSTYLE
105
16DCE
330
A
100
AcDbSymbolTableRecord
100
AcDbDimStyleTableRecord
  2
AM_ANSI
 70
     0
  4
mm
 41
0.1
 42
0.05
 43
0.5
 44
0.1
 47
0.1
 48
0.1
 78
     7
 79
     2
140
0.12
141
0.0
146
0.71
147
0.06
176
   256
177
   256
178
     2
274
     4
284
     7
340
11
371
    -1
372
    -1
  0
DIMSTYLE
105
16DCF
330
A
100
AcDbSymbolTableRecord
100
AcDbDimStyleTableRecord
  2
AM_ANSI$3
 70
     0
  4
mm
 41
0.1
 42
0.05
 43
0.5
 44
0.1
 47
0.1
 48
0.1
 78
     7
 79
     2
140
0.12
141
0.0
146
0.71
147
0.06
176
   256
177
   256
178
     2
274
     4
284
     7
288
     1
289
     0
340
11
371
    -1
372
    -1
  0
DIMSTYLE
105
16DD0
330
A
100
AcDbSymbolTableRecord
100
AcDbDimStyleTableRecord
  2
AM_ANSI$4
 70
     0
  4
mm
 41
0.1
 42
0.05
 43
0.5
 44
0.1
 47
0.1
 48
0.1
 78
     7
 79
     2
140
0.12
141
0.0
146
0.71
147
0.06
176
   256
177
   256
178
     2
274
     4
284
     7
288
     1
289
     0
340
11
371
    -1
372
    -1
  0
DIMSTYLE
105
16DD1
330
A
100
AcDbSymbolTableRecord
100
AcDbDimStyleTableRecord
  2
AM_ANSI$7
 70
     0
  4
mm
 41
0.1
 42
0.05
 43
0.5
 44
0.1
 47
0.1
 48
0.1
 78
     7
 79
     2
140
0.24
141
0.0
146
0.71
147
0.06
176
   256
177
   256
178
     2
274
     4
284
     7
340
11
371
    -1
372
    -1
  0
DIMSTYLE
105
16DD2
330
A
100
AcDbSymbolTableRecord
100
AcDbDimStyleTableRecord
  2
AM_ANSI$SF
 70
     0
  4
mm
 41
0.1
 42
0.05
 43
0.5
 44
0.1
 47
0.1
 48
0.1
 75
     1
 76
     1
 78
     7
 79
     2
140
0.12
141
0.0
146
0.71
147
0.06
176
   256
177
   256
178
     2
274
     4
284
     7
340
11
371
    -1
372
    -1
  0
DIMSTYLE
105
16DD3
330
A
100
AcDbSymbolTableRecord
100
AcDbDimStyleTableRecord
  2
AM_ANSI$SH
 70
     0
  4
mm
 41
0.1
 42
0.05
 43
0.5
 44
0.1
 47
0.1
 48
0.1
 75
     1
 76
     1
 78
     7
 79
     2
140
0.12
141
0.0
146
0.71
147
0.06
173
     1
176
   256
177
   256
178
     2
274
     4
284
     7
340
11
343
16D66
371
    -1
372
    -1
  0
DIMSTYLE
105
100CA9
102
{ACAD_REACTORS
330
FFCE1
330
FFD55
330
100CAB
330
FFD1B
330
FFD21
330
FFD26
330
FFD3A
330
FFD49
330
FFD03
330
1004A6
330
1004A8
330
1004F5
330
1004A7
330
1004F0
330
1004F3
330
10053B
330
1004AB
330
1010B7
102
}
330
A
100
AcDbSymbolTableRecord
100
AcDbDimStyleTableRecord
  2
AM_ISO$0
 70
     0
  4
"
 41
2.5
 42
1.0
 43
10.0
 44
1.0
 47
0.1
 48
0.1
 73
     0
 74
     0
 77
     1
 78
     8
 79
     2
140
3.5
141
0.0
143
0.0393701
146
0.71
147
1.5
172
     1
176
   256
177
   256
178
     2
271
     2
272
     3
274
     4
283
     0
284
     8
340
11
371
    -1
372
    -1
1001
ACAD_DSTYLE_DIMBREAK
1070
   391
1040
3.75
1001
ACAD_DSTYLE_DIMJAG
1070
   388
1040
1.5
  0
ENDTAB
  0
TABLE
  2
BLOCK_RECORD
  5
1
330
0
100
AcDbSymbolTable
 70
   140
  0
BLOCK_RECORD
  5
1F
102
{ACAD_XDICTIONARY
360
16D78
102
}
330
1
100
AcDbSymbolTableRecord
100
AcDbBlockTableRecord
  2
*Model_Space
340
22
  0
BLOCK_RECORD
  5
1001D2
330
1
100
AcDbSymbolTableRecord
100
AcDbBlockTableRecord
  2
*Paper_Space
340
1001D3
  0
BLOCK_RECORD
  5
16D66
330
1
100
AcDbSymbolTableRecord
100
AcDbBlockTableRecord
  2
GENAXEH
340
0
  0
BLOCK_RECORD
  5
F99A3
330
1
100
AcDbSymbolTableRecord
100
AcDbBlockTableRecord
  2
_ACMFILLED15
340
0
  0
BLOCK_RECORD
  5
FFDBF
330
1
100
AcDbSymbolTableRecord
100
AcDbBlockTableRecord
  2
*D23
340
0
  0
BLOCK_RECORD
  5
FFE1C
330
1
100
AcDbSymbolTableRecord
100
AcDbBlockTableRecord
  2
*D31
340
0
  0
BLOCK_RECORD
  5
FFE4E
330
1
100
AcDbSymbolTableRecord
100
AcDbBlockTableRecord
  2
*D35
340
0
  0
BLOCK_RECORD
  5
FFE5A
330
1
100
AcDbSymbolTableRecord
100
AcDbBlockTableRecord
  2
*D36
340
0
  0
BLOCK_RECORD
  5
FFE7C
330
1
100
AcDbSymbolTableRecord
100
AcDbBlockTableRecord
  2
*D39
340
0
  0
BLOCK_RECORD
  5
FFEAC
330
1
100
AcDbSymbolTableRecord
100
AcDbBlockTableRecord
  2
*D43
340
0
  0
BLOCK_RECORD
  5
FFEF2
330
1
100
AcDbSymbolTableRecord
100
AcDbBlockTableRecord
  2
*D49
340
0
  0
BLOCK_RECORD
  5
FFF16
330
1
100
AcDbSymbolTableRecord
100
AcDbBlockTableRecord
  2
*D52
340
0
  0
BLOCK_RECORD
  5
1005AE
330
1
100
AcDbSymbolTableRecord
100
AcDbBlockTableRecord
  2
*D102
340
0
  0
BLOCK_RECORD
  5
1005BA
330
1
100
AcDbSymbolTableRecord
100
AcDbBlockTableRecord
  2
*D103
340
0
  0
BLOCK_RECORD
  5
1005C6
330
1
100
AcDbSymbolTableRecord
100
AcDbBlockTableRecord
  2
*D104
340
0
  0
BLOCK_RECORD
  5
1006CE
330
1
100
AcDbSymbolTableRecord
100
AcDbBlockTableRecord
  2
*D124
340
0
  0
BLOCK_RECORD
  5
1006DA
330
1
100
AcDbSymbolTableRecord
100
AcDbBlockTableRecord
  2
*D125
340
0
  0
BLOCK_RECORD
  5
1006E6
330
1
100
AcDbSymbolTableRecord
100
AcDbBlockTableRecord
  2
*D126
340
0
  0
BLOCK_RECORD
  5
1006F2
330
1
100
AcDbSymbolTableRecord
100
AcDbBlockTableRecord
  2
*D127
340
0
  0
BLOCK_RECORD
  5
10070C
330
1
100
AcDbSymbolTableRecord
100
AcDbBlockTableRecord
  2
*D129
340
0
  0
BLOCK_RECORD
  5
100CAC
330
1
100
AcDbSymbolTableRecord
100
AcDbBlockTableRecord
  2
*D136
340
0
  0
BLOCK_RECORD
  5
1010B8
330
1
100
AcDbSymbolTableRecord
100
AcDbBlockTableRecord
  2
*D139
340
0
  0
ENDTAB
  0
ENDSEC
  0
SECTION
  2
BLOCKS
  0
BLOCK
  5
20
330
1F
100
AcDbEntity
  8
0
100
AcDbBlockBegin
  2
*Model_Space
 70
     0
 10
0.0
 20
0.0
 30
0.0
  3
*Model_Space
  1

  0
ENDBLK
  5
21
330
1F
100
AcDbEntity
  8
0
100
AcDbBlockEnd
  0
BLOCK
  5
1001D4
330
1001D2
100
AcDbEntity
 67
     1
  8
0
100
AcDbBlockBegin
  2
*Paper_Space
 70
     0
 10
0.0
 20
0.0
 30
0.0
  3
*Paper_Space
  1

  0
ENDBLK
  5
1001D5
330
1001D2
100
AcDbEntity
 67
     1
  8
0
100
AcDbBlockEnd
  0
BLOCK
  5
16D68
330
16D66
100
AcDbEntity
  8
0
100
AcDbBlockBegin
  2
GENAXEH
 70
     0
 10
0.0
 20
0.0
 30
0.0
  3
GENAXEH
  1

  0
LINE
  5
16D67
330
16D66
100
AcDbEntity
  8
0
100
AcDbLine
 10
-1.0
 20
0.0
 30
0.0
 11
1.0
 21
0.0
 31
0.0
  0
ENDBLK
  5
16D69
330
16D66
100
AcDbEntity
  8
0
100
AcDbBlockEnd
  0
BLOCK
  5
F99A4
330
F99A3
100
AcDbEntity
  8
0
100
AcDbBlockBegin
  2
_ACMFILLED15
 70
     0
 10
0.0
 20
0.0
 30
0.0
  3
_ACMFILLED15
  1

  0
TRACE
  5
F99A6
330
F99A3
100
AcDbEntity
  8
04_ele1_0.15
 62
     0
100
AcDbTrace
 10
-1.0
 20
-0.131652497
 30
0.0
 11
-1.0
 21
0.131652497
 31
0.0
 12
0.0
 22
0.0
 32
0.0
 13
0.0
 23
0.0
 33
0.0
  0
ENDBLK
  5
F99A5
330
F99A3
100
AcDbEntity
  8
0
100
AcDbBlockEnd
  0
BLOCK
  5
FFDC0
330
FFDBF
100
AcDbEntity
  8
0
100
AcDbBlockBegin
  2
*D23
 70
     1
 10
0.0
 20
0.0
 30
0.0
  3
*D23
  1

  0
LINE
  5
101155
330
FFDBF
100
AcDbEntity
  8
AM_5
440
 16777216
100
AcDbLine
 10
384.4031055045664
 20
381.3140485635717
 30
0.0
 11
370.9496467603027
 21
381.3140485635717
 31
0.0
  0
LINE
  5
101156
330
FFDBF
100
AcDbEntity
  8
AM_5
440
 16777216
100
AcDbLine
 10
384.9031055045664
 20
382.0140485635716
 30
0.0
 11
370.9496467603027
 21
382.0140485635717
 31
0.0
  0
LINE
  5
101157
330
FFDBF
100
AcDbEntity
  8
AM_5
440
 16777216
100
AcDbLine
 10
371.9496467603027
 20
378.8140485635717
 30
0.0
 11
371.9496467603027
 21
376.3140485635717
 31
0.0
  0
LINE
  5
101158
330
FFDBF
100
AcDbEntity
  8
AM_5
440
 16777216
100
AcDbLine
 10
371.9496467603028
 20
384.5140485635717
 30
0.0
 11
371.9496467603028
 21
399.4640485635717
 31
0.0
  0
LINE
  5
101159
330
FFDBF
100
AcDbEntity
  8
AM_5
440
 16777216
100
AcDbLine
 10
371.9496467603027
 20
381.3140485635717
 30
0.0
 11
371.9496467603027
 21
382.0140485635717
 31
0.0
  0
SOLID
  5
10115A
330
FFDBF
100
AcDbEntity
  8
AM_5
440
 16777216
100
AcDbTrace
 10
371.532980093636
 20
378.8140485635717
 30
0.0
 11
372.3663134269694
 21
378.8140485635717
 31
0.0
 12
371.9496467603027
 22
381.3140485635717
 32
0.0
 13
371.9496467603027
 23
381.3140485635717
 33
0.0
  0
SOLID
  5
10115B
330
FFDBF
100
AcDbEntity
  8
AM_5
440
 16777216
100
AcDbTrace
 10
371.5329800936361
 20
384.5140485635717
 30
0.0
 11
372.3663134269695
 21
384.5140485635717
 31
0.0
 12
371.9496467603027
 22
382.0140485635717
 32
0.0
 13
371.9496467603027
 23
382.0140485635717
 33
0.0
  0
MTEXT
  5
10115C
330
FFDBF
100
AcDbEntity
  8
AM_5
 62
     2
440
 16777216
100
AcDbMText
 10
368.6996467603027
 20
393.2390485635718
 30
0.0
 40
3.5
 41
0.0
 71
     5
 72
     1
  1
t=0.7
 11
0.0000000000000001
 21
1.0
 31
0.0
 73
     1
 44
1.0
  0
POINT
  5
10115D
330
FFDBF
100
AcDbEntity
  8
Defpoints
 62
     0
440
 16777216
100
AcDbPoint
 10
385.4031055045664
 20
381.3140485635717
 30
0.0
  0
POINT
  5
10115E
330
FFDBF
100
AcDbEntity
  8
Defpoints
 62
     0
440
 16777216
100
AcDbPoint
 10
385.9031055045664
 20
382.0140485635716
 30
0.0
  0
POINT
  5
10115F
330
FFDBF
100
AcDbEntity
  8
Defpoints
 62
     0
440
 16777216
100
AcDbPoint
 10
371.9496467603027
 20
382.0140485635717
 30
0.0
  0
ENDBLK
  5
FFDC1
330
FFDBF
100
AcDbEntity
  8
0
100
AcDbBlockEnd
  0
BLOCK
  5
FFE1D
330
FFE1C
100
AcDbEntity
  8
0
100
AcDbBlockBegin
  2
*D31
 70
     1
 10
0.0
 20
0.0
 30
0.0
  3
*D31
  1

  0
LINE
  5
100FAE
330
FFE1C
100
AcDbEntity
  8
AM_5
440
 16777216
100
AcDbLine
 10
385.4031055045664
 20
382.5140485635716
 30
0.0
 11
385.4031055045664
 21
400.8989774404604
 31
0.0
  0
LINE
  5
100FAF
330
FFE1C
100
AcDbEntity
  8
AM_5
440
 16777216
100
AcDbLine
 10
409.4031055045664
 20
384.3140485635716
 30
0.0
 11
409.4031055045664
 21
400.8989774404604
 31
0.0
  0
LINE
  5
100FB0
330
FFE1C
100
AcDbEntity
  8
AM_5
440
 16777216
100
AcDbLine
 10
387.9031055045664
 20
399.8989774404604
 30
0.0
 11
406.9031055045663
 21
399.8989774404604
 31
0.0
  0
SOLID
  5
100FB1
330
FFE1C
100
AcDbEntity
  8
AM_5
440
 16777216
100
AcDbTrace
 10
387.9031055045664
 20
400.315644107127
 30
0.0
 11
387.9031055045664
 21
399.4823107737937
 31
0.0
 12
385.4031055045664
 22
399.8989774404604
 32
0.0
 13
385.4031055045664
 23
399.8989774404604
 33
0.0
  0
SOLID
  5
100FB2
330
FFE1C
100
AcDbEntity
  8
AM_5
440
 16777216
100
AcDbTrace
 10
406.9031055045663
 20
400.315644107127
 30
0.0
 11
406.9031055045663
 21
399.4823107737937
 31
0.0
 12
409.4031055045664
 22
399.8989774404604
 32
0.0
 13
409.4031055045664
 23
399.8989774404604
 33
0.0
  0
MTEXT
  5
100FB3
330
FFE1C
100
AcDbEntity
  8
AM_5
 62
     2
440
 16777216
100
AcDbMText
 10
397.4031055045664
 20
403.1493219286494
 30
0.0
 40
3.5
 41
0.0
 71
     5
 72
     1
  1
24
 73
     1
 44
1.0
  0
POINT
  5
100FB4
330
FFE1C
100
AcDbEntity
  8
Defpoints
 62
     0
440
 16777216
100
AcDbPoint
 10
385.4031055045664
 20
381.5140485635716
 30
0.0
  0
POINT
  5
100FB5
330
FFE1C
100
AcDbEntity
  8
Defpoints
 62
     0
440
 16777216
100
AcDbPoint
 10
409.4031055045664
 20
383.3140485635717
 30
0.0
  0
POINT
  5
100FB6
330
FFE1C
100
AcDbEntity
  8
Defpoints
 62
     0
440
 16777216
100
AcDbPoint
 10
409.4031055045664
 20
399.8989774404604
 30
0.0
  0
ENDBLK
  5
FFE1E
330
FFE1C
100
AcDbEntity
  8
0
100
AcDbBlockEnd
  0
BLOCK
  5
FFE4F
330
FFE4E
100
AcDbEntity
  8
0
100
AcDbBlockBegin
  2
*D35
 70
     1
 10
0.0
 20
0.0
 30
0.0
  3
*D35
  1

  0
LINE
  5
100F81
330
FFE4E
100
AcDbEntity
  8
AM_5
440
 16777216
100
AcDbLine
 10
467.0991620755828
 20
270.1846571576487
 30
0.0
 11
467.0991620755828
 21
259.0163948208757
 31
0.0
  0
LINE
  5
100F82
330
FFE4E
100
AcDbEntity
  8
AM_5
440
 16777216
100
AcDbLine
 10
491.2833006447151
 20
270.1846571576488
 30
0.0
 11
491.2833006447151
 21
259.0163948208757
 31
0.0
  0
LINE
  5
100F83
330
FFE4E
100
AcDbEntity
  8
AM_5
440
 16777216
100
AcDbLine
 10
469.5991620755828
 20
260.0163948208757
 30
0.0
 11
488.7833006447151
 21
260.0163948208757
 31
0.0
  0
SOLID
  5
100F84
330
FFE4E
100
AcDbEntity
  8
AM_5
440
 16777216
100
AcDbTrace
 10
469.5991620755828
 20
260.4330614875424
 30
0.0
 11
469.5991620755828
 21
259.599728154209
 31
0.0
 12
467.0991620755828
 22
260.0163948208757
 32
0.0
 13
467.0991620755828
 23
260.0163948208757
 33
0.0
  0
SOLID
  5
100F85
330
FFE4E
100
AcDbEntity
  8
AM_5
440
 16777216
100
AcDbTrace
 10
488.7833006447151
 20
260.4330614875424
 30
0.0
 11
488.7833006447151
 21
259.599728154209
 31
0.0
 12
491.2833006447151
 22
260.0163948208757
 32
0.0
 13
491.2833006447151
 23
260.0163948208757
 33
0.0
  0
MTEXT
  5
100F86
330
FFE4E
100
AcDbEntity
  8
AM_5
 62
     2
440
 16777216
100
AcDbMText
 10
479.191231360149
 20
263.2667393090647
 30
0.0
 40
3.5
 41
0.0
 71
     5
 72
     1
  1
24
 73
     1
 44
1.0
  0
POINT
  5
100F87
330
FFE4E
100
AcDbEntity
  8
Defpoints
 62
     0
440
 16777216
100
AcDbPoint
 10
467.0991620755828
 20
271.1846571576487
 30
0.0
  0
POINT
  5
100F88
330
FFE4E
100
AcDbEntity
  8
Defpoints
 62
     0
440
 16777216
100
AcDbPoint
 10
491.2833006447151
 20
271.1846571576487
 30
0.0
  0
POINT
  5
100F89
330
FFE4E
100
AcDbEntity
  8
Defpoints
 62
     0
440
 16777216
100
AcDbPoint
 10
491.2833006447151
 20
260.0163948208757
 30
0.0
  0
ENDBLK
  5
FFE50
330
FFE4E
100
AcDbEntity
  8
0
100
AcDbBlockEnd
  0
BLOCK
  5
FFE5B
330
FFE5A
100
AcDbEntity
  8
0
100
AcDbBlockBegin
  2
*D36
 70
     1
 10
0.0
 20
0.0
 30
0.0
  3
*D36
  1

  0
LINE
  5
100F8A
330
FFE5A
100
AcDbEntity
  8
AM_5
440
 16777216
100
AcDbLine
 10
454.191231360149
 20
270.1846571576488
 30
0.0
 11
454.191231360149
 21
259.0163948208757
 31
0.0
  0
LINE
  5
100F8B
330
FFE5A
100
AcDbEntity
  8
AM_5
440
 16777216
100
AcDbLine
 10
467.0991620755828
 20
270.1846571576487
 30
0.0
 11
467.0991620755828
 21
259.0163948208757
 31
0.0
  0
LINE
  5
100F8C
330
FFE5A
100
AcDbEntity
  8
AM_5
440
 16777216
100
AcDbLine
 10
456.6912313601489
 20
260.0163948208757
 30
0.0
 11
464.5991620755828
 21
260.0163948208757
 31
0.0
  0
SOLID
  5
100F8D
330
FFE5A
100
AcDbEntity
  8
AM_5
440
 16777216
100
AcDbTrace
 10
456.6912313601489
 20
260.4330614875424
 30
0.0
 11
456.6912313601489
 21
259.599728154209
 31
0.0
 12
454.191231360149
 22
260.0163948208757
 32
0.0
 13
454.191231360149
 23
260.0163948208757
 33
0.0
  0
SOLID
  5
100F8E
330
FFE5A
100
AcDbEntity
  8
AM_5
440
 16777216
100
AcDbTrace
 10
464.5991620755828
 20
260.4330614875424
 30
0.0
 11
464.5991620755828
 21
259.599728154209
 31
0.0
 12
467.0991620755828
 22
260.0163948208757
 32
0.0
 13
467.0991620755828
 23
260.0163948208757
 33
0.0
  0
MTEXT
  5
100F8F
330
FFE5A
100
AcDbEntity
  8
AM_5
 62
     2
440
 16777216
100
AcDbMText
 10
460.6451967178659
 20
263.2663948208757
 30
0.0
 40
3.5
 41
0.0
 71
     5
 72
     1
  1
13
 73
     1
 44
1.0
  0
POINT
  5
100F90
330
FFE5A
100
AcDbEntity
  8
Defpoints
 62
     0
440
 16777216
100
AcDbPoint
 10
454.191231360149
 20
271.1846571576487
 30
0.0
  0
POINT
  5
100F91
330
FFE5A
100
AcDbEntity
  8
Defpoints
 62
     0
440
 16777216
100
AcDbPoint
 10
467.0991620755828
 20
271.1846571576487
 30
0.0
  0
POINT
  5
100F92
330
FFE5A
100
AcDbEntity
  8
Defpoints
 62
     0
440
 16777216
100
AcDbPoint
 10
467.0991620755828
 20
260.0163948208757
 30
0.0
  0
ENDBLK
  5
FFE5C
330
FFE5A
100
AcDbEntity
  8
0
100
AcDbBlockEnd
  0
BLOCK
  5
FFE7D
330
FFE7C
100
AcDbEntity
  8
0
100
AcDbBlockBegin
  2
*D39
 70
     1
 10
0.0
 20
0.0
 30
0.0
  3
*D39
  1

  0
LINE
  5
100F93
330
FFE7C
100
AcDbEntity
  8
AM_5
440
 16777216
100
AcDbLine
 10
454.191231360149
 20
295.1846571576488
 30
0.0
 11
438.7320832894206
 21
295.1846571576488
 31
0.0
  0
LINE
  5
100F94
330
FFE7C
100
AcDbEntity
  8
AM_5
440
 16777216
100
AcDbLine
 10
453.1912313601489
 20
271.1846571576487
 30
0.0
 11
438.7320832894206
 21
271.1846571576487
 31
0.0
  0
LINE
  5
100F95
330
FFE7C
100
AcDbEntity
  8
AM_5
440
 16777216
100
AcDbLine
 10
439.7320832894206
 20
292.6846571576488
 30
0.0
 11
439.7320832894206
 21
273.6846571576488
 31
0.0
  0
SOLID
  5
100F96
330
FFE7C
100
AcDbEntity
  8
AM_5
440
 16777216
100
AcDbTrace
 10
439.3154166227539
 20
292.6846571576488
 30
0.0
 11
440.1487499560873
 21
292.6846571576488
 31
0.0
 12
439.7320832894206
 22
295.1846571576488
 32
0.0
 13
439.7320832894206
 23
295.1846571576488
 33
0.0
  0
SOLID
  5
100F97
330
FFE7C
100
AcDbEntity
  8
AM_5
440
 16777216
100
AcDbTrace
 10
439.3154166227539
 20
273.6846571576488
 30
0.0
 11
440.1487499560873
 21
273.6846571576488
 31
0.0
 12
439.7320832894206
 22
271.1846571576487
 32
0.0
 13
439.7320832894206
 23
271.1846571576487
 33
0.0
  0
MTEXT
  5
100F98
330
FFE7C
100
AcDbEntity
  8
AM_5
 62
     2
440
 16777216
100
AcDbMText
 10
436.4817388012316
 20
283.1846571576489
 30
0.0
 40
3.5
 41
0.0
 71
     5
 72
     1
  1
24
 11
0.0000000000000001
 21
1.0
 31
0.0
 73
     1
 44
1.0
  0
POINT
  5
100F99
330
FFE7C
100
AcDbEntity
  8
Defpoints
 62
     0
440
 16777216
100
AcDbPoint
 10
455.191231360149
 20
295.1846571576488
 30
0.0
  0
POINT
  5
100F9A
330
FFE7C
100
AcDbEntity
  8
Defpoints
 62
     0
440
 16777216
100
AcDbPoint
 10
454.191231360149
 20
271.1846571576487
 30
0.0
  0
POINT
  5
100F9B
330
FFE7C
100
AcDbEntity
  8
Defpoints
 62
     0
440
 16777216
100
AcDbPoint
 10
439.7320832894206
 20
271.1846571576487
 30
0.0
  0
ENDBLK
  5
FFE7E
330
FFE7C
100
AcDbEntity
  8
0
100
AcDbBlockEnd
  0
BLOCK
  5
FFEAD
330
FFEAC
100
AcDbEntity
  8
0
100
AcDbBlockBegin
  2
*D43
 70
     1
 10
0.0
 20
0.0
 30
0.0
  3
*D43
  1

  0
LINE
  5
100F9C
330
FFEAC
100
AcDbEntity
  8
AM_5
440
 16777216
100
AcDbLine
 10
504.191231360149
 20
270.1846571576488
 30
0.0
 11
504.191231360149
 21
259.0163948208757
 31
0.0
  0
LINE
  5
100F9D
330
FFEAC
100
AcDbEntity
  8
AM_5
440
 16777216
100
AcDbLine
 10
491.2833006447151
 20
270.1846571576488
 30
0.0
 11
491.2833006447151
 21
259.0163948208757
 31
0.0
  0
LINE
  5
100F9E
330
FFEAC
100
AcDbEntity
  8
AM_5
440
 16777216
100
AcDbLine
 10
501.691231360149
 20
260.0163948208757
 30
0.0
 11
493.7833006447151
 21
260.0163948208757
 31
0.0
  0
SOLID
  5
100F9F
330
FFEAC
100
AcDbEntity
  8
AM_5
440
 16777216
100
AcDbTrace
 10
501.691231360149
 20
260.4330614875424
 30
0.0
 11
501.691231360149
 21
259.599728154209
 31
0.0
 12
504.191231360149
 22
260.0163948208757
 32
0.0
 13
504.191231360149
 23
260.0163948208757
 33
0.0
  0
SOLID
  5
100FA0
330
FFEAC
100
AcDbEntity
  8
AM_5
440
 16777216
100
AcDbTrace
 10
493.7833006447151
 20
260.4330614875424
 30
0.0
 11
493.7833006447151
 21
259.599728154209
 31
0.0
 12
491.2833006447151
 22
260.0163948208757
 32
0.0
 13
491.2833006447151
 23
260.0163948208757
 33
0.0
  0
MTEXT
  5
100FA1
330
FFEAC
100
AcDbEntity
  8
AM_5
 62
     2
440
 16777216
100
AcDbMText
 10
497.7372660024321
 20
263.2663948208757
 30
0.0
 40
3.5
 41
0.0
 71
     5
 72
     1
  1
13
 73
     1
 44
1.0
  0
POINT
  5
100FA2
330
FFEAC
100
AcDbEntity
  8
Defpoints
 62
     0
440
 16777216
100
AcDbPoint
 10
504.191231360149
 20
271.1846571576487
 30
0.0
  0
POINT
  5
100FA3
330
FFEAC
100
AcDbEntity
  8
Defpoints
 62
     0
440
 16777216
100
AcDbPoint
 10
491.2833006447151
 20
271.1846571576487
 30
0.0
  0
POINT
  5
100FA4
330
FFEAC
100
AcDbEntity
  8
Defpoints
 62
     0
440
 16777216
100
AcDbPoint
 10
491.2833006447151
 20
260.0163948208757
 30
0.0
  0
ENDBLK
  5
FFEAE
330
FFEAC
100
AcDbEntity
  8
0
100
AcDbBlockEnd
  0
BLOCK
  5
FFEF3
330
FFEF2
100
AcDbEntity
  8
0
100
AcDbBlockBegin
  2
*D49
 70
     1
 10
0.0
 20
0.0
 30
0.0
  3
*D49
  1

  0
LINE
  5
100FA5
330
FFEF2
100
AcDbEntity
  8
AM_5
440
 16777216
100
AcDbLine
 10
454.191231360149
 20
384.3140485635716
 30
0.0
 11
454.191231360149
 21
400.8989774404604
 31
0.0
  0
LINE
  5
100FA6
330
FFEF2
100
AcDbEntity
  8
AM_5
440
 16777216
100
AcDbLine
 10
504.191231360149
 20
384.3140485635716
 30
0.0
 11
504.191231360149
 21
400.8989774404604
 31
0.0
  0
LINE
  5
100FA7
330
FFEF2
100
AcDbEntity
  8
AM_5
440
 16777216
100
AcDbLine
 10
456.6912313601489
 20
399.8989774404604
 30
0.0
 11
501.691231360149
 21
399.8989774404604
 31
0.0
  0
SOLID
  5
100FA8
330
FFEF2
100
AcDbEntity
  8
AM_5
440
 16777216
100
AcDbTrace
 10
456.6912313601489
 20
400.315644107127
 30
0.0
 11
456.6912313601489
 21
399.4823107737937
 31
0.0
 12
454.191231360149
 22
399.8989774404604
 32
0.0
 13
454.191231360149
 23
399.8989774404604
 33
0.0
  0
SOLID
  5
100FA9
330
FFEF2
100
AcDbEntity
  8
AM_5
440
 16777216
100
AcDbTrace
 10
501.691231360149
 20
400.315644107127
 30
0.0
 11
501.691231360149
 21
399.4823107737937
 31
0.0
 12
504.191231360149
 22
399.8989774404604
 32
0.0
 13
504.191231360149
 23
399.8989774404604
 33
0.0
  0
MTEXT
  5
100FAA
330
FFEF2
100
AcDbEntity
  8
AM_5
 62
     2
440
 16777216
100
AcDbMText
 10
479.191231360149
 20
403.1489774404604
 30
0.0
 40
3.5
 41
0.0
 71
     5
 72
     1
  1
50
 73
     1
 44
1.0
  0
POINT
  5
100FAB
330
FFEF2
100
AcDbEntity
  8
Defpoints
 62
     0
440
 16777216
100
AcDbPoint
 10
454.191231360149
 20
383.3140485635717
 30
0.0
  0
POINT
  5
100FAC
330
FFEF2
100
AcDbEntity
  8
Defpoints
 62
     0
440
 16777216
100
AcDbPoint
 10
504.191231360149
 20
383.3140485635717
 30
0.0
  0
POINT
  5
100FAD
330
FFEF2
100
AcDbEntity
  8
Defpoints
 62
     0
440
 16777216
100
AcDbPoint
 10
504.191231360149
 20
399.8989774404604
 30
0.0
  0
ENDBLK
  5
FFEF4
330
FFEF2
100
AcDbEntity
  8
0
100
AcDbBlockEnd
  0
BLOCK
  5
FFF17
330
FFF16
100
AcDbEntity
  8
0
100
AcDbBlockBegin
  2
*D52
 70
     1
 10
0.0
 20
0.0
 30
0.0
  3
*D52
  1

  0
LINE
  5
100F6F
330
FFF16
100
AcDbEntity
  8
AM_5
440
 16777216
100
AcDbLine
 10
453.1912313601489
 20
381.3140485635717
 30
0.0
 11
438.7320832894206
 21
381.3140485635717
 31
0.0
  0
LINE
  5
100F70
330
FFF16
100
AcDbEntity
  8
AM_5
440
 16777216
100
AcDbLine
 10
469.1912313601489
 20
342.3140485635717
 30
0.0
 11
438.7320832894206
 21
342.3140485635717
 31
0.0
  0
LINE
  5
100F71
330
FFF16
100
AcDbEntity
  8
AM_5
440
 16777216
100
AcDbLine
 10
439.7320832894206
 20
378.8140485635716
 30
0.0
 11
439.7320832894206
 21
344.8140485635716
 31
0.0
  0
SOLID
  5
100F72
330
FFF16
100
AcDbEntity
  8
AM_5
440
 16777216
100
AcDbTrace
 10
439.3154166227539
 20
378.8140485635716
 30
0.0
 11
440.1487499560873
 21
378.8140485635716
 31
0.0
 12
439.7320832894206
 22
381.3140485635717
 32
0.0
 13
439.7320832894206
 23
381.3140485635717
 33
0.0
  0
SOLID
  5
100F73
330
FFF16
100
AcDbEntity
  8
AM_5
440
 16777216
100
AcDbTrace
 10
439.3154166227539
 20
344.8140485635716
 30
0.0
 11
440.1487499560873
 21
344.8140485635716
 31
0.0
 12
439.7320832894206
 22
342.3140485635717
 32
0.0
 13
439.7320832894206
 23
342.3140485635717
 33
0.0
  0
MTEXT
  5
100F74
330
FFF16
100
AcDbEntity
  8
AM_5
 62
     2
440
 16777216
100
AcDbMText
 10
436.4820832894205
 20
361.8140485635718
 30
0.0
 40
3.5
 41
0.0
 71
     5
 72
     1
  1
39
 11
0.0000000000000001
 21
1.0
 31
0.0
 73
     1
 44
1.0
  0
POINT
  5
100F75
330
FFF16
100
AcDbEntity
  8
Defpoints
 62
     0
440
 16777216
100
AcDbPoint
 10
454.191231360149
 20
381.3140485635717
 30
0.0
  0
POINT
  5
100F76
330
FFF16
100
AcDbEntity
  8
Defpoints
 62
     0
440
 16777216
100
AcDbPoint
 10
470.1912313601489
 20
342.3140485635717
 30
0.0
  0
POINT
  5
100F77
330
FFF16
100
AcDbEntity
  8
Defpoints
 62
     0
440
 16777216
100
AcDbPoint
 10
439.7320832894206
 20
342.3140485635717
 30
0.0
  0
ENDBLK
  5
FFF18
330
FFF16
100
AcDbEntity
  8
0
100
AcDbBlockEnd
  0
BLOCK
  5
1005AF
330
1005AE
100
AcDbEntity
  8
0
100
AcDbBlockBegin
  2
*D102
 70
     1
 10
0.0
 20
0.0
 30
0.0
  3
*D102
  1

  0
LINE
  5
100FDB
330
1005AE
100
AcDbEntity
  8
AM_5
440
 16777216
100
AcDbLine
 10
691.7070266191991
 20
270.1846571576488
 30
0.0
 11
691.7070266191991
 21
260.6058376470161
 31
0.0
  0
LINE
  5
100FDC
330
1005AE
100
AcDbEntity
  8
AM_5
440
 16777216
100
AcDbLine
 10
715.8911651883315
 20
270.1846571576488
 30
0.0
 11
715.8911651883315
 21
260.6058376470161
 31
0.0
  0
LINE
  5
100FDD
330
1005AE
100
AcDbEntity
  8
AM_5
440
 16777216
100
AcDbLine
 10
694.2070266191991
 20
261.6058376470161
 30
0.0
 11
713.3911651883314
 21
261.6058376470161
 31
0.0
  0
SOLID
  5
100FDE
330
1005AE
100
AcDbEntity
  8
AM_5
440
 16777216
100
AcDbTrace
 10
694.2070266191991
 20
262.0225043136827
 30
0.0
 11
694.2070266191991
 21
261.1891709803494
 31
0.0
 12
691.7070266191991
 22
261.6058376470161
 32
0.0
 13
691.7070266191991
 23
261.6058376470161
 33
0.0
  0
SOLID
  5
100FDF
330
1005AE
100
AcDbEntity
  8
AM_5
440
 16777216
100
AcDbTrace
 10
713.3911651883314
 20
262.0225043136827
 30
0.0
 11
713.3911651883314
 21
261.1891709803494
 31
0.0
 12
715.8911651883315
 22
261.6058376470161
 32
0.0
 13
715.8911651883315
 23
261.6058376470161
 33
0.0
  0
MTEXT
  5
100FE0
330
1005AE
100
AcDbEntity
  8
AM_5
 62
     2
440
 16777216
100
AcDbMText
 10
703.7990959037653
 20
264.8561821352051
 30
0.0
 40
3.5
 41
0.0
 71
     5
 72
     1
  1
24
 73
     1
 44
1.0
  0
POINT
  5
100FE1
330
1005AE
100
AcDbEntity
  8
Defpoints
 62
     0
440
 16777216
100
AcDbPoint
 10
691.7070266191991
 20
271.1846571576487
 30
0.0
  0
POINT
  5
100FE2
330
1005AE
100
AcDbEntity
  8
Defpoints
 62
     0
440
 16777216
100
AcDbPoint
 10
715.8911651883315
 20
271.1846571576487
 30
0.0
  0
POINT
  5
100FE3
330
1005AE
100
AcDbEntity
  8
Defpoints
 62
     0
440
 16777216
100
AcDbPoint
 10
715.8911651883315
 20
261.6058376470161
 30
0.0
  0
ENDBLK
  5
1005B0
330
1005AE
100
AcDbEntity
  8
0
100
AcDbBlockEnd
  0
BLOCK
  5
1005BB
330
1005BA
100
AcDbEntity
  8
0
100
AcDbBlockBegin
  2
*D103
 70
     1
 10
0.0
 20
0.0
 30
0.0
  3
*D103
  1

  0
LINE
  5
100FE4
330
1005BA
100
AcDbEntity
  8
AM_5
440
 16777216
100
AcDbLine
 10
678.7990959037653
 20
270.1846571576488
 30
0.0
 11
678.7990959037653
 21
260.6058376470161
 31
0.0
  0
LINE
  5
100FE5
330
1005BA
100
AcDbEntity
  8
AM_5
440
 16777216
100
AcDbLine
 10
691.7070266191991
 20
270.1846571576488
 30
0.0
 11
691.7070266191991
 21
260.6058376470161
 31
0.0
  0
LINE
  5
100FE6
330
1005BA
100
AcDbEntity
  8
AM_5
440
 16777216
100
AcDbLine
 10
681.2990959037652
 20
261.6058376470161
 30
0.0
 11
689.2070266191991
 21
261.6058376470161
 31
0.0
  0
SOLID
  5
100FE7
330
1005BA
100
AcDbEntity
  8
AM_5
440
 16777216
100
AcDbTrace
 10
681.2990959037652
 20
262.0225043136827
 30
0.0
 11
681.2990959037652
 21
261.1891709803494
 31
0.0
 12
678.7990959037653
 22
261.6058376470161
 32
0.0
 13
678.7990959037653
 23
261.6058376470161
 33
0.0
  0
SOLID
  5
100FE8
330
1005BA
100
AcDbEntity
  8
AM_5
440
 16777216
100
AcDbTrace
 10
689.2070266191991
 20
262.0225043136827
 30
0.0
 11
689.2070266191991
 21
261.1891709803494
 31
0.0
 12
691.7070266191991
 22
261.6058376470161
 32
0.0
 13
691.7070266191991
 23
261.6058376470161
 33
0.0
  0
MTEXT
  5
100FE9
330
1005BA
100
AcDbEntity
  8
AM_5
 62
     2
440
 16777216
100
AcDbMText
 10
685.2530612614822
 20
264.8558376470161
 30
0.0
 40
3.5
 41
0.0
 71
     5
 72
     1
  1
13
 73
     1
 44
1.0
  0
POINT
  5
100FEA
330
1005BA
100
AcDbEntity
  8
Defpoints
 62
     0
440
 16777216
100
AcDbPoint
 10
678.7990959037653
 20
271.1846571576487
 30
0.0
  0
POINT
  5
100FEB
330
1005BA
100
AcDbEntity
  8
Defpoints
 62
     0
440
 16777216
100
AcDbPoint
 10
691.7070266191991
 20
271.1846571576487
 30
0.0
  0
POINT
  5
100FEC
330
1005BA
100
AcDbEntity
  8
Defpoints
 62
     0
440
 16777216
100
AcDbPoint
 10
691.7070266191991
 20
261.6058376470161
 30
0.0
  0
ENDBLK
  5
1005BC
330
1005BA
100
AcDbEntity
  8
0
100
AcDbBlockEnd
  0
BLOCK
  5
1005C7
330
1005C6
100
AcDbEntity
  8
0
100
AcDbBlockBegin
  2
*D104
 70
     1
 10
0.0
 20
0.0
 30
0.0
  3
*D104
  1

  0
LINE
  5
100FC9
330
1005C6
100
AcDbEntity
  8
AM_5
440
 16777216
100
AcDbLine
 10
728.7990959037653
 20
270.1846571576488
 30
0.0
 11
728.7990959037653
 21
260.6058376470161
 31
0.0
  0
LINE
  5
100FCA
330
1005C6
100
AcDbEntity
  8
AM_5
440
 16777216
100
AcDbLine
 10
715.8911651883315
 20
270.1846571576488
 30
0.0
 11
715.8911651883315
 21
260.6058376470161
 31
0.0
  0
LINE
  5
100FCB
330
1005C6
100
AcDbEntity
  8
AM_5
440
 16777216
100
AcDbLine
 10
726.2990959037653
 20
261.6058376470161
 30
0.0
 11
718.3911651883314
 21
261.6058376470161
 31
0.0
  0
SOLID
  5
100FCC
330
1005C6
100
AcDbEntity
  8
AM_5
440
 16777216
100
AcDbTrace
 10
726.2990959037653
 20
262.0225043136827
 30
0.0
 11
726.2990959037653
 21
261.1891709803494
 31
0.0
 12
728.7990959037653
 22
261.6058376470161
 32
0.0
 13
728.7990959037653
 23
261.6058376470161
 33
0.0
  0
SOLID
  5
100FCD
330
1005C6
100
AcDbEntity
  8
AM_5
440
 16777216
100
AcDbTrace
 10
718.3911651883314
 20
262.0225043136827
 30
0.0
 11
718.3911651883314
 21
261.1891709803494
 31
0.0
 12
715.8911651883315
 22
261.6058376470161
 32
0.0
 13
715.8911651883315
 23
261.6058376470161
 33
0.0
  0
MTEXT
  5
100FCE
330
1005C6
100
AcDbEntity
  8
AM_5
 62
     2
440
 16777216
100
AcDbMText
 10
722.3451305460484
 20
264.8558376470161
 30
0.0
 40
3.5
 41
0.0
 71
     5
 72
     1
  1
13
 73
     1
 44
1.0
  0
POINT
  5
100FCF
330
1005C6
100
AcDbEntity
  8
Defpoints
 62
     0
440
 16777216
100
AcDbPoint
 10
728.7990959037653
 20
271.1846571576487
 30
0.0
  0
POINT
  5
100FD0
330
1005C6
100
AcDbEntity
  8
Defpoints
 62
     0
440
 16777216
100
AcDbPoint
 10
715.8911651883315
 20
271.1846571576487
 30
0.0
  0
POINT
  5
100FD1
330
1005C6
100
AcDbEntity
  8
Defpoints
 62
     0
440
 16777216
100
AcDbPoint
 10
715.8911651883315
 20
261.6058376470161
 30
0.0
  0
ENDBLK
  5
1005C8
330
1005C6
100
AcDbEntity
  8
0
100
AcDbBlockEnd
  0
BLOCK
  5
1006CF
330
1006CE
100
AcDbEntity
  8
0
100
AcDbBlockBegin
  2
*D124
 70
     1
 10
0.0
 20
0.0
 30
0.0
  3
*D124
  1

  0
LINE
  5
100FED
330
1006CE
100
AcDbEntity
  8
AM_5
440
 16777216
100
AcDbLine
 10
678.7990959037653
 20
384.3140485635716
 30
0.0
 11
678.7990959037653
 21
400.8989774404604
 31
0.0
  0
LINE
  5
100FEE
330
1006CE
100
AcDbEntity
  8
AM_5
440
 16777216
100
AcDbLine
 10
728.7990959037653
 20
384.3140485635716
 30
0.0
 11
728.7990959037653
 21
400.8989774404604
 31
0.0
  0
LINE
  5
100FEF
330
1006CE
100
AcDbEntity
  8
AM_5
440
 16777216
100
AcDbLine
 10
681.2990959037652
 20
399.8989774404604
 30
0.0
 11
726.2990959037653
 21
399.8989774404604
 31
0.0
  0
SOLID
  5
100FF0
330
1006CE
100
AcDbEntity
  8
AM_5
440
 16777216
100
AcDbTrace
 10
681.2990959037652
 20
400.315644107127
 30
0.0
 11
681.2990959037652
 21
399.4823107737937
 31
0.0
 12
678.7990959037653
 22
399.8989774404604
 32
0.0
 13
678.7990959037653
 23
399.8989774404604
 33
0.0
  0
SOLID
  5
100FF1
330
1006CE
100
AcDbEntity
  8
AM_5
440
 16777216
100
AcDbTrace
 10
726.2990959037653
 20
400.315644107127
 30
0.0
 11
726.2990959037653
 21
399.4823107737937
 31
0.0
 12
728.7990959037653
 22
399.8989774404604
 32
0.0
 13
728.7990959037653
 23
399.8989774404604
 33
0.0
  0
MTEXT
  5
100FF2
330
1006CE
100
AcDbEntity
  8
AM_5
 62
     2
440
 16777216
100
AcDbMText
 10
703.7990959037653
 20
403.1489774404604
 30
0.0
 40
3.5
 41
0.0
 71
     5
 72
     1
  1
50
 73
     1
 44
1.0
  0
POINT
  5
100FF3
330
1006CE
100
AcDbEntity
  8
Defpoints
 62
     0
440
 16777216
100
AcDbPoint
 10
678.7990959037653
 20
383.3140485635717
 30
0.0
  0
POINT
  5
100FF4
330
1006CE
100
AcDbEntity
  8
Defpoints
 62
     0
440
 16777216
100
AcDbPoint
 10
728.7990959037653
 20
383.3140485635717
 30
0.0
  0
POINT
  5
100FF5
330
1006CE
100
AcDbEntity
  8
Defpoints
 62
     0
440
 16777216
100
AcDbPoint
 10
728.7990959037653
 20
399.8989774404604
 30
0.0
  0
ENDBLK
  5
1006D0
330
1006CE
100
AcDbEntity
  8
0
100
AcDbBlockEnd
  0
BLOCK
  5
1006DB
330
1006DA
100
AcDbEntity
  8
0
100
AcDbBlockBegin
  2
*D125
 70
     1
 10
0.0
 20
0.0
 30
0.0
  3
*D125
  1

  0
LINE
  5
100FB7
330
1006DA
100
AcDbEntity
  8
AM_5
440
 16777216
100
AcDbLine
 10
677.7990959037652
 20
368.8140485635717
 30
0.0
 11
670.4839265212552
 21
368.8140485635717
 31
0.0
  0
LINE
  5
100FB8
330
1006DA
100
AcDbEntity
  8
AM_5
440
 16777216
100
AcDbLine
 10
677.7990959037652
 20
381.3140485635717
 30
0.0
 11
670.4839265212552
 21
381.3140485635717
 31
0.0
  0
LINE
  5
100FB9
330
1006DA
100
AcDbEntity
  8
AM_5
440
 16777216
100
AcDbLine
 10
671.4839265212551
 20
371.3140485635717
 30
0.0
 11
671.4839265212551
 21
378.8140485635716
 31
0.0
  0
SOLID
  5
100FBA
330
1006DA
100
AcDbEntity
  8
AM_5
440
 16777216
100
AcDbTrace
 10
671.0672598545885
 20
371.3140485635717
 30
0.0
 11
671.9005931879218
 21
371.3140485635717
 31
0.0
 12
671.4839265212551
 22
368.8140485635717
 32
0.0
 13
671.4839265212551
 23
368.8140485635717
 33
0.0
  0
SOLID
  5
100FBB
330
1006DA
100
AcDbEntity
  8
AM_5
440
 16777216
100
AcDbTrace
 10
671.0672598545885
 20
378.8140485635716
 30
0.0
 11
671.9005931879218
 21
378.8140485635716
 31
0.0
 12
671.4839265212551
 22
381.3140485635717
 32
0.0
 13
671.4839265212551
 23
381.3140485635717
 33
0.0
  0
MTEXT
  5
100FBC
330
1006DA
100
AcDbEntity
  8
AM_5
 62
     2
440
 16777216
100
AcDbMText
 10
668.2335820330661
 20
375.0640485635717
 30
0.0
 40
3.5
 41
0.0
 71
     5
 72
     1
  1
12.5
 11
0.0000000000000001
 21
1.0
 31
0.0
 73
     1
 44
1.0
  0
POINT
  5
100FBD
330
1006DA
100
AcDbEntity
  8
Defpoints
 62
     0
440
 16777216
100
AcDbPoint
 10
678.7990959037653
 20
368.8140485635717
 30
0.0
  0
POINT
  5
100FBE
330
1006DA
100
AcDbEntity
  8
Defpoints
 62
     0
440
 16777216
100
AcDbPoint
 10
678.7990959037653
 20
381.3140485635717
 30
0.0
  0
POINT
  5
100FBF
330
1006DA
100
AcDbEntity
  8
Defpoints
 62
     0
440
 16777216
100
AcDbPoint
 10
671.4839265212551
 20
381.3140485635717
 30
0.0
  0
ENDBLK
  5
1006DC
330
1006DA
100
AcDbEntity
  8
0
100
AcDbBlockEnd
  0
BLOCK
  5
1006E7
330
1006E6
100
AcDbEntity
  8
0
100
AcDbBlockBegin
  2
*D126
 70
     1
 10
0.0
 20
0.0
 30
0.0
  3
*D126
  1

  0
LINE
  5
100FD2
330
1006E6
100
AcDbEntity
  8
AM_5
440
 16777216
100
AcDbLine
 10
678.7990959037653
 20
295.1846571576488
 30
0.0
 11
663.3399478330369
 21
295.1846571576488
 31
0.0
  0
LINE
  5
100FD3
330
1006E6
100
AcDbEntity
  8
AM_5
440
 16777216
100
AcDbLine
 10
677.7990959037652
 20
271.1846571576487
 30
0.0
 11
663.3399478330369
 21
271.1846571576487
 31
0.0
  0
LINE
  5
100FD4
330
1006E6
100
AcDbEntity
  8
AM_5
440
 16777216
100
AcDbLine
 10
664.3399478330369
 20
292.6846571576488
 30
0.0
 11
664.3399478330369
 21
273.6846571576488
 31
0.0
  0
SOLID
  5
100FD5
330
1006E6
100
AcDbEntity
  8
AM_5
440
 16777216
100
AcDbTrace
 10
663.9232811663703
 20
292.6846571576488
 30
0.0
 11
664.7566144997036
 21
292.6846571576488
 31
0.0
 12
664.3399478330369
 22
295.1846571576488
 32
0.0
 13
664.3399478330369
 23
295.1846571576488
 33
0.0
  0
SOLID
  5
100FD6
330
1006E6
100
AcDbEntity
  8
AM_5
440
 16777216
100
AcDbTrace
 10
663.9232811663703
 20
273.6846571576488
 30
0.0
 11
664.7566144997036
 21
273.6846571576488
 31
0.0
 12
664.3399478330369
 22
271.1846571576487
 32
0.0
 13
664.3399478330369
 23
271.1846571576487
 33
0.0
  0
MTEXT
  5
100FD7
330
1006E6
100
AcDbEntity
  8
AM_5
 62
     2
440
 16777216
100
AcDbMText
 10
661.0896033448478
 20
283.1846571576489
 30
0.0
 40
3.5
 41
0.0
 71
     5
 72
     1
  1
24
 11
0.0000000000000001
 21
1.0
 31
0.0
 73
     1
 44
1.0
  0
POINT
  5
100FD8
330
1006E6
100
AcDbEntity
  8
Defpoints
 62
     0
440
 16777216
100
AcDbPoint
 10
679.7990959037653
 20
295.1846571576488
 30
0.0
  0
POINT
  5
100FD9
330
1006E6
100
AcDbEntity
  8
Defpoints
 62
     0
440
 16777216
100
AcDbPoint
 10
678.7990959037653
 20
271.1846571576487
 30
0.0
  0
POINT
  5
100FDA
330
1006E6
100
AcDbEntity
  8
Defpoints
 62
     0
440
 16777216
100
AcDbPoint
 10
664.3399478330369
 20
271.1846571576487
 30
0.0
  0
ENDBLK
  5
1006E8
330
1006E6
100
AcDbEntity
  8
0
100
AcDbBlockEnd
  0
BLOCK
  5
1006F3
330
1006F2
100
AcDbEntity
  8
0
100
AcDbBlockBegin
  2
*D127
 70
     1
 10
0.0
 20
0.0
 30
0.0
  3
*D127
  1

  0
LINE
  5
100FC0
330
1006F2
100
AcDbEntity
  8
AM_5
440
 16777216
100
AcDbLine
 10
677.7990959037652
 20
381.3140485635717
 30
0.0
 11
663.3399478330369
 21
381.3140485635717
 31
0.0
  0
LINE
  5
100FC1
330
1006F2
100
AcDbEntity
  8
AM_5
440
 16777216
100
AcDbLine
 10
693.7990959037652
 20
342.3140485635717
 30
0.0
 11
663.3399478330369
 21
342.3140485635717
 31
0.0
  0
LINE
  5
100FC2
330
1006F2
100
AcDbEntity
  8
AM_5
440
 16777216
100
AcDbLine
 10
664.3399478330369
 20
378.8140485635716
 30
0.0
 11
664.3399478330369
 21
344.8140485635716
 31
0.0
  0
SOLID
  5
100FC3
330
1006F2
100
AcDbEntity
  8
AM_5
440
 16777216
100
AcDbTrace
 10
663.9232811663703
 20
378.8140485635716
 30
0.0
 11
664.7566144997036
 21
378.8140485635716
 31
0.0
 12
664.3399478330369
 22
381.3140485635717
 32
0.0
 13
664.3399478330369
 23
381.3140485635717
 33
0.0
  0
SOLID
  5
100FC4
330
1006F2
100
AcDbEntity
  8
AM_5
440
 16777216
100
AcDbTrace
 10
663.9232811663703
 20
344.8140485635716
 30
0.0
 11
664.7566144997036
 21
344.8140485635716
 31
0.0
 12
664.3399478330369
 22
342.3140485635717
 32
0.0
 13
664.3399478330369
 23
342.3140485635717
 33
0.0
  0
MTEXT
  5
100FC5
330
1006F2
100
AcDbEntity
  8
AM_5
 62
     2
440
 16777216
100
AcDbMText
 10
661.0899478330368
 20
361.8140485635718
 30
0.0
 40
3.5
 41
0.0
 71
     5
 72
     1
  1
39
 11
0.0000000000000001
 21
1.0
 31
0.0
 73
     1
 44
1.0
  0
POINT
  5
100FC6
330
1006F2
100
AcDbEntity
  8
Defpoints
 62
     0
440
 16777216
100
AcDbPoint
 10
678.7990959037653
 20
381.3140485635717
 30
0.0
  0
POINT
  5
100FC7
330
1006F2
100
AcDbEntity
  8
Defpoints
 62
     0
440
 16777216
100
AcDbPoint
 10
694.7990959037653
 20
342.3140485635717
 30
0.0
  0
POINT
  5
100FC8
330
1006F2
100
AcDbEntity
  8
Defpoints
 62
     0
440
 16777216
100
AcDbPoint
 10
664.3399478330369
 20
342.3140485635717
 30
0.0
  0
ENDBLK
  5
1006F4
330
1006F2
100
AcDbEntity
  8
0
100
AcDbBlockEnd
  0
BLOCK
  5
10070D
330
10070C
100
AcDbEntity
  8
0
100
AcDbBlockBegin
  2
*D129
 70
     1
 10
0.0
 20
0.0
 30
0.0
  3
*D129
  1

  0
LINE
  5
100FF6
330
10070C
100
AcDbEntity
  8
AM_5
440
 16777216
100
AcDbLine
 10
611.8061390421656
 20
382.5140485635717
 30
0.0
 11
611.8061390421656
 21
400.8989774404604
 31
0.0
  0
LINE
  5
100FF7
330
10070C
100
AcDbEntity
  8
AM_5
440
 16777216
100
AcDbLine
 10
635.8061390421656
 20
384.3140485635716
 30
0.0
 11
635.8061390421656
 21
400.8989774404604
 31
0.0
  0
LINE
  5
100FF8
330
10070C
100
AcDbEntity
  8
AM_5
440
 16777216
100
AcDbLine
 10
614.3061390421657
 20
399.8989774404604
 30
0.0
 11
633.3061390421656
 21
399.8989774404604
 31
0.0
  0
SOLID
  5
100FF9
330
10070C
100
AcDbEntity
  8
AM_5
440
 16777216
100
AcDbTrace
 10
614.3061390421657
 20
400.315644107127
 30
0.0
 11
614.3061390421657
 21
399.4823107737937
 31
0.0
 12
611.8061390421656
 22
399.8989774404604
 32
0.0
 13
611.8061390421656
 23
399.8989774404604
 33
0.0
  0
SOLID
  5
100FFA
330
10070C
100
AcDbEntity
  8
AM_5
440
 16777216
100
AcDbTrace
 10
633.3061390421656
 20
400.315644107127
 30
0.0
 11
633.3061390421656
 21
399.4823107737937
 31
0.0
 12
635.8061390421656
 22
399.8989774404604
 32
0.0
 13
635.8061390421656
 23
399.8989774404604
 33
0.0
  0
MTEXT
  5
100FFB
330
10070C
100
AcDbEntity
  8
AM_5
 62
     2
440
 16777216
100
AcDbMText
 10
623.8061390421656
 20
403.1493219286494
 30
0.0
 40
3.5
 41
0.0
 71
     5
 72
     1
  1
24
 73
     1
 44
1.0
  0
POINT
  5
100FFC
330
10070C
100
AcDbEntity
  8
Defpoints
 62
     0
440
 16777216
100
AcDbPoint
 10
611.8061390421656
 20
381.5140485635717
 30
0.0
  0
POINT
  5
100FFD
330
10070C
100
AcDbEntity
  8
Defpoints
 62
     0
440
 16777216
100
AcDbPoint
 10
635.8061390421656
 20
383.3140485635717
 30
0.0
  0
POINT
  5
100FFE
330
10070C
100
AcDbEntity
  8
Defpoints
 62
     0
440
 16777216
100
AcDbPoint
 10
635.8061390421656
 20
399.8989774404604
 30
0.0
  0
ENDBLK
  5
10070E
330
10070C
100
AcDbEntity
  8
0
100
AcDbBlockEnd
  0
BLOCK
  5
100CAD
330
100CAC
100
AcDbEntity
  8
0
100
AcDbBlockBegin
  2
*D136
 70
     1
 10
0.0
 20
0.0
 30
0.0
  3
*D136
  1

  0
LINE
  5
100F78
330
100CAC
100
AcDbEntity
  8
AM_5
440
 16777216
100
AcDbLine
 10
453.1912313601489
 20
381.3140485635717
 30
0.0
 11
447.5951922536715
 21
381.3140485635717
 31
0.0
  0
LINE
  5
100F79
330
100CAC
100
AcDbEntity
  8
AM_5
440
 16777216
100
AcDbLine
 10
453.1912313601489
 20
371.8140485635716
 30
0.0
 11
447.5951922536715
 21
371.8140485635716
 31
0.0
  0
LINE
  5
100F7A
330
100CAC
100
AcDbEntity
  8
AM_5
440
 16777216
100
AcDbLine
 10
448.5951922536715
 20
378.8140485635716
 30
0.0
 11
448.5951922536715
 21
374.3140485635716
 31
0.0
  0
SOLID
  5
100F7B
330
100CAC
100
AcDbEntity
  8
AM_5
440
 16777216
100
AcDbTrace
 10
448.1785255870049
 20
378.8140485635716
 30
0.0
 11
449.0118589203382
 21
378.8140485635716
 31
0.0
 12
448.5951922536715
 22
381.3140485635717
 32
0.0
 13
448.5951922536715
 23
381.3140485635717
 33
0.0
  0
SOLID
  5
100F7C
330
100CAC
100
AcDbEntity
  8
AM_5
440
 16777216
100
AcDbTrace
 10
448.1785255870049
 20
374.3140485635716
 30
0.0
 11
449.0118589203382
 21
374.3140485635716
 31
0.0
 12
448.5951922536715
 22
371.8140485635716
 32
0.0
 13
448.5951922536715
 23
371.8140485635716
 33
0.0
  0
MTEXT
  5
100F7D
330
100CAC
100
AcDbEntity
  8
AM_5
 62
     2
440
 16777216
100
AcDbMText
 10
445.3451922536714
 20
376.4546885443283
 30
0.0
 40
3.5
 41
0.0
 71
     5
 72
     1
  1
9.5
 11
0.0000000000000001
 21
1.0
 31
0.0
 73
     1
 44
1.0
  0
POINT
  5
100F7E
330
100CAC
100
AcDbEntity
  8
Defpoints
 62
     0
440
 16777216
100
AcDbPoint
 10
454.191231360149
 20
381.3140485635717
 30
0.0
  0
POINT
  5
100F7F
330
100CAC
100
AcDbEntity
  8
Defpoints
 62
     0
440
 16777216
100
AcDbPoint
 10
454.191231360149
 20
371.8140485635716
 30
0.0
  0
POINT
  5
100F80
330
100CAC
100
AcDbEntity
  8
Defpoints
 62
     0
440
 16777216
100
AcDbPoint
 10
448.5951922536715
 20
371.8140485635716
 30
0.0
  0
ENDBLK
  5
100CAE
330
100CAC
100
AcDbEntity
  8
0
100
AcDbBlockEnd
  0
BLOCK
  5
1010B9
330
1010B8
100
AcDbEntity
  8
0
100
AcDbBlockBegin
  2
*D139
 70
     1
 10
0.0
 20
0.0
 30
0.0
  3
*D139
  1

  0
LINE
  5
101197
330
1010B8
100
AcDbEntity
  8
AM_5
440
 16777216
100
AcDbLine
 10
610.8061390421656
 20
381.3140485635717
 30
0.0
 11
597.8610891460387
 21
381.3140485635717
 31
0.0
  0
LINE
  5
101198
330
1010B8
100
AcDbEntity
  8
AM_5
440
 16777216
100
AcDbLine
 10
611.4951289058129
 20
382.0140485635716
 30
0.0
 11
597.8610891460387
 21
382.0140485635716
 31
0.0
  0
LINE
  5
101199
330
1010B8
100
AcDbEntity
  8
AM_5
440
 16777216
100
AcDbLine
 10
598.8610891460386
 20
378.8140485635716
 30
0.0
 11
598.8610891460386
 21
376.3140485635716
 31
0.0
  0
LINE
  5
10119A
330
1010B8
100
AcDbEntity
  8
AM_5
440
 16777216
100
AcDbLine
 10
598.8610891460386
 20
384.5140485635716
 30
0.0
 11
598.8610891460386
 21
399.4640485635716
 31
0.0
  0
LINE
  5
10119B
330
1010B8
100
AcDbEntity
  8
AM_5
440
 16777216
100
AcDbLine
 10
598.8610891460386
 20
381.3140485635717
 30
0.0
 11
598.8610891460386
 21
382.0140485635716
 31
0.0
  0
SOLID
  5
10119C
330
1010B8
100
AcDbEntity
  8
AM_5
440
 16777216
100
AcDbTrace
 10
598.444422479372
 20
378.8140485635716
 30
0.0
 11
599.2777558127053
 21
378.8140485635716
 31
0.0
 12
598.8610891460386
 22
381.3140485635717
 32
0.0
 13
598.8610891460386
 23
381.3140485635717
 33
0.0
  0
SOLID
  5
10119D
330
1010B8
100
AcDbEntity
  8
AM_5
440
 16777216
100
AcDbTrace
 10
598.444422479372
 20
384.5140485635716
 30
0.0
 11
599.2777558127053
 21
384.5140485635716
 31
0.0
 12
598.8610891460386
 22
382.0140485635716
 32
0.0
 13
598.8610891460386
 23
382.0140485635716
 33
0.0
  0
MTEXT
  5
10119E
330
1010B8
100
AcDbEntity
  8
AM_5
 62
     2
440
 16777216
100
AcDbMText
 10
595.6110891460386
 20
393.2390485635717
 30
0.0
 40
3.5
 41
0.0
 71
     5
 72
     1
  1
t=0.7
 11
0.0000000000000001
 21
1.0
 31
0.0
 73
     1
 44
1.0
  0
POINT
  5
10119F
330
1010B8
100
AcDbEntity
  8
Defpoints
 62
     0
440
 16777216
100
AcDbPoint
 10
611.8061390421656
 20
381.3140485635717
 30
0.0
  0
POINT
  5
1011A0
330
1010B8
100
AcDbEntity
  8
Defpoints
 62
     0
440
 16777216
100
AcDbPoint
 10
612.4951289058128
 20
382.0140485635716
 30
0.0
  0
POINT
  5
1011A1
330
1010B8
100
AcDbEntity
  8
Defpoints
 62
     0
440
 16777216
100
AcDbPoint
 10
598.8610891460386
 20
382.0140485635716
 30
0.0
  0
ENDBLK
  5
1010BA
330
1010B8
100
AcDbEntity
  8
0
100
AcDbBlockEnd
  0
ENDSEC
  0
SECTION
  2
ENTITIES
  0
DIMENSION
  5
FFCE1
330
1F
100
AcDbEntity
  8
AM_5
100
AcDbDimension
  2
*D23
 10
371.9496467603027
 20
382.0140485635717
 30
0.0
 11
368.6996467603027
 21
393.2390485635718
 31
0.0
 70
    32
  1
t=<>
 71
     5
 42
0.6999999999999887
  3
AM_ISO$0
100
AcDbAlignedDimension
 13
385.4031055045664
 23
381.3140485635717
 33
0.0
 14
385.9031055045664
 24
382.0140485635716
 34
0.0
 50
90.0
100
AcDbRotatedDimension
1001
ACAD_DSTYLE_DIMINSPECT
1070
   396
1000
100%
1070
   395
1000

1070
   394
1070
    33
1070
   393
1070
     0
1001
ACAD
1000
DSTYLE
1002
{
1070
     3
1000

1002
}
  0
LINE
  5
FFCE6
330
1F
100
AcDbEntity
  8
AM_5
100
AcDbLine
 10
386.1031055045664
 20
342.3140485635717
 30
0.0
 11
386.1031055045664
 21
371.1140485635717
 31
0.0
  0
LINE
  5
FFCE7
330
1F
100
AcDbEntity
  8
AM_5
100
AcDbLine
 10
386.1031055045664
 20
367.3140485635717
 30
0.0
 11
395.8869565735142
 21
358.6224218994182
 31
0.0
  0
LINE
  5
FFCE8
330
1F
100
AcDbEntity
  8
AM_5
100
AcDbLine
 10
386.1031055045664
 20
366.2439632250086
 30
0.0
 11
395.3556407004899
 21
358.0243387588161
 31
0.0
  0
LINE
  5
FFCE9
330
1F
100
AcDbEntity
  8
AM_5
100
AcDbLine
 10
385.4031055045664
 20
342.3140485635717
 30
0.0
 11
385.4031055045664
 21
371.6140485635717
 31
0.0
  0
LINE
  5
FFCED
330
1F
100
AcDbEntity
  8
AM_5
100
AcDbLine
 10
391.9703017989704
 20
354.890152905725
 30
0.0
 11
386.1031055045664
 21
352.3140485635717
 31
0.0
  0
LINE
  5
FFCEE
330
1F
100
AcDbEntity
  8
AM_5
100
AcDbLine
 10
386.1031055045664
 20
345.3805193773191
 30
0.0
 11
395.0502599966853
 21
353.2678559767255
 31
0.0
  0
LINE
  5
FFCEF
330
1F
100
AcDbEntity
  8
AM_5
100
AcDbLine
 10
386.1031055045664
 20
344.3140485635717
 30
0.0
 11
395.5792852917895
 21
352.6677457892267
 31
0.0
  0
LINE
  5
FFCF0
330
1F
100
AcDbEntity
  8
AM_5
100
AcDbLine
 10
395.0531962922458
 20
354.8993986060815
 30
0.0
 11
386.1031055045664
 21
357.2755289036954
 31
0.0
  0
LINE
  5
FFCF1
330
1F
100
AcDbEntity
  8
AM_5
100
AcDbLine
 10
394.8479180737839
 20
354.1261839832081
 30
0.0
 11
386.1031055045664
 21
356.4478156387526
 31
0.0
  0
LINE
  5
FFCF2
330
1F
100
AcDbEntity
  8
AM_5
100
AcDbLine
 10
391.9050080651972
 20
355.7352007902536
 30
0.0
 11
390.7302064586773
 21
355.2193817571302
 31
0.0
  0
LINE
  5
FFCF3
330
1F
100
AcDbEntity
  8
AM_5
100
AcDbLine
 10
386.1031055045664
 20
342.3140485635717
 30
0.0
 11
385.4031055045664
 21
342.3140485635717
 31
0.0
  0
LINE
  5
FFCF4
330
1F
100
AcDbEntity
  8
AM_5
100
AcDbLine
 10
390.7302064586773
 20
355.2193817571302
 30
0.0
 11
386.1031055045664
 21
353.1877649061931
 31
0.0
  0
LINE
  5
FFCF5
330
1F
100
AcDbEntity
  8
AM_5
100
AcDbLine
 10
385.3031055045664
 20
352.8365096608746
 30
0.0
 11
384.8031055045664
 21
352.6169751325506
 31
0.0
  0
LINE
  5
FFCF6
330
1F
100
AcDbEntity
  8
AM_5
100
AcDbLine
 10
384.8031055045664
 20
352.6169751325506
 30
0.0
 11
385.3031055045664
 21
351.9627933182531
 31
0.0
  0
LINE
  5
FFCF7
330
1F
100
AcDbEntity
  8
AM_5
100
AcDbLine
 10
384.8031055045664
 20
357.6206616470582
 30
0.0
 11
385.3031055045664
 21
356.6602050192835
 31
0.0
  0
LINE
  5
FFCF8
330
1F
100
AcDbEntity
  8
AM_5
100
AcDbLine
 10
385.3031055045664
 20
357.4879182842264
 30
0.0
 11
384.8031055045664
 21
357.6206616470582
 31
0.0
  0
LINE
  5
FFCF9
330
1F
100
AcDbEntity
  8
AM_5
100
AcDbLine
 10
395.2245804551884
 20
357.1927223080022
 30
0.0
 11
391.9050080651972
 21
355.7352007902536
 31
0.0
  0
ARC
  5
FFCFA
330
1F
100
AcDbEntity
  8
AM_5
100
AcDbCircle
 10
395.0235682798498
 20
357.6505367959398
 30
0.0
 40
1.3
100
AcDbArc
 50
293.7047915562025
 51
48.38324664880076
  0
ARC
  5
FFCFB
330
1F
100
AcDbEntity
  8
AM_5
100
AcDbCircle
 10
394.7196191872452
 20
353.6429248439123
 30
0.0
 40
1.3
100
AcDbArc
 50
311.3976897251383
 51
75.13171864150165
  0
LINE
  5
FFCFC
330
1F
100
AcDbEntity
  8
AM_5
100
AcDbLine
 10
393.1451034054903
 20
355.4059719388483
 30
0.0
 11
391.9703017989704
 21
354.890152905725
 31
0.0
  0
ARC
  5
FFCFD
330
1F
100
AcDbEntity
  8
AM_5
100
AcDbCircle
 10
394.7196191872452
 20
353.6429248439123
 30
0.0
 40
0.5
100
AcDbArc
 50
311.3976897251383
 51
75.13171864150165
  0
LINE
  5
FFCFE
330
1F
100
AcDbEntity
  8
AM_5
100
AcDbLine
 10
395.5461999357302
 20
356.4602191273019
 30
0.0
 11
393.1451034054903
 21
355.4059719388483
 31
0.0
  0
ARC
  5
FFCFF
330
1F
100
AcDbEntity
  8
AM_5
100
AcDbCircle
 10
395.0235682798498
 20
357.6505367959398
 30
0.0
 40
0.5
100
AcDbArc
 50
293.7047915562025
 51
48.38324664880076
  0
DIMENSION
  5
FFD03
330
1F
100
AcDbEntity
  8
AM_5
100
AcDbDimension
  2
*D31
 10
409.4031055045664
 20
399.8989774404604
 30
0.0
 11
397.4031055045664
 21
403.1493219286494
 31
0.0
 70
    32
  1
<>
 71
     5
 42
24.0
  3
AM_ISO$0
100
AcDbAlignedDimension
 13
385.4031055045664
 23
381.5140485635716
 33
0.0
 14
409.4031055045664
 24
383.3140485635717
 34
0.0
100
AcDbRotatedDimension
1001
ACAD_DSTYLE_DIMINSPECT
1070
   396
1000
100%
1070
   395
1000

1070
   394
1070
    33
1070
   393
1070
     0
  0
LINE
  5
FFD04
330
1F
100
AcDbEntity
  8
AM_5
100
AcDbLine
 10
409.4031055045664
 20
383.3140485635717
 30
0.0
 11
403.4031055045663
 21
382.0140485635716
 31
0.0
  0
LINE
  5
FFD05
330
1F
100
AcDbEntity
  8
AM_5
100
AcDbLine
 10
409.4031055045664
 20
382.597806441257
 30
0.0
 11
403.4031055045663
 21
381.3140485635717
 31
0.0
  0
LINE
  5
FFD07
330
1F
100
AcDbEntity
  8
AM_5
100
AcDbLine
 10
403.4031055045663
 20
382.0140485635717
 30
0.0
 11
385.9031055045664
 21
382.0140485635716
 31
0.0
  0
LINE
  5
FFD08
330
1F
100
AcDbEntity
  8
AM_5
100
AcDbLine
 10
401.5341357991514
 20
381.3140485635717
 30
0.0
 11
386.1031055045664
 21
381.3140485635717
 31
0.0
  0
LINE
  5
FFD09
330
1F
100
AcDbEntity
  8
AM_5
100
AcDbLine
 10
396.9031055045664
 20
371.8140485635716
 30
0.0
 11
386.1031055045664
 21
371.8140485635716
 31
0.0
  0
LINE
  5
FFD0A
330
1F
100
AcDbEntity
  8
AM_5
100
AcDbLine
 10
396.9031055045664
 20
371.1140485635717
 30
0.0
 11
385.9031055045664
 21
371.1140485635717
 31
0.0
  0
LINE
  5
FFD0B
330
1F
100
AcDbEntity
  8
AM_5
100
AcDbLine
 10
385.4031055045664
 20
371.6140485635717
 30
0.0
 11
385.4031055045664
 21
381.5140485635716
 31
0.0
  0
LINE
  5
FFD0C
330
1F
100
AcDbEntity
  8
AM_5
100
AcDbLine
 10
386.1031055045663
 20
371.8140485635716
 30
0.0
 11
386.1031055045664
 21
381.3140485635717
 31
0.0
  0
LINE
  5
FFD0D
330
1F
100
AcDbEntity
  8
AM_5
100
AcDbLine
 10
383.4031055045664
 20
373.8140485635716
 30
0.0
 11
388.1031055045663
 21
373.8140485635716
 31
0.0
  0
ARC
  5
FFD0E
330
1F
100
AcDbEntity
  8
AM_5
100
AcDbCircle
 10
385.9031055045664
 20
371.6140485635717
 30
0.0
 40
0.5
100
AcDbArc
 50
180.0
 51
270.0
  0
LINE
  5
FFD0F
330
1F
100
AcDbEntity
  8
AM_5
100
AcDbLine
 10
385.4031055045664
 20
374.8600832058547
 30
0.0
 11
386.1031055045663
 21
374.8600832058547
 31
0.0
  0
ARC
  5
FFD10
330
1F
100
AcDbEntity
  8
AM_5
100
AcDbCircle
 10
385.9031055045664
 20
381.5140485635716
 30
0.0
 40
0.5
100
AcDbArc
 50
90.0
 51
180.0
  0
LINE
  5
FFD11
330
1F
100
AcDbEntity
  8
AM_5
100
AcDbLine
 10
396.9031055045664
 20
371.8140485635716
 30
0.0
 11
396.9031055045664
 21
371.1140485635717
 31
0.0
  0
LINE
  5
FFD12
330
1F
100
AcDbEntity
  8
AM_5
100
AcDbLine
 10
403.5513328474705
 20
381.3299223655529
 30
0.0
 11
399.5513328474705
 21
379.8140485635717
 31
0.0
  0
LINE
  5
FFD13
330
1F
100
AcDbEntity
  8
AM_5
100
AcDbLine
 10
401.5341357991514
 20
381.3140485635717
 30
0.0
 11
399.5513328474705
 21
380.5626288013355
 31
0.0
  0
LINE
  5
FFD14
330
1F
100
AcDbEntity
  8
AM_5
100
AcDbLine
 10
399.5513328474705
 20
380.5626288013355
 30
0.0
 11
399.5513328474705
 21
379.8140485635717
 31
0.0
  0
LINE
  5
FFD15
330
1F
100
AcDbEntity
  8
AM_5
100
AcDbLine
 10
401.5341357991514
 20
381.3140485635717
 30
0.0
 11
403.4031055045663
 21
382.0140485635716
 31
0.0
  0
LINE
  5
FFD16
330
1F
100
AcDbEntity
  8
AM_5
100
AcDbLine
 10
401.5341357991514
 20
381.3140485635717
 30
0.0
 11
403.4031055045663
 21
381.3140485635717
 31
0.0
  0
LINE
  5
FFD18
330
1F
100
AcDbEntity
  8
AM_5
100
AcDbLine
 10
409.4031055045664
 20
383.3140485635717
 30
0.0
 11
409.4031055045664
 21
382.597806441257
 31
0.0
  0
DIMENSION
  5
FFD1B
330
1F
100
AcDbEntity
  8
AM_5
100
AcDbDimension
  2
*D35
 10
491.2833006447151
 20
260.0163948208757
 30
0.0
 11
479.191231360149
 21
263.2667393090647
 31
0.0
 70
    32
  1
24
 71
     5
 42
24.1841385691323
  3
AM_ISO$0
100
AcDbAlignedDimension
 13
467.0991620755828
 23
271.1846571576487
 33
0.0
 14
491.2833006447151
 24
271.1846571576487
 34
0.0
100
AcDbRotatedDimension
1001
ACAD_DSTYLE_DIMINSPECT
1070
   396
1000
100%
1070
   395
1000

1070
   394
1070
    33
1070
   393
1070
     0
  0
LINE
  5
FFD1C
330
1F
100
AcDbEntity
  8
AM_5
100
AcDbLine
 10
454.191231360149
 20
271.8846571576488
 30
0.0
 11
504.191231360149
 21
271.8846571576488
 31
0.0
  0
LINE
  5
FFD1D
330
1F
100
AcDbEntity
  8
AM_5
100
AcDbLine
 10
454.191231360149
 20
271.1846571576487
 30
0.0
 11
504.191231360149
 21
271.1846571576487
 31
0.0
  0
LINE
  5
FFD1E
330
1F
100
AcDbEntity
  8
AM_5
100
AcDbLine
 10
504.191231360149
 20
271.1846571576487
 30
0.0
 11
454.191231360149
 21
271.1846571576487
 31
0.0
  0
LWPOLYLINE
  5
FFD1F
330
1F
100
AcDbEntity
  8
AM_5
100
AcDbPolyline
 90
        2
 70
     0
 43
0.0
 10
503.1912313601489
 20
295.1846571576488
 10
455.191231360149
 20
295.1846571576488
  0
LINE
  5
FFD20
330
1F
100
AcDbEntity
  8
AM_5
100
AcDbLine
 10
454.191231360149
 20
289.1846571576488
 30
0.0
 11
504.191231360149
 21
289.1846571576488
 31
0.0
  0
DIMENSION
  5
FFD21
330
1F
100
AcDbEntity
  8
AM_5
100
AcDbDimension
  2
*D36
 10
467.0991620755828
 20
260.0163948208757
 30
0.0
 11
460.6451967178659
 21
263.2663948208757
 31
0.0
 70
    32
  1
13
 71
     5
 42
12.90793071543385
  3
AM_ISO$0
100
AcDbAlignedDimension
 13
454.191231360149
 23
271.1846571576487
 33
0.0
 14
467.0991620755828
 24
271.1846571576487
 34
0.0
100
AcDbRotatedDimension
1001
ACAD_DSTYLE_DIMINSPECT
1070
   396
1000
100%
1070
   395
1000

1070
   394
1070
    33
1070
   393
1070
     0
  0
LWPOLYLINE
  5
FFD22
330
1F
100
AcDbEntity
  8
AM_5
100
AcDbPolyline
 90
        3
 70
     0
 43
0.0
 10
474.1912313601489
 20
271.5212530288783
 10
475.691231360149
 20
268.923176817525
 10
477.191231360149
 20
271.5212530288783
  0
LWPOLYLINE
  5
FFD23
330
1F
100
AcDbEntity
  8
AM_5
100
AcDbPolyline
 90
        3
 70
     0
 43
0.0
 10
481.191231360149
 20
271.5212530288783
 10
482.6912313601491
 20
268.923176817525
 10
484.1912313601491
 20
271.5212530288783
  0
DIMENSION
  5
FFD26
330
1F
100
AcDbEntity
  8
AM_5
100
AcDbDimension
  2
*D39
 10
439.7320832894206
 20
271.1846571576487
 30
0.0
 11
436.4817388012316
 21
283.1846571576489
 31
0.0
 70
    32
 71
     5
 42
24.0
  3
AM_ISO$0
100
AcDbAlignedDimension
 13
455.191231360149
 23
295.1846571576488
 33
0.0
 14
454.191231360149
 24
271.1846571576487
 34
0.0
 50
90.0
100
AcDbRotatedDimension
1001
ACAD_DSTYLE_DIMINSPECT
1070
   396
1000
100%
1070
   395
1000

1070
   394
1070
    33
1070
   393
1070
     0
  0
LINE
  5
FFD27
330
1F
100
AcDbEntity
  8
AM_5
100
AcDbLine
 10
467.0991620755828
 20
271.1846571576487
 30
0.0
 11
454.191231360149
 21
271.1846571576487
 31
0.0
  0
LINE
  5
FFD28
330
1F
100
AcDbEntity
  8
AM_5
100
AcDbLine
 10
454.191231360149
 20
294.1846571576487
 30
0.0
 11
455.191231360149
 21
295.1846571576488
 31
0.0
  0
ARC
  5
FFD29
330
1F
100
AcDbEntity
  8
AM_5
100
AcDbCircle
 10
455.191231360149
 20
281.6846571576487
 30
0.0
 40
1.0
100
AcDbArc
 50
90.0
 51
180.0
  0
LINE
  5
FFD2B
330
1F
100
AcDbEntity
  8
AM_5
100
AcDbLine
 10
454.191231360149
 20
271.1846571576487
 30
0.0
 11
454.191231360149
 21
294.1846571576487
 31
0.0
  0
LINE
  5
FFD2C
330
1F
100
AcDbEntity
  8
AM_5
100
AcDbLine
 10
454.191231360149
 20
271.1846571576487
 30
0.0
 11
454.191231360149
 21
294.1846571576487
 31
0.0
  0
LINE
  5
FFD2E
330
1F
100
AcDbEntity
  8
AM_5
100
AcDbLine
 10
454.191231360149
 20
281.6846571576487
 30
0.0
 11
454.191231360149
 21
271.1846571576487
 31
0.0
  0
LINE
  5
FFD2F
330
1F
100
AcDbEntity
  8
AM_5
100
AcDbLine
 10
467.0991620755828
 20
281.6846571576487
 30
0.0
 11
467.0991620755828
 21
271.1846571576487
 31
0.0
  0
LINE
  5
FFD30
330
1F
100
AcDbEntity
  8
AM_5
100
AcDbLine
 10
466.0991620755829
 20
282.6846571576488
 30
0.0
 11
455.191231360149
 21
282.6846571576488
 31
0.0
  0
LWPOLYLINE
  5
FFD31
330
1F
100
AcDbEntity
  8
AM_5
100
AcDbPolyline
 90
        4
 70
     1
 43
0.0
 10
463.191231360149
 20
282.6846571576488
 10
466.691231360149
 20
282.6846571576488
 10
466.691231360149
 20
289.1846571576488
 10
463.191231360149
 20
289.1846571576488
  0
ARC
  5
FFD32
330
1F
100
AcDbEntity
  8
AM_5
100
AcDbCircle
 10
466.0991620755829
 20
281.6846571576487
 30
0.0
 40
1.0
100
AcDbArc
 50
0.0
 51
90.0
  0
LINE
  5
FFD33
330
1F
100
AcDbEntity
  8
AM_5
100
AcDbLine
 10
477.191231360149
 20
271.5212530288783
 30
0.0
 11
477.191231360149
 21
280.923176817525
 31
0.0
  0
LINE
  5
FFD34
330
1F
100
AcDbEntity
  8
AM_5
100
AcDbLine
 10
474.1912313601489
 20
271.5212530288783
 30
0.0
 11
474.1912313601489
 21
280.923176817525
 31
0.0
  0
LINE
  5
FFD35
330
1F
100
AcDbEntity
  8
AM_5
100
AcDbLine
 10
474.1912313601489
 20
280.923176817525
 30
0.0
 11
477.191231360149
 21
280.923176817525
 31
0.0
  0
LINE
  5
FFD36
330
1F
100
AcDbEntity
  8
AM_5
100
AcDbLine
 10
484.1912313601491
 20
271.5212530288783
 30
0.0
 11
484.1912313601491
 21
280.923176817525
 31
0.0
  0
LINE
  5
FFD37
330
1F
100
AcDbEntity
  8
AM_5
100
AcDbLine
 10
481.191231360149
 20
271.5212530288783
 30
0.0
 11
481.191231360149
 21
280.923176817525
 31
0.0
  0
LINE
  5
FFD38
330
1F
100
AcDbEntity
  8
AM_5
100
AcDbLine
 10
481.191231360149
 20
280.923176817525
 30
0.0
 11
484.1912313601491
 21
280.923176817525
 31
0.0
  0
DIMENSION
  5
FFD3A
330
1F
100
AcDbEntity
  8
AM_5
100
AcDbDimension
  2
*D43
 10
491.2833006447151
 20
260.0163948208757
 30
0.0
 11
497.7372660024321
 21
263.2663948208757
 31
0.0
 70
    32
  1
13
 71
     5
 42
12.90793071543385
  3
AM_ISO$0
100
AcDbAlignedDimension
 13
504.191231360149
 23
271.1846571576487
 33
0.0
 14
491.2833006447151
 24
271.1846571576487
 34
0.0
100
AcDbRotatedDimension
1001
ACAD_DSTYLE_DIMINSPECT
1070
   396
1000
100%
1070
   395
1000

1070
   394
1070
    33
1070
   393
1070
     0
  0
LINE
  5
FFD3B
330
1F
100
AcDbEntity
  8
AM_5
100
AcDbLine
 10
504.191231360149
 20
271.1846571576487
 30
0.0
 11
504.191231360149
 21
294.1846571576487
 31
0.0
  0
LINE
  5
FFD3C
330
1F
100
AcDbEntity
  8
AM_5
100
AcDbLine
 10
491.2833006447151
 20
271.1846571576487
 30
0.0
 11
504.191231360149
 21
271.1846571576487
 31
0.0
  0
ARC
  5
FFD3D
330
1F
100
AcDbEntity
  8
AM_5
100
AcDbCircle
 10
503.1912313601489
 20
281.6846571576487
 30
0.0
 40
1.0
100
AcDbArc
 50
0.0
 51
90.0
  0
LINE
  5
FFD3E
330
1F
100
AcDbEntity
  8
AM_5
100
AcDbLine
 10
491.2833006447151
 20
281.6846571576487
 30
0.0
 11
491.2833006447151
 21
271.1846571576487
 31
0.0
  0
LINE
  5
FFD3F
330
1F
100
AcDbEntity
  8
AM_5
100
AcDbLine
 10
492.2833006447151
 20
282.6846571576488
 30
0.0
 11
503.1912313601489
 21
282.6846571576488
 31
0.0
  0
LWPOLYLINE
  5
FFD40
330
1F
100
AcDbEntity
  8
AM_5
100
AcDbPolyline
 90
        4
 70
     1
 43
0.0
 10
491.7912313601489
 20
282.6846571576488
 10
495.1912313601489
 20
282.6846571576488
 10
495.1912313601489
 20
289.1846571576488
 10
491.7912313601489
 20
289.1846571576488
  0
ARC
  5
FFD41
330
1F
100
AcDbEntity
  8
AM_5
100
AcDbCircle
 10
492.2833006447151
 20
281.6846571576487
 30
0.0
 40
1.0
100
AcDbArc
 50
90.0
 51
180.0
  0
LINE
  5
FFD42
330
1F
100
AcDbEntity
  8
AM_5
100
AcDbLine
 10
504.191231360149
 20
281.6846571576487
 30
0.0
 11
504.191231360149
 21
271.1846571576487
 31
0.0
  0
LINE
  5
FFD44
330
1F
100
AcDbEntity
  8
AM_5
100
AcDbLine
 10
504.191231360149
 20
294.1846571576487
 30
0.0
 11
503.1912313601489
 21
295.1846571576488
 31
0.0
  0
DIMENSION
  5
FFD49
330
1F
100
AcDbEntity
  8
AM_5
100
AcDbDimension
  2
*D49
 10
504.191231360149
 20
399.8989774404604
 30
0.0
 11
479.191231360149
 21
403.1489774404604
 31
0.0
 70
    32
  1
<>
 71
     5
 42
50.0
  3
AM_ISO$0
100
AcDbAlignedDimension
 13
454.191231360149
 23
383.3140485635717
 33
0.0
 14
504.191231360149
 24
383.3140485635717
 34
0.0
100
AcDbRotatedDimension
1001
ACAD_DSTYLE_DIMINSPECT
1070
   396
1000
100%
1070
   395
1000

1070
   394
1070
    33
1070
   393
1070
     0
  0
LINE
  5
FFD4B
330
1F
100
AcDbEntity
  8
AM_5
100
AcDbLine
 10
470.1912313601489
 20
342.3140485635717
 30
0.0
 11
488.191231360149
 21
342.3140485635717
 31
0.0
  0
LINE
  5
FFD4C
330
1F
100
AcDbEntity
  8
AM_5
100
AcDbLine
 10
454.191231360149
 20
381.3140485635717
 30
0.0
 11
504.191231360149
 21
381.3140485635717
 31
0.0
  0
LINE
  5
FFD4D
330
1F
100
AcDbEntity
  8
AM_5
100
AcDbLine
 10
454.191231360149
 20
383.3140485635717
 30
0.0
 11
504.191231360149
 21
383.3140485635717
 31
0.0
  0
LINE
  5
FFD4E
330
1F
100
AcDbEntity
  8
AM_5
100
AcDbLine
 10
504.191231360149
 20
382.6140485635717
 30
0.0
 11
454.191231360149
 21
382.6140485635717
 31
0.0
  0
LINE
  5
FFD4F
330
1F
100
AcDbEntity
  8
AM_5
100
AcDbLine
 10
454.191231360149
 20
381.3140485635717
 30
0.0
 11
504.191231360149
 21
381.3140485635717
 31
0.0
  0
LINE
  5
FFD50
330
1F
100
AcDbEntity
  8
AM_5
100
AcDbLine
 10
493.2833006447151
 20
373.8140485635716
 30
0.0
 11
487.191231360149
 21
373.8140485635716
 31
0.0
  0
DIMENSION
  5
FFD55
330
1F
100
AcDbEntity
  8
AM_5
100
AcDbDimension
  2
*D52
 10
439.7320832894206
 20
342.3140485635717
 30
0.0
 11
436.4820832894205
 21
361.8140485635718
 31
0.0
 70
    32
 71
     5
 42
39.0
  3
AM_ISO$0
100
AcDbAlignedDimension
 13
454.191231360149
 23
381.3140485635717
 33
0.0
 14
470.1912313601489
 24
342.3140485635717
 34
0.0
 50
90.0
100
AcDbRotatedDimension
1001
ACAD_DSTYLE_DIMINSPECT
1070
   396
1000
100%
1070
   395
1000

1070
   394
1070
    33
1070
   393
1070
     0
  0
LINE
  5
FFD56
330
1F
100
AcDbEntity
  8
AM_5
100
AcDbLine
 10
469.1912313601489
 20
373.8140485635716
 30
0.0
 11
469.1912313601489
 21
343.3140485635716
 31
0.0
  0
LINE
  5
FFD57
330
1F
100
AcDbEntity
  8
AM_5
100
AcDbLine
 10
474.1912313601489
 20
344.3140485635717
 30
0.0
 11
474.1912313601489
 21
365.7159723522183
 31
0.0
  0
LINE
  5
FFD58
330
1F
100
AcDbEntity
  8
AM_5
100
AcDbLine
 10
477.191231360149
 20
365.7159723522183
 30
0.0
 11
477.191231360149
 21
344.3140485635717
 31
0.0
  0
LINE
  5
FFD59
330
1F
100
AcDbEntity
  8
AM_5
100
AcDbLine
 10
484.191231360149
 20
346.912124774925
 30
0.0
 11
484.191231360149
 21
368.3140485635716
 31
0.0
  0
LINE
  5
FFD5A
330
1F
100
AcDbEntity
  8
AM_5
100
AcDbLine
 10
481.191231360149
 20
368.3140485635716
 30
0.0
 11
481.191231360149
 21
346.912124774925
 31
0.0
  0
LINE
  5
FFD5F
330
1F
100
AcDbEntity
  8
AM_5
100
AcDbLine
 10
469.1912313601489
 20
343.3140485635716
 30
0.0
 11
470.1912313601489
 21
342.3140485635717
 31
0.0
  0
LINE
  5
FFD60
330
1F
100
AcDbEntity
  8
AM_5
100
AcDbLine
 10
477.191231360149
 20
344.3140485635717
 30
0.0
 11
474.1912313601489
 21
344.3140485635717
 31
0.0
  0
LINE
  5
FFD61
330
1F
100
AcDbEntity
  8
AM_5
100
AcDbLine
 10
477.191231360149
 20
344.3140485635717
 30
0.0
 11
474.1912313601489
 21
344.3140485635717
 31
0.0
  0
LINE
  5
FFD62
330
1F
100
AcDbEntity
  8
AM_5
100
AcDbLine
 10
477.191231360149
 20
344.3140485635717
 30
0.0
 11
474.1912313601489
 21
344.3140485635717
 31
0.0
  0
LINE
  5
FFD63
330
1F
100
AcDbEntity
  8
AM_5
100
AcDbLine
 10
477.191231360149
 20
345.1140485635717
 30
0.0
 11
474.1912313601489
 21
345.1140485635717
 31
0.0
  0
LWPOLYLINE
  5
FFD64
330
1F
100
AcDbEntity
  8
AM_5
100
AcDbPolyline
 90
        3
 70
     0
 43
0.0
 10
481.191231360149
 20
346.912124774925
 10
482.6912313601489
 20
344.3140485635717
 10
484.191231360149
 20
346.912124774925
  0
LINE
  5
FFD65
330
1F
100
AcDbEntity
  8
AM_5
100
AcDbLine
 10
475.691231360149
 20
356.3140485635717
 30
0.0
 11
475.691231360149
 21
359.3140485635716
 31
0.0
  0
LINE
  5
FFD66
330
1F
100
AcDbEntity
  8
AM_5
100
AcDbLine
 10
475.691231360149
 20
356.3140485635717
 30
0.0
 11
474.1912313601489
 21
355.3140485635716
 31
0.0
  0
LINE
  5
FFD67
330
1F
100
AcDbEntity
  8
AM_5
100
AcDbLine
 10
475.6334518703346
 20
355.3140485635716
 30
0.0
 11
474.1912313601489
 21
354.3525682234479
 31
0.0
  0
LINE
  5
FFD68
330
1F
100
AcDbEntity
  8
AM_5
100
AcDbLine
 10
477.191231360149
 20
355.3140485635716
 30
0.0
 11
475.691231360149
 21
356.3140485635717
 31
0.0
  0
LINE
  5
FFD69
330
1F
100
AcDbEntity
  8
AM_5
100
AcDbLine
 10
477.191231360149
 20
354.3525682234478
 30
0.0
 11
475.7490108499633
 21
355.3140485635716
 31
0.0
  0
LINE
  5
FFD6A
330
1F
100
AcDbEntity
  8
AM_5
100
AcDbLine
 10
475.691231360149
 20
359.3140485635716
 30
0.0
 11
474.1912313601489
 21
358.3140485635717
 31
0.0
  0
LINE
  5
FFD6B
330
1F
100
AcDbEntity
  8
AM_5
100
AcDbLine
 10
477.191231360149
 20
358.3140485635717
 30
0.0
 11
475.691231360149
 21
359.3140485635716
 31
0.0
  0
LINE
  5
FFD6C
330
1F
100
AcDbEntity
  8
AM_5
100
AcDbLine
 10
482.7490108499634
 20
356.3140485635717
 30
0.0
 11
484.191231360149
 21
357.2755289036954
 31
0.0
  0
LINE
  5
FFD6D
330
1F
100
AcDbEntity
  8
AM_5
100
AcDbLine
 10
481.191231360149
 20
357.2755289036954
 30
0.0
 11
482.6334518703346
 21
356.3140485635717
 31
0.0
  0
LINE
  5
FFD6E
330
1F
100
AcDbEntity
  8
AM_5
100
AcDbLine
 10
482.6912313601489
 20
352.3140485635717
 30
0.0
 11
484.191231360149
 21
353.3140485635716
 31
0.0
  0
LINE
  5
FFD6F
330
1F
100
AcDbEntity
  8
AM_5
100
AcDbLine
 10
482.6912313601489
 20
355.3140485635716
 30
0.0
 11
484.191231360149
 21
356.3140485635717
 31
0.0
  0
LINE
  5
FFD70
330
1F
100
AcDbEntity
  8
AM_5
100
AcDbLine
 10
482.6912313601489
 20
355.3140485635716
 30
0.0
 11
482.6912313601489
 21
352.3140485635717
 31
0.0
  0
LINE
  5
FFD71
330
1F
100
AcDbEntity
  8
AM_5
100
AcDbLine
 10
481.191231360149
 20
353.3140485635716
 30
0.0
 11
482.6912313601489
 21
352.3140485635717
 31
0.0
  0
LINE
  5
FFD72
330
1F
100
AcDbEntity
  8
AM_5
100
AcDbLine
 10
481.191231360149
 20
356.3140485635717
 30
0.0
 11
482.6912313601489
 21
355.3140485635716
 31
0.0
  0
LINE
  5
FFD73
330
1F
100
AcDbEntity
  8
AM_5
100
AcDbLine
 10
454.191231360149
 20
371.8140485635716
 30
0.0
 11
467.0991620755828
 21
371.8140485635716
 31
0.0
  0
LINE
  5
FFD74
330
1F
100
AcDbEntity
  8
AM_5
100
AcDbLine
 10
454.191231360149
 20
371.1140485635717
 30
0.0
 11
467.0991620755828
 21
371.1140485635717
 31
0.0
  0
LINE
  5
FFD76
330
1F
100
AcDbEntity
  8
AM_5
100
AcDbLine
 10
454.191231360149
 20
383.3140485635717
 30
0.0
 11
454.191231360149
 21
371.8140485635716
 31
0.0
  0
LINE
  5
FFD77
330
1F
100
AcDbEntity
  8
AM_5
100
AcDbLine
 10
454.191231360149
 20
381.3140485635717
 30
0.0
 11
454.191231360149
 21
371.1140485635717
 31
0.0
  0
LINE
  5
FFD79
330
1F
100
AcDbEntity
  8
AM_5
100
AcDbLine
 10
471.191231360149
 20
373.8140485635716
 30
0.0
 11
465.0991620755828
 21
373.8140485635716
 31
0.0
  0
LINE
  5
FFD7A
330
1F
100
AcDbEntity
  8
AM_5
100
AcDbLine
 10
468.1451967178658
 20
376.8600832058547
 30
0.0
 11
468.1451967178658
 21
370.7680139212886
 31
0.0
  0
ARC
  5
FFD7B
330
1F
100
AcDbEntity
  8
AM_5
100
AcDbCircle
 10
468.1451967178658
 20
373.8140485635716
 30
0.0
 40
1.046034642283075
100
AcDbArc
 50
0.0
 51
180.0
  0
LINE
  5
FFD7C
330
1F
100
AcDbEntity
  8
AM_5
100
AcDbLine
 10
467.0991620755828
 20
371.1140485635717
 30
0.0
 11
467.0991620755828
 21
373.8140485635716
 31
0.0
  0
LWPOLYLINE
  5
FFD7D
330
1F
100
AcDbEntity
  8
AM_5
100
AcDbPolyline
 90
        4
 70
     1
 43
0.0
 10
463.191231360149
 20
381.3140485635717
 10
466.691231360149
 20
381.3140485635717
 10
466.691231360149
 20
379.8140485635717
 10
463.191231360149
 20
379.8140485635717
  0
LWPOLYLINE
  5
FFD87
330
1F
100
AcDbEntity
  8
AM_5
100
AcDbPolyline
 90
        3
 70
     0
 43
0.0
 10
474.1912313601489
 20
365.7159723522183
 10
475.691231360149
 20
368.3140485635716
 10
477.191231360149
 20
365.7159723522183
  0
LINE
  5
FFD8B
330
1F
100
AcDbEntity
  8
AM_5
100
AcDbLine
 10
481.191231360149
 20
368.3140485635716
 30
0.0
 11
484.191231360149
 21
368.3140485635716
 31
0.0
  0
LINE
  5
FFDA5
330
1F
100
AcDbEntity
  8
AM_5
100
AcDbLine
 10
489.191231360149
 20
343.3140485635716
 30
0.0
 11
489.191231360149
 21
373.8140485635716
 31
0.0
  0
LINE
  5
FFDA8
330
1F
100
AcDbEntity
  8
AM_5
100
AcDbLine
 10
489.191231360149
 20
343.3140485635716
 30
0.0
 11
488.191231360149
 21
342.3140485635717
 31
0.0
  0
LINE
  5
FFDAA
330
1F
100
AcDbEntity
  8
AM_5
100
AcDbLine
 10
491.2833006447151
 20
371.8140485635716
 30
0.0
 11
504.191231360149
 21
371.8140485635716
 31
0.0
  0
LINE
  5
FFDAB
330
1F
100
AcDbEntity
  8
AM_5
100
AcDbLine
 10
491.2833006447151
 20
371.1140485635716
 30
0.0
 11
504.191231360149
 21
371.1140485635717
 31
0.0
  0
LINE
  5
FFDAC
330
1F
100
AcDbEntity
  8
AM_5
100
AcDbLine
 10
490.2372660024321
 20
376.8600832058547
 30
0.0
 11
490.2372660024321
 21
370.7680139212886
 31
0.0
  0
ARC
  5
FFDAD
330
1F
100
AcDbEntity
  8
AM_5
100
AcDbCircle
 10
490.2372660024321
 20
373.8140485635716
 30
0.0
 40
1.046034642283075
100
AcDbArc
 50
0.0
 51
180.0
  0
LINE
  5
FFDAE
330
1F
100
AcDbEntity
  8
AM_5
100
AcDbLine
 10
491.2833006447151
 20
371.1140485635717
 30
0.0
 11
491.2833006447151
 21
373.8140485635716
 31
0.0
  0
LWPOLYLINE
  5
FFDAF
330
1F
100
AcDbEntity
  8
AM_5
100
AcDbPolyline
 90
        4
 70
     1
 43
0.0
 10
491.7912313601489
 20
381.3140485635717
 10
495.1912313601489
 20
381.3140485635717
 10
495.1912313601489
 20
379.8140485635717
 10
491.7912313601489
 20
379.8140485635717
  0
LINE
  5
FFDB0
330
1F
100
AcDbEntity
  8
AM_5
100
AcDbLine
 10
504.191231360149
 20
371.8140485635716
 30
0.0
 11
504.191231360149
 21
383.3140485635717
 31
0.0
  0
LINE
  5
FFDB1
330
1F
100
AcDbEntity
  8
AM_5
100
AcDbLine
 10
504.191231360149
 20
381.3140485635717
 30
0.0
 11
504.191231360149
 21
371.1140485635717
 31
0.0
  0
DIMENSION
  5
1004A6
330
1F
100
AcDbEntity
  8
AM_5
100
AcDbDimension
  2
*D125
 10
671.4839265212551
 20
381.3140485635717
 30
0.0
 11
671.4839265212551
 21
375.0640485635717
 31
0.0
 70
   160
 71
     5
 42
12.5
  3
AM_ISO$0
100
AcDbAlignedDimension
 13
678.7990959037653
 23
368.8140485635717
 33
0.0
 14
678.7990959037653
 24
381.3140485635717
 34
0.0
 50
90.0
100
AcDbRotatedDimension
1001
ACAD_DSTYLE_DIMINSPECT
1070
   396
1000
100%
1070
   395
1000

1070
   394
1070
    33
1070
   393
1070
     0
  0
DIMENSION
  5
1004A7
330
1F
100
AcDbEntity
  8
AM_5
100
AcDbDimension
  2
*D126
 10
664.3399478330369
 20
271.1846571576487
 30
0.0
 11
661.0896033448478
 21
283.1846571576489
 31
0.0
 70
    32
 71
     5
 42
24.0
  3
AM_ISO$0
100
AcDbAlignedDimension
 13
679.7990959037653
 23
295.1846571576488
 33
0.0
 14
678.7990959037653
 24
271.1846571576487
 34
0.0
 50
90.0
100
AcDbRotatedDimension
1001
ACAD_DSTYLE_DIMINSPECT
1070
   396
1000
100%
1070
   395
1000

1070
   394
1070
    33
1070
   393
1070
     0
  0
DIMENSION
  5
1004A8
330
1F
100
AcDbEntity
  8
AM_5
100
AcDbDimension
  2
*D127
 10
664.3399478330369
 20
342.3140485635717
 30
0.0
 11
661.0899478330368
 21
361.8140485635718
 31
0.0
 70
    32
 71
     5
 42
39.0
  3
AM_ISO$0
100
AcDbAlignedDimension
 13
678.7990959037653
 23
381.3140485635717
 33
0.0
 14
694.7990959037653
 24
342.3140485635717
 34
0.0
 50
90.0
100
AcDbRotatedDimension
1001
ACAD_DSTYLE_DIMINSPECT
1070
   396
1000
100%
1070
   395
1000

1070
   394
1070
    33
1070
   393
1070
     0
  0
DIMENSION
  5
1004AB
330
1F
100
AcDbEntity
  8
AM_5
100
AcDbDimension
  2
*D129
 10
635.8061390421656
 20
399.8989774404604
 30
0.0
 11
623.8061390421656
 21
403.1493219286494
 31
0.0
 70
    32
  1
<>
 71
     5
 42
24.0
  3
AM_ISO$0
100
AcDbAlignedDimension
 13
611.8061390421656
 23
381.5140485635717
 33
0.0
 14
635.8061390421656
 24
383.3140485635717
 34
0.0
100
AcDbRotatedDimension
1001
ACAD_DSTYLE_DIMINSPECT
1070
   396
1000
100%
1070
   395
1000

1070
   394
1070
    33
1070
   393
1070
     0
  0
LINE
  5
1004AE
330
1F
100
AcDbEntity
  8
AM_5
100
AcDbLine
 10
623.3061390421656
 20
368.1140485635717
 30
0.0
 11
612.3061390421656
 21
368.1140485635717
 31
0.0
  0
LINE
  5
1004AF
330
1F
100
AcDbEntity
  8
AM_5
100
AcDbLine
 10
623.3061390421656
 20
368.8140485635717
 30
0.0
 11
612.5061390421657
 21
368.8140485635717
 31
0.0
  0
LINE
  5
1004B0
330
1F
100
AcDbEntity
  8
AM_5
100
AcDbLine
 10
627.9371693367508
 20
381.3140485635717
 30
0.0
 11
612.5061390421657
 21
381.3140485635717
 31
0.0
  0
LINE
  5
1004B1
330
1F
100
AcDbEntity
  8
AM_5
100
AcDbLine
 10
629.8061390421657
 20
382.0140485635717
 30
0.0
 11
612.3061390421656
 21
382.0140485635717
 31
0.0
  0
LINE
  5
1004B3
330
1F
100
AcDbEntity
  8
AM_5
100
AcDbLine
 10
611.8061390421656
 20
342.3140485635717
 30
0.0
 11
611.8061390421656
 21
368.6140485635717
 31
0.0
  0
LINE
  5
1004B5
330
1F
100
AcDbEntity
  8
AM_5
100
AcDbLine
 10
612.5061390421657
 20
366.2439632250086
 30
0.0
 11
621.7586742380891
 21
358.0243387588162
 31
0.0
  0
LINE
  5
1004B6
330
1F
100
AcDbEntity
  8
AM_5
100
AcDbLine
 10
612.5061390421657
 20
367.3140485635717
 30
0.0
 11
622.2899901111135
 21
358.6224218994182
 31
0.0
  0
LINE
  5
1004B7
330
1F
100
AcDbEntity
  8
AM_5
100
AcDbLine
 10
612.5061390421657
 20
342.3140485635717
 30
0.0
 11
612.5061390421657
 21
368.1140485635717
 31
0.0
  0
LINE
  5
1004BA
330
1F
100
AcDbEntity
  8
AM_5
100
AcDbLine
 10
612.5061390421657
 20
345.3805193773192
 30
0.0
 11
621.4532935342846
 21
353.2678559767255
 31
0.0
  0
ARC
  5
1004BB
330
1F
100
AcDbEntity
  8
AM_5
100
AcDbCircle
 10
621.1226527248444
 20
353.6429248439123
 30
0.0
 40
1.3
100
AcDbArc
 50
311.3976897251368
 51
75.13171864150445
  0
LINE
  5
1004BC
330
1F
100
AcDbEntity
  8
AM_5
100
AcDbLine
 10
618.3733353365696
 20
354.890152905725
 30
0.0
 11
612.5061390421657
 21
352.3140485635717
 31
0.0
  0
LINE
  5
1004BD
330
1F
100
AcDbEntity
  8
AM_5
100
AcDbLine
 10
612.5061390421657
 20
344.3140485635717
 30
0.0
 11
621.9823188293888
 21
352.6677457892267
 31
0.0
  0
LINE
  5
1004BE
330
1F
100
AcDbEntity
  8
AM_5
100
AcDbLine
 10
612.5061390421657
 20
342.3140485635717
 30
0.0
 11
611.8061390421656
 21
342.3140485635717
 31
0.0
  0
LINE
  5
1004BF
330
1F
100
AcDbEntity
  8
AM_5
100
AcDbLine
 10
611.2061390421656
 20
352.6169751325506
 30
0.0
 11
611.7061390421656
 21
351.9627933182532
 31
0.0
  0
LINE
  5
1004C0
330
1F
100
AcDbEntity
  8
AM_5
100
AcDbLine
 10
611.7061390421656
 20
352.8365096608746
 30
0.0
 11
611.2061390421656
 21
352.6169751325506
 31
0.0
  0
LINE
  5
1004C1
330
1F
100
AcDbEntity
  8
AM_5
100
AcDbLine
 10
617.1332399962765
 20
355.2193817571303
 30
0.0
 11
612.5061390421657
 21
353.1877649061931
 31
0.0
  0
LINE
  5
1004C2
330
1F
100
AcDbEntity
  8
AM_5
100
AcDbLine
 10
621.2509516113831
 20
354.1261839832082
 30
0.0
 11
612.5061390421657
 21
356.4478156387526
 31
0.0
  0
LINE
  5
1004C3
330
1F
100
AcDbEntity
  8
AM_5
100
AcDbLine
 10
621.4562298298451
 20
354.8993986060815
 30
0.0
 11
612.5061390421657
 21
357.2755289036954
 31
0.0
  0
LINE
  5
1004C4
330
1F
100
AcDbEntity
  8
AM_5
100
AcDbLine
 10
611.7061390421656
 20
357.4879182842265
 30
0.0
 11
611.2061390421656
 21
357.6206616470583
 31
0.0
  0
LINE
  5
1004C5
330
1F
100
AcDbEntity
  8
AM_5
100
AcDbLine
 10
611.2061390421656
 20
357.6206616470583
 30
0.0
 11
611.7061390421656
 21
356.6602050192836
 31
0.0
  0
LINE
  5
1004C6
330
1F
100
AcDbEntity
  8
AM_5
100
AcDbLine
 10
619.5481369430896
 20
355.4059719388484
 30
0.0
 11
618.3733353365696
 21
354.890152905725
 31
0.0
  0
LINE
  5
1004C7
330
1F
100
AcDbEntity
  8
AM_5
100
AcDbLine
 10
621.6276139927876
 20
357.1927223080022
 30
0.0
 11
618.3080416027966
 21
355.7352007902537
 31
0.0
  0
LINE
  5
1004C8
330
1F
100
AcDbEntity
  8
AM_5
100
AcDbLine
 10
618.3080416027966
 20
355.7352007902537
 30
0.0
 11
617.1332399962766
 21
355.2193817571303
 31
0.0
  0
ARC
  5
1004C9
330
1F
100
AcDbEntity
  8
AM_5
100
AcDbCircle
 10
621.426601817449
 20
357.6505367959398
 30
0.0
 40
1.3
100
AcDbArc
 50
293.7047915562027
 51
48.38324664879727
  0
ARC
  5
1004CA
330
1F
100
AcDbEntity
  8
AM_5
100
AcDbCircle
 10
621.426601817449
 20
357.6505367959398
 30
0.0
 40
0.5
100
AcDbArc
 50
293.7047915562027
 51
48.38324664879727
  0
LINE
  5
1004CB
330
1F
100
AcDbEntity
  8
AM_5
100
AcDbLine
 10
621.9492334733295
 20
356.4602191273019
 30
0.0
 11
619.5481369430896
 21
355.4059719388483
 31
0.0
  0
ARC
  5
1004CC
330
1F
100
AcDbEntity
  8
AM_5
100
AcDbCircle
 10
621.1226527248444
 20
353.6429248439123
 30
0.0
 40
0.5
100
AcDbArc
 50
311.3976897251368
 51
75.13171864150445
  0
LINE
  5
1004CF
330
1F
100
AcDbEntity
  8
AM_5
100
AcDbLine
 10
612.5061390421656
 20
368.8140485635717
 30
0.0
 11
612.5061390421657
 21
381.3140485635717
 31
0.0
  0
LINE
  5
1004D0
330
1F
100
AcDbEntity
  8
AM_5
100
AcDbLine
 10
611.8061390421656
 20
368.6140485635717
 30
0.0
 11
611.8061390421656
 21
381.5140485635717
 31
0.0
  0
LINE
  5
1004D1
330
1F
100
AcDbEntity
  8
AM_5
100
AcDbLine
 10
609.8061390421657
 20
370.8140485635717
 30
0.0
 11
614.5061390421656
 21
370.8140485635717
 31
0.0
  0
LINE
  5
1004D2
330
1F
100
AcDbEntity
  8
AM_5
100
AcDbLine
 10
611.8061390421656
 20
371.8600832058547
 30
0.0
 11
612.5061390421656
 21
371.8600832058547
 31
0.0
  0
ARC
  5
1004D3
330
1F
100
AcDbEntity
  8
AM_5
100
AcDbCircle
 10
612.3061390421656
 20
368.6140485635717
 30
0.0
 40
0.5
100
AcDbArc
 50
180.0
 51
270.0
  0
ARC
  5
1004D4
330
1F
100
AcDbEntity
  8
AM_5
100
AcDbCircle
 10
612.3061390421656
 20
381.5140485635717
 30
0.0
 40
0.5
100
AcDbArc
 50
90.0
 51
180.0
  0
LINE
  5
1004D9
330
1F
100
AcDbEntity
  8
AM_5
100
AcDbLine
 10
623.3061390421656
 20
368.8140485635717
 30
0.0
 11
623.3061390421656
 21
368.1140485635717
 31
0.0
  0
LINE
  5
1004DA
330
1F
100
AcDbEntity
  8
AM_5
100
AcDbLine
 10
635.8061390421656
 20
382.597806441257
 30
0.0
 11
629.8061390421657
 21
381.3140485635717
 31
0.0
  0
LINE
  5
1004DB
330
1F
100
AcDbEntity
  8
AM_5
100
AcDbLine
 10
635.8061390421656
 20
383.3140485635717
 30
0.0
 11
629.8061390421657
 21
382.0140485635717
 31
0.0
  0
LINE
  5
1004DC
330
1F
100
AcDbEntity
  8
AM_5
100
AcDbLine
 10
627.9371693367508
 20
381.3140485635717
 30
0.0
 11
625.9543663850697
 21
380.5626288013355
 31
0.0
  0
LINE
  5
1004DD
330
1F
100
AcDbEntity
  8
AM_5
100
AcDbLine
 10
629.9543663850697
 20
381.3299223655529
 30
0.0
 11
625.9543663850697
 21
379.8140485635717
 31
0.0
  0
LINE
  5
1004DE
330
1F
100
AcDbEntity
  8
AM_5
100
AcDbLine
 10
625.9543663850697
 20
380.5626288013355
 30
0.0
 11
625.9543663850697
 21
379.8140485635717
 31
0.0
  0
LINE
  5
1004DF
330
1F
100
AcDbEntity
  8
AM_5
100
AcDbLine
 10
627.9371693367508
 20
381.3140485635717
 30
0.0
 11
629.8061390421657
 21
381.3140485635717
 31
0.0
  0
LINE
  5
1004E0
330
1F
100
AcDbEntity
  8
AM_5
100
AcDbLine
 10
627.9371693367508
 20
381.3140485635717
 30
0.0
 11
629.8061390421657
 21
382.0140485635717
 31
0.0
  0
LINE
  5
1004E1
330
1F
100
AcDbEntity
  8
AM_5
100
AcDbLine
 10
635.8061390421656
 20
383.3140485635717
 30
0.0
 11
635.8061390421656
 21
382.597806441257
 31
0.0
  0
LINE
  5
1004E3
330
1F
100
AcDbEntity
  8
AM_5
100
AcDbLine
 10
678.7990959037653
 20
271.1846571576487
 30
0.0
 11
678.7990959037653
 21
294.1846571576487
 31
0.0
  0
LINE
  5
1004E4
330
1F
100
AcDbEntity
  8
AM_5
100
AcDbLine
 10
728.7990959037653
 20
281.6846571576487
 30
0.0
 11
728.7990959037653
 21
271.1846571576487
 31
0.0
  0
LINE
  5
1004E5
330
1F
100
AcDbEntity
  8
AM_5
100
AcDbLine
 10
728.7990959037653
 20
271.1846571576487
 30
0.0
 11
728.7990959037653
 21
294.1846571576487
 31
0.0
  0
LINE
  5
1004E6
330
1F
100
AcDbEntity
  8
AM_5
100
AcDbLine
 10
678.7990959037653
 20
281.6846571576487
 30
0.0
 11
678.7990959037653
 21
271.1846571576487
 31
0.0
  0
LINE
  5
1004E7
330
1F
100
AcDbEntity
  8
AM_5
100
AcDbLine
 10
715.8911651883315
 20
281.6846571576487
 30
0.0
 11
715.8911651883315
 21
271.1846571576487
 31
0.0
  0
LINE
  5
1004E8
330
1F
100
AcDbEntity
  8
AM_5
100
AcDbLine
 10
678.7990959037653
 20
271.1846571576487
 30
0.0
 11
678.7990959037653
 21
294.1846571576488
 31
0.0
  0
LINE
  5
1004E9
330
1F
100
AcDbEntity
  8
AM_5
100
AcDbLine
 10
691.7070266191991
 20
281.6846571576487
 30
0.0
 11
691.7070266191991
 21
271.1846571576487
 31
0.0
  0
LINE
  5
1004EA
330
1F
100
AcDbEntity
  8
AM_5
100
AcDbLine
 10
698.7990959037652
 20
271.5212530288783
 30
0.0
 11
698.7990959037652
 21
280.923176817525
 31
0.0
  0
LINE
  5
1004EB
330
1F
100
AcDbEntity
  8
AM_5
100
AcDbLine
 10
701.7990959037653
 20
271.5212530288783
 30
0.0
 11
701.7990959037653
 21
280.923176817525
 31
0.0
  0
LINE
  5
1004EC
330
1F
100
AcDbEntity
  8
AM_5
100
AcDbLine
 10
705.7990959037653
 20
271.5212530288783
 30
0.0
 11
705.7990959037653
 21
280.923176817525
 31
0.0
  0
LINE
  5
1004ED
330
1F
100
AcDbEntity
  8
AM_5
100
AcDbLine
 10
708.7990959037654
 20
271.5212530288783
 30
0.0
 11
708.7990959037654
 21
280.923176817525
 31
0.0
  0
LINE
  5
1004EE
330
1F
100
AcDbEntity
  8
AM_5
100
AcDbLine
 10
728.7990959037653
 20
271.1846571576487
 30
0.0
 11
678.7990959037653
 21
271.1846571576487
 31
0.0
  0
LINE
  5
1004EF
330
1F
100
AcDbEntity
  8
AM_5
100
AcDbLine
 10
678.7990959037653
 20
271.1846571576487
 30
0.0
 11
728.7990959037653
 21
271.1846571576487
 31
0.0
  0
DIMENSION
  5
1004F0
330
1F
100
AcDbEntity
  8
AM_5
100
AcDbDimension
  2
*D102
 10
715.8911651883315
 20
261.6058376470161
 30
0.0
 11
703.7990959037653
 21
264.8561821352051
 31
0.0
 70
    32
  1
24
 71
     5
 42
24.1841385691323
  3
AM_ISO$0
100
AcDbAlignedDimension
 13
691.7070266191991
 23
271.1846571576487
 33
0.0
 14
715.8911651883315
 24
271.1846571576487
 34
0.0
100
AcDbRotatedDimension
1001
ACAD_DSTYLE_DIMINSPECT
1070
   396
1000
100%
1070
   395
1000

1070
   394
1070
    33
1070
   393
1070
     0
  0
LWPOLYLINE
  5
1004F1
330
1F
100
AcDbEntity
  8
AM_5
100
AcDbPolyline
 90
        3
 70
     0
 43
0.0
 10
698.7990959037652
 20
271.5212530288783
 10
700.2990959037653
 20
268.923176817525
 10
701.7990959037653
 20
271.5212530288783
  0
LINE
  5
1004F2
330
1F
100
AcDbEntity
  8
AM_5
100
AcDbLine
 10
678.7990959037653
 20
271.8846571576488
 30
0.0
 11
728.7990959037653
 21
271.8846571576488
 31
0.0
  0
DIMENSION
  5
1004F3
330
1F
100
AcDbEntity
  8
AM_5
100
AcDbDimension
  2
*D103
 10
691.7070266191991
 20
261.6058376470161
 30
0.0
 11
685.2530612614822
 21
264.8558376470161
 31
0.0
 70
    32
  1
13
 71
     5
 42
12.90793071543385
  3
AM_ISO$0
100
AcDbAlignedDimension
 13
678.7990959037653
 23
271.1846571576487
 33
0.0
 14
691.7070266191991
 24
271.1846571576487
 34
0.0
100
AcDbRotatedDimension
1001
ACAD_DSTYLE_DIMINSPECT
1070
   396
1000
100%
1070
   395
1000

1070
   394
1070
    33
1070
   393
1070
     0
  0
LINE
  5
1004F4
330
1F
100
AcDbEntity
  8
AM_5
100
AcDbLine
 10
691.7070266191991
 20
271.1846571576487
 30
0.0
 11
678.7990959037653
 21
271.1846571576487
 31
0.0
  0
DIMENSION
  5
1004F5
330
1F
100
AcDbEntity
  8
AM_5
100
AcDbDimension
  2
*D104
 10
715.8911651883315
 20
261.6058376470161
 30
0.0
 11
722.3451305460484
 21
264.8558376470161
 31
0.0
 70
    32
  1
13
 71
     5
 42
12.90793071543385
  3
AM_ISO$0
100
AcDbAlignedDimension
 13
728.7990959037653
 23
271.1846571576487
 33
0.0
 14
715.8911651883315
 24
271.1846571576487
 34
0.0
100
AcDbRotatedDimension
1001
ACAD_DSTYLE_DIMINSPECT
1070
   396
1000
100%
1070
   395
1000

1070
   394
1070
    33
1070
   393
1070
     0
  0
LINE
  5
1004F6
330
1F
100
AcDbEntity
  8
AM_5
100
AcDbLine
 10
715.8911651883315
 20
271.1846571576487
 30
0.0
 11
728.7990959037653
 21
271.1846571576487
 31
0.0
  0
LWPOLYLINE
  5
1004F7
330
1F
100
AcDbEntity
  8
AM_5
100
AcDbPolyline
 90
        3
 70
     0
 43
0.0
 10
705.7990959037653
 20
271.5212530288783
 10
707.2990959037654
 20
268.923176817525
 10
708.7990959037654
 20
271.5212530288783
  0
LINE
  5
1004F9
330
1F
100
AcDbEntity
  8
AM_5
100
AcDbLine
 10
698.7990959037652
 20
280.923176817525
 30
0.0
 11
701.7990959037653
 21
280.923176817525
 31
0.0
  0
LINE
  5
1004FA
330
1F
100
AcDbEntity
  8
AM_5
100
AcDbLine
 10
678.7990959037653
 20
289.1846571576488
 30
0.0
 11
728.7990959037653
 21
289.1846571576488
 31
0.0
  0
LWPOLYLINE
  5
1004FB
330
1F
100
AcDbEntity
  8
AM_5
100
AcDbPolyline
 90
        2
 70
     0
 43
0.0
 10
727.7990959037652
 20
295.1846571576488
 10
679.7990959037653
 20
295.1846571576488
  0
LINE
  5
1004FE
330
1F
100
AcDbEntity
  8
AM_5
100
AcDbLine
 10
678.7990959037653
 20
294.1846571576487
 30
0.0
 11
679.7990959037653
 21
295.1846571576488
 31
0.0
  0
LINE
  5
1004FF
330
1F
100
AcDbEntity
  8
AM_5
100
AcDbLine
 10
690.7070266191992
 20
282.6846571576488
 30
0.0
 11
679.7990959037653
 21
282.6846571576488
 31
0.0
  0
ARC
  5
100501
330
1F
100
AcDbEntity
  8
AM_5
100
AcDbCircle
 10
679.7990959037653
 20
281.6846571576487
 30
0.0
 40
1.0
100
AcDbArc
 50
90.0
 51
180.0
  0
LWPOLYLINE
  5
100502
330
1F
100
AcDbEntity
  8
AM_5
100
AcDbPolyline
 90
        4
 70
     1
 43
0.0
 10
687.7990959037653
 20
282.6846571576488
 10
691.2990959037653
 20
282.6846571576488
 10
691.2990959037653
 20
289.1846571576488
 10
687.7990959037653
 20
289.1846571576488
  0
ARC
  5
100503
330
1F
100
AcDbEntity
  8
AM_5
100
AcDbCircle
 10
690.7070266191992
 20
281.6846571576487
 30
0.0
 40
1.0
100
AcDbArc
 50
0.0
 51
90.0
  0
LINE
  5
100506
330
1F
100
AcDbEntity
  8
AM_5
100
AcDbLine
 10
728.7990959037653
 20
294.1846571576487
 30
0.0
 11
727.7990959037652
 21
295.1846571576488
 31
0.0
  0
LINE
  5
100507
330
1F
100
AcDbEntity
  8
AM_5
100
AcDbLine
 10
716.8911651883314
 20
282.6846571576488
 30
0.0
 11
727.7990959037652
 21
282.6846571576488
 31
0.0
  0
LWPOLYLINE
  5
100508
330
1F
100
AcDbEntity
  8
AM_5
100
AcDbPolyline
 90
        4
 70
     1
 43
0.0
 10
716.3990959037653
 20
282.6846571576488
 10
719.7990959037653
 20
282.6846571576488
 10
719.7990959037653
 20
289.1846571576488
 10
716.3990959037653
 20
289.1846571576488
  0
LINE
  5
100509
330
1F
100
AcDbEntity
  8
AM_5
100
AcDbLine
 10
705.7990959037653
 20
280.923176817525
 30
0.0
 11
708.7990959037654
 21
280.923176817525
 31
0.0
  0
ARC
  5
10050A
330
1F
100
AcDbEntity
  8
AM_5
100
AcDbCircle
 10
716.8911651883314
 20
281.6846571576487
 30
0.0
 40
1.0
100
AcDbArc
 50
90.0
 51
180.0
  0
ARC
  5
10050B
330
1F
100
AcDbEntity
  8
AM_5
100
AcDbCircle
 10
727.7990959037652
 20
281.6846571576487
 30
0.0
 40
1.0
100
AcDbArc
 50
0.0
 51
90.0
  0
LINE
  5
100513
330
1F
100
AcDbEntity
  8
AM_5
100
AcDbLine
 10
705.7990959037653
 20
368.3140485635716
 30
0.0
 11
705.7990959037653
 21
346.912124774925
 31
0.0
  0
LINE
  5
100514
330
1F
100
AcDbEntity
  8
AM_5
100
AcDbLine
 10
708.7990959037653
 20
346.912124774925
 30
0.0
 11
708.7990959037653
 21
368.3140485635716
 31
0.0
  0
LINE
  5
100515
330
1F
100
AcDbEntity
  8
AM_5
100
AcDbLine
 10
701.7990959037653
 20
365.7159723522184
 30
0.0
 11
701.7990959037653
 21
344.3140485635717
 31
0.0
  0
LINE
  5
100516
330
1F
100
AcDbEntity
  8
AM_5
100
AcDbLine
 10
698.7990959037652
 20
344.3140485635717
 30
0.0
 11
698.7990959037652
 21
365.7159723522184
 31
0.0
  0
LINE
  5
100517
330
1F
100
AcDbEntity
  8
AM_5
100
AcDbLine
 10
713.7990959037653
 20
343.3140485635716
 30
0.0
 11
713.7990959037653
 21
373.8140485635716
 31
0.0
  0
LINE
  5
100518
330
1F
100
AcDbEntity
  8
AM_5
100
AcDbLine
 10
693.7990959037652
 20
373.8140485635716
 30
0.0
 11
693.7990959037652
 21
343.3140485635716
 31
0.0
  0
LINE
  5
10051E
330
1F
100
AcDbEntity
  8
AM_5
100
AcDbLine
 10
701.7990959037653
 20
345.1140485635717
 30
0.0
 11
698.7990959037652
 21
345.1140485635717
 31
0.0
  0
LINE
  5
10051F
330
1F
100
AcDbEntity
  8
AM_5
100
AcDbLine
 10
701.7990959037653
 20
344.3140485635717
 30
0.0
 11
698.7990959037652
 21
344.3140485635717
 31
0.0
  0
LINE
  5
100520
330
1F
100
AcDbEntity
  8
AM_5
100
AcDbLine
 10
701.7990959037653
 20
344.3140485635717
 30
0.0
 11
698.7990959037652
 21
344.3140485635717
 31
0.0
  0
LINE
  5
100521
330
1F
100
AcDbEntity
  8
AM_5
100
AcDbLine
 10
701.7990959037653
 20
344.3140485635717
 30
0.0
 11
698.7990959037652
 21
344.3140485635717
 31
0.0
  0
LINE
  5
100522
330
1F
100
AcDbEntity
  8
AM_5
100
AcDbLine
 10
701.7990959037653
 20
354.3525682234478
 30
0.0
 11
700.3568753935796
 21
355.3140485635716
 31
0.0
  0
LINE
  5
100523
330
1F
100
AcDbEntity
  8
AM_5
100
AcDbLine
 10
701.7990959037653
 20
355.3140485635716
 30
0.0
 11
700.2990959037653
 21
356.3140485635717
 31
0.0
  0
LINE
  5
100524
330
1F
100
AcDbEntity
  8
AM_5
100
AcDbLine
 10
701.7990959037653
 20
358.3140485635717
 30
0.0
 11
700.2990959037653
 21
359.3140485635716
 31
0.0
  0
LINE
  5
100525
330
1F
100
AcDbEntity
  8
AM_5
100
AcDbLine
 10
694.7990959037653
 20
342.3140485635717
 30
0.0
 11
712.7990959037653
 21
342.3140485635717
 31
0.0
  0
LINE
  5
100527
330
1F
100
AcDbEntity
  8
AM_5
100
AcDbLine
 10
693.7990959037652
 20
343.3140485635716
 30
0.0
 11
694.7990959037653
 21
342.3140485635717
 31
0.0
  0
LINE
  5
100528
330
1F
100
AcDbEntity
  8
AM_5
100
AcDbLine
 10
700.2990959037653
 20
359.3140485635716
 30
0.0
 11
698.7990959037652
 21
358.3140485635717
 31
0.0
  0
LINE
  5
100529
330
1F
100
AcDbEntity
  8
AM_5
100
AcDbLine
 10
700.2990959037653
 20
356.3140485635717
 30
0.0
 11
700.2990959037653
 21
359.3140485635716
 31
0.0
  0
LINE
  5
10052A
330
1F
100
AcDbEntity
  8
AM_5
100
AcDbLine
 10
700.2413164139509
 20
355.3140485635716
 30
0.0
 11
698.7990959037652
 21
354.352568223448
 31
0.0
  0
LINE
  5
10052B
330
1F
100
AcDbEntity
  8
AM_5
100
AcDbLine
 10
700.2990959037653
 20
356.3140485635717
 30
0.0
 11
698.7990959037652
 21
355.3140485635716
 31
0.0
  0
LINE
  5
10052E
330
1F
100
AcDbEntity
  8
AM_5
100
AcDbLine
 10
705.7990959037653
 20
353.3140485635716
 30
0.0
 11
707.2990959037653
 21
352.3140485635717
 31
0.0
  0
LINE
  5
10052F
330
1F
100
AcDbEntity
  8
AM_5
100
AcDbLine
 10
707.2990959037653
 20
355.3140485635716
 30
0.0
 11
707.2990959037653
 21
352.3140485635717
 31
0.0
  0
LINE
  5
100530
330
1F
100
AcDbEntity
  8
AM_5
100
AcDbLine
 10
707.2990959037653
 20
352.3140485635717
 30
0.0
 11
708.7990959037653
 21
353.3140485635716
 31
0.0
  0
LWPOLYLINE
  5
100531
330
1F
100
AcDbEntity
  8
AM_5
100
AcDbPolyline
 90
        3
 70
     0
 43
0.0
 10
705.7990959037653
 20
346.912124774925
 10
707.2990959037653
 20
344.3140485635717
 10
708.7990959037653
 20
346.912124774925
  0
LINE
  5
100532
330
1F
100
AcDbEntity
  8
AM_5
100
AcDbLine
 10
713.7990959037653
 20
343.3140485635716
 30
0.0
 11
712.7990959037653
 21
342.3140485635717
 31
0.0
  0
LINE
  5
100533
330
1F
100
AcDbEntity
  8
AM_5
100
AcDbLine
 10
705.7990959037653
 20
356.3140485635717
 30
0.0
 11
707.2990959037653
 21
355.3140485635716
 31
0.0
  0
LINE
  5
100534
330
1F
100
AcDbEntity
  8
AM_5
100
AcDbLine
 10
705.7990959037653
 20
357.2755289036954
 30
0.0
 11
707.2413164139509
 21
356.3140485635717
 31
0.0
  0
LINE
  5
100535
330
1F
100
AcDbEntity
  8
AM_5
100
AcDbLine
 10
707.2990959037653
 20
355.3140485635716
 30
0.0
 11
708.7990959037653
 21
356.3140485635717
 31
0.0
  0
LINE
  5
100536
330
1F
100
AcDbEntity
  8
AM_5
100
AcDbLine
 10
707.3568753935797
 20
356.3140485635717
 30
0.0
 11
708.7990959037653
 21
357.2755289036954
 31
0.0
  0
DIMENSION
  5
10053B
330
1F
100
AcDbEntity
  8
AM_5
100
AcDbDimension
  2
*D124
 10
728.7990959037653
 20
399.8989774404604
 30
0.0
 11
703.7990959037653
 21
403.1489774404604
 31
0.0
 70
    32
  1
<>
 71
     5
 42
50.0
  3
AM_ISO$0
100
AcDbAlignedDimension
 13
678.7990959037653
 23
383.3140485635717
 33
0.0
 14
728.7990959037653
 24
383.3140485635717
 34
0.0
100
AcDbRotatedDimension
1001
ACAD_DSTYLE_DIMINSPECT
1070
   396
1000
100%
1070
   395
1000

1070
   394
1070
    33
1070
   393
1070
     0
  0
LWPOLYLINE
  5
10053C
330
1F
100
AcDbEntity
  8
AM_5
100
AcDbPolyline
 90
        3
 70
     0
 43
0.0
 10
698.7990959037652
 20
365.7159723522184
 10
700.2990959037653
 20
368.3140485635716
 10
701.7990959037653
 20
365.7159723522184
  0
LINE
  5
10053D
330
1F
100
AcDbEntity
  8
AM_5
100
AcDbLine
 10
678.7990959037653
 20
381.3140485635717
 30
0.0
 11
728.7990959037653
 21
381.3140485635717
 31
0.0
  0
LINE
  5
10053E
330
1F
100
AcDbEntity
  8
AM_5
100
AcDbLine
 10
728.7990959037653
 20
382.6140485635717
 30
0.0
 11
678.7990959037653
 21
382.6140485635717
 31
0.0
  0
LINE
  5
10053F
330
1F
100
AcDbEntity
  8
AM_5
100
AcDbLine
 10
678.7990959037653
 20
383.3140485635717
 30
0.0
 11
728.7990959037653
 21
383.3140485635717
 31
0.0
  0
LINE
  5
100540
330
1F
100
AcDbEntity
  8
AM_5
100
AcDbLine
 10
678.7990959037653
 20
381.3140485635717
 30
0.0
 11
728.7990959037653
 21
381.3140485635717
 31
0.0
  0
LINE
  5
100541
330
1F
100
AcDbEntity
  8
AM_5
100
AcDbLine
 10
678.7990959037653
 20
368.1140485635717
 30
0.0
 11
691.7070266191991
 21
368.1140485635717
 31
0.0
  0
LINE
  5
100542
330
1F
100
AcDbEntity
  8
AM_5
100
AcDbLine
 10
678.7990959037653
 20
368.8140485635717
 30
0.0
 11
691.7070266191991
 21
368.8140485635717
 31
0.0
  0
LINE
  5
100543
330
1F
100
AcDbEntity
  8
AM_5
100
AcDbLine
 10
678.7990959037653
 20
381.3140485635717
 30
0.0
 11
678.7990959037653
 21
368.1140485635717
 31
0.0
  0
LINE
  5
100544
330
1F
100
AcDbEntity
  8
AM_5
100
AcDbLine
 10
678.7990959037653
 20
383.3140485635717
 30
0.0
 11
678.7990959037653
 21
368.8140485635717
 31
0.0
  0
LINE
  5
100545
330
1F
100
AcDbEntity
  8
AM_5
100
AcDbLine
 10
692.7530612614822
 20
376.8600832058547
 30
0.0
 11
692.7530612614822
 21
370.7680139212886
 31
0.0
  0
LINE
  5
100546
330
1F
100
AcDbEntity
  8
AM_5
100
AcDbLine
 10
695.7990959037653
 20
373.8140485635716
 30
0.0
 11
689.7070266191991
 21
373.8140485635716
 31
0.0
  0
ARC
  5
100547
330
1F
100
AcDbEntity
  8
AM_5
100
AcDbCircle
 10
692.7530612614822
 20
373.8140485635716
 30
0.0
 40
1.046034642283075
100
AcDbArc
 50
0.0
 51
180.0
  0
LINE
  5
100548
330
1F
100
AcDbEntity
  8
AM_5
100
AcDbLine
 10
691.7070266191991
 20
368.1140485635717
 30
0.0
 11
691.7070266191991
 21
373.8140485635716
 31
0.0
  0
LWPOLYLINE
  5
100560
330
1F
100
AcDbEntity
  8
AM_5
100
AcDbPolyline
 90
        4
 70
     1
 43
0.0
 10
687.7990959037653
 20
381.3140485635717
 10
691.2990959037653
 20
381.3140485635717
 10
691.2990959037653
 20
379.8140485635717
 10
687.7990959037653
 20
379.8140485635717
  0
LWPOLYLINE
  5
100562
330
1F
100
AcDbEntity
  8
AM_5
100
AcDbPolyline
 90
        4
 70
     1
 43
0.0
 10
716.3990959037653
 20
381.3140485635717
 10
719.7990959037653
 20
381.3140485635717
 10
719.7990959037653
 20
379.8140485635717
 10
716.3990959037653
 20
379.8140485635717
  0
LINE
  5
100563
330
1F
100
AcDbEntity
  8
AM_5
100
AcDbLine
 10
717.8911651883314
 20
373.8140485635716
 30
0.0
 11
711.7990959037653
 21
373.8140485635716
 31
0.0
  0
LINE
  5
100564
330
1F
100
AcDbEntity
  8
AM_5
100
AcDbLine
 10
715.8911651883315
 20
368.1140485635717
 30
0.0
 11
728.7990959037653
 21
368.1140485635717
 31
0.0
  0
LINE
  5
100565
330
1F
100
AcDbEntity
  8
AM_5
100
AcDbLine
 10
715.8911651883315
 20
368.8140485635717
 30
0.0
 11
728.7990959037653
 21
368.8140485635717
 31
0.0
  0
LINE
  5
100566
330
1F
100
AcDbEntity
  8
AM_5
100
AcDbLine
 10
714.8451305460484
 20
376.8600832058547
 30
0.0
 11
714.8451305460484
 21
370.7680139212886
 31
0.0
  0
LINE
  5
100568
330
1F
100
AcDbEntity
  8
AM_5
100
AcDbLine
 10
705.7990959037653
 20
368.3140485635716
 30
0.0
 11
708.7990959037653
 21
368.3140485635716
 31
0.0
  0
LINE
  5
100573
330
1F
100
AcDbEntity
  8
AM_5
100
AcDbLine
 10
715.8911651883315
 20
368.1140485635717
 30
0.0
 11
715.8911651883315
 21
373.8140485635716
 31
0.0
  0
ARC
  5
100574
330
1F
100
AcDbEntity
  8
AM_5
100
AcDbCircle
 10
714.8451305460484
 20
373.8140485635716
 30
0.0
 40
1.046034642283075
100
AcDbArc
 50
0.0
 51
180.0
  0
LINE
  5
100575
330
1F
100
AcDbEntity
  8
AM_5
100
AcDbLine
 10
728.7990959037653
 20
381.3140485635717
 30
0.0
 11
728.7990959037653
 21
368.1140485635717
 31
0.0
  0
LINE
  5
100576
330
1F
100
AcDbEntity
  8
AM_5
100
AcDbLine
 10
728.7990959037653
 20
368.8140485635717
 30
0.0
 11
728.7990959037653
 21
383.3140485635717
 31
0.0
  0
MTEXT
  5
100A77
330
1F
100
AcDbEntity
  8
AM_5
100
AcDbMText
 10
366.8246016399171
 20
461.1284960154882
 30
0.0
 40
10.0
 41
183.8542547478573
 71
     1
 72
     5
  1
9.5mmボード用(TBC4)
  7
2014++
 73
     1
 44
1.0
1001
ACAD
1000
ACAD_MTEXT_COLUMN_INFO_BEGIN
1070
    75
1070
     2
1070
    79
1070
     0
1070
    76
1070
     1
1070
    78
1070
     0
1070
    48
1040
183.8542547478573
1070
    49
1040
12.5
1070
    50
1070
     1
1040
0.0
1000
ACAD_MTEXT_COLUMN_INFO_END
  0
MTEXT
  5
100A7F
330
1F
100
AcDbEntity
  8
AM_5
100
AcDbMText
 10
591.9625708545209
 20
461.1284960154882
 30
0.0
 40
10.0
 41
183.8542547478573
 71
     1
 72
     5
  1
12.5mmボード用(TBC3)
  7
2014++
 73
     1
 44
1.0
1001
ACAD
1000
ACAD_MTEXT_COLUMN_INFO_BEGIN
1070
    75
1070
     2
1070
    79
1070
     0
1070
    76
1070
     1
1070
    78
1070
     0
1070
    48
1040
183.8542547478573
1070
    49
1040
12.5
1070
    50
1070
     1
1040
0.0
1000
ACAD_MTEXT_COLUMN_INFO_END
  0
DIMENSION
  5
100CAB
330
1F
100
AcDbEntity
  8
AM_5
100
AcDbDimension
  2
*D136
 10
448.5951922536715
 20
371.8140485635716
 30
0.0
 11
448.5951922536714
 21
376.4546885443283
 31
0.0
 70
   160
  1
<>
 71
     5
 42
9.5
  3
AM_ISO$0
100
AcDbAlignedDimension
 13
454.191231360149
 23
381.3140485635717
 33
0.0
 14
454.191231360149
 24
371.8140485635716
 34
0.0
 50
90.00000000000003
100
AcDbRotatedDimension
1001
ACAD_DSTYLE_DIMINSPECT
1070
   396
1000
100%
1070
   395
1000

1070
   394
1070
    33
1070
   393
1070
     0
  0
DIMENSION
  5
1010B7
330
1F
100
AcDbEntity
  8
AM_5
100
AcDbDimension
  2
*D139
 10
598.8610891460386
 20
382.0140485635716
 30
0.0
 11
595.6110891460386
 21
393.2390485635717
 31
0.0
 70
    32
  1
t=<>
 71
     5
 42
0.6999999999999887
  3
AM_ISO$0
100
AcDbAlignedDimension
 13
611.8061390421656
 23
381.3140485635717
 33
0.0
 14
612.4951289058128
 24
382.0140485635716
 34
0.0
 50
90.00000000000003
100
AcDbRotatedDimension
1001
ACAD_DSTYLE_DIMINSPECT
1070
   396
1000
100%
1070
   395
1000

1070
   394
1070
    33
1070
   393
1070
     0
1001
ACAD
1000
DSTYLE
1002
{
1070
     3
1000

1002
}
  0
VIEWPORT
  5
1001D9
102
{ACAD_XDICTIONARY
360
1001DA
102
}
330
1001D2
100
AcDbEntity
 67
     1
  8
0
100
AcDbViewport
 10
142.5892486572266
 20
99.11291408538819
 30
0.0
 40
552.4844695468898
 41
222.1517806396485
 68
     1
 69
     1
 12
142.5892486572266
 22
99.11291408538819
 13
0.0
 23
0.0
 14
10.0
 24
10.0
 15
10.0
 25
10.0
 16
0.0
 26
0.0
 36
1.0
 17
0.0
 27
0.0
 37
0.0
 42
50.0
 43
0.0
 44
0.0
 45
222.1517806396485
 50
0.0
 51
0.0
 72
   100
 90
   819232
  1

281
     0
 71
     1
 74
     0
110
0.0
120
0.0
130
0.0
111
1.0
121
0.0
131
0.0
112
0.0
122
1.0
132
0.0
 79
     0
146
0.0
170
     0
  0
ENDSEC
  0
SECTION
  2
OBJECTS
  0
DICTIONARY
  5
C
330
0
100
AcDbDictionary
281
     1
  3
ACAD_CIP_PREVIOUS_PRODUCT_INFO
350
F9990
  3
ACAD_COLOR
350
8712
  3
ACAD_DETAILVIEWSTYLE
350
F997A
  3
ACAD_FIELDLIST
350
F99AC
  3
ACAD_GROUP
350
D
  3
ACAD_LAYOUT
350
1A
  3
ACAD_MATERIAL
350
8711
  3
ACAD_MLEADERSTYLE
350
F9976
  3
ACAD_MLINESTYLE
350
17
  3
ACAD_PLOTSETTINGS
350
19
  3
ACAD_PLOTSTYLENAME
350
E
  3
ACAD_SCALELIST
350
F9964
  3
ACAD_SECTIONVIEWSTYLE
350
F9978
  3
ACAD_TABLESTYLE
350
F9962
  3
ACAD_VISUALSTYLE
350
F9949
  3
AcadDim
350
CCA4E
  3
ACDB_RECOMPOSE_DATA
350
101209
  3
AcDbVariableDictionary
350
6B9
  3
AcDsDecomposeData
350
10120F
  3
AcmDictionary
350
16D31
  3
AMG
350
16D13
  3
AMGSNAPSETTINGS
350
17AE6
  3
ASE_INDEX_DICTIONARY
350
F4A75
  0
DICTIONARY
  5
FA821
330
8
100
AcDbDictionary
280
     1
281
     1
  0
DICTIONARY
  5
F82BD
330
2
100
AcDbDictionary
280
     1
281
     1
  3
ACAD_LAYERFILTERS
360
F82C0
  3
ACAD_LAYERSTATES
360
F82BE
  0
DICTIONARY
  5
FA7EA
330
10
100
AcDbDictionary
280
     1
281
     1
  3
ADSK_XREC_LAYER_RECONCILED
360
FA7EB
  0
DICTIONARY
  5
FA7F8
330
86C9
100
AcDbDictionary
280
     1
281
     1
  3
ADSK_XREC_LAYER_RECONCILED
360
FA7F9
  0
DICTIONARY
  5
16D78
330
1F
100
AcDbDictionary
280
     1
281
     1
  0
DICTIONARY
  5
1001DA
330
1001D9
100
AcDbDictionary
280
     1
281
     1
  3
ASDK_XREC_ANNOTATION_SCALE_INFO
360
1001DB
  0
XRECORD
  5
F9990
102
{ACAD_REACTORS
330
C
102
}
330
C
100
AcDbXrecord
280
     1
300
AMECH_PP
300
2016
300
AMECH_PP_F_S
  0
DICTIONARY
  5
8712
102
{ACAD_REACTORS
330
C
102
}
330
C
100
AcDbDictionary
281
     1
  0
DICTIONARY
  5
F997A
102
{ACAD_REACTORS
330
C
102
}
330
C
100
AcDbDictionary
281
     1
  3
Imperial24
350
FBA36
  3
Metric50
350
F997B
  0
FIELDLIST
  5
F99AC
102
{ACAD_REACTORS
330
C
102
}
330
C
100
AcDbIdSet
 90
       18
330
FFA2A
330
FFA2B
330
FFA2C
330
FFA3A
330
FFA3B
330
FFA3C
330
FFA40
330
FFA41
330
FFA42
330
1001A3
330
1001A4
330
1001A5
330
1001B3
330
1001B4
330
1001B5
330
1001B9
330
1001BA
330
1001BB
100
AcDbFieldList
  0
DICTIONARY
  5
D
102
{ACAD_REACTORS
330
C
102
}
330
C
100
AcDbDictionary
281
     1
  0
DICTIONARY
  5
1A
102
{ACAD_REACTORS
330
C
102
}
330
C
100
AcDbDictionary
281
     1
  3
Model
350
22
  3
レイアウト1
350
1001D3
  0
DICTIONARY
  5
8711
102
{ACAD_REACTORS
330
C
102
}
330
C
100
AcDbDictionary
281
     1
  3
ByBlock
350
F9939
  3
ByLayer
350
F9931
  3
Global
350
F9941
  0
DICTIONARY
  5
F9976
102
{ACAD_REACTORS
330
C
102
}
330
C
100
AcDbDictionary
281
     1
  3
Standard
350
F9977
  0
DICTIONARY
  5
17
102
{ACAD_REACTORS
330
C
102
}
330
C
100
AcDbDictionary
281
     1
  3
Standard
350
18
  0
DICTIONARY
  5
19
102
{ACAD_REACTORS
330
C
102
}
330
C
100
AcDbDictionary
281
     1
  0
ACDBDICTIONARYWDFLT
  5
E
102
{ACAD_REACTORS
330
C
102
}
330
C
100
AcDbDictionary
281
     1
  3
Normal
350
F
100
AcDbDictionaryWithDefault
340
F
  0
DICTIONARY
  5
F9964
102
{ACAD_REACTORS
330
C
102
}
330
C
100
AcDbDictionary
281
     1
  3
A0
350
F9965
  3
A1
350
F9966
  3
A2
350
F9967
  3
A3
350
F9968
  3
A4
350
F9969
  3
A5
350
F996A
  3
A6
350
F996B
  3
A7
350
F996C
  3
A8
350
F996D
  3
A9
350
F996E
  3
B0
350
F996F
  3
B1
350
F9970
  3
B2
350
F9971
  3
B3
350
F9972
  3
B4
350
F9973
  3
B5
350
F9974
  3
B6
350
F9975
  0
DICTIONARY
  5
F9978
102
{ACAD_REACTORS
330
C
102
}
330
C
100
AcDbDictionary
281
     1
  3
Imperial24
350
FBA2E
  3
Metric50
350
F9979
  0
DICTIONARY
  5
F9962
102
{ACAD_REACTORS
330
C
102
}
330
C
100
AcDbDictionary
281
     1
  3
Standard
350
F9963
  0
DICTIONARY
  5
F9949
102
{ACAD_REACTORS
330
C
102
}
330
C
100
AcDbDictionary
281
     1
  3
2dWireframe
350
F994F
  3
Basic
350
F994E
  3
Brighten
350
F9955
  3
ColorChange
350
F9959
  3
Conceptual
350
F9952
  3
Dim
350
F9954
  3
EdgeColorOff
350
F9961
  3
Facepattern
350
F9958
  3
Flat
350
F994A
  3
FlatWithEdges
350
F994B
  3
Gouraud
350
F994C
  3
GouraudWithEdges
350
F994D
  3
Hidden
350
F9951
  3
JitterOff
350
F995F
  3
Linepattern
350
F9957
  3
OverhangOff
350
F9960
  3
Realistic
350
F9953
  3
Shaded
350
F995E
  3
Shaded with edges
350
F995D
  3
Shades of Gray
350
F995A
  3
Sketchy
350
F995B
  3
Thicken
350
F9956
  3
Wireframe
350
F9950
  3
X-Ray
350
F995C
  0
XRECORD
  5
CCA4E
102
{ACAD_REACTORS
330
C
102
}
330
C
100
AcDbXrecord
280
     1
 90
   990106
  3

 60
     0
 61
     0
 62
     1
 63
     3
 64
     0
 65
     0
 66
     0
 67
     3
 68
     1
 69
     0
 70
     0
 71
     0
 72
     0
 40
17.73254125325911
170
     0
  0
XRECORD
  5
101209
102
{ACAD_REACTORS
330
C
102
}
330
C
100
AcDbXrecord
280
     1
 90
        1
330
F9963
330
100A77
330
100A7F
  0
DICTIONARY
  5
6B9
102
{ACAD_REACTORS
330
C
102
}
330
C
100
AcDbDictionary
281
     1
  3
CANNOSCALE
350
FA877
  3
CMLEADERSTYLE
350
FA874
  3
CTABLESTYLE
350
FA873
  3
CVIEWDETAILSTYLE
350
FA875
  3
CVIEWSECTIONSTYLE
350
FA876
  3
DIMASSOC
350
F4248
  3
INDEXCTL
350
F4247
  3
LAYEREVAL
350
100DA9
  3
LAYERNOTIFY
350
100DAA
  3
LIGHTINGUNITS
350
100DA8
  3
MSLTSCALE
350
100DA7
  3
PROJECTNAME
350
F4249
  3
SORTENTS
350
6BA
  0
DICTIONARY
  5
10120F
102
{ACAD_REACTORS
330
C
102
}
330
C
100
AcDbDictionary
281
     1
  3
AcDsRecords
350
101211
  3
AcDsSchemas
350
101210
1001
ACAD
1070
     2
  0
DICTIONARY
  5
16D31
102
{ACAD_REACTORS
330
C
102
}
330
C
100
AcDbDictionary
281
     1
  3
AcmStdDictionary
350
16D3E
  3
AMDTSECTSYM_ARROWCOLOR
350
16DB5
  0
DICTIONARY
  5
16D13
102
{ACAD_REACTORS
330
C
102
}
330
C
100
AcDbDictionary
281
     1
  0
DICTIONARY
  5
17AE6
102
{ACAD_REACTORS
330
C
102
}
330
C
100
AcDbDictionary
281
     1
  0
DICTIONARY
  5
F4A75
102
{ACAD_REACTORS
330
C
102
}
330
C
100
AcDbDictionary
281
     1
  3
ASEBlockHierarchyIndexRecord
350
F4A77
1001
DCO15
1040
1654516794.149
  0
DICTIONARY
  5
F82C0
102
{ACAD_REACTORS
330
F82BD
102
}
330
F82BD
100
AcDbDictionary
281
     1
  0
DICTIONARY
  5
F82BE
102
{ACAD_REACTORS
330
F82BD
102
}
330
F82BD
100
AcDbDictionary
281
     1
  3
2014++
350
F82D2
  3
2014+++
350
F82BF
  0
XRECORD
  5
FA7EB
102
{ACAD_REACTORS
330
FA7EA
102
}
330
FA7EA
100
AcDbXrecord
280
     1
290
     1
  0
XRECORD
  5
FA7F9
102
{ACAD_REACTORS
330
FA7F8
102
}
330
FA7F8
100
AcDbXrecord
280
     1
290
     1
  0
XRECORD
  5
1001DB
102
{ACAD_REACTORS
330
1001DA
102
}
330
1001DA
100
AcDbXrecord
280
     1
 90
        1
340
F9965
  0
ACDBDETAILVIEWSTYLE
  5
FBA36
102
{ACAD_XDICTIONARY
360
100D9A
102
}
102
{ACAD_REACTORS
330
F997A
330
10019C
330
1001AD
102
}
330
F997A
100
AcDbModelDocViewStyle
 70
     0
  3
Imperial24
290
     0
100
AcDbDetailViewStyle
 70
     0
 71
     0
 90
        3
 71
     1
340
11
 62
   256
 40
0.24
340
0
 62
   256
 40
0.24
300

 40
0.36
280
     3
 71
     2
340
16
 90
       25
 62
   256
 71
     3
340
11
 62
   256
 40
0.24
 90
        1
 40
0.75
 90
        1
300
%<\AcVar ViewType \f "%tc1">% %<\AcVar ViewDetailId>%\PSCALE %<\AcVar ViewScale \f "%sn">%
 71
     4
340
16
 90
       25
 62
   256
340
16
 90
       25
 62
   256
280
     0
  0
ACDBDETAILVIEWSTYLE
  5
F997B
102
{ACAD_XDICTIONARY
360
100D96
102
}
102
{ACAD_REACTORS
330
F997A
330
10019E
330
1001AF
102
}
330
F997A
100
AcDbModelDocViewStyle
 70
     0
  3
Metric50
290
     0
100
AcDbDetailViewStyle
 70
     0
 71
     0
 90
        3
 71
     1
340
11
 62
   256
 40
5.0
340
0
 62
   256
 40
5.0
300

 40
0.0
280
     1
 71
     2
340
16
 90
       25
 62
   256
 71
     3
340
11
 62
   256
 40
5.0
 90
        0
 40
15.0
 90
        1
300
%<\AcVar ViewDetailId>% (%<\AcVar ViewScale \f "%sn">%)
 71
     4
340
16
 90
       25
 62
   256
340
16
 90
       25
 62
   256
280
     0
  0
LAYOUT
  5
22
102
{ACAD_XDICTIONARY
360
FA823
102
}
102
{ACAD_REACTORS
330
1A
102
}
330
1A
100
AcDbPlotSettings
  1

  2
FUJITSU FAX Print Driver
  4
User261
  6

 40
3.174999952316282
 41
3.174999952316282
 42
3.17498779296875
 43
3.17498779296875
 44
297.0244750976562
 45
419.8775329589842
 46
0.0
 47
0.0
 48
0.0
 49
0.0
140
0.0
141
0.0
142
1.0
143
1.197207273994177
 70
 11952
 72
     1
 73
     1
 74
     0
  7
monochrome.ctb
 75
     0
147
0.8352772504160906
 76
     0
 77
     2
 78
   300
148
-6.027674911478015
149
-7.671586470139232
100
AcDbLayout
  1
Model
 70
     1
 71
     0
 10
0.0
 20
0.0
 11
12.0
 21
9.0
 12
0.0
 22
0.0
 32
0.0
 14
0.0
 24
0.0
 34
0.0
 15
0.0
 25
0.0
 35
0.0
146
0.0
 13
0.0
 23
0.0
 33
0.0
 16
1.0
 26
0.0
 36
0.0
 17
0.0
 27
1.0
 37
0.0
 76
     0
330
1F
331
F98FB
  0
LAYOUT
  5
1001D3
102
{ACAD_REACTORS
330
1A
102
}
330
1A
100
AcDbPlotSettings
  1

  2
RICOH imagio MP C5001 RPCS
  4
A4
  6

 40
5.873749732971191
 41
5.873748779296875
 42
5.873733520507812
 43
5.873748779296875
 44
209.9733276367187
 45
296.9259948730469
 46
0.0
 47
0.0
 48
0.0
 49
0.0
140
0.0
141
0.0
142
1.0
143
1.0
 70
   688
 72
     1
 73
     1
 74
     5
  7

 75
    16
147
1.0
 76
     0
 77
     2
 78
   300
148
0.0
149
0.0
100
AcDbLayout
  1
レイアウト1
 70
     1
 71
     1
 10
-5.873748779296875
 20
-5.873749732971191
 11
291.05224609375
 21
204.0995779037475
 12
0.0
 22
0.0
 32
0.0
 14
1.000000000000000E+20
 24
1.000000000000000E+20
 34
1.000000000000000E+20
 15
-1.000000000000000E+20
 25
-1.000000000000000E+20
 35
-1.000000000000000E+20
146
0.0
 13
0.0
 23
0.0
 33
0.0
 16
1.0
 26
0.0
 36
0.0
 17
0.0
 27
1.0
 37
0.0
 76
     0
330
1001D2
331
1001D9
1001
ACAD_PSEXT
1000
RICOH imagio MP C5001 RPCS
1000
RICOH imagio MP C5001 RPCS
1000
IP_192.168.13.100
1000
RPCS Driver (For Windows)
1070
     0
  0
MATERIAL
  5
F9939
102
{ACAD_XDICTIONARY
360
F993A
102
}
102
{ACAD_REACTORS
330
8711
102
}
330
8711
100
AcDbMaterial
  1
ByBlock
 72
     0
 43
0.0008202099737533
 43
0.0
 43
0.0
 43
0.0
 43
0.0
 43
0.0008202099737533
 43
0.0
 43
0.0
 43
0.0
 43
0.0
 43
1.0
 43
0.0
 43
0.0
 43
0.0
 43
0.0
 43
1.0
 77
     0
 47
0.0008202099737533
 47
0.0
 47
0.0
 47
0.0
 47
0.0
 47
0.0008202099737533
 47
0.0
 47
0.0
 47
0.0
 47
0.0
 47
1.0
 47
0.0
 47
0.0
 47
0.0
 47
0.0
 47
1.0
171
     0
 49
0.0008202099737533
 49
0.0
 49
0.0
 49
0.0
 49
0.0
 49
0.0008202099737533
 49
0.0
 49
0.0
 49
0.0
 49
0.0
 49
1.0
 49
0.0
 49
0.0
 49
0.0
 49
0.0
 49
1.0
175
     0
142
0.0008202099737533
142
0.0
142
0.0
142
0.0
142
0.0
142
0.0008202099737533
142
0.0
142
0.0
142
0.0
142
0.0
142
1.0
142
0.0
142
0.0
142
0.0
142
0.0
142
1.0
179
     0
144
0.0008202099737533
144
0.0
144
0.0
144
0.0
144
0.0
144
0.0008202099737533
144
0.0
144
0.0
144
0.0
144
0.0
144
1.0
144
0.0
144
0.0
144
0.0
144
0.0
144
1.0
147
0.0008202099737533
147
0.0
147
0.0
147
0.0
147
0.0
147
0.0008202099737533
147
0.0
147
0.0
147
0.0
147
0.0
147
1.0
147
0.0
147
0.0
147
0.0
147
0.0
147
1.0
  0
MATERIAL
  5
F9931
102
{ACAD_XDICTIONARY
360
F9932
102
}
102
{ACAD_REACTORS
330
8711
102
}
330
8711
100
AcDbMaterial
  1
ByLayer
 72
     0
 43
0.0008202099737533
 43
0.0
 43
0.0
 43
0.0
 43
0.0
 43
0.0008202099737533
 43
0.0
 43
0.0
 43
0.0
 43
0.0
 43
1.0
 43
0.0
 43
0.0
 43
0.0
 43
0.0
 43
1.0
 77
     0
 47
0.0008202099737533
 47
0.0
 47
0.0
 47
0.0
 47
0.0
 47
0.0008202099737533
 47
0.0
 47
0.0
 47
0.0
 47
0.0
 47
1.0
 47
0.0
 47
0.0
 47
0.0
 47
0.0
 47
1.0
171
     0
 49
0.0008202099737533
 49
0.0
 49
0.0
 49
0.0
 49
0.0
 49
0.0008202099737533
 49
0.0
 49
0.0
 49
0.0
 49
0.0
 49
1.0
 49
0.0
 49
0.0
 49
0.0
 49
0.0
 49
1.0
175
     0
142
0.0008202099737533
142
0.0
142
0.0
142
0.0
142
0.0
142
0.0008202099737533
142
0.0
142
0.0
142
0.0
142
0.0
142
1.0
142
0.0
142
0.0
142
0.0
142
0.0
142
1.0
179
     0
144
0.0008202099737533
144
0.0
144
0.0
144
0.0
144
0.0
144
0.0008202099737533
144
0.0
144
0.0
144
0.0
144
0.0
144
1.0
144
0.0
144
0.0
144
0.0
144
0.0
144
1.0
147
0.0008202099737533
147
0.0
147
0.0
147
0.0
147
0.0
147
0.0008202099737533
147
0.0
147
0.0
147
0.0
147
0.0
147
1.0
147
0.0
147
0.0
147
0.0
147
0.0
147
1.0
  0
MATERIAL
  5
F9941
102
{ACAD_XDICTIONARY
360
F9942
102
}
102
{ACAD_REACTORS
330
8711
102
}
330
8711
100
AcDbMaterial
  1
Global
 72
     0
 43
0.0008202099737533
 43
0.0
 43
0.0
 43
0.0
 43
0.0
 43
0.0008202099737533
 43
0.0
 43
0.0
 43
0.0
 43
0.0
 43
1.0
 43
0.0
 43
0.0
 43
0.0
 43
0.0
 43
1.0
 77
     0
 47
0.0008202099737533
 47
0.0
 47
0.0
 47
0.0
 47
0.0
 47
0.0008202099737533
 47
0.0
 47
0.0
 47
0.0
 47
0.0
 47
1.0
 47
0.0
 47
0.0
 47
0.0
 47
0.0
 47
1.0
171
     0
 49
0.0008202099737533
 49
0.0
 49
0.0
 49
0.0
 49
0.0
 49
0.0008202099737533
 49
0.0
 49
0.0
 49
0.0
 49
0.0
 49
1.0
 49
0.0
 49
0.0
 49
0.0
 49
0.0
 49
1.0
175
     0
142
0.0008202099737533
142
0.0
142
0.0
142
0.0
142
0.0
142
0.0008202099737533
142
0.0
142
0.0
142
0.0
142
0.0
142
1.0
142
0.0
142
0.0
142
0.0
142
0.0
142
1.0
179
     0
144
0.0008202099737533
144
0.0
144
0.0
144
0.0
144
0.0
144
0.0008202099737533
144
0.0
144
0.0
144
0.0
144
0.0
144
1.0
144
0.0
144
0.0
144
0.0
144
0.0
144
1.0
147
0.0008202099737533
147
0.0
147
0.0
147
0.0
147
0.0
147
0.0008202099737533
147
0.0
147
0.0
147
0.0
147
0.0
147
1.0
147
0.0
147
0.0
147
0.0
147
0.0
147
1.0
  0
MLEADERSTYLE
  5
F9977
102
{ACAD_XDICTIONARY
360
101246
102
}
102
{ACAD_REACTORS
330
F9976
102
}
330
F9976
100
AcDbMLeaderStyle
170
     2
171
     1
172
     0
 90
        2
 40
0.0
 41
0.0
173
     1
 91
-1056964608
340
14
 92
       -2
290
     1
 42
2.0
291
     1
 43
0.36
  3
Standard
 44
4.0
300

342
11
174
     1
178
     6
175
     1
176
     0
 93
-1056964608
 45
4.0
292
     0
297
     0
 46
4.0
 94
-1056964608
 47
1.0
 49
1.0
140
1.0
293
     1
141
0.0
294
     1
177
     0
142
1.0
295
     0
296
     0
143
0.125
1001
ACAD_MLEADERVER
1070
     2
  0
MLINESTYLE
  5
18
102
{ACAD_REACTORS
330
17
102
}
330
17
100
AcDbMlineStyle
  2
STANDARD
 70
     0
  3

 62
   256
 51
90.0
 52
90.0
 71
     2
 49
0.5
 62
   256
  6
BYLAYER
 49
-0.5
 62
   256
  6
BYLAYER
  0
ACDBPLACEHOLDER
  5
F
102
{ACAD_REACTORS
330
E
102
}
330
E
  0
SCALE
  5
F9965
102
{ACAD_REACTORS
330
F9964
102
}
330
F9964
100
AcDbScale
 70
     0
300
1:1
140
1.0
141
1.0
290
     1
  0
SCALE
  5
F9966
102
{ACAD_REACTORS
330
F9964
102
}
330
F9964
100
AcDbScale
 70
     0
300
1:2
140
1.0
141
2.0
290
     0
  0
SCALE
  5
F9967
102
{ACAD_REACTORS
330
F9964
102
}
330
F9964
100
AcDbScale
 70
     0
300
1:4
140
1.0
141
4.0
290
     0
  0
SCALE
  5
F9968
102
{ACAD_REACTORS
330
F9964
102
}
330
F9964
100
AcDbScale
 70
     0
300
1:5
140
1.0
141
5.0
290
     0
  0
SCALE
  5
F9969
102
{ACAD_REACTORS
330
F9964
102
}
330
F9964
100
AcDbScale
 70
     0
300
1:8
140
1.0
141
8.0
290
     0
  0
SCALE
  5
F996A
102
{ACAD_REACTORS
330
F9964
102
}
330
F9964
100
AcDbScale
 70
     0
300
1:10
140
1.0
141
10.0
290
     0
  0
SCALE
  5
F996B
102
{ACAD_REACTORS
330
F9964
102
}
330
F9964
100
AcDbScale
 70
     0
300
1:16
140
1.0
141
16.0
290
     0
  0
SCALE
  5
F996C
102
{ACAD_REACTORS
330
F9964
102
}
330
F9964
100
AcDbScale
 70
     0
300
1:20
140
1.0
141
20.0
290
     0
  0
SCALE
  5
F996D
102
{ACAD_REACTORS
330
F9964
102
}
330
F9964
100
AcDbScale
 70
     0
300
1:30
140
1.0
141
30.0
290
     0
  0
SCALE
  5
F996E
102
{ACAD_REACTORS
330
F9964
102
}
330
F9964
100
AcDbScale
 70
     0
300
1:40
140
1.0
141
40.0
290
     0
  0
SCALE
  5
F996F
102
{ACAD_REACTORS
330
F9964
102
}
330
F9964
100
AcDbScale
 70
     0
300
1:50
140
1.0
141
50.0
290
     0
  0
SCALE
  5
F9970
102
{ACAD_REACTORS
330
F9964
102
}
330
F9964
100
AcDbScale
 70
     0
300
1:100
140
1.0
141
100.0
290
     0
  0
SCALE
  5
F9971
102
{ACAD_REACTORS
330
F9964
102
}
330
F9964
100
AcDbScale
 70
     0
300
2:1
140
2.0
141
1.0
290
     0
  0
SCALE
  5
F9972
102
{ACAD_REACTORS
330
F9964
102
}
330
F9964
100
AcDbScale
 70
     0
300
4:1
140
4.0
141
1.0
290
     0
  0
SCALE
  5
F9973
102
{ACAD_REACTORS
330
F9964
102
}
330
F9964
100
AcDbScale
 70
     0
300
8:1
140
8.0
141
1.0
290
     0
  0
SCALE
  5
F9974
102
{ACAD_REACTORS
330
F9964
102
}
330
F9964
100
AcDbScale
 70
     0
300
10:1
140
10.0
141
1.0
290
     0
  0
SCALE
  5
F9975
102
{ACAD_REACTORS
330
F9964
102
}
330
F9964
100
AcDbScale
 70
     0
300
100:1
140
100.0
141
1.0
290
     0
  0
ACDBSECTIONVIEWSTYLE
  5
FBA2E
102
{ACAD_XDICTIONARY
360
100D98
102
}
102
{ACAD_REACTORS
330
F9978
330
100198
330
1001A9
102
}
330
F9978
100
AcDbModelDocViewStyle
 70
     0
  3
Imperial24
290
     0
100
AcDbSectionViewStyle
 70
     0
 71
     0
 90
       78
 71
     1
340
11
 62
   256
 40
0.24
340
0
340
0
 62
   256
 40
0.24
300
I, O, Q, S, X, Z
 40
0.48
 90
        3
 40
0.18
 90
        1
 71
     2
340
16
 90
       25
 62
   256
340
16
 90
       50
 62
   256
 40
0.24
 40
0.0
 40
0.24
 71
     3
340
11
 62
   256
 40
0.24
 90
        1
 40
0.75
 90
        1
300
%<\AcVar ViewType \f "%tc1">% %<\AcVar ViewSectionStartId>%-%<\AcVar ViewSectionEndId>%\PSCALE %<\AcVar ViewScale \f "%sn">%
 71
     4
 62
   256
 62
   257
300
ANSI31
 40
1.0
 90
        0
290
     0
290
     0
 90
        6
 40
0.0
 40
1.570796326794896
 40
0.2617993877991494
 40
1.308996938995747
 40
-0.2617993877991494
 40
1.832595714594046
  0
ACDBSECTIONVIEWSTYLE
  5
F9979
102
{ACAD_XDICTIONARY
360
100D94
102
}
102
{ACAD_REACTORS
330
F9978
330
10019A
330
1001AB
102
}
330
F9978
100
AcDbModelDocViewStyle
 70
     0
  3
Metric50
290
     0
100
AcDbSectionViewStyle
 70
     0
 71
     0
 90
      102
 71
     1
340
11
 62
   256
 40
5.0
340
0
340
0
 62
   256
 40
5.0
300
I, O, Q, S, X, Z
 40
10.0
 90
        0
 40
2.5
 90
        0
 71
     2
340
16
 90
       25
 62
   256
340
16
 90
       50
 62
   256
 40
5.0
 40
2.5
 40
5.0
 71
     3
340
11
 62
   256
 40
5.0
 90
        0
 40
15.0
 90
        1
300
%<\AcVar ViewSectionStartId>%-%<\AcVar ViewSectionEndId>% (%<\AcVar ViewScale \f "%sn">%)
 71
     4
 62
   256
 62
   257
300
ANSI31
 40
1.0
 90
        0
290
     0
290
     0
 90
        6
 40
0.0
 40
1.570796326794896
 40
0.2617993877991494
 40
1.308996938995747
 40
-0.2617993877991494
 40
1.832595714594046
  0
TABLESTYLE
  5
F9963
102
{ACAD_XDICTIONARY
360
FA816
102
}
102
{ACAD_REACTORS
330
F9962
102
}
330
F9962
100
AcDbTableStyle
  3
Standard
 70
     0
 71
     0
 40
1.5
 41
1.5
280
     0
281
     0
  7
STANDARD
140
4.5
170
     2
 62
     0
 63
     7
283
     0
274
    -2
284
     1
 64
     0
275
    -2
285
     1
 65
     0
276
    -2
286
     1
 66
     0
277
    -2
287
     1
 67
     0
278
    -2
288
     1
 68
     0
279
    -2
289
     1
 69
     0
  7
STANDARD
140
6.0
170
     5
 62
     0
 63
     7
283
     0
274
    -2
284
     1
 64
     0
275
    -2
285
     1
 65
     0
276
    -2
286
     1
 66
     0
277
    -2
287
     1
 67
     0
278
    -2
288
     1
 68
     0
279
    -2
289
     1
 69
     0
  7
STANDARD
140
4.5
170
     5
 62
     0
 63
     7
283
     0
274
    -2
284
     1
 64
     0
275
    -2
285
     1
 65
     0
276
    -2
286
     1
 66
     0
277
    -2
287
     1
 67
     0
278
    -2
288
     1
 68
     0
279
    -2
289
     1
 69
     0
  0
VISUALSTYLE
  5
F994F
102
{ACAD_XDICTIONARY
360
10121F
102
}
102
{ACAD_REACTORS
330
F9949
102
}
330
F9949
100
AcDbVisualStyle
  2
2dWireframe
 70
     4
 71
     0
 72
     2
 73
     0
 90
        0
 40
-0.6
 41
-30.0
 62
     5
 63
     7
421
 16777215
 74
     1
 91
        4
 64
     7
 65
   257
 75
     1
175
     1
 42
1.0
 92
        0
 66
   257
 43
1.0
 76
     1
 77
     6
 78
     2
 67
     7
 79
     5
170
     0
171
     0
290
     0
174
     0
 93
        1
 44
0.0
173
     0
291
     0
 45
0.0
1001
ACAD
1000
AcDbSavedByObjectVersion
1070
     0
  0
VISUALSTYLE
  5
F994E
102
{ACAD_XDICTIONARY
360
10121D
102
}
102
{ACAD_REACTORS
330
F9949
102
}
330
F9949
100
AcDbVisualStyle
  2
Basic
 70
     7
 71
     1
 72
     0
 73
     1
 90
        0
 40
-0.6
 41
-30.0
 62
     5
 63
     7
421
 16777215
 74
     0
 91
        4
 64
     7
 65
   257
 75
     1
175
     1
 42
1.0
 92
        8
 66
     7
 43
1.0
 76
     1
 77
     6
 78
     2
 67
     7
 79
     5
170
     0
171
     0
290
     0
174
     0
 93
        1
 44
0.0
173
     0
291
     1
 45
0.0
1001
ACAD
1000
AcDbSavedByObjectVersion
1070
     0
  0
VISUALSTYLE
  5
F9955
102
{ACAD_XDICTIONARY
360
10122B
102
}
102
{ACAD_REACTORS
330
F9949
102
}
330
F9949
100
AcDbVisualStyle
  2
Brighten
 70
    12
 71
     2
 72
     2
 73
     0
 90
        0
 40
-0.6
 41
-30.0
 62
     5
 63
     7
421
 16777215
 74
     1
 91
        4
 64
     7
 65
   257
 75
     1
175
     1
 42
1.0
 92
        8
 66
     7
 43
1.0
 76
     1
 77
     6
 78
     2
 67
     7
 79
     5
170
     0
171
     0
290
     0
174
     0
 93
        1
 44
50.0
173
     0
291
     1
 45
0.0
1001
ACAD
1000
AcDbSavedByObjectVersion
1070
     0
  0
VISUALSTYLE
  5
F9959
102
{ACAD_XDICTIONARY
360
101233
102
}
102
{ACAD_REACTORS
330
F9949
102
}
330
F9949
100
AcDbVisualStyle
  2
ColorChange
 70
    16
 71
     2
 72
     2
 73
     3
 90
        0
 40
-0.6
 41
-30.0
 62
     5
 63
     8
421
  8421504
 74
     1
 91
        4
 64
     7
 65
   257
 75
     1
175
     1
 42
1.0
 92
        8
 66
     8
424
  8421504
 43
1.0
 76
     1
 77
     6
 78
     2
 67
     7
 79
     5
170
     0
171
     0
290
     0
174
     0
 93
        1
 44
0.0
173
     0
291
     1
 45
0.0
1001
ACAD
1000
AcDbSavedByObjectVersion
1070
     0
  0
VISUALSTYLE
  5
F9952
102
{ACAD_XDICTIONARY
360
101225
102
}
102
{ACAD_REACTORS
330
F9949
102
}
330
F9949
100
AcDbVisualStyle
  2
Conceptual
 70
     9
 71
     3
 72
     2
 73
     0
 90
        0
 40
-0.6
 41
-30.0
 62
     5
 63
     7
421
 16777215
 74
     2
 91
        2
 64
     7
 65
   257
 75
     1
175
     1
 42
179.0
 92
        8
 66
     7
 43
1.0
 76
     1
 77
     6
 78
     2
 67
     7
 79
     3
170
     0
171
     0
290
     0
174
     0
 93
        1
 44
0.0
173
     0
291
     0
 45
0.0
1001
ACAD
1000
AcDbSavedByObjectVersion
1070
     0
  0
VISUALSTYLE
  5
F9954
102
{ACAD_XDICTIONARY
360
101229
102
}
102
{ACAD_REACTORS
330
F9949
102
}
330
F9949
100
AcDbVisualStyle
  2
Dim
 70
    11
 71
     2
 72
     2
 73
     0
 90
        0
 40
-0.6
 41
-30.0
 62
     5
 63
     7
421
 16777215
 74
     1
 91
        4
 64
     7
 65
   257
 75
     1
175
     1
 42
1.0
 92
        8
 66
     7
 43
1.0
 76
     1
 77
     6
 78
     2
 67
     7
 79
     5
170
     0
171
     0
290
     0
174
     0
 93
        1
 44
-50.0
173
     0
291
     1
 45
0.0
1001
ACAD
1000
AcDbSavedByObjectVersion
1070
     0
  0
VISUALSTYLE
  5
F9961
102
{ACAD_XDICTIONARY
360
101243
102
}
102
{ACAD_REACTORS
330
F9949
102
}
330
F9949
100
AcDbVisualStyle
  2
EdgeColorOff
 70
    22
 71
     2
 72
     2
 73
     0
 90
        0
 40
-0.6
 41
-30.0
 62
     5
 63
     7
421
 16777215
 74
     1
 91
        4
 64
     7
 65
   257
 75
     1
175
     1
 42
1.0
 92
        8
 66
     7
 43
1.0
 76
     1
 77
     6
 78
     2
 67
     7
 79
     5
170
     0
171
     0
290
     0
174
     0
 93
        1
 44
0.0
173
     0
291
     1
 45
0.0
1001
ACAD
1000
AcDbSavedByObjectVersion
1070
     0
  0
VISUALSTYLE
  5
F9958
102
{ACAD_XDICTIONARY
360
101231
102
}
102
{ACAD_REACTORS
330
F9949
102
}
330
F9949
100
AcDbVisualStyle
  2
Facepattern
 70
    15
 71
     2
 72
     2
 73
     0
 90
        0
 40
-0.6
 41
-30.0
 62
     5
 63
     7
421
 16777215
 74
     1
 91
        4
 64
     7
 65
   257
 75
     1
175
     1
 42
1.0
 92
        8
 66
     7
 43
1.0
 76
     1
 77
     6
 78
     2
 67
     7
 79
     5
170
     0
171
     0
290
     0
174
     0
 93
        1
 44
0.0
173
     0
291
     1
 45
0.0
1001
ACAD
1000
AcDbSavedByObjectVersion
1070
     0
  0
VISUALSTYLE
  5
F994A
102
{ACAD_XDICTIONARY
360
101215
102
}
102
{ACAD_REACTORS
330
F9949
102
}
330
F9949
100
AcDbVisualStyle
  2
Flat
 70
     0
 71
     2
 72
     1
 73
     1
 90
        2
 40
-0.6
 41
30.0
 62
     5
 63
     7
421
 16777215
 74
     0
 91
        0
 64
     7
 65
   257
 75
     1
175
     1
 42
1.0
 92
        8
 66
     7
 43
1.0
 76
     1
 77
     6
 78
     2
 67
     7
 79
     5
170
     0
171
     0
290
     0
174
     0
 93
       13
 44
0.0
173
     0
291
     1
 45
0.0
1001
ACAD
1000
AcDbSavedByObjectVersion
1070
     0
  0
VISUALSTYLE
  5
F994B
102
{ACAD_XDICTIONARY
360
101217
102
}
102
{ACAD_REACTORS
330
F9949
102
}
330
F9949
100
AcDbVisualStyle
  2
FlatWithEdges
 70
     1
 71
     2
 72
     1
 73
     1
 90
        2
 40
-0.6
 41
30.0
 62
     5
 63
     7
421
 16777215
 74
     1
 91
        0
 64
     7
 65
   257
 75
     1
175
     1
 42
1.0
 92
        0
 66
   257
 43
1.0
 76
     1
 77
     6
 78
     2
 67
     7
 79
     5
170
     0
171
     0
290
     0
174
     0
 93
       13
 44
0.0
173
     0
291
     1
 45
0.0
1001
ACAD
1000
AcDbSavedByObjectVersion
1070
     0
  0
VISUALSTYLE
  5
F994C
102
{ACAD_XDICTIONARY
360
101219
102
}
102
{ACAD_REACTORS
330
F9949
102
}
330
F9949
100
AcDbVisualStyle
  2
Gouraud
 70
     2
 71
     2
 72
     2
 73
     1
 90
        2
 40
-0.6
 41
30.0
 62
     5
 63
     7
421
 16777215
 74
     0
 91
        0
 64
     7
 65
   257
 75
     1
175
     1
 42
1.0
 92
        0
 66
     7
 43
1.0
 76
     1
 77
     6
 78
     2
 67
     7
 79
     5
170
     0
171
     0
290
     0
174
     0
 93
       13
 44
0.0
173
     0
291
     1
 45
0.0
1001
ACAD
1000
AcDbSavedByObjectVersion
1070
     0
  0
VISUALSTYLE
  5
F994D
102
{ACAD_XDICTIONARY
360
10121B
102
}
102
{ACAD_REACTORS
330
F9949
102
}
330
F9949
100
AcDbVisualStyle
  2
GouraudWithEdges
 70
     3
 71
     2
 72
     2
 73
     1
 90
        2
 40
-0.6
 41
30.0
 62
     5
 63
     7
421
 16777215
 74
     1
 91
        0
 64
     7
 65
   257
 75
     1
175
     1
 42
1.0
 92
        0
 66
   257
 43
1.0
 76
     1
 77
     6
 78
     2
 67
     7
 79
     5
170
     0
171
     0
290
     0
174
     0
 93
       13
 44
0.0
173
     0
291
     1
 45
0.0
1001
ACAD
1000
AcDbSavedByObjectVersion
1070
     0
  0
VISUALSTYLE
  5
F9951
102
{ACAD_XDICTIONARY
360
101223
102
}
102
{ACAD_REACTORS
330
F9949
102
}
330
F9949
100
AcDbVisualStyle
  2
Hidden
 70
     6
 71
     1
 72
     2
 73
     2
 90
        0
 40
-0.6
 41
-30.0
 62
     5
 63
     7
421
 16777215
 74
     2
 91
        2
 64
     7
 65
   257
 75
     2
175
     1
 42
40.0
 92
        0
 66
   257
 43
1.0
 76
     1
 77
     6
 78
     2
 67
     7
 79
     3
170
     0
171
     0
290
     0
174
     0
 93
        1
 44
0.0
173
     0
291
     0
 45
0.0
1001
ACAD
1000
AcDbSavedByObjectVersion
1070
     0
  0
VISUALSTYLE
  5
F995F
102
{ACAD_XDICTIONARY
360
10123F
102
}
102
{ACAD_REACTORS
330
F9949
102
}
330
F9949
100
AcDbVisualStyle
  2
JitterOff
 70
    20
 71
     2
 72
     2
 73
     0
 90
        0
 40
-0.6
 41
-30.0
 62
     5
 63
     7
421
 16777215
 74
     1
 91
        4
 64
     7
 65
   257
 75
     1
175
     1
 42
1.0
 92
       10
 66
     7
 43
1.0
 76
     1
 77
     6
 78
     2
 67
     7
 79
     5
170
     0
171
     0
290
     0
174
     0
 93
        1
 44
0.0
173
     0
291
     1
 45
0.0
1001
ACAD
1000
AcDbSavedByObjectVersion
1070
     0
  0
VISUALSTYLE
  5
F9957
102
{ACAD_XDICTIONARY
360
10122F
102
}
102
{ACAD_REACTORS
330
F9949
102
}
330
F9949
100
AcDbVisualStyle
  2
Linepattern
 70
    14
 71
     2
 72
     2
 73
     0
 90
        0
 40
-0.6
 41
-30.0
 62
     5
 63
     7
421
 16777215
 74
     1
 91
        4
 64
     7
 65
   257
 75
     7
175
     7
 42
1.0
 92
        8
 66
     7
 43
1.0
 76
     1
 77
     6
 78
     2
 67
     7
 79
     5
170
     0
171
     0
290
     0
174
     0
 93
        1
 44
0.0
173
     0
291
     1
 45
0.0
1001
ACAD
1000
AcDbSavedByObjectVersion
1070
     0
  0
VISUALSTYLE
  5
F9960
102
{ACAD_XDICTIONARY
360
101241
102
}
102
{ACAD_REACTORS
330
F9949
102
}
330
F9949
100
AcDbVisualStyle
  2
OverhangOff
 70
    21
 71
     2
 72
     2
 73
     0
 90
        0
 40
-0.6
 41
-30.0
 62
     5
 63
     7
421
 16777215
 74
     1
 91
        4
 64
     7
 65
   257
 75
     1
175
     1
 42
1.0
 92
        9
 66
     7
 43
1.0
 76
     1
 77
     6
 78
     2
 67
     7
 79
     5
170
     0
171
     0
290
     0
174
     0
 93
        1
 44
0.0
173
     0
291
     1
 45
0.0
1001
ACAD
1000
AcDbSavedByObjectVersion
1070
     0
  0
VISUALSTYLE
  5
F9953
102
{ACAD_XDICTIONARY
360
101227
102
}
102
{ACAD_REACTORS
330
F9949
102
}
330
F9949
100
AcDbVisualStyle
  2
Realistic
 70
     8
 71
     2
 72
     2
 73
     0
 90
        2
 40
-0.6
 41
30.0
 62
     5
 63
     7
421
 16777215
 74
     0
 91
        0
 64
     7
 65
   257
 75
     1
175
     1
 42
1.0
 92
        8
 66
   257
 43
1.0
 76
     1
 77
     6
 78
     2
 67
     7
 79
     3
170
     0
171
     0
290
     0
174
     0
 93
       13
 44
0.0
173
     0
291
     0
 45
0.0
1001
ACAD
1000
AcDbSavedByObjectVersion
1070
     0
  0
VISUALSTYLE
  5
F995E
102
{ACAD_XDICTIONARY
360
10123D
102
}
102
{ACAD_REACTORS
330
F9949
102
}
330
F9949
100
AcDbVisualStyle
  2
Shaded
 70
    27
 71
     2
 72
     2
 73
     1
 90
        2
 40
-0.6
 41
30.0
 62
     5
 63
     7
421
 16777215
 74
     0
 91
        4
 64
     7
 65
   257
 75
     1
175
     1
 42
1.0
 92
        8
 66
   257
 43
1.0
 76
     1
 77
     6
 78
     2
 67
     8
425
  7895160
 79
     3
170
     0
171
     0
290
     0
174
     0
 93
        5
 44
0.0
173
     0
291
     0
 45
0.0
1001
ACAD
1000
AcDbSavedByObjectVersion
1070
     0
  0
VISUALSTYLE
  5
F995D
102
{ACAD_XDICTIONARY
360
10123B
102
}
102
{ACAD_REACTORS
330
F9949
102
}
330
F9949
100
AcDbVisualStyle
  2
Shaded with edges
 70
    26
 71
     2
 72
     2
 73
     1
 90
        2
 40
-0.6
 41
30.0
 62
     5
 63
     7
421
 16777215
 74
     1
 91
       10
 64
     7
 65
   257
 75
     2
175
     1
 42
1.0
 92
        8
 66
   257
 43
1.0
 76
     1
 77
     6
 78
     2
 67
     7
 79
     3
170
     0
171
     0
290
     0
174
     0
 93
        5
 44
0.0
173
     0
291
     0
 45
0.0
1001
ACAD
1000
AcDbSavedByObjectVersion
1070
     0
  0
VISUALSTYLE
  5
F995A
102
{ACAD_XDICTIONARY
360
101235
102
}
102
{ACAD_REACTORS
330
F9949
102
}
330
F9949
100
AcDbVisualStyle
  2
Shades of Gray
 70
    23
 71
     2
 72
     2
 73
     3
 90
        0
 40
-0.6
 41
-30.0
 62
     5
 63
     7
421
 16777215
 74
     2
 91
        2
 64
     7
 65
     7
 75
     1
175
     1
 42
40.0
 92
        8
 66
     7
 43
1.0
 76
     1
 77
     6
 78
     2
 67
     7
 79
     3
170
     0
171
     0
290
     0
174
     0
 93
        1
 44
0.0
173
     0
291
     0
 45
0.0
1001
ACAD
1000
AcDbSavedByObjectVersion
1070
     0
  0
VISUALSTYLE
  5
F995B
102
{ACAD_XDICTIONARY
360
101237
102
}
102
{ACAD_REACTORS
330
F9949
102
}
330
F9949
100
AcDbVisualStyle
  2
Sketchy
 70
    24
 71
     1
 72
     2
 73
     2
 90
        0
 40
-0.6
 41
-30.0
 62
     5
 63
     7
421
 16777215
 74
     2
 91
        2
 64
     7
 65
     7
 75
     1
175
     1
 42
40.0
 92
       11
 66
     7
 43
1.0
 76
     1
 77
     6
 78
     2
 67
     7
 79
     6
170
     0
171
     0
290
     0
174
     0
 93
        1
 44
0.0
173
     0
291
     0
 45
0.0
1001
ACAD
1000
AcDbSavedByObjectVersion
1070
     0
  0
VISUALSTYLE
  5
F9956
102
{ACAD_XDICTIONARY
360
10122D
102
}
102
{ACAD_REACTORS
330
F9949
102
}
330
F9949
100
AcDbVisualStyle
  2
Thicken
 70
    13
 71
     2
 72
     2
 73
     0
 90
        0
 40
-0.6
 41
-30.0
 62
     5
 63
     7
421
 16777215
 74
     1
 91
        4
 64
     7
 65
   257
 75
     1
175
     1
 42
1.0
 92
       12
 66
     7
 43
1.0
 76
     1
 77
     6
 78
     2
 67
     7
 79
     5
170
     0
171
     0
290
     0
174
     0
 93
        1
 44
0.0
173
     0
291
     1
 45
0.0
1001
ACAD
1000
AcDbSavedByObjectVersion
1070
     0
  0
VISUALSTYLE
  5
F9950
102
{ACAD_XDICTIONARY
360
101221
102
}
102
{ACAD_REACTORS
330
F9949
102
}
330
F9949
100
AcDbVisualStyle
  2
Wireframe
 70
     5
 71
     0
 72
     2
 73
     0
 90
        0
 40
-0.6
 41
-30.0
 62
     5
 63
     7
421
 16777215
 74
     1
 91
        4
 64
     7
 65
   257
 75
     1
175
     1
 42
1.0
 92
        0
 66
   257
 43
1.0
 76
     1
 77
     6
 78
     2
 67
     7
 79
     3
170
     0
171
     0
290
     0
174
     0
 93
        1
 44
0.0
173
     0
291
     0
 45
0.0
1001
ACAD
1000
AcDbSavedByObjectVersion
1070
     0
  0
VISUALSTYLE
  5
F995C
102
{ACAD_XDICTIONARY
360
101239
102
}
102
{ACAD_REACTORS
330
F9949
102
}
330
F9949
100
AcDbVisualStyle
  2
X-Ray
 70
    25
 71
     2
 72
     2
 73
     1
 90
        1
 40
0.5
 41
-30.0
 62
     5
 63
     7
421
 16777215
 74
     1
 91
        0
 64
     7
 65
   257
 75
     1
175
     1
 42
1.0
 92
        8
 66
     7
 43
1.0
 76
     1
 77
     6
 78
     2
 67
     7
 79
     3
170
     0
171
     0
290
     0
174
     0
 93
       13
 44
0.0
173
     0
291
     0
 45
0.0
1001
ACAD
1000
AcDbSavedByObjectVersion
1070
     0
  0
DICTIONARYVAR
  5
FA877
102
{ACAD_REACTORS
330
6B9
102
}
330
6B9
100
DictionaryVariables
280
     0
  1
1:1
  0
DICTIONARYVAR
  5
FA874
102
{ACAD_REACTORS
330
6B9
102
}
330
6B9
100
DictionaryVariables
280
     0
  1
STANDARD
  0
DICTIONARYVAR
  5
FA873
102
{ACAD_REACTORS
330
6B9
102
}
330
6B9
100
DictionaryVariables
280
     0
  1
STANDARD
  0
DICTIONARYVAR
  5
FA875
102
{ACAD_REACTORS
330
6B9
102
}
330
6B9
100
DictionaryVariables
280
     0
  1
Metric50
  0
DICTIONARYVAR
  5
FA876
102
{ACAD_REACTORS
330
6B9
102
}
330
6B9
100
DictionaryVariables
280
     0
  1
Metric50
  0
DICTIONARYVAR
  5
F4248
102
{ACAD_REACTORS
330
6B9
102
}
330
6B9
100
DictionaryVariables
280
     0
  1
1
  0
DICTIONARYVAR
  5
F4247
102
{ACAD_REACTORS
330
6B9
102
}
330
6B9
100
DictionaryVariables
280
     0
  1
1
  0
DICTIONARYVAR
  5
100DA9
102
{ACAD_REACTORS
330
6B9
102
}
330
6B9
100
DictionaryVariables
280
     0
  1
1
  0
DICTIONARYVAR
  5
100DAA
102
{ACAD_REACTORS
330
6B9
102
}
330
6B9
100
DictionaryVariables
280
     0
  1
15
  0
DICTIONARYVAR
  5
100DA8
102
{ACAD_REACTORS
330
6B9
102
}
330
6B9
100
DictionaryVariables
280
     0
  1
0
  0
DICTIONARYVAR
  5
100DA7
102
{ACAD_REACTORS
330
6B9
102
}
330
6B9
100
DictionaryVariables
280
     0
  1
0
  0
DICTIONARYVAR
  5
F4249
102
{ACAD_REACTORS
330
6B9
102
}
330
6B9
100
DictionaryVariables
280
     0
  1

  0
DICTIONARYVAR
  5
6BA
102
{ACAD_REACTORS
330
6B9
102
}
330
6B9
100
DictionaryVariables
280
     0
  1
96
  0
DICTIONARY
  5
101211
102
{ACAD_REACTORS
330
10120F
102
}
330
10120F
100
AcDbDictionary
281
     1
  0
DICTIONARY
  5
101210
102
{ACAD_REACTORS
330
10120F
102
}
330
10120F
100
AcDbDictionary
281
     1
  3
8796088120096
350
10120A
  3
8796088120112
350
10120B
  3
8796088120128
350
10120C
  3
8796088120144
350
10120D
  3
8796088120160
350
10120E
  0
DICTIONARY
  5
16D3E
102
{ACAD_REACTORS
330
16D31
102
}
330
16D31
100
AcDbDictionary
281
     1
  0
XRECORD
  5
16DB5
102
{ACAD_REACTORS
330
16D31
102
}
330
16D31
100
AcDbXrecord
280
     1
 90
-1023410169
  0
XRECORD
  5
F4A77
102
{ACAD_REACTORS
330
F4A75
102
}
330
F4A75
100
AcDbXrecord
280
     1
330
0
330
0
330
0
330
0
330
0
330
0
330
0
330
0
330
0
  0
XRECORD
  5
F82D2
102
{ACAD_REACTORS
330
F82BE
102
}
330
F82BE
100
AcDbXrecord
280
     1
 91
      484
330
4C
 90
        8
 62
     2
370
    40
331
16
  1
色_2
330
30
 90
        8
 62
    30
370
     9
331
F3ACE
  1
色_30
330
3AE4
 90
        8
 62
   123
370
     9
331
3AE3
  1
色_123
330
F3AD3
 90
        8
 62
   233
370
     9
331
16CF6
  1
色_233
330
33
 90
        8
 62
     8
370
     9
331
16
  1
色_8
330
86CB
 90
        8
 62
     7
370
    20
331
16
  1
色_7
330
86C9
 90
        8
 62
     4
370
    15
331
16
  1
色_4
330
86C8
 90
        8
 62
   173
370
     9
331
16
  1
色_173
420
-1034792193
330
86CC
 90
        8
 62
     1
370
     5
331
16
  1
色_1
330
548
 90
        0
 62
     6
370
    -3
331
16
  1
色_6
330
86FE
 90
        8
 62
   241
370
     5
331
58DA
  1
色_241
330
54
 90
        0
 62
     7
370
    -3
331
16
  1
色_7
330
F61AE
 90
        0
 62
     1
370
    25
331
16
  1
色_1
330
10
 90
        8
 62
     7
370
    20
331
16
  1
色_7
  0
XRECORD
  5
F82BF
102
{ACAD_REACTORS
330
F82BE
102
}
330
F82BE
100
AcDbXrecord
280
     1
 91
      484
330
4C
 90
        8
 62
     2
370
    40
331
16
  1
色_2
330
30
 90
        8
 62
    30
370
     9
331
F3ACE
  1
色_30
330
3AE4
 90
        8
 62
   123
370
     9
331
3AE3
  1
色_123
330
F3AD3
 90
        8
 62
   233
370
     9
331
16CF6
  1
色_233
330
33
 90
        8
 62
     8
370
     9
331
16
  1
色_8
330
86C8
 90
        8
 62
   173
370
     5
331
16
  1
色_173
420
-1034792193
330
548
 90
        0
 62
     6
370
    -3
331
16
  1
色_6
330
86FE
 90
        8
 62
   241
370
     5
331
58DA
  1
色_241
330
86CC
 90
        8
 62
     1
370
     9
331
16
  1
色_1
330
86CB
 90
        8
 62
     5
370
    20
331
16
  1
色_5
330
86C9
 90
        8
 62
     4
370
    15
331
16
  1
色_4
330
54
 90
        0
 62
     7
370
    -3
331
16
  1
色_7
330
F61AE
 90
        0
 62
     1
370
    25
331
16
  1
色_1
330
10
 90
        8
 62
     7
370
    20
331
16
  1
色_7
  0
DICTIONARY
  5
100D9A
330
FBA36
100
AcDbDictionary
280
     1
281
     1
  3
ACAD_XREC_ROUNDTRIP
360
10124B
  0
DICTIONARY
  5
100D96
330
F997B
100
AcDbDictionary
280
     1
281
     1
  3
ACAD_XREC_ROUNDTRIP
360
101249
  0
DICTIONARY
  5
FA823
330
22
100
AcDbDictionary
280
     1
281
     1
  0
DICTIONARY
  5
F993A
330
F9939
100
AcDbDictionary
280
     1
281
     1
  3
ACAD_XREC_ROUNDTRIP
360
101213
  3
BUMPTILE
360
F993C
  3
DIFFUSETILE
360
F993B
  3
OPACITYTILE
360
F993F
  3
REFLECTIONTILE
360
F993E
  3
REFRACTIONTILE
360
F9940
  3
SPECULARTILE
360
F993D
  0
DICTIONARY
  5
F9932
330
F9931
100
AcDbDictionary
280
     1
281
     1
  3
ACAD_XREC_ROUNDTRIP
360
101212
  3
BUMPTILE
360
F9934
  3
DIFFUSETILE
360
F9933
  3
OPACITYTILE
360
F9937
  3
REFLECTIONTILE
360
F9936
  3
REFRACTIONTILE
360
F9938
  3
SPECULARTILE
360
F9935
  0
DICTIONARY
  5
F9942
330
F9941
100
AcDbDictionary
280
     1
281
     1
  3
ACAD_XREC_ROUNDTRIP
360
101214
  3
BUMPTILE
360
F9944
  3
DIFFUSETILE
360
F9943
  3
OPACITYTILE
360
F9947
  3
REFLECTIONTILE
360
F9946
  3
REFRACTIONTILE
360
F9948
  3
SPECULARTILE
360
F9945
  0
DICTIONARY
  5
101246
330
F9977
100
AcDbDictionary
280
     1
281
     1
  3
ACAD_XREC_ROUNDTRIP
360
101247
  0
DICTIONARY
  5
100D98
330
FBA2E
100
AcDbDictionary
280
     1
281
     1
  3
ACAD_XREC_ROUNDTRIP
360
10124A
  0
DICTIONARY
  5
100D94
330
F9979
100
AcDbDictionary
280
     1
281
     1
  3
ACAD_XREC_ROUNDTRIP
360
101248
  0
DICTIONARY
  5
FA816
330
F9963
100
AcDbDictionary
280
     1
281
     1
  3
ACAD_ROUNDTRIP_2008_TABLESTYLE_CELLSTYLEMAP
360
101208
  3
ACAD_XREC_ROUNDTRIP
360
101245
  0
DICTIONARY
  5
10121F
330
F994F
100
AcDbDictionary
280
     1
281
     1
  3
ACAD_XREC_ROUNDTRIP
360
101220
  0
DICTIONARY
  5
10121D
330
F994E
100
AcDbDictionary
280
     1
281
     1
  3
ACAD_XREC_ROUNDTRIP
360
10121E
  0
DICTIONARY
  5
10122B
330
F9955
100
AcDbDictionary
280
     1
281
     1
  3
ACAD_XREC_ROUNDTRIP
360
10122C
  0
DICTIONARY
  5
101233
330
F9959
100
AcDbDictionary
280
     1
281
     1
  3
ACAD_XREC_ROUNDTRIP
360
101234
  0
DICTIONARY
  5
101225
330
F9952
100
AcDbDictionary
280
     1
281
     1
  3
ACAD_XREC_ROUNDTRIP
360
101226
  0
DICTIONARY
  5
101229
330
F9954
100
AcDbDictionary
280
     1
281
     1
  3
ACAD_XREC_ROUNDTRIP
360
10122A
  0
DICTIONARY
  5
101243
330
F9961
100
AcDbDictionary
280
     1
281
     1
  3
ACAD_XREC_ROUNDTRIP
360
101244
  0
DICTIONARY
  5
101231
330
F9958
100
AcDbDictionary
280
     1
281
     1
  3
ACAD_XREC_ROUNDTRIP
360
101232
  0
DICTIONARY
  5
101215
330
F994A
100
AcDbDictionary
280
     1
281
     1
  3
ACAD_XREC_ROUNDTRIP
360
101216
  0
DICTIONARY
  5
101217
330
F994B
100
AcDbDictionary
280
     1
281
     1
  3
ACAD_XREC_ROUNDTRIP
360
101218
  0
DICTIONARY
  5
101219
330
F994C
100
AcDbDictionary
280
     1
281
     1
  3
ACAD_XREC_ROUNDTRIP
360
10121A
  0
DICTIONARY
  5
10121B
330
F994D
100
AcDbDictionary
280
     1
281
     1
  3
ACAD_XREC_ROUNDTRIP
360
10121C
  0
DICTIONARY
  5
101223
330
F9951
100
AcDbDictionary
280
     1
281
     1
  3
ACAD_XREC_ROUNDTRIP
360
101224
  0
DICTIONARY
  5
10123F
330
F995F
100
AcDbDictionary
280
     1
281
     1
  3
ACAD_XREC_ROUNDTRIP
360
101240
  0
DICTIONARY
  5
10122F
330
F9957
100
AcDbDictionary
280
     1
281
     1
  3
ACAD_XREC_ROUNDTRIP
360
101230
  0
DICTIONARY
  5
101241
330
F9960
100
AcDbDictionary
280
     1
281
     1
  3
ACAD_XREC_ROUNDTRIP
360
101242
  0
DICTIONARY
  5
101227
330
F9953
100
AcDbDictionary
280
     1
281
     1
  3
ACAD_XREC_ROUNDTRIP
360
101228
  0
DICTIONARY
  5
10123D
330
F995E
100
AcDbDictionary
280
     1
281
     1
  3
ACAD_XREC_ROUNDTRIP
360
10123E
  0
DICTIONARY
  5
10123B
330
F995D
100
AcDbDictionary
280
     1
281
     1
  3
ACAD_XREC_ROUNDTRIP
360
10123C
  0
DICTIONARY
  5
101235
330
F995A
100
AcDbDictionary
280
     1
281
     1
  3
ACAD_XREC_ROUNDTRIP
360
101236
  0
DICTIONARY
  5
101237
330
F995B
100
AcDbDictionary
280
     1
281
     1
  3
ACAD_XREC_ROUNDTRIP
360
101238
  0
DICTIONARY
  5
10122D
330
F9956
100
AcDbDictionary
280
     1
281
     1
  3
ACAD_XREC_ROUNDTRIP
360
10122E
  0
DICTIONARY
  5
101221
330
F9950
100
AcDbDictionary
280
     1
281
     1
  3
ACAD_XREC_ROUNDTRIP
360
101222
  0
DICTIONARY
  5
101239
330
F995C
100
AcDbDictionary
280
     1
281
     1
  3
ACAD_XREC_ROUNDTRIP
360
10123A
  0
XRECORD
  5
10120A
102
{ACAD_REACTORS
330
101210
102
}
330
101210
100
AcDbXrecord
280
     1
  1
AcDb_Thumbnail_Schema
102
{ATTRRECORD
341
10120B
  2
AcDbDs::TreatedAsObjectData
280
     1
291
     1
102
ATTRRECORD}
102
{ATTRRECORD
341
10120C
  2
AcDbDs::Legacy
280
     1
291
     1
102
ATTRRECORD}
  2
AcDbDs::ID
280
    10
 91
        8
102
{ATTRRECORD
341
10120D
  2
AcDs:Indexable
280
     1
291
     1
102
ATTRRECORD}
102
{ATTRRECORD
341
10120E
  2
AcDbDs::HandleAttribute
280
     7
282
     1
102
ATTRRECORD}
  2
Thumbnail_Data
280
    15
 91
        0
  0
XRECORD
  5
10120B
102
{ACAD_REACTORS
330
101210
102
}
330
101210
100
AcDbXrecord
280
     1
  1
AcDbDs::TreatedAsObjectDataSchema
  2
AcDbDs::TreatedAsObjectData
280
     1
 91
        0
  0
XRECORD
  5
10120C
102
{ACAD_REACTORS
330
101210
102
}
330
101210
100
AcDbXrecord
280
     1
  1
AcDbDs::LegacySchema
  2
AcDbDs::Legacy
280
     1
 91
        0
  0
XRECORD
  5
10120D
102
{ACAD_REACTORS
330
101210
102
}
330
101210
100
AcDbXrecord
280
     1
  1
AcDbDs::IndexedPropertySchema
  2
AcDs:Indexable
280
     1
 91
        0
  0
XRECORD
  5
10120E
102
{ACAD_REACTORS
330
101210
102
}
330
101210
100
AcDbXrecord
280
     1
  1
AcDbDs::HandleAttributeSchema
  2
AcDbDs::HandleAttribute
280
     7
 91
        1
284
     1
  0
XRECORD
  5
10124B
102
{ACAD_REACTORS
330
100D9A
102
}
330
100D9A
100
AcDbXrecord
280
     1
102
DISPLAYNAME
  1
Imperial24
102
FLAGS
 90
        0
  0
XRECORD
  5
101249
102
{ACAD_REACTORS
330
100D96
102
}
330
100D96
100
AcDbXrecord
280
     1
102
DISPLAYNAME
  1
Metric50
102
FLAGS
 90
        0
  0
XRECORD
  5
101213
102
{ACAD_REACTORS
330
F993A
102
}
330
F993A
100
AcDbXrecord
280
     1
102
MATERIAL
148
0.0
149
0.0
149
0.0
 93
        0
 94
      127
282
     0
 72
     0
 77
     0
171
     0
175
     0
179
     0
273
     0
  0
XRECORD
  5
F993C
102
{ACAD_REACTORS
330
F993A
102
}
330
F993A
100
AcDbXrecord
280
     1
270
     1
271
     1
  0
XRECORD
  5
F993B
102
{ACAD_REACTORS
330
F993A
102
}
330
F993A
100
AcDbXrecord
280
     1
270
     1
271
     1
  0
XRECORD
  5
F993F
102
{ACAD_REACTORS
330
F993A
102
}
330
F993A
100
AcDbXrecord
280
     1
270
     1
271
     1
  0
XRECORD
  5
F993E
102
{ACAD_REACTORS
330
F993A
102
}
330
F993A
100
AcDbXrecord
280
     1
270
     1
271
     1
  0
XRECORD
  5
F9940
102
{ACAD_REACTORS
330
F993A
102
}
330
F993A
100
AcDbXrecord
280
     1
270
     1
271
     1
  0
XRECORD
  5
F993D
102
{ACAD_REACTORS
330
F993A
102
}
330
F993A
100
AcDbXrecord
280
     1
270
     1
271
     1
  0
XRECORD
  5
101212
102
{ACAD_REACTORS
330
F9932
102
}
330
F9932
100
AcDbXrecord
280
     1
102
MATERIAL
148
0.0
149
0.0
149
0.0
 93
        0
 94
      127
282
     0
 72
     0
 77
     0
171
     0
175
     0
179
     0
273
     0
  0
XRECORD
  5
F9934
102
{ACAD_REACTORS
330
F9932
102
}
330
F9932
100
AcDbXrecord
280
     1
270
     1
271
     1
  0
XRECORD
  5
F9933
102
{ACAD_REACTORS
330
F9932
102
}
330
F9932
100
AcDbXrecord
280
     1
270
     1
271
     1
  0
XRECORD
  5
F9937
102
{ACAD_REACTORS
330
F9932
102
}
330
F9932
100
AcDbXrecord
280
     1
270
     1
271
     1
  0
XRECORD
  5
F9936
102
{ACAD_REACTORS
330
F9932
102
}
330
F9932
100
AcDbXrecord
280
     1
270
     1
271
     1
  0
XRECORD
  5
F9938
102
{ACAD_REACTORS
330
F9932
102
}
330
F9932
100
AcDbXrecord
280
     1
270
     1
271
     1
  0
XRECORD
  5
F9935
102
{ACAD_REACTORS
330
F9932
102
}
330
F9932
100
AcDbXrecord
280
     1
270
     1
271
     1
  0
XRECORD
  5
101214
102
{ACAD_REACTORS
330
F9942
102
}
330
F9942
100
AcDbXrecord
280
     1
102
MATERIAL
148
0.0
149
0.0
149
0.0
 93
        0
 94
      127
282
     0
 72
     0
 77
     0
171
     0
175
     0
179
     0
273
     0
  0
XRECORD
  5
F9944
102
{ACAD_REACTORS
330
F9942
102
}
330
F9942
100
AcDbXrecord
280
     1
270
     1
271
     1
  0
XRECORD
  5
F9943
102
{ACAD_REACTORS
330
F9942
102
}
330
F9942
100
AcDbXrecord
280
     1
270
     1
271
     1
  0
XRECORD
  5
F9947
102
{ACAD_REACTORS
330
F9942
102
}
330
F9942
100
AcDbXrecord
280
     1
270
     1
271
     1
  0
XRECORD
  5
F9946
102
{ACAD_REACTORS
330
F9942
102
}
330
F9942
100
AcDbXrecord
280
     1
270
     1
271
     1
  0
XRECORD
  5
F9948
102
{ACAD_REACTORS
330
F9942
102
}
330
F9942
100
AcDbXrecord
280
     1
270
     1
271
     1
  0
XRECORD
  5
F9945
102
{ACAD_REACTORS
330
F9942
102
}
330
F9942
100
AcDbXrecord
280
     1
270
     1
271
     1
  0
XRECORD
  5
101247
102
{ACAD_REACTORS
330
101246
102
}
330
101246
100
AcDbXrecord
280
     1
102
ACAD_ROUNDTRIP_2012_MLEADER_STYLE
298
     1
  0
XRECORD
  5
10124A
102
{ACAD_REACTORS
330
100D98
102
}
330
100D98
100
AcDbXrecord
280
     1
102
DISPLAYNAME
  1
Imperial24
102
FLAGS
 90
        0
  0
XRECORD
  5
101248
102
{ACAD_REACTORS
330
100D94
102
}
330
100D94
100
AcDbXrecord
280
     1
102
DISPLAYNAME
  1
Metric50
102
FLAGS
 90
        0
  0
CELLSTYLEMAP
  5
101208
102
{ACAD_REACTORS
330
FA816
102
}
330
FA816
100
AcDbCellStyleMap
 90
        3
300
CELLSTYLE
  1
TABLEFORMAT_BEGIN
 90
        5
170
     1
 91
        0
 92
    32768
 62
   257
 93
        1
300
CONTENTFORMAT
  1
CONTENTFORMAT_BEGIN
 90
        0
 91
        0
 92
      512
 93
        0
300

 40
0.0
140
1.0
 94
        5
 62
     0
340
11
144
6.0
309
CONTENTFORMAT_END
171
     1
301
MARGIN
  1
CELLMARGIN_BEGIN
 40
1.5
 40
1.5
 40
1.5
 40
1.5
 40
4.5
 40
4.5
309
CELLMARGIN_END
 94
        6
 95
        1
302
GRIDFORMAT
  1
GRIDFORMAT_BEGIN
 90
        0
 91
        1
 62
     0
 92
       -2
340
0
 93
        0
 40
1.125
309
GRIDFORMAT_END
 95
        2
302
GRIDFORMAT
  1
GRIDFORMAT_BEGIN
 90
        0
 91
        1
 62
     0
 92
       -2
340
0
 93
        0
 40
1.125
309
GRIDFORMAT_END
 95
        4
302
GRIDFORMAT
  1
GRIDFORMAT_BEGIN
 90
        0
 91
        1
 62
     0
 92
       -2
340
0
 93
        0
 40
1.125
309
GRIDFORMAT_END
 95
        8
302
GRIDFORMAT
  1
GRIDFORMAT_BEGIN
 90
        0
 91
        1
 62
     0
 92
       -2
340
0
 93
        0
 40
1.125
309
GRIDFORMAT_END
 95
       16
302
GRIDFORMAT
  1
GRIDFORMAT_BEGIN
 90
        0
 91
        1
 62
     0
 92
       -2
340
0
 93
        0
 40
1.125
309
GRIDFORMAT_END
 95
       32
302
GRIDFORMAT
  1
GRIDFORMAT_BEGIN
 90
        0
 91
        1
 62
     0
 92
       -2
340
0
 93
        0
 40
1.125
309
GRIDFORMAT_END
309
TABLEFORMAT_END
  1
CELLSTYLE_BEGIN
 90
        1
 91
        1
300
_TITLE
309
CELLSTYLE_END
300
CELLSTYLE
  1
TABLEFORMAT_BEGIN
 90
        5
170
     1
 91
        0
 92
        0
 62
   257
 93
        1
300
CONTENTFORMAT
  1
CONTENTFORMAT_BEGIN
 90
        0
 91
        0
 92
      512
 93
        0
300

 40
0.0
140
1.0
 94
        5
 62
     0
340
11
144
4.5
309
CONTENTFORMAT_END
171
     1
301
MARGIN
  1
CELLMARGIN_BEGIN
 40
1.5
 40
1.5
 40
1.5
 40
1.5
 40
4.5
 40
4.5
309
CELLMARGIN_END
 94
        6
 95
        1
302
GRIDFORMAT
  1
GRIDFORMAT_BEGIN
 90
        0
 91
        1
 62
     0
 92
       -2
340
0
 93
        0
 40
1.125
309
GRIDFORMAT_END
 95
        2
302
GRIDFORMAT
  1
GRIDFORMAT_BEGIN
 90
        0
 91
        1
 62
     0
 92
       -2
340
0
 93
        0
 40
1.125
309
GRIDFORMAT_END
 95
        4
302
GRIDFORMAT
  1
GRIDFORMAT_BEGIN
 90
        0
 91
        1
 62
     0
 92
       -2
340
0
 93
        0
 40
1.125
309
GRIDFORMAT_END
 95
        8
302
GRIDFORMAT
  1
GRIDFORMAT_BEGIN
 90
        0
 91
        1
 62
     0
 92
       -2
340
0
 93
        0
 40
1.125
309
GRIDFORMAT_END
 95
       16
302
GRIDFORMAT
  1
GRIDFORMAT_BEGIN
 90
        0
 91
        1
 62
     0
 92
       -2
340
0
 93
        0
 40
1.125
309
GRIDFORMAT_END
 95
       32
302
GRIDFORMAT
  1
GRIDFORMAT_BEGIN
 90
        0
 91
        1
 62
     0
 92
       -2
340
0
 93
        0
 40
1.125
309
GRIDFORMAT_END
309
TABLEFORMAT_END
  1
CELLSTYLE_BEGIN
 90
        2
 91
        1
300
_HEADER
309
CELLSTYLE_END
300
CELLSTYLE
  1
TABLEFORMAT_BEGIN
 90
        5
170
     1
 91
        0
 92
        0
 62
   257
 93
        1
300
CONTENTFORMAT
  1
CONTENTFORMAT_BEGIN
 90
        0
 91
        0
 92
      512
 93
        0
300

 40
0.0
140
1.0
 94
        2
 62
     0
340
11
144
4.5
309
CONTENTFORMAT_END
171
     1
301
MARGIN
  1
CELLMARGIN_BEGIN
 40
1.5
 40
1.5
 40
1.5
 40
1.5
 40
4.5
 40
4.5
309
CELLMARGIN_END
 94
        6
 95
        1
302
GRIDFORMAT
  1
GRIDFORMAT_BEGIN
 90
        0
 91
        1
 62
     0
 92
       -2
340
0
 93
        0
 40
1.125
309
GRIDFORMAT_END
 95
        2
302
GRIDFORMAT
  1
GRIDFORMAT_BEGIN
 90
        0
 91
        1
 62
     0
 92
       -2
340
0
 93
        0
 40
1.125
309
GRIDFORMAT_END
 95
        4
302
GRIDFORMAT
  1
GRIDFORMAT_BEGIN
 90
        0
 91
        1
 62
     0
 92
       -2
340
0
 93
        0
 40
1.125
309
GRIDFORMAT_END
 95
        8
302
GRIDFORMAT
  1
GRIDFORMAT_BEGIN
 90
        0
 91
        1
 62
     0
 92
       -2
340
0
 93
        0
 40
1.125
309
GRIDFORMAT_END
 95
       16
302
GRIDFORMAT
  1
GRIDFORMAT_BEGIN
 90
        0
 91
        1
 62
     0
 92
       -2
340
0
 93
        0
 40
1.125
309
GRIDFORMAT_END
 95
       32
302
GRIDFORMAT
  1
GRIDFORMAT_BEGIN
 90
        0
 91
        1
 62
     0
 92
       -2
340
0
 93
        0
 40
1.125
309
GRIDFORMAT_END
309
TABLEFORMAT_END
  1
CELLSTYLE_BEGIN
 90
        3
 91
        2
300
_DATA
309
CELLSTYLE_END
  0
XRECORD
  5
101245
102
{ACAD_REACTORS
330
FA816
102
}
330
FA816
100
AcDbXrecord
280
     1
102
ACAD_ROUNDTRIP_PRE2007_TABLESTYLE
 90
      512
 91
        0
  1

 92
      512
 93
        0
  2

 94
      512
 95
        0
  3

  0
XRECORD
  5
101220
102
{ACAD_REACTORS
330
10121F
102
}
330
10121F
100
AcDbXrecord
280
     1
102
RTVSPost2010Prop28
280
     1
102
RTVSPost2010PropOp28
 70
     1
102
RTVSPost2010Prop29
280
     1
102
RTVSPost2010PropOp29
 70
     1
102
RTVSPost2010Prop30
280
     0
102
RTVSPost2010PropOp30
 70
     1
102
RTVSPost2010Prop31
280
     0
102
RTVSPost2010PropOp31
 70
     1
102
RTVSPost2010Prop32
280
     0
102
RTVSPost2010PropOp32
 70
     1
102
RTVSPost2010Prop33
280
     0
102
RTVSPost2010PropOp33
 70
     1
102
RTVSPost2010Prop34
280
     0
102
RTVSPost2010PropOp34
 70
     1
102
RTVSPost2010Prop35
280
     0
102
RTVSPost2010PropOp35
 70
     1
102
RTVSPost2010Prop36
280
     0
102
RTVSPost2010PropOp36
 70
     1
102
RTVSPost2010Prop37
 90
       50
102
RTVSPost2010PropOp37
 70
     1
102
RTVSPost2010Prop38
140
0.0
102
RTVSPost2010PropOp38
 70
     1
102
RTVSPost2010Prop39
140
1.0
102
RTVSPost2010PropOp39
 70
     1
102
RTVSPost2010Prop40
 90
        0
102
RTVSPost2010PropOp40
 70
     1
102
RTVSPost2010Prop41ColorIndex
 90
       18
102
RTVSPost2010Prop41ColorRGB
 90
        0
102
RTVSPost2010PropOp41
 70
     1
102
RTVSPost2010Prop42
 90
       50
102
RTVSPost2010PropOp42
 70
     1
102
RTVSPost2010Prop43
 90
        3
102
RTVSPost2010PropOp43
 70
     1
102
RTVSPost2010Prop44ColorIndex
 90
        5
102
RTVSPost2010Prop44ColorRGB
 90
      255
102
RTVSPost2010PropOp44
 70
     1
102
RTVSPost2010Prop45
280
     0
102
RTVSPost2010PropOp45
 70
     1
102
RTVSPost2010Prop46
 90
       50
102
RTVSPost2010PropOp46
 70
     1
102
RTVSPost2010Prop47
 90
       50
102
RTVSPost2010PropOp47
 70
     1
102
RTVSPost2010Prop48
 90
       50
102
RTVSPost2010PropOp48
 70
     1
102
RTVSPost2010Prop49
280
     0
102
RTVSPost2010PropOp49
 70
     1
102
RTVSPost2010Prop50
 90
       50
102
RTVSPost2010PropOp50
 70
     1
102
RTVSPost2010Prop51ColorIndex
 90
      256
102
RTVSPost2010Prop51ColorRGB
 90
-16777216
102
RTVSPost2010PropOp51
 70
     0
102
RTVSPost2010Prop52
140
1.0
102
RTVSPost2010PropOp52
 70
     0
102
RTVSPost2010Prop53
 90
        2
102
RTVSPost2010PropOp53
 70
     1
102
RTVSPost2010Prop54
  1
strokes_ogs.tif
102
RTVSPost2010PropOp54
 70
     1
102
RTVSPost2010Prop55
280
     0
102
RTVSPost2010PropOp55
 70
     1
102
RTVSPost2010Prop56
140
1.0
102
RTVSPost2010PropOp56
 70
     1
102
RTVSPost2010Prop57
140
1.0
102
RTVSPost2010PropOp57
 70
     1
102
RTVSPropertyOp0
 70
     1
102
RTVSPropertyOp1
 70
     1
102
RTVSPropertyOp2
 70
     1
102
RTVSPropertyOp3
 70
     1
102
RTVSPropertyOp4
 70
     1
102
RTVSPropertyOp5
 70
     1
102
RTVSPropertyOp6
 70
     1
102
RTVSPropertyOp7
 70
     1
102
RTVSPropertyOp8
 70
     1
102
RTVSPropertyOp9
 70
     1
102
RTVSPropertyOp10
 70
     1
102
RTVSPropertyOp11
 70
     1
102
RTVSPropertyOp12
 70
     1
102
RTVSPropertyOp13
 70
     1
102
RTVSPropertyOp14
 70
     1
102
RTVSPropertyOp15
 70
     1
102
RTVSPropertyOp16
 70
     1
102
RTVSPropertyOp17
 70
     1
102
RTVSPropertyOp18
 70
     1
102
RTVSPropertyOp19
 70
     1
102
RTVSPropertyOp20
 70
     1
102
RTVSPropertyOp21
 70
     1
102
RTVSPropertyOp22
 70
     1
102
RTVSPropertyOp23
 70
     1
102
RTVSPropertyOp24
 70
     1
102
RTVSPropertyOp25
 70
     1
102
RTVSPropertyOp26
 70
     1
102
RTVSPropertyOp27
 70
     1
102
RTVSPropertyOp28
 70
     1
102
RTVSPropertyOp29
 70
     1
102
RTVSPropertyOp30
 70
     1
102
RTVSPropertyOp31
 70
     1
102
RTVSPropertyOp32
 70
     1
102
RTVSPropertyOp33
 70
     1
102
RTVSPropertyOp34
 70
     1
102
RTVSPropertyOp35
 70
     1
102
RTVSPropertyOp36
 70
     1
102
RTVSPropertyOp37
 70
     1
102
RTVSPropertyOp38
 70
     1
102
RTVSPropertyOp39
 70
     1
102
RTVSPropertyOp40
 70
     1
102
RTVSPropertyOp41
 70
     1
102
RTVSPropertyOp42
 70
     1
102
RTVSPropertyOp43
 70
     1
102
RTVSPropertyOp44
 70
     1
102
RTVSPropertyOp45
 70
     1
102
RTVSPropertyOp46
 70
     1
102
RTVSPropertyOp47
 70
     1
102
RTVSPropertyOp48
 70
     1
102
RTVSPropertyOp49
 70
     1
102
RTVSPropertyOp50
 70
     1
102
RTVSPropertyOp51
 70
     0
102
RTVSPropertyOp52
 70
     0
102
RTVSPropertyOp53
 70
     1
102
RTVSPropertyOp54
 70
     1
102
RTVSPropertyOp55
 70
     1
102
RTVSPropertyOp56
 70
     1
102
RTVSPropertyOp57
 70
     1
102
RTVSPropertyOp58
 70
     1
102
RTVSPropertyOp59
 70
     1
102
RTVSPropertyOp60
 70
     1
102
RTVSPropertyOp61
 70
     1
102
RTVSPropertyOp62
 70
     1
  0
XRECORD
  5
10121E
102
{ACAD_REACTORS
330
10121D
102
}
330
10121D
100
AcDbXrecord
280
     1
102
RTVSPost2010Prop28
280
     0
102
RTVSPost2010PropOp28
 70
     1
102
RTVSPost2010Prop29
280
     1
102
RTVSPost2010PropOp29
 70
     1
102
RTVSPost2010Prop30
280
     1
102
RTVSPost2010PropOp30
 70
     1
102
RTVSPost2010Prop31
280
     0
102
RTVSPost2010PropOp31
 70
     1
102
RTVSPost2010Prop32
280
     0
102
RTVSPost2010PropOp32
 70
     1
102
RTVSPost2010Prop33
280
     0
102
RTVSPost2010PropOp33
 70
     1
102
RTVSPost2010Prop34
280
     0
102
RTVSPost2010PropOp34
 70
     1
102
RTVSPost2010Prop35
280
     0
102
RTVSPost2010PropOp35
 70
     1
102
RTVSPost2010Prop36
280
     0
102
RTVSPost2010PropOp36
 70
     1
102
RTVSPost2010Prop37
 90
       50
102
RTVSPost2010PropOp37
 70
     1
102
RTVSPost2010Prop38
140
0.0
102
RTVSPost2010PropOp38
 70
     1
102
RTVSPost2010Prop39
140
1.0
102
RTVSPost2010PropOp39
 70
     1
102
RTVSPost2010Prop40
 90
        0
102
RTVSPost2010PropOp40
 70
     1
102
RTVSPost2010Prop41ColorIndex
 90
       18
102
RTVSPost2010Prop41ColorRGB
 90
        0
102
RTVSPost2010PropOp41
 70
     1
102
RTVSPost2010Prop42
 90
       50
102
RTVSPost2010PropOp42
 70
     1
102
RTVSPost2010Prop43
 90
        3
102
RTVSPost2010PropOp43
 70
     1
102
RTVSPost2010Prop44ColorIndex
 90
        5
102
RTVSPost2010Prop44ColorRGB
 90
      255
102
RTVSPost2010PropOp44
 70
     1
102
RTVSPost2010Prop45
280
     0
102
RTVSPost2010PropOp45
 70
     1
102
RTVSPost2010Prop46
 90
       50
102
RTVSPost2010PropOp46
 70
     1
102
RTVSPost2010Prop47
 90
       50
102
RTVSPost2010PropOp47
 70
     1
102
RTVSPost2010Prop48
 90
       50
102
RTVSPost2010PropOp48
 70
     1
102
RTVSPost2010Prop49
280
     0
102
RTVSPost2010PropOp49
 70
     1
102
RTVSPost2010Prop50
 90
       50
102
RTVSPost2010PropOp50
 70
     1
102
RTVSPost2010Prop51ColorIndex
 90
      256
102
RTVSPost2010Prop51ColorRGB
 90
-16777216
102
RTVSPost2010PropOp51
 70
     0
102
RTVSPost2010Prop52
140
1.0
102
RTVSPost2010PropOp52
 70
     0
102
RTVSPost2010Prop53
 90
        2
102
RTVSPost2010PropOp53
 70
     1
102
RTVSPost2010Prop54
  1
strokes_ogs.tif
102
RTVSPost2010PropOp54
 70
     1
102
RTVSPost2010Prop55
280
     0
102
RTVSPost2010PropOp55
 70
     1
102
RTVSPost2010Prop56
140
1.0
102
RTVSPost2010PropOp56
 70
     1
102
RTVSPost2010Prop57
140
1.0
102
RTVSPost2010PropOp57
 70
     1
102
RTVSPropertyOp0
 70
     1
102
RTVSPropertyOp1
 70
     1
102
RTVSPropertyOp2
 70
     1
102
RTVSPropertyOp3
 70
     1
102
RTVSPropertyOp4
 70
     1
102
RTVSPropertyOp5
 70
     1
102
RTVSPropertyOp6
 70
     1
102
RTVSPropertyOp7
 70
     1
102
RTVSPropertyOp8
 70
     1
102
RTVSPropertyOp9
 70
     1
102
RTVSPropertyOp10
 70
     1
102
RTVSPropertyOp11
 70
     1
102
RTVSPropertyOp12
 70
     1
102
RTVSPropertyOp13
 70
     1
102
RTVSPropertyOp14
 70
     1
102
RTVSPropertyOp15
 70
     1
102
RTVSPropertyOp16
 70
     1
102
RTVSPropertyOp17
 70
     1
102
RTVSPropertyOp18
 70
     1
102
RTVSPropertyOp19
 70
     1
102
RTVSPropertyOp20
 70
     1
102
RTVSPropertyOp21
 70
     1
102
RTVSPropertyOp22
 70
     1
102
RTVSPropertyOp23
 70
     1
102
RTVSPropertyOp24
 70
     1
102
RTVSPropertyOp25
 70
     1
102
RTVSPropertyOp26
 70
     1
102
RTVSPropertyOp27
 70
     1
102
RTVSPropertyOp28
 70
     1
102
RTVSPropertyOp29
 70
     1
102
RTVSPropertyOp30
 70
     1
102
RTVSPropertyOp31
 70
     1
102
RTVSPropertyOp32
 70
     1
102
RTVSPropertyOp33
 70
     1
102
RTVSPropertyOp34
 70
     1
102
RTVSPropertyOp35
 70
     1
102
RTVSPropertyOp36
 70
     1
102
RTVSPropertyOp37
 70
     1
102
RTVSPropertyOp38
 70
     1
102
RTVSPropertyOp39
 70
     1
102
RTVSPropertyOp40
 70
     1
102
RTVSPropertyOp41
 70
     1
102
RTVSPropertyOp42
 70
     1
102
RTVSPropertyOp43
 70
     1
102
RTVSPropertyOp44
 70
     1
102
RTVSPropertyOp45
 70
     1
102
RTVSPropertyOp46
 70
     1
102
RTVSPropertyOp47
 70
     1
102
RTVSPropertyOp48
 70
     1
102
RTVSPropertyOp49
 70
     1
102
RTVSPropertyOp50
 70
     1
102
RTVSPropertyOp51
 70
     0
102
RTVSPropertyOp52
 70
     0
102
RTVSPropertyOp53
 70
     1
102
RTVSPropertyOp54
 70
     1
102
RTVSPropertyOp55
 70
     1
102
RTVSPropertyOp56
 70
     1
102
RTVSPropertyOp57
 70
     1
102
RTVSPropertyOp58
 70
     1
102
RTVSPropertyOp59
 70
     1
102
RTVSPropertyOp60
 70
     1
102
RTVSPropertyOp61
 70
     1
102
RTVSPropertyOp62
 70
     1
  0
XRECORD
  5
10122C
102
{ACAD_REACTORS
330
10122B
102
}
330
10122B
100
AcDbXrecord
280
     1
102
RTVSPost2010Prop28
280
     0
102
RTVSPost2010PropOp28
 70
     1
102
RTVSPost2010Prop29
280
     1
102
RTVSPost2010PropOp29
 70
     1
102
RTVSPost2010Prop30
280
     1
102
RTVSPost2010PropOp30
 70
     1
102
RTVSPost2010Prop31
280
     0
102
RTVSPost2010PropOp31
 70
     1
102
RTVSPost2010Prop32
280
     0
102
RTVSPost2010PropOp32
 70
     1
102
RTVSPost2010Prop33
280
     0
102
RTVSPost2010PropOp33
 70
     1
102
RTVSPost2010Prop34
280
     0
102
RTVSPost2010PropOp34
 70
     1
102
RTVSPost2010Prop35
280
     0
102
RTVSPost2010PropOp35
 70
     1
102
RTVSPost2010Prop36
280
     0
102
RTVSPost2010PropOp36
 70
     1
102
RTVSPost2010Prop37
 90
       50
102
RTVSPost2010PropOp37
 70
     1
102
RTVSPost2010Prop38
140
0.0
102
RTVSPost2010PropOp38
 70
     1
102
RTVSPost2010Prop39
140
1.0
102
RTVSPost2010PropOp39
 70
     1
102
RTVSPost2010Prop40
 90
        0
102
RTVSPost2010PropOp40
 70
     1
102
RTVSPost2010Prop41ColorIndex
 90
       18
102
RTVSPost2010Prop41ColorRGB
 90
        0
102
RTVSPost2010PropOp41
 70
     1
102
RTVSPost2010Prop42
 90
       50
102
RTVSPost2010PropOp42
 70
     1
102
RTVSPost2010Prop43
 90
        3
102
RTVSPost2010PropOp43
 70
     1
102
RTVSPost2010Prop44ColorIndex
 90
        5
102
RTVSPost2010Prop44ColorRGB
 90
      255
102
RTVSPost2010PropOp44
 70
     1
102
RTVSPost2010Prop45
280
     0
102
RTVSPost2010PropOp45
 70
     1
102
RTVSPost2010Prop46
 90
       50
102
RTVSPost2010PropOp46
 70
     1
102
RTVSPost2010Prop47
 90
       50
102
RTVSPost2010PropOp47
 70
     1
102
RTVSPost2010Prop48
 90
       50
102
RTVSPost2010PropOp48
 70
     1
102
RTVSPost2010Prop49
280
     0
102
RTVSPost2010PropOp49
 70
     1
102
RTVSPost2010Prop50
 90
       50
102
RTVSPost2010PropOp50
 70
     1
102
RTVSPost2010Prop51ColorIndex
 90
      256
102
RTVSPost2010Prop51ColorRGB
 90
-16777216
102
RTVSPost2010PropOp51
 70
     0
102
RTVSPost2010Prop52
140
1.0
102
RTVSPost2010PropOp52
 70
     0
102
RTVSPost2010Prop53
 90
        2
102
RTVSPost2010PropOp53
 70
     1
102
RTVSPost2010Prop54
  1
strokes_ogs.tif
102
RTVSPost2010PropOp54
 70
     1
102
RTVSPost2010Prop55
280
     0
102
RTVSPost2010PropOp55
 70
     1
102
RTVSPost2010Prop56
140
1.0
102
RTVSPost2010PropOp56
 70
     1
102
RTVSPost2010Prop57
140
1.0
102
RTVSPost2010PropOp57
 70
     1
102
RTVSPropertyOp0
 70
     1
102
RTVSPropertyOp1
 70
     1
102
RTVSPropertyOp2
 70
     1
102
RTVSPropertyOp3
 70
     1
102
RTVSPropertyOp4
 70
     1
102
RTVSPropertyOp5
 70
     1
102
RTVSPropertyOp6
 70
     1
102
RTVSPropertyOp7
 70
     1
102
RTVSPropertyOp8
 70
     1
102
RTVSPropertyOp9
 70
     1
102
RTVSPropertyOp10
 70
     1
102
RTVSPropertyOp11
 70
     1
102
RTVSPropertyOp12
 70
     1
102
RTVSPropertyOp13
 70
     1
102
RTVSPropertyOp14
 70
     1
102
RTVSPropertyOp15
 70
     1
102
RTVSPropertyOp16
 70
     1
102
RTVSPropertyOp17
 70
     1
102
RTVSPropertyOp18
 70
     1
102
RTVSPropertyOp19
 70
     1
102
RTVSPropertyOp20
 70
     1
102
RTVSPropertyOp21
 70
     1
102
RTVSPropertyOp22
 70
     1
102
RTVSPropertyOp23
 70
     1
102
RTVSPropertyOp24
 70
     1
102
RTVSPropertyOp25
 70
     1
102
RTVSPropertyOp26
 70
     1
102
RTVSPropertyOp27
 70
     1
102
RTVSPropertyOp28
 70
     1
102
RTVSPropertyOp29
 70
     1
102
RTVSPropertyOp30
 70
     1
102
RTVSPropertyOp31
 70
     1
102
RTVSPropertyOp32
 70
     1
102
RTVSPropertyOp33
 70
     1
102
RTVSPropertyOp34
 70
     1
102
RTVSPropertyOp35
 70
     1
102
RTVSPropertyOp36
 70
     1
102
RTVSPropertyOp37
 70
     1
102
RTVSPropertyOp38
 70
     1
102
RTVSPropertyOp39
 70
     1
102
RTVSPropertyOp40
 70
     1
102
RTVSPropertyOp41
 70
     1
102
RTVSPropertyOp42
 70
     1
102
RTVSPropertyOp43
 70
     1
102
RTVSPropertyOp44
 70
     1
102
RTVSPropertyOp45
 70
     1
102
RTVSPropertyOp46
 70
     1
102
RTVSPropertyOp47
 70
     1
102
RTVSPropertyOp48
 70
     1
102
RTVSPropertyOp49
 70
     1
102
RTVSPropertyOp50
 70
     1
102
RTVSPropertyOp51
 70
     0
102
RTVSPropertyOp52
 70
     0
102
RTVSPropertyOp53
 70
     1
102
RTVSPropertyOp54
 70
     1
102
RTVSPropertyOp55
 70
     1
102
RTVSPropertyOp56
 70
     1
102
RTVSPropertyOp57
 70
     1
102
RTVSPropertyOp58
 70
     1
102
RTVSPropertyOp59
 70
     1
102
RTVSPropertyOp60
 70
     1
102
RTVSPropertyOp61
 70
     1
102
RTVSPropertyOp62
 70
     1
  0
XRECORD
  5
101234
102
{ACAD_REACTORS
330
101233
102
}
330
101233
100
AcDbXrecord
280
     1
102
RTVSPost2010Prop28
280
     0
102
RTVSPost2010PropOp28
 70
     1
102
RTVSPost2010Prop29
280
     1
102
RTVSPost2010PropOp29
 70
     1
102
RTVSPost2010Prop30
280
     1
102
RTVSPost2010PropOp30
 70
     1
102
RTVSPost2010Prop31
280
     0
102
RTVSPost2010PropOp31
 70
     1
102
RTVSPost2010Prop32
280
     0
102
RTVSPost2010PropOp32
 70
     1
102
RTVSPost2010Prop33
280
     0
102
RTVSPost2010PropOp33
 70
     1
102
RTVSPost2010Prop34
280
     0
102
RTVSPost2010PropOp34
 70
     1
102
RTVSPost2010Prop35
280
     0
102
RTVSPost2010PropOp35
 70
     1
102
RTVSPost2010Prop36
280
     0
102
RTVSPost2010PropOp36
 70
     1
102
RTVSPost2010Prop37
 90
       50
102
RTVSPost2010PropOp37
 70
     1
102
RTVSPost2010Prop38
140
0.0
102
RTVSPost2010PropOp38
 70
     1
102
RTVSPost2010Prop39
140
1.0
102
RTVSPost2010PropOp39
 70
     1
102
RTVSPost2010Prop40
 90
        0
102
RTVSPost2010PropOp40
 70
     1
102
RTVSPost2010Prop41ColorIndex
 90
       18
102
RTVSPost2010Prop41ColorRGB
 90
        0
102
RTVSPost2010PropOp41
 70
     1
102
RTVSPost2010Prop42
 90
       50
102
RTVSPost2010PropOp42
 70
     1
102
RTVSPost2010Prop43
 90
        3
102
RTVSPost2010PropOp43
 70
     1
102
RTVSPost2010Prop44ColorIndex
 90
        5
102
RTVSPost2010Prop44ColorRGB
 90
      255
102
RTVSPost2010PropOp44
 70
     1
102
RTVSPost2010Prop45
280
     0
102
RTVSPost2010PropOp45
 70
     1
102
RTVSPost2010Prop46
 90
       50
102
RTVSPost2010PropOp46
 70
     1
102
RTVSPost2010Prop47
 90
       50
102
RTVSPost2010PropOp47
 70
     1
102
RTVSPost2010Prop48
 90
       50
102
RTVSPost2010PropOp48
 70
     1
102
RTVSPost2010Prop49
280
     0
102
RTVSPost2010PropOp49
 70
     1
102
RTVSPost2010Prop50
 90
       50
102
RTVSPost2010PropOp50
 70
     1
102
RTVSPost2010Prop51ColorIndex
 90
      256
102
RTVSPost2010Prop51ColorRGB
 90
-16777216
102
RTVSPost2010PropOp51
 70
     0
102
RTVSPost2010Prop52
140
1.0
102
RTVSPost2010PropOp52
 70
     0
102
RTVSPost2010Prop53
 90
        2
102
RTVSPost2010PropOp53
 70
     1
102
RTVSPost2010Prop54
  1
strokes_ogs.tif
102
RTVSPost2010PropOp54
 70
     1
102
RTVSPost2010Prop55
280
     0
102
RTVSPost2010PropOp55
 70
     1
102
RTVSPost2010Prop56
140
1.0
102
RTVSPost2010PropOp56
 70
     1
102
RTVSPost2010Prop57
140
1.0
102
RTVSPost2010PropOp57
 70
     1
102
RTVSPropertyOp0
 70
     1
102
RTVSPropertyOp1
 70
     1
102
RTVSPropertyOp2
 70
     1
102
RTVSPropertyOp3
 70
     1
102
RTVSPropertyOp4
 70
     1
102
RTVSPropertyOp5
 70
     1
102
RTVSPropertyOp6
 70
     1
102
RTVSPropertyOp7
 70
     1
102
RTVSPropertyOp8
 70
     1
102
RTVSPropertyOp9
 70
     1
102
RTVSPropertyOp10
 70
     1
102
RTVSPropertyOp11
 70
     1
102
RTVSPropertyOp12
 70
     1
102
RTVSPropertyOp13
 70
     1
102
RTVSPropertyOp14
 70
     1
102
RTVSPropertyOp15
 70
     1
102
RTVSPropertyOp16
 70
     1
102
RTVSPropertyOp17
 70
     1
102
RTVSPropertyOp18
 70
     1
102
RTVSPropertyOp19
 70
     1
102
RTVSPropertyOp20
 70
     1
102
RTVSPropertyOp21
 70
     1
102
RTVSPropertyOp22
 70
     1
102
RTVSPropertyOp23
 70
     1
102
RTVSPropertyOp24
 70
     1
102
RTVSPropertyOp25
 70
     1
102
RTVSPropertyOp26
 70
     1
102
RTVSPropertyOp27
 70
     1
102
RTVSPropertyOp28
 70
     1
102
RTVSPropertyOp29
 70
     1
102
RTVSPropertyOp30
 70
     1
102
RTVSPropertyOp31
 70
     1
102
RTVSPropertyOp32
 70
     1
102
RTVSPropertyOp33
 70
     1
102
RTVSPropertyOp34
 70
     1
102
RTVSPropertyOp35
 70
     1
102
RTVSPropertyOp36
 70
     1
102
RTVSPropertyOp37
 70
     1
102
RTVSPropertyOp38
 70
     1
102
RTVSPropertyOp39
 70
     1
102
RTVSPropertyOp40
 70
     1
102
RTVSPropertyOp41
 70
     1
102
RTVSPropertyOp42
 70
     1
102
RTVSPropertyOp43
 70
     1
102
RTVSPropertyOp44
 70
     1
102
RTVSPropertyOp45
 70
     1
102
RTVSPropertyOp46
 70
     1
102
RTVSPropertyOp47
 70
     1
102
RTVSPropertyOp48
 70
     1
102
RTVSPropertyOp49
 70
     1
102
RTVSPropertyOp50
 70
     1
102
RTVSPropertyOp51
 70
     0
102
RTVSPropertyOp52
 70
     0
102
RTVSPropertyOp53
 70
     1
102
RTVSPropertyOp54
 70
     1
102
RTVSPropertyOp55
 70
     1
102
RTVSPropertyOp56
 70
     1
102
RTVSPropertyOp57
 70
     1
102
RTVSPropertyOp58
 70
     1
102
RTVSPropertyOp59
 70
     1
102
RTVSPropertyOp60
 70
     1
102
RTVSPropertyOp61
 70
     1
102
RTVSPropertyOp62
 70
     1
  0
XRECORD
  5
101226
102
{ACAD_REACTORS
330
101225
102
}
330
101225
100
AcDbXrecord
280
     1
102
RTVSPost2010Prop28
280
     0
102
RTVSPost2010PropOp28
 70
     1
102
RTVSPost2010Prop29
280
     1
102
RTVSPost2010PropOp29
 70
     1
102
RTVSPost2010Prop30
280
     1
102
RTVSPost2010PropOp30
 70
     1
102
RTVSPost2010Prop31
280
     0
102
RTVSPost2010PropOp31
 70
     1
102
RTVSPost2010Prop32
280
     0
102
RTVSPost2010PropOp32
 70
     1
102
RTVSPost2010Prop33
280
     0
102
RTVSPost2010PropOp33
 70
     1
102
RTVSPost2010Prop34
280
     0
102
RTVSPost2010PropOp34
 70
     1
102
RTVSPost2010Prop35
280
     0
102
RTVSPost2010PropOp35
 70
     1
102
RTVSPost2010Prop36
280
     0
102
RTVSPost2010PropOp36
 70
     1
102
RTVSPost2010Prop37
 90
       50
102
RTVSPost2010PropOp37
 70
     1
102
RTVSPost2010Prop38
140
0.0
102
RTVSPost2010PropOp38
 70
     1
102
RTVSPost2010Prop39
140
1.0
102
RTVSPost2010PropOp39
 70
     1
102
RTVSPost2010Prop40
 90
        0
102
RTVSPost2010PropOp40
 70
     1
102
RTVSPost2010Prop41ColorIndex
 90
       18
102
RTVSPost2010Prop41ColorRGB
 90
        0
102
RTVSPost2010PropOp41
 70
     1
102
RTVSPost2010Prop42
 90
       50
102
RTVSPost2010PropOp42
 70
     1
102
RTVSPost2010Prop43
 90
        3
102
RTVSPost2010PropOp43
 70
     1
102
RTVSPost2010Prop44ColorIndex
 90
        5
102
RTVSPost2010Prop44ColorRGB
 90
      255
102
RTVSPost2010PropOp44
 70
     1
102
RTVSPost2010Prop45
280
     0
102
RTVSPost2010PropOp45
 70
     1
102
RTVSPost2010Prop46
 90
       50
102
RTVSPost2010PropOp46
 70
     1
102
RTVSPost2010Prop47
 90
       50
102
RTVSPost2010PropOp47
 70
     1
102
RTVSPost2010Prop48
 90
       50
102
RTVSPost2010PropOp48
 70
     1
102
RTVSPost2010Prop49
280
     0
102
RTVSPost2010PropOp49
 70
     1
102
RTVSPost2010Prop50
 90
       50
102
RTVSPost2010PropOp50
 70
     1
102
RTVSPost2010Prop51ColorIndex
 90
      256
102
RTVSPost2010Prop51ColorRGB
 90
-16777216
102
RTVSPost2010PropOp51
 70
     0
102
RTVSPost2010Prop52
140
1.0
102
RTVSPost2010PropOp52
 70
     0
102
RTVSPost2010Prop53
 90
        2
102
RTVSPost2010PropOp53
 70
     1
102
RTVSPost2010Prop54
  1
strokes_ogs.tif
102
RTVSPost2010PropOp54
 70
     1
102
RTVSPost2010Prop55
280
     0
102
RTVSPost2010PropOp55
 70
     1
102
RTVSPost2010Prop56
140
1.0
102
RTVSPost2010PropOp56
 70
     1
102
RTVSPost2010Prop57
140
1.0
102
RTVSPost2010PropOp57
 70
     1
102
RTVSPropertyOp0
 70
     1
102
RTVSPropertyOp1
 70
     1
102
RTVSPropertyOp2
 70
     1
102
RTVSPropertyOp3
 70
     1
102
RTVSPropertyOp4
 70
     1
102
RTVSPropertyOp5
 70
     1
102
RTVSPropertyOp6
 70
     1
102
RTVSPropertyOp7
 70
     1
102
RTVSPropertyOp8
 70
     1
102
RTVSPropertyOp9
 70
     1
102
RTVSPropertyOp10
 70
     1
102
RTVSPropertyOp11
 70
     1
102
RTVSPropertyOp12
 70
     1
102
RTVSPropertyOp13
 70
     1
102
RTVSPropertyOp14
 70
     1
102
RTVSPropertyOp15
 70
     1
102
RTVSPropertyOp16
 70
     1
102
RTVSPropertyOp17
 70
     1
102
RTVSPropertyOp18
 70
     1
102
RTVSPropertyOp19
 70
     1
102
RTVSPropertyOp20
 70
     1
102
RTVSPropertyOp21
 70
     1
102
RTVSPropertyOp22
 70
     1
102
RTVSPropertyOp23
 70
     1
102
RTVSPropertyOp24
 70
     1
102
RTVSPropertyOp25
 70
     1
102
RTVSPropertyOp26
 70
     1
102
RTVSPropertyOp27
 70
     1
102
RTVSPropertyOp28
 70
     1
102
RTVSPropertyOp29
 70
     1
102
RTVSPropertyOp30
 70
     1
102
RTVSPropertyOp31
 70
     1
102
RTVSPropertyOp32
 70
     1
102
RTVSPropertyOp33
 70
     1
102
RTVSPropertyOp34
 70
     1
102
RTVSPropertyOp35
 70
     1
102
RTVSPropertyOp36
 70
     1
102
RTVSPropertyOp37
 70
     1
102
RTVSPropertyOp38
 70
     1
102
RTVSPropertyOp39
 70
     1
102
RTVSPropertyOp40
 70
     1
102
RTVSPropertyOp41
 70
     1
102
RTVSPropertyOp42
 70
     1
102
RTVSPropertyOp43
 70
     1
102
RTVSPropertyOp44
 70
     1
102
RTVSPropertyOp45
 70
     1
102
RTVSPropertyOp46
 70
     1
102
RTVSPropertyOp47
 70
     1
102
RTVSPropertyOp48
 70
     1
102
RTVSPropertyOp49
 70
     1
102
RTVSPropertyOp50
 70
     1
102
RTVSPropertyOp51
 70
     0
102
RTVSPropertyOp52
 70
     0
102
RTVSPropertyOp53
 70
     1
102
RTVSPropertyOp54
 70
     1
102
RTVSPropertyOp55
 70
     1
102
RTVSPropertyOp56
 70
     1
102
RTVSPropertyOp57
 70
     1
102
RTVSPropertyOp58
 70
     1
102
RTVSPropertyOp59
 70
     1
102
RTVSPropertyOp60
 70
     1
102
RTVSPropertyOp61
 70
     1
102
RTVSPropertyOp62
 70
     1
  0
XRECORD
  5
10122A
102
{ACAD_REACTORS
330
101229
102
}
330
101229
100
AcDbXrecord
280
     1
102
RTVSPost2010Prop28
280
     0
102
RTVSPost2010PropOp28
 70
     1
102
RTVSPost2010Prop29
280
     1
102
RTVSPost2010PropOp29
 70
     1
102
RTVSPost2010Prop30
280
     1
102
RTVSPost2010PropOp30
 70
     1
102
RTVSPost2010Prop31
280
     0
102
RTVSPost2010PropOp31
 70
     1
102
RTVSPost2010Prop32
280
     0
102
RTVSPost2010PropOp32
 70
     1
102
RTVSPost2010Prop33
280
     0
102
RTVSPost2010PropOp33
 70
     1
102
RTVSPost2010Prop34
280
     0
102
RTVSPost2010PropOp34
 70
     1
102
RTVSPost2010Prop35
280
     0
102
RTVSPost2010PropOp35
 70
     1
102
RTVSPost2010Prop36
280
     0
102
RTVSPost2010PropOp36
 70
     1
102
RTVSPost2010Prop37
 90
       50
102
RTVSPost2010PropOp37
 70
     1
102
RTVSPost2010Prop38
140
0.0
102
RTVSPost2010PropOp38
 70
     1
102
RTVSPost2010Prop39
140
1.0
102
RTVSPost2010PropOp39
 70
     1
102
RTVSPost2010Prop40
 90
        0
102
RTVSPost2010PropOp40
 70
     1
102
RTVSPost2010Prop41ColorIndex
 90
       18
102
RTVSPost2010Prop41ColorRGB
 90
        0
102
RTVSPost2010PropOp41
 70
     1
102
RTVSPost2010Prop42
 90
       50
102
RTVSPost2010PropOp42
 70
     1
102
RTVSPost2010Prop43
 90
        3
102
RTVSPost2010PropOp43
 70
     1
102
RTVSPost2010Prop44ColorIndex
 90
        5
102
RTVSPost2010Prop44ColorRGB
 90
      255
102
RTVSPost2010PropOp44
 70
     1
102
RTVSPost2010Prop45
280
     0
102
RTVSPost2010PropOp45
 70
     1
102
RTVSPost2010Prop46
 90
       50
102
RTVSPost2010PropOp46
 70
     1
102
RTVSPost2010Prop47
 90
       50
102
RTVSPost2010PropOp47
 70
     1
102
RTVSPost2010Prop48
 90
       50
102
RTVSPost2010PropOp48
 70
     1
102
RTVSPost2010Prop49
280
     0
102
RTVSPost2010PropOp49
 70
     1
102
RTVSPost2010Prop50
 90
       50
102
RTVSPost2010PropOp50
 70
     1
102
RTVSPost2010Prop51ColorIndex
 90
      256
102
RTVSPost2010Prop51ColorRGB
 90
-16777216
102
RTVSPost2010PropOp51
 70
     0
102
RTVSPost2010Prop52
140
1.0
102
RTVSPost2010PropOp52
 70
     0
102
RTVSPost2010Prop53
 90
        2
102
RTVSPost2010PropOp53
 70
     1
102
RTVSPost2010Prop54
  1
strokes_ogs.tif
102
RTVSPost2010PropOp54
 70
     1
102
RTVSPost2010Prop55
280
     0
102
RTVSPost2010PropOp55
 70
     1
102
RTVSPost2010Prop56
140
1.0
102
RTVSPost2010PropOp56
 70
     1
102
RTVSPost2010Prop57
140
1.0
102
RTVSPost2010PropOp57
 70
     1
102
RTVSPropertyOp0
 70
     1
102
RTVSPropertyOp1
 70
     1
102
RTVSPropertyOp2
 70
     1
102
RTVSPropertyOp3
 70
     1
102
RTVSPropertyOp4
 70
     1
102
RTVSPropertyOp5
 70
     1
102
RTVSPropertyOp6
 70
     1
102
RTVSPropertyOp7
 70
     1
102
RTVSPropertyOp8
 70
     1
102
RTVSPropertyOp9
 70
     1
102
RTVSPropertyOp10
 70
     1
102
RTVSPropertyOp11
 70
     1
102
RTVSPropertyOp12
 70
     1
102
RTVSPropertyOp13
 70
     1
102
RTVSPropertyOp14
 70
     1
102
RTVSPropertyOp15
 70
     1
102
RTVSPropertyOp16
 70
     1
102
RTVSPropertyOp17
 70
     1
102
RTVSPropertyOp18
 70
     1
102
RTVSPropertyOp19
 70
     1
102
RTVSPropertyOp20
 70
     1
102
RTVSPropertyOp21
 70
     1
102
RTVSPropertyOp22
 70
     1
102
RTVSPropertyOp23
 70
     1
102
RTVSPropertyOp24
 70
     1
102
RTVSPropertyOp25
 70
     1
102
RTVSPropertyOp26
 70
     1
102
RTVSPropertyOp27
 70
     1
102
RTVSPropertyOp28
 70
     1
102
RTVSPropertyOp29
 70
     1
102
RTVSPropertyOp30
 70
     1
102
RTVSPropertyOp31
 70
     1
102
RTVSPropertyOp32
 70
     1
102
RTVSPropertyOp33
 70
     1
102
RTVSPropertyOp34
 70
     1
102
RTVSPropertyOp35
 70
     1
102
RTVSPropertyOp36
 70
     1
102
RTVSPropertyOp37
 70
     1
102
RTVSPropertyOp38
 70
     1
102
RTVSPropertyOp39
 70
     1
102
RTVSPropertyOp40
 70
     1
102
RTVSPropertyOp41
 70
     1
102
RTVSPropertyOp42
 70
     1
102
RTVSPropertyOp43
 70
     1
102
RTVSPropertyOp44
 70
     1
102
RTVSPropertyOp45
 70
     1
102
RTVSPropertyOp46
 70
     1
102
RTVSPropertyOp47
 70
     1
102
RTVSPropertyOp48
 70
     1
102
RTVSPropertyOp49
 70
     1
102
RTVSPropertyOp50
 70
     1
102
RTVSPropertyOp51
 70
     0
102
RTVSPropertyOp52
 70
     0
102
RTVSPropertyOp53
 70
     1
102
RTVSPropertyOp54
 70
     1
102
RTVSPropertyOp55
 70
     1
102
RTVSPropertyOp56
 70
     1
102
RTVSPropertyOp57
 70
     1
102
RTVSPropertyOp58
 70
     1
102
RTVSPropertyOp59
 70
     1
102
RTVSPropertyOp60
 70
     1
102
RTVSPropertyOp61
 70
     1
102
RTVSPropertyOp62
 70
     1
  0
XRECORD
  5
101244
102
{ACAD_REACTORS
330
101243
102
}
330
101243
100
AcDbXrecord
280
     1
102
RTVSPost2010Prop28
280
     0
102
RTVSPost2010PropOp28
 70
     0
102
RTVSPost2010Prop29
280
     1
102
RTVSPost2010PropOp29
 70
     0
102
RTVSPost2010Prop30
280
     1
102
RTVSPost2010PropOp30
 70
     0
102
RTVSPost2010Prop31
280
     0
102
RTVSPost2010PropOp31
 70
     0
102
RTVSPost2010Prop32
280
     0
102
RTVSPost2010PropOp32
 70
     0
102
RTVSPost2010Prop33
280
     0
102
RTVSPost2010PropOp33
 70
     0
102
RTVSPost2010Prop34
280
     0
102
RTVSPost2010PropOp34
 70
     0
102
RTVSPost2010Prop35
280
     0
102
RTVSPost2010PropOp35
 70
     0
102
RTVSPost2010Prop36
280
     0
102
RTVSPost2010PropOp36
 70
     0
102
RTVSPost2010Prop37
 90
       50
102
RTVSPost2010PropOp37
 70
     0
102
RTVSPost2010Prop38
140
0.0
102
RTVSPost2010PropOp38
 70
     0
102
RTVSPost2010Prop39
140
1.0
102
RTVSPost2010PropOp39
 70
     0
102
RTVSPost2010Prop40
 90
        0
102
RTVSPost2010PropOp40
 70
     0
102
RTVSPost2010Prop41ColorIndex
 90
       18
102
RTVSPost2010Prop41ColorRGB
 90
        0
102
RTVSPost2010PropOp41
 70
     0
102
RTVSPost2010Prop42
 90
       50
102
RTVSPost2010PropOp42
 70
     0
102
RTVSPost2010Prop43
 90
        3
102
RTVSPost2010PropOp43
 70
     0
102
RTVSPost2010Prop44ColorIndex
 90
        5
102
RTVSPost2010Prop44ColorRGB
 90
      255
102
RTVSPost2010PropOp44
 70
     0
102
RTVSPost2010Prop45
280
     0
102
RTVSPost2010PropOp45
 70
     0
102
RTVSPost2010Prop46
 90
       50
102
RTVSPost2010PropOp46
 70
     0
102
RTVSPost2010Prop47
 90
       50
102
RTVSPost2010PropOp47
 70
     0
102
RTVSPost2010Prop48
 90
       50
102
RTVSPost2010PropOp48
 70
     0
102
RTVSPost2010Prop49
280
     0
102
RTVSPost2010PropOp49
 70
     0
102
RTVSPost2010Prop50
 90
       50
102
RTVSPost2010PropOp50
 70
     0
102
RTVSPost2010Prop51ColorIndex
 90
      256
102
RTVSPost2010Prop51ColorRGB
 90
-16777216
102
RTVSPost2010PropOp51
 70
     0
102
RTVSPost2010Prop52
140
1.0
102
RTVSPost2010PropOp52
 70
     0
102
RTVSPost2010Prop53
 90
        2
102
RTVSPost2010PropOp53
 70
     0
102
RTVSPost2010Prop54
  1
strokes_ogs.tif
102
RTVSPost2010PropOp54
 70
     0
102
RTVSPost2010Prop55
280
     0
102
RTVSPost2010PropOp55
 70
     0
102
RTVSPost2010Prop56
140
1.0
102
RTVSPost2010PropOp56
 70
     0
102
RTVSPost2010Prop57
140
1.0
102
RTVSPost2010PropOp57
 70
     0
102
RTVSPropertyOp0
 70
     0
102
RTVSPropertyOp1
 70
     0
102
RTVSPropertyOp2
 70
     0
102
RTVSPropertyOp3
 70
     0
102
RTVSPropertyOp4
 70
     0
102
RTVSPropertyOp5
 70
     0
102
RTVSPropertyOp6
 70
     0
102
RTVSPropertyOp7
 70
     0
102
RTVSPropertyOp8
 70
     0
102
RTVSPropertyOp9
 70
     0
102
RTVSPropertyOp10
 70
     0
102
RTVSPropertyOp11
 70
     0
102
RTVSPropertyOp12
 70
     0
102
RTVSPropertyOp13
 70
     0
102
RTVSPropertyOp14
 70
     2
102
RTVSPropertyOp15
 70
     0
102
RTVSPropertyOp16
 70
     0
102
RTVSPropertyOp17
 70
     0
102
RTVSPropertyOp18
 70
     0
102
RTVSPropertyOp19
 70
     0
102
RTVSPropertyOp20
 70
     0
102
RTVSPropertyOp21
 70
     0
102
RTVSPropertyOp22
 70
     0
102
RTVSPropertyOp23
 70
     0
102
RTVSPropertyOp24
 70
     0
102
RTVSPropertyOp25
 70
     0
102
RTVSPropertyOp26
 70
     0
102
RTVSPropertyOp27
 70
     0
102
RTVSPropertyOp28
 70
     0
102
RTVSPropertyOp29
 70
     0
102
RTVSPropertyOp30
 70
     0
102
RTVSPropertyOp31
 70
     0
102
RTVSPropertyOp32
 70
     0
102
RTVSPropertyOp33
 70
     0
102
RTVSPropertyOp34
 70
     0
102
RTVSPropertyOp35
 70
     0
102
RTVSPropertyOp36
 70
     0
102
RTVSPropertyOp37
 70
     0
102
RTVSPropertyOp38
 70
     0
102
RTVSPropertyOp39
 70
     0
102
RTVSPropertyOp40
 70
     0
102
RTVSPropertyOp41
 70
     0
102
RTVSPropertyOp42
 70
     0
102
RTVSPropertyOp43
 70
     0
102
RTVSPropertyOp44
 70
     0
102
RTVSPropertyOp45
 70
     0
102
RTVSPropertyOp46
 70
     0
102
RTVSPropertyOp47
 70
     0
102
RTVSPropertyOp48
 70
     0
102
RTVSPropertyOp49
 70
     0
102
RTVSPropertyOp50
 70
     0
102
RTVSPropertyOp51
 70
     0
102
RTVSPropertyOp52
 70
     0
102
RTVSPropertyOp53
 70
     0
102
RTVSPropertyOp54
 70
     0
102
RTVSPropertyOp55
 70
     0
102
RTVSPropertyOp56
 70
     0
102
RTVSPropertyOp57
 70
     0
102
RTVSPropertyOp58
 70
     1
102
RTVSPropertyOp59
 70
     1
102
RTVSPropertyOp60
 70
     1
102
RTVSPropertyOp61
 70
     1
102
RTVSPropertyOp62
 70
     1
  0
XRECORD
  5
101232
102
{ACAD_REACTORS
330
101231
102
}
330
101231
100
AcDbXrecord
280
     1
102
RTVSPost2010Prop28
280
     0
102
RTVSPost2010PropOp28
 70
     1
102
RTVSPost2010Prop29
280
     1
102
RTVSPost2010PropOp29
 70
     1
102
RTVSPost2010Prop30
280
     1
102
RTVSPost2010PropOp30
 70
     1
102
RTVSPost2010Prop31
280
     0
102
RTVSPost2010PropOp31
 70
     1
102
RTVSPost2010Prop32
280
     0
102
RTVSPost2010PropOp32
 70
     1
102
RTVSPost2010Prop33
280
     0
102
RTVSPost2010PropOp33
 70
     1
102
RTVSPost2010Prop34
280
     0
102
RTVSPost2010PropOp34
 70
     1
102
RTVSPost2010Prop35
280
     0
102
RTVSPost2010PropOp35
 70
     1
102
RTVSPost2010Prop36
280
     0
102
RTVSPost2010PropOp36
 70
     1
102
RTVSPost2010Prop37
 90
       50
102
RTVSPost2010PropOp37
 70
     1
102
RTVSPost2010Prop38
140
0.0
102
RTVSPost2010PropOp38
 70
     1
102
RTVSPost2010Prop39
140
1.0
102
RTVSPost2010PropOp39
 70
     1
102
RTVSPost2010Prop40
 90
        0
102
RTVSPost2010PropOp40
 70
     1
102
RTVSPost2010Prop41ColorIndex
 90
       18
102
RTVSPost2010Prop41ColorRGB
 90
        0
102
RTVSPost2010PropOp41
 70
     1
102
RTVSPost2010Prop42
 90
       50
102
RTVSPost2010PropOp42
 70
     1
102
RTVSPost2010Prop43
 90
        3
102
RTVSPost2010PropOp43
 70
     1
102
RTVSPost2010Prop44ColorIndex
 90
        5
102
RTVSPost2010Prop44ColorRGB
 90
      255
102
RTVSPost2010PropOp44
 70
     1
102
RTVSPost2010Prop45
280
     0
102
RTVSPost2010PropOp45
 70
     1
102
RTVSPost2010Prop46
 90
       50
102
RTVSPost2010PropOp46
 70
     1
102
RTVSPost2010Prop47
 90
       50
102
RTVSPost2010PropOp47
 70
     1
102
RTVSPost2010Prop48
 90
       50
102
RTVSPost2010PropOp48
 70
     1
102
RTVSPost2010Prop49
280
     0
102
RTVSPost2010PropOp49
 70
     1
102
RTVSPost2010Prop50
 90
       50
102
RTVSPost2010PropOp50
 70
     1
102
RTVSPost2010Prop51ColorIndex
 90
      256
102
RTVSPost2010Prop51ColorRGB
 90
-16777216
102
RTVSPost2010PropOp51
 70
     0
102
RTVSPost2010Prop52
140
1.0
102
RTVSPost2010PropOp52
 70
     0
102
RTVSPost2010Prop53
 90
        2
102
RTVSPost2010PropOp53
 70
     1
102
RTVSPost2010Prop54
  1
strokes_ogs.tif
102
RTVSPost2010PropOp54
 70
     1
102
RTVSPost2010Prop55
280
     0
102
RTVSPost2010PropOp55
 70
     1
102
RTVSPost2010Prop56
140
1.0
102
RTVSPost2010PropOp56
 70
     1
102
RTVSPost2010Prop57
140
1.0
102
RTVSPost2010PropOp57
 70
     1
102
RTVSPropertyOp0
 70
     1
102
RTVSPropertyOp1
 70
     1
102
RTVSPropertyOp2
 70
     1
102
RTVSPropertyOp3
 70
     1
102
RTVSPropertyOp4
 70
     1
102
RTVSPropertyOp5
 70
     1
102
RTVSPropertyOp6
 70
     1
102
RTVSPropertyOp7
 70
     1
102
RTVSPropertyOp8
 70
     1
102
RTVSPropertyOp9
 70
     1
102
RTVSPropertyOp10
 70
     1
102
RTVSPropertyOp11
 70
     1
102
RTVSPropertyOp12
 70
     1
102
RTVSPropertyOp13
 70
     1
102
RTVSPropertyOp14
 70
     1
102
RTVSPropertyOp15
 70
     1
102
RTVSPropertyOp16
 70
     1
102
RTVSPropertyOp17
 70
     1
102
RTVSPropertyOp18
 70
     1
102
RTVSPropertyOp19
 70
     1
102
RTVSPropertyOp20
 70
     1
102
RTVSPropertyOp21
 70
     1
102
RTVSPropertyOp22
 70
     1
102
RTVSPropertyOp23
 70
     1
102
RTVSPropertyOp24
 70
     1
102
RTVSPropertyOp25
 70
     1
102
RTVSPropertyOp26
 70
     1
102
RTVSPropertyOp27
 70
     1
102
RTVSPropertyOp28
 70
     1
102
RTVSPropertyOp29
 70
     1
102
RTVSPropertyOp30
 70
     1
102
RTVSPropertyOp31
 70
     1
102
RTVSPropertyOp32
 70
     1
102
RTVSPropertyOp33
 70
     1
102
RTVSPropertyOp34
 70
     1
102
RTVSPropertyOp35
 70
     1
102
RTVSPropertyOp36
 70
     1
102
RTVSPropertyOp37
 70
     1
102
RTVSPropertyOp38
 70
     1
102
RTVSPropertyOp39
 70
     1
102
RTVSPropertyOp40
 70
     1
102
RTVSPropertyOp41
 70
     1
102
RTVSPropertyOp42
 70
     1
102
RTVSPropertyOp43
 70
     1
102
RTVSPropertyOp44
 70
     1
102
RTVSPropertyOp45
 70
     1
102
RTVSPropertyOp46
 70
     1
102
RTVSPropertyOp47
 70
     1
102
RTVSPropertyOp48
 70
     1
102
RTVSPropertyOp49
 70
     1
102
RTVSPropertyOp50
 70
     1
102
RTVSPropertyOp51
 70
     0
102
RTVSPropertyOp52
 70
     0
102
RTVSPropertyOp53
 70
     1
102
RTVSPropertyOp54
 70
     1
102
RTVSPropertyOp55
 70
     1
102
RTVSPropertyOp56
 70
     1
102
RTVSPropertyOp57
 70
     1
102
RTVSPropertyOp58
 70
     1
102
RTVSPropertyOp59
 70
     1
102
RTVSPropertyOp60
 70
     1
102
RTVSPropertyOp61
 70
     1
102
RTVSPropertyOp62
 70
     1
  0
XRECORD
  5
101216
102
{ACAD_REACTORS
330
101215
102
}
330
101215
100
AcDbXrecord
280
     1
102
RTVSPost2010Prop28
280
     0
102
RTVSPost2010PropOp28
 70
     1
102
RTVSPost2010Prop29
280
     1
102
RTVSPost2010PropOp29
 70
     1
102
RTVSPost2010Prop30
280
     1
102
RTVSPost2010PropOp30
 70
     1
102
RTVSPost2010Prop31
280
     0
102
RTVSPost2010PropOp31
 70
     1
102
RTVSPost2010Prop32
280
     0
102
RTVSPost2010PropOp32
 70
     1
102
RTVSPost2010Prop33
280
     0
102
RTVSPost2010PropOp33
 70
     1
102
RTVSPost2010Prop34
280
     0
102
RTVSPost2010PropOp34
 70
     1
102
RTVSPost2010Prop35
280
     0
102
RTVSPost2010PropOp35
 70
     1
102
RTVSPost2010Prop36
280
     0
102
RTVSPost2010PropOp36
 70
     1
102
RTVSPost2010Prop37
 90
       50
102
RTVSPost2010PropOp37
 70
     1
102
RTVSPost2010Prop38
140
0.0
102
RTVSPost2010PropOp38
 70
     1
102
RTVSPost2010Prop39
140
1.0
102
RTVSPost2010PropOp39
 70
     1
102
RTVSPost2010Prop40
 90
        0
102
RTVSPost2010PropOp40
 70
     1
102
RTVSPost2010Prop41ColorIndex
 90
       18
102
RTVSPost2010Prop41ColorRGB
 90
        0
102
RTVSPost2010PropOp41
 70
     1
102
RTVSPost2010Prop42
 90
       50
102
RTVSPost2010PropOp42
 70
     1
102
RTVSPost2010Prop43
 90
        3
102
RTVSPost2010PropOp43
 70
     1
102
RTVSPost2010Prop44ColorIndex
 90
        5
102
RTVSPost2010Prop44ColorRGB
 90
      255
102
RTVSPost2010PropOp44
 70
     1
102
RTVSPost2010Prop45
280
     0
102
RTVSPost2010PropOp45
 70
     1
102
RTVSPost2010Prop46
 90
       50
102
RTVSPost2010PropOp46
 70
     1
102
RTVSPost2010Prop47
 90
       50
102
RTVSPost2010PropOp47
 70
     1
102
RTVSPost2010Prop48
 90
       50
102
RTVSPost2010PropOp48
 70
     1
102
RTVSPost2010Prop49
280
     0
102
RTVSPost2010PropOp49
 70
     1
102
RTVSPost2010Prop50
 90
       50
102
RTVSPost2010PropOp50
 70
     1
102
RTVSPost2010Prop51ColorIndex
 90
      256
102
RTVSPost2010Prop51ColorRGB
 90
-16777216
102
RTVSPost2010PropOp51
 70
     0
102
RTVSPost2010Prop52
140
1.0
102
RTVSPost2010PropOp52
 70
     0
102
RTVSPost2010Prop53
 90
        2
102
RTVSPost2010PropOp53
 70
     1
102
RTVSPost2010Prop54
  1
strokes_ogs.tif
102
RTVSPost2010PropOp54
 70
     1
102
RTVSPost2010Prop55
280
     0
102
RTVSPost2010PropOp55
 70
     1
102
RTVSPost2010Prop56
140
1.0
102
RTVSPost2010PropOp56
 70
     1
102
RTVSPost2010Prop57
140
1.0
102
RTVSPost2010PropOp57
 70
     1
102
RTVSPropertyOp0
 70
     1
102
RTVSPropertyOp1
 70
     1
102
RTVSPropertyOp2
 70
     1
102
RTVSPropertyOp3
 70
     1
102
RTVSPropertyOp4
 70
     1
102
RTVSPropertyOp5
 70
     1
102
RTVSPropertyOp6
 70
     1
102
RTVSPropertyOp7
 70
     1
102
RTVSPropertyOp8
 70
     1
102
RTVSPropertyOp9
 70
     1
102
RTVSPropertyOp10
 70
     1
102
RTVSPropertyOp11
 70
     1
102
RTVSPropertyOp12
 70
     1
102
RTVSPropertyOp13
 70
     1
102
RTVSPropertyOp14
 70
     1
102
RTVSPropertyOp15
 70
     1
102
RTVSPropertyOp16
 70
     1
102
RTVSPropertyOp17
 70
     1
102
RTVSPropertyOp18
 70
     1
102
RTVSPropertyOp19
 70
     1
102
RTVSPropertyOp20
 70
     1
102
RTVSPropertyOp21
 70
     1
102
RTVSPropertyOp22
 70
     1
102
RTVSPropertyOp23
 70
     1
102
RTVSPropertyOp24
 70
     1
102
RTVSPropertyOp25
 70
     1
102
RTVSPropertyOp26
 70
     1
102
RTVSPropertyOp27
 70
     1
102
RTVSPropertyOp28
 70
     1
102
RTVSPropertyOp29
 70
     1
102
RTVSPropertyOp30
 70
     1
102
RTVSPropertyOp31
 70
     1
102
RTVSPropertyOp32
 70
     1
102
RTVSPropertyOp33
 70
     1
102
RTVSPropertyOp34
 70
     1
102
RTVSPropertyOp35
 70
     1
102
RTVSPropertyOp36
 70
     1
102
RTVSPropertyOp37
 70
     1
102
RTVSPropertyOp38
 70
     1
102
RTVSPropertyOp39
 70
     1
102
RTVSPropertyOp40
 70
     1
102
RTVSPropertyOp41
 70
     1
102
RTVSPropertyOp42
 70
     1
102
RTVSPropertyOp43
 70
     1
102
RTVSPropertyOp44
 70
     1
102
RTVSPropertyOp45
 70
     1
102
RTVSPropertyOp46
 70
     1
102
RTVSPropertyOp47
 70
     1
102
RTVSPropertyOp48
 70
     1
102
RTVSPropertyOp49
 70
     1
102
RTVSPropertyOp50
 70
     1
102
RTVSPropertyOp51
 70
     0
102
RTVSPropertyOp52
 70
     0
102
RTVSPropertyOp53
 70
     1
102
RTVSPropertyOp54
 70
     1
102
RTVSPropertyOp55
 70
     1
102
RTVSPropertyOp56
 70
     1
102
RTVSPropertyOp57
 70
     1
102
RTVSPropertyOp58
 70
     1
102
RTVSPropertyOp59
 70
     1
102
RTVSPropertyOp60
 70
     1
102
RTVSPropertyOp61
 70
     1
102
RTVSPropertyOp62
 70
     1
  0
XRECORD
  5
101218
102
{ACAD_REACTORS
330
101217
102
}
330
101217
100
AcDbXrecord
280
     1
102
RTVSPost2010Prop28
280
     0
102
RTVSPost2010PropOp28
 70
     1
102
RTVSPost2010Prop29
280
     1
102
RTVSPost2010PropOp29
 70
     1
102
RTVSPost2010Prop30
280
     1
102
RTVSPost2010PropOp30
 70
     1
102
RTVSPost2010Prop31
280
     0
102
RTVSPost2010PropOp31
 70
     1
102
RTVSPost2010Prop32
280
     0
102
RTVSPost2010PropOp32
 70
     1
102
RTVSPost2010Prop33
280
     0
102
RTVSPost2010PropOp33
 70
     1
102
RTVSPost2010Prop34
280
     0
102
RTVSPost2010PropOp34
 70
     1
102
RTVSPost2010Prop35
280
     0
102
RTVSPost2010PropOp35
 70
     1
102
RTVSPost2010Prop36
280
     0
102
RTVSPost2010PropOp36
 70
     1
102
RTVSPost2010Prop37
 90
       50
102
RTVSPost2010PropOp37
 70
     1
102
RTVSPost2010Prop38
140
0.0
102
RTVSPost2010PropOp38
 70
     1
102
RTVSPost2010Prop39
140
1.0
102
RTVSPost2010PropOp39
 70
     1
102
RTVSPost2010Prop40
 90
        0
102
RTVSPost2010PropOp40
 70
     1
102
RTVSPost2010Prop41ColorIndex
 90
       18
102
RTVSPost2010Prop41ColorRGB
 90
        0
102
RTVSPost2010PropOp41
 70
     1
102
RTVSPost2010Prop42
 90
       50
102
RTVSPost2010PropOp42
 70
     1
102
RTVSPost2010Prop43
 90
        3
102
RTVSPost2010PropOp43
 70
     1
102
RTVSPost2010Prop44ColorIndex
 90
        5
102
RTVSPost2010Prop44ColorRGB
 90
      255
102
RTVSPost2010PropOp44
 70
     1
102
RTVSPost2010Prop45
280
     0
102
RTVSPost2010PropOp45
 70
     1
102
RTVSPost2010Prop46
 90
       50
102
RTVSPost2010PropOp46
 70
     1
102
RTVSPost2010Prop47
 90
       50
102
RTVSPost2010PropOp47
 70
     1
102
RTVSPost2010Prop48
 90
       50
102
RTVSPost2010PropOp48
 70
     1
102
RTVSPost2010Prop49
280
     0
102
RTVSPost2010PropOp49
 70
     1
102
RTVSPost2010Prop50
 90
       50
102
RTVSPost2010PropOp50
 70
     1
102
RTVSPost2010Prop51ColorIndex
 90
      256
102
RTVSPost2010Prop51ColorRGB
 90
-16777216
102
RTVSPost2010PropOp51
 70
     0
102
RTVSPost2010Prop52
140
1.0
102
RTVSPost2010PropOp52
 70
     0
102
RTVSPost2010Prop53
 90
        2
102
RTVSPost2010PropOp53
 70
     1
102
RTVSPost2010Prop54
  1
strokes_ogs.tif
102
RTVSPost2010PropOp54
 70
     1
102
RTVSPost2010Prop55
280
     0
102
RTVSPost2010PropOp55
 70
     1
102
RTVSPost2010Prop56
140
1.0
102
RTVSPost2010PropOp56
 70
     1
102
RTVSPost2010Prop57
140
1.0
102
RTVSPost2010PropOp57
 70
     1
102
RTVSPropertyOp0
 70
     1
102
RTVSPropertyOp1
 70
     1
102
RTVSPropertyOp2
 70
     1
102
RTVSPropertyOp3
 70
     1
102
RTVSPropertyOp4
 70
     1
102
RTVSPropertyOp5
 70
     1
102
RTVSPropertyOp6
 70
     1
102
RTVSPropertyOp7
 70
     1
102
RTVSPropertyOp8
 70
     1
102
RTVSPropertyOp9
 70
     1
102
RTVSPropertyOp10
 70
     1
102
RTVSPropertyOp11
 70
     1
102
RTVSPropertyOp12
 70
     1
102
RTVSPropertyOp13
 70
     1
102
RTVSPropertyOp14
 70
     1
102
RTVSPropertyOp15
 70
     1
102
RTVSPropertyOp16
 70
     1
102
RTVSPropertyOp17
 70
     1
102
RTVSPropertyOp18
 70
     1
102
RTVSPropertyOp19
 70
     1
102
RTVSPropertyOp20
 70
     1
102
RTVSPropertyOp21
 70
     1
102
RTVSPropertyOp22
 70
     1
102
RTVSPropertyOp23
 70
     1
102
RTVSPropertyOp24
 70
     1
102
RTVSPropertyOp25
 70
     1
102
RTVSPropertyOp26
 70
     1
102
RTVSPropertyOp27
 70
     1
102
RTVSPropertyOp28
 70
     1
102
RTVSPropertyOp29
 70
     1
102
RTVSPropertyOp30
 70
     1
102
RTVSPropertyOp31
 70
     1
102
RTVSPropertyOp32
 70
     1
102
RTVSPropertyOp33
 70
     1
102
RTVSPropertyOp34
 70
     1
102
RTVSPropertyOp35
 70
     1
102
RTVSPropertyOp36
 70
     1
102
RTVSPropertyOp37
 70
     1
102
RTVSPropertyOp38
 70
     1
102
RTVSPropertyOp39
 70
     1
102
RTVSPropertyOp40
 70
     1
102
RTVSPropertyOp41
 70
     1
102
RTVSPropertyOp42
 70
     1
102
RTVSPropertyOp43
 70
     1
102
RTVSPropertyOp44
 70
     1
102
RTVSPropertyOp45
 70
     1
102
RTVSPropertyOp46
 70
     1
102
RTVSPropertyOp47
 70
     1
102
RTVSPropertyOp48
 70
     1
102
RTVSPropertyOp49
 70
     1
102
RTVSPropertyOp50
 70
     1
102
RTVSPropertyOp51
 70
     0
102
RTVSPropertyOp52
 70
     0
102
RTVSPropertyOp53
 70
     1
102
RTVSPropertyOp54
 70
     1
102
RTVSPropertyOp55
 70
     1
102
RTVSPropertyOp56
 70
     1
102
RTVSPropertyOp57
 70
     1
102
RTVSPropertyOp58
 70
     1
102
RTVSPropertyOp59
 70
     1
102
RTVSPropertyOp60
 70
     1
102
RTVSPropertyOp61
 70
     1
102
RTVSPropertyOp62
 70
     1
  0
XRECORD
  5
10121A
102
{ACAD_REACTORS
330
101219
102
}
330
101219
100
AcDbXrecord
280
     1
102
RTVSPost2010Prop28
280
     0
102
RTVSPost2010PropOp28
 70
     1
102
RTVSPost2010Prop29
280
     1
102
RTVSPost2010PropOp29
 70
     1
102
RTVSPost2010Prop30
280
     1
102
RTVSPost2010PropOp30
 70
     1
102
RTVSPost2010Prop31
280
     0
102
RTVSPost2010PropOp31
 70
     1
102
RTVSPost2010Prop32
280
     0
102
RTVSPost2010PropOp32
 70
     1
102
RTVSPost2010Prop33
280
     0
102
RTVSPost2010PropOp33
 70
     1
102
RTVSPost2010Prop34
280
     0
102
RTVSPost2010PropOp34
 70
     1
102
RTVSPost2010Prop35
280
     0
102
RTVSPost2010PropOp35
 70
     1
102
RTVSPost2010Prop36
280
     0
102
RTVSPost2010PropOp36
 70
     1
102
RTVSPost2010Prop37
 90
       50
102
RTVSPost2010PropOp37
 70
     1
102
RTVSPost2010Prop38
140
0.0
102
RTVSPost2010PropOp38
 70
     1
102
RTVSPost2010Prop39
140
1.0
102
RTVSPost2010PropOp39
 70
     1
102
RTVSPost2010Prop40
 90
        0
102
RTVSPost2010PropOp40
 70
     1
102
RTVSPost2010Prop41ColorIndex
 90
       18
102
RTVSPost2010Prop41ColorRGB
 90
        0
102
RTVSPost2010PropOp41
 70
     1
102
RTVSPost2010Prop42
 90
       50
102
RTVSPost2010PropOp42
 70
     1
102
RTVSPost2010Prop43
 90
        3
102
RTVSPost2010PropOp43
 70
     1
102
RTVSPost2010Prop44ColorIndex
 90
        5
102
RTVSPost2010Prop44ColorRGB
 90
      255
102
RTVSPost2010PropOp44
 70
     1
102
RTVSPost2010Prop45
280
     0
102
RTVSPost2010PropOp45
 70
     1
102
RTVSPost2010Prop46
 90
       50
102
RTVSPost2010PropOp46
 70
     1
102
RTVSPost2010Prop47
 90
       50
102
RTVSPost2010PropOp47
 70
     1
102
RTVSPost2010Prop48
 90
       50
102
RTVSPost2010PropOp48
 70
     1
102
RTVSPost2010Prop49
280
     0
102
RTVSPost2010PropOp49
 70
     1
102
RTVSPost2010Prop50
 90
       50
102
RTVSPost2010PropOp50
 70
     1
102
RTVSPost2010Prop51ColorIndex
 90
      256
102
RTVSPost2010Prop51ColorRGB
 90
-16777216
102
RTVSPost2010PropOp51
 70
     0
102
RTVSPost2010Prop52
140
1.0
102
RTVSPost2010PropOp52
 70
     0
102
RTVSPost2010Prop53
 90
        2
102
RTVSPost2010PropOp53
 70
     1
102
RTVSPost2010Prop54
  1
strokes_ogs.tif
102
RTVSPost2010PropOp54
 70
     1
102
RTVSPost2010Prop55
280
     0
102
RTVSPost2010PropOp55
 70
     1
102
RTVSPost2010Prop56
140
1.0
102
RTVSPost2010PropOp56
 70
     1
102
RTVSPost2010Prop57
140
1.0
102
RTVSPost2010PropOp57
 70
     1
102
RTVSPropertyOp0
 70
     1
102
RTVSPropertyOp1
 70
     1
102
RTVSPropertyOp2
 70
     1
102
RTVSPropertyOp3
 70
     1
102
RTVSPropertyOp4
 70
     1
102
RTVSPropertyOp5
 70
     1
102
RTVSPropertyOp6
 70
     1
102
RTVSPropertyOp7
 70
     1
102
RTVSPropertyOp8
 70
     1
102
RTVSPropertyOp9
 70
     1
102
RTVSPropertyOp10
 70
     1
102
RTVSPropertyOp11
 70
     1
102
RTVSPropertyOp12
 70
     1
102
RTVSPropertyOp13
 70
     1
102
RTVSPropertyOp14
 70
     1
102
RTVSPropertyOp15
 70
     1
102
RTVSPropertyOp16
 70
     1
102
RTVSPropertyOp17
 70
     1
102
RTVSPropertyOp18
 70
     1
102
RTVSPropertyOp19
 70
     1
102
RTVSPropertyOp20
 70
     1
102
RTVSPropertyOp21
 70
     1
102
RTVSPropertyOp22
 70
     1
102
RTVSPropertyOp23
 70
     1
102
RTVSPropertyOp24
 70
     1
102
RTVSPropertyOp25
 70
     1
102
RTVSPropertyOp26
 70
     1
102
RTVSPropertyOp27
 70
     1
102
RTVSPropertyOp28
 70
     1
102
RTVSPropertyOp29
 70
     1
102
RTVSPropertyOp30
 70
     1
102
RTVSPropertyOp31
 70
     1
102
RTVSPropertyOp32
 70
     1
102
RTVSPropertyOp33
 70
     1
102
RTVSPropertyOp34
 70
     1
102
RTVSPropertyOp35
 70
     1
102
RTVSPropertyOp36
 70
     1
102
RTVSPropertyOp37
 70
     1
102
RTVSPropertyOp38
 70
     1
102
RTVSPropertyOp39
 70
     1
102
RTVSPropertyOp40
 70
     1
102
RTVSPropertyOp41
 70
     1
102
RTVSPropertyOp42
 70
     1
102
RTVSPropertyOp43
 70
     1
102
RTVSPropertyOp44
 70
     1
102
RTVSPropertyOp45
 70
     1
102
RTVSPropertyOp46
 70
     1
102
RTVSPropertyOp47
 70
     1
102
RTVSPropertyOp48
 70
     1
102
RTVSPropertyOp49
 70
     1
102
RTVSPropertyOp50
 70
     1
102
RTVSPropertyOp51
 70
     0
102
RTVSPropertyOp52
 70
     0
102
RTVSPropertyOp53
 70
     1
102
RTVSPropertyOp54
 70
     1
102
RTVSPropertyOp55
 70
     1
102
RTVSPropertyOp56
 70
     1
102
RTVSPropertyOp57
 70
     1
102
RTVSPropertyOp58
 70
     1
102
RTVSPropertyOp59
 70
     1
102
RTVSPropertyOp60
 70
     1
102
RTVSPropertyOp61
 70
     1
102
RTVSPropertyOp62
 70
     1
  0
XRECORD
  5
10121C
102
{ACAD_REACTORS
330
10121B
102
}
330
10121B
100
AcDbXrecord
280
     1
102
RTVSPost2010Prop28
280
     0
102
RTVSPost2010PropOp28
 70
     1
102
RTVSPost2010Prop29
280
     1
102
RTVSPost2010PropOp29
 70
     1
102
RTVSPost2010Prop30
280
     1
102
RTVSPost2010PropOp30
 70
     1
102
RTVSPost2010Prop31
280
     0
102
RTVSPost2010PropOp31
 70
     1
102
RTVSPost2010Prop32
280
     0
102
RTVSPost2010PropOp32
 70
     1
102
RTVSPost2010Prop33
280
     0
102
RTVSPost2010PropOp33
 70
     1
102
RTVSPost2010Prop34
280
     0
102
RTVSPost2010PropOp34
 70
     1
102
RTVSPost2010Prop35
280
     0
102
RTVSPost2010PropOp35
 70
     1
102
RTVSPost2010Prop36
280
     0
102
RTVSPost2010PropOp36
 70
     1
102
RTVSPost2010Prop37
 90
       50
102
RTVSPost2010PropOp37
 70
     1
102
RTVSPost2010Prop38
140
0.0
102
RTVSPost2010PropOp38
 70
     1
102
RTVSPost2010Prop39
140
1.0
102
RTVSPost2010PropOp39
 70
     1
102
RTVSPost2010Prop40
 90
        0
102
RTVSPost2010PropOp40
 70
     1
102
RTVSPost2010Prop41ColorIndex
 90
       18
102
RTVSPost2010Prop41ColorRGB
 90
        0
102
RTVSPost2010PropOp41
 70
     1
102
RTVSPost2010Prop42
 90
       50
102
RTVSPost2010PropOp42
 70
     1
102
RTVSPost2010Prop43
 90
        3
102
RTVSPost2010PropOp43
 70
     1
102
RTVSPost2010Prop44ColorIndex
 90
        5
102
RTVSPost2010Prop44ColorRGB
 90
      255
102
RTVSPost2010PropOp44
 70
     1
102
RTVSPost2010Prop45
280
     0
102
RTVSPost2010PropOp45
 70
     1
102
RTVSPost2010Prop46
 90
       50
102
RTVSPost2010PropOp46
 70
     1
102
RTVSPost2010Prop47
 90
       50
102
RTVSPost2010PropOp47
 70
     1
102
RTVSPost2010Prop48
 90
       50
102
RTVSPost2010PropOp48
 70
     1
102
RTVSPost2010Prop49
280
     0
102
RTVSPost2010PropOp49
 70
     1
102
RTVSPost2010Prop50
 90
       50
102
RTVSPost2010PropOp50
 70
     1
102
RTVSPost2010Prop51ColorIndex
 90
      256
102
RTVSPost2010Prop51ColorRGB
 90
-16777216
102
RTVSPost2010PropOp51
 70
     0
102
RTVSPost2010Prop52
140
1.0
102
RTVSPost2010PropOp52
 70
     0
102
RTVSPost2010Prop53
 90
        2
102
RTVSPost2010PropOp53
 70
     1
102
RTVSPost2010Prop54
  1
strokes_ogs.tif
102
RTVSPost2010PropOp54
 70
     1
102
RTVSPost2010Prop55
280
     0
102
RTVSPost2010PropOp55
 70
     1
102
RTVSPost2010Prop56
140
1.0
102
RTVSPost2010PropOp56
 70
     1
102
RTVSPost2010Prop57
140
1.0
102
RTVSPost2010PropOp57
 70
     1
102
RTVSPropertyOp0
 70
     1
102
RTVSPropertyOp1
 70
     1
102
RTVSPropertyOp2
 70
     1
102
RTVSPropertyOp3
 70
     1
102
RTVSPropertyOp4
 70
     1
102
RTVSPropertyOp5
 70
     1
102
RTVSPropertyOp6
 70
     1
102
RTVSPropertyOp7
 70
     1
102
RTVSPropertyOp8
 70
     1
102
RTVSPropertyOp9
 70
     1
102
RTVSPropertyOp10
 70
     1
102
RTVSPropertyOp11
 70
     1
102
RTVSPropertyOp12
 70
     1
102
RTVSPropertyOp13
 70
     1
102
RTVSPropertyOp14
 70
     1
102
RTVSPropertyOp15
 70
     1
102
RTVSPropertyOp16
 70
     1
102
RTVSPropertyOp17
 70
     1
102
RTVSPropertyOp18
 70
     1
102
RTVSPropertyOp19
 70
     1
102
RTVSPropertyOp20
 70
     1
102
RTVSPropertyOp21
 70
     1
102
RTVSPropertyOp22
 70
     1
102
RTVSPropertyOp23
 70
     1
102
RTVSPropertyOp24
 70
     1
102
RTVSPropertyOp25
 70
     1
102
RTVSPropertyOp26
 70
     1
102
RTVSPropertyOp27
 70
     1
102
RTVSPropertyOp28
 70
     1
102
RTVSPropertyOp29
 70
     1
102
RTVSPropertyOp30
 70
     1
102
RTVSPropertyOp31
 70
     1
102
RTVSPropertyOp32
 70
     1
102
RTVSPropertyOp33
 70
     1
102
RTVSPropertyOp34
 70
     1
102
RTVSPropertyOp35
 70
     1
102
RTVSPropertyOp36
 70
     1
102
RTVSPropertyOp37
 70
     1
102
RTVSPropertyOp38
 70
     1
102
RTVSPropertyOp39
 70
     1
102
RTVSPropertyOp40
 70
     1
102
RTVSPropertyOp41
 70
     1
102
RTVSPropertyOp42
 70
     1
102
RTVSPropertyOp43
 70
     1
102
RTVSPropertyOp44
 70
     1
102
RTVSPropertyOp45
 70
     1
102
RTVSPropertyOp46
 70
     1
102
RTVSPropertyOp47
 70
     1
102
RTVSPropertyOp48
 70
     1
102
RTVSPropertyOp49
 70
     1
102
RTVSPropertyOp50
 70
     1
102
RTVSPropertyOp51
 70
     0
102
RTVSPropertyOp52
 70
     0
102
RTVSPropertyOp53
 70
     1
102
RTVSPropertyOp54
 70
     1
102
RTVSPropertyOp55
 70
     1
102
RTVSPropertyOp56
 70
     1
102
RTVSPropertyOp57
 70
     1
102
RTVSPropertyOp58
 70
     1
102
RTVSPropertyOp59
 70
     1
102
RTVSPropertyOp60
 70
     1
102
RTVSPropertyOp61
 70
     1
102
RTVSPropertyOp62
 70
     1
  0
XRECORD
  5
101224
102
{ACAD_REACTORS
330
101223
102
}
330
101223
100
AcDbXrecord
280
     1
102
RTVSPost2010Prop28
280
     0
102
RTVSPost2010PropOp28
 70
     1
102
RTVSPost2010Prop29
280
     1
102
RTVSPost2010PropOp29
 70
     1
102
RTVSPost2010Prop30
280
     1
102
RTVSPost2010PropOp30
 70
     1
102
RTVSPost2010Prop31
280
     0
102
RTVSPost2010PropOp31
 70
     1
102
RTVSPost2010Prop32
280
     0
102
RTVSPost2010PropOp32
 70
     1
102
RTVSPost2010Prop33
280
     0
102
RTVSPost2010PropOp33
 70
     1
102
RTVSPost2010Prop34
280
     0
102
RTVSPost2010PropOp34
 70
     1
102
RTVSPost2010Prop35
280
     0
102
RTVSPost2010PropOp35
 70
     1
102
RTVSPost2010Prop36
280
     0
102
RTVSPost2010PropOp36
 70
     1
102
RTVSPost2010Prop37
 90
       50
102
RTVSPost2010PropOp37
 70
     1
102
RTVSPost2010Prop38
140
0.0
102
RTVSPost2010PropOp38
 70
     1
102
RTVSPost2010Prop39
140
1.0
102
RTVSPost2010PropOp39
 70
     1
102
RTVSPost2010Prop40
 90
        0
102
RTVSPost2010PropOp40
 70
     1
102
RTVSPost2010Prop41ColorIndex
 90
       18
102
RTVSPost2010Prop41ColorRGB
 90
        0
102
RTVSPost2010PropOp41
 70
     1
102
RTVSPost2010Prop42
 90
       50
102
RTVSPost2010PropOp42
 70
     1
102
RTVSPost2010Prop43
 90
        3
102
RTVSPost2010PropOp43
 70
     1
102
RTVSPost2010Prop44ColorIndex
 90
        5
102
RTVSPost2010Prop44ColorRGB
 90
      255
102
RTVSPost2010PropOp44
 70
     1
102
RTVSPost2010Prop45
280
     0
102
RTVSPost2010PropOp45
 70
     1
102
RTVSPost2010Prop46
 90
       50
102
RTVSPost2010PropOp46
 70
     1
102
RTVSPost2010Prop47
 90
       50
102
RTVSPost2010PropOp47
 70
     1
102
RTVSPost2010Prop48
 90
       50
102
RTVSPost2010PropOp48
 70
     1
102
RTVSPost2010Prop49
280
     0
102
RTVSPost2010PropOp49
 70
     1
102
RTVSPost2010Prop50
 90
       50
102
RTVSPost2010PropOp50
 70
     1
102
RTVSPost2010Prop51ColorIndex
 90
      256
102
RTVSPost2010Prop51ColorRGB
 90
-16777216
102
RTVSPost2010PropOp51
 70
     0
102
RTVSPost2010Prop52
140
1.0
102
RTVSPost2010PropOp52
 70
     0
102
RTVSPost2010Prop53
 90
        2
102
RTVSPost2010PropOp53
 70
     1
102
RTVSPost2010Prop54
  1
strokes_ogs.tif
102
RTVSPost2010PropOp54
 70
     1
102
RTVSPost2010Prop55
280
     0
102
RTVSPost2010PropOp55
 70
     1
102
RTVSPost2010Prop56
140
1.0
102
RTVSPost2010PropOp56
 70
     1
102
RTVSPost2010Prop57
140
1.0
102
RTVSPost2010PropOp57
 70
     1
102
RTVSPropertyOp0
 70
     1
102
RTVSPropertyOp1
 70
     1
102
RTVSPropertyOp2
 70
     1
102
RTVSPropertyOp3
 70
     1
102
RTVSPropertyOp4
 70
     1
102
RTVSPropertyOp5
 70
     1
102
RTVSPropertyOp6
 70
     1
102
RTVSPropertyOp7
 70
     1
102
RTVSPropertyOp8
 70
     1
102
RTVSPropertyOp9
 70
     1
102
RTVSPropertyOp10
 70
     1
102
RTVSPropertyOp11
 70
     1
102
RTVSPropertyOp12
 70
     1
102
RTVSPropertyOp13
 70
     1
102
RTVSPropertyOp14
 70
     1
102
RTVSPropertyOp15
 70
     1
102
RTVSPropertyOp16
 70
     1
102
RTVSPropertyOp17
 70
     1
102
RTVSPropertyOp18
 70
     1
102
RTVSPropertyOp19
 70
     1
102
RTVSPropertyOp20
 70
     1
102
RTVSPropertyOp21
 70
     1
102
RTVSPropertyOp22
 70
     1
102
RTVSPropertyOp23
 70
     1
102
RTVSPropertyOp24
 70
     1
102
RTVSPropertyOp25
 70
     1
102
RTVSPropertyOp26
 70
     1
102
RTVSPropertyOp27
 70
     1
102
RTVSPropertyOp28
 70
     1
102
RTVSPropertyOp29
 70
     1
102
RTVSPropertyOp30
 70
     1
102
RTVSPropertyOp31
 70
     1
102
RTVSPropertyOp32
 70
     1
102
RTVSPropertyOp33
 70
     1
102
RTVSPropertyOp34
 70
     1
102
RTVSPropertyOp35
 70
     1
102
RTVSPropertyOp36
 70
     1
102
RTVSPropertyOp37
 70
     1
102
RTVSPropertyOp38
 70
     1
102
RTVSPropertyOp39
 70
     1
102
RTVSPropertyOp40
 70
     1
102
RTVSPropertyOp41
 70
     1
102
RTVSPropertyOp42
 70
     1
102
RTVSPropertyOp43
 70
     1
102
RTVSPropertyOp44
 70
     1
102
RTVSPropertyOp45
 70
     1
102
RTVSPropertyOp46
 70
     1
102
RTVSPropertyOp47
 70
     1
102
RTVSPropertyOp48
 70
     1
102
RTVSPropertyOp49
 70
     1
102
RTVSPropertyOp50
 70
     1
102
RTVSPropertyOp51
 70
     0
102
RTVSPropertyOp52
 70
     0
102
RTVSPropertyOp53
 70
     1
102
RTVSPropertyOp54
 70
     1
102
RTVSPropertyOp55
 70
     1
102
RTVSPropertyOp56
 70
     1
102
RTVSPropertyOp57
 70
     1
102
RTVSPropertyOp58
 70
     1
102
RTVSPropertyOp59
 70
     1
102
RTVSPropertyOp60
 70
     1
102
RTVSPropertyOp61
 70
     1
102
RTVSPropertyOp62
 70
     1
  0
XRECORD
  5
101240
102
{ACAD_REACTORS
330
10123F
102
}
330
10123F
100
AcDbXrecord
280
     1
102
RTVSPost2010Prop28
280
     0
102
RTVSPost2010PropOp28
 70
     0
102
RTVSPost2010Prop29
280
     1
102
RTVSPost2010PropOp29
 70
     0
102
RTVSPost2010Prop30
280
     1
102
RTVSPost2010PropOp30
 70
     0
102
RTVSPost2010Prop31
280
     0
102
RTVSPost2010PropOp31
 70
     0
102
RTVSPost2010Prop32
280
     0
102
RTVSPost2010PropOp32
 70
     0
102
RTVSPost2010Prop33
280
     0
102
RTVSPost2010PropOp33
 70
     0
102
RTVSPost2010Prop34
280
     0
102
RTVSPost2010PropOp34
 70
     0
102
RTVSPost2010Prop35
280
     0
102
RTVSPost2010PropOp35
 70
     0
102
RTVSPost2010Prop36
280
     0
102
RTVSPost2010PropOp36
 70
     0
102
RTVSPost2010Prop37
 90
       50
102
RTVSPost2010PropOp37
 70
     0
102
RTVSPost2010Prop38
140
0.0
102
RTVSPost2010PropOp38
 70
     0
102
RTVSPost2010Prop39
140
1.0
102
RTVSPost2010PropOp39
 70
     0
102
RTVSPost2010Prop40
 90
        0
102
RTVSPost2010PropOp40
 70
     0
102
RTVSPost2010Prop41ColorIndex
 90
       18
102
RTVSPost2010Prop41ColorRGB
 90
        0
102
RTVSPost2010PropOp41
 70
     0
102
RTVSPost2010Prop42
 90
       50
102
RTVSPost2010PropOp42
 70
     0
102
RTVSPost2010Prop43
 90
        3
102
RTVSPost2010PropOp43
 70
     0
102
RTVSPost2010Prop44ColorIndex
 90
        5
102
RTVSPost2010Prop44ColorRGB
 90
      255
102
RTVSPost2010PropOp44
 70
     0
102
RTVSPost2010Prop45
280
     0
102
RTVSPost2010PropOp45
 70
     0
102
RTVSPost2010Prop46
 90
       50
102
RTVSPost2010PropOp46
 70
     0
102
RTVSPost2010Prop47
 90
       50
102
RTVSPost2010PropOp47
 70
     0
102
RTVSPost2010Prop48
 90
       50
102
RTVSPost2010PropOp48
 70
     0
102
RTVSPost2010Prop49
280
     0
102
RTVSPost2010PropOp49
 70
     0
102
RTVSPost2010Prop50
 90
       50
102
RTVSPost2010PropOp50
 70
     0
102
RTVSPost2010Prop51ColorIndex
 90
      256
102
RTVSPost2010Prop51ColorRGB
 90
-16777216
102
RTVSPost2010PropOp51
 70
     0
102
RTVSPost2010Prop52
140
1.0
102
RTVSPost2010PropOp52
 70
     0
102
RTVSPost2010Prop53
 90
        2
102
RTVSPost2010PropOp53
 70
     0
102
RTVSPost2010Prop54
  1
strokes_ogs.tif
102
RTVSPost2010PropOp54
 70
     0
102
RTVSPost2010Prop55
280
     0
102
RTVSPost2010PropOp55
 70
     0
102
RTVSPost2010Prop56
140
1.0
102
RTVSPost2010PropOp56
 70
     0
102
RTVSPost2010Prop57
140
1.0
102
RTVSPost2010PropOp57
 70
     0
102
RTVSPropertyOp0
 70
     0
102
RTVSPropertyOp1
 70
     0
102
RTVSPropertyOp2
 70
     0
102
RTVSPropertyOp3
 70
     0
102
RTVSPropertyOp4
 70
     0
102
RTVSPropertyOp5
 70
     0
102
RTVSPropertyOp6
 70
     0
102
RTVSPropertyOp7
 70
     0
102
RTVSPropertyOp8
 70
     0
102
RTVSPropertyOp9
 70
     0
102
RTVSPropertyOp10
 70
     0
102
RTVSPropertyOp11
 70
     0
102
RTVSPropertyOp12
 70
     0
102
RTVSPropertyOp13
 70
     0
102
RTVSPropertyOp14
 70
     2
102
RTVSPropertyOp15
 70
     0
102
RTVSPropertyOp16
 70
     0
102
RTVSPropertyOp17
 70
     0
102
RTVSPropertyOp18
 70
     0
102
RTVSPropertyOp19
 70
     0
102
RTVSPropertyOp20
 70
     0
102
RTVSPropertyOp21
 70
     0
102
RTVSPropertyOp22
 70
     0
102
RTVSPropertyOp23
 70
     0
102
RTVSPropertyOp24
 70
     0
102
RTVSPropertyOp25
 70
     0
102
RTVSPropertyOp26
 70
     0
102
RTVSPropertyOp27
 70
     0
102
RTVSPropertyOp28
 70
     0
102
RTVSPropertyOp29
 70
     0
102
RTVSPropertyOp30
 70
     0
102
RTVSPropertyOp31
 70
     0
102
RTVSPropertyOp32
 70
     0
102
RTVSPropertyOp33
 70
     0
102
RTVSPropertyOp34
 70
     0
102
RTVSPropertyOp35
 70
     0
102
RTVSPropertyOp36
 70
     0
102
RTVSPropertyOp37
 70
     0
102
RTVSPropertyOp38
 70
     0
102
RTVSPropertyOp39
 70
     0
102
RTVSPropertyOp40
 70
     0
102
RTVSPropertyOp41
 70
     0
102
RTVSPropertyOp42
 70
     0
102
RTVSPropertyOp43
 70
     0
102
RTVSPropertyOp44
 70
     0
102
RTVSPropertyOp45
 70
     0
102
RTVSPropertyOp46
 70
     0
102
RTVSPropertyOp47
 70
     0
102
RTVSPropertyOp48
 70
     0
102
RTVSPropertyOp49
 70
     0
102
RTVSPropertyOp50
 70
     0
102
RTVSPropertyOp51
 70
     0
102
RTVSPropertyOp52
 70
     0
102
RTVSPropertyOp53
 70
     0
102
RTVSPropertyOp54
 70
     0
102
RTVSPropertyOp55
 70
     0
102
RTVSPropertyOp56
 70
     0
102
RTVSPropertyOp57
 70
     0
102
RTVSPropertyOp58
 70
     1
102
RTVSPropertyOp59
 70
     1
102
RTVSPropertyOp60
 70
     1
102
RTVSPropertyOp61
 70
     1
102
RTVSPropertyOp62
 70
     1
  0
XRECORD
  5
101230
102
{ACAD_REACTORS
330
10122F
102
}
330
10122F
100
AcDbXrecord
280
     1
102
RTVSPost2010Prop28
280
     0
102
RTVSPost2010PropOp28
 70
     1
102
RTVSPost2010Prop29
280
     1
102
RTVSPost2010PropOp29
 70
     1
102
RTVSPost2010Prop30
280
     1
102
RTVSPost2010PropOp30
 70
     1
102
RTVSPost2010Prop31
280
     0
102
RTVSPost2010PropOp31
 70
     1
102
RTVSPost2010Prop32
280
     0
102
RTVSPost2010PropOp32
 70
     1
102
RTVSPost2010Prop33
280
     0
102
RTVSPost2010PropOp33
 70
     1
102
RTVSPost2010Prop34
280
     0
102
RTVSPost2010PropOp34
 70
     1
102
RTVSPost2010Prop35
280
     0
102
RTVSPost2010PropOp35
 70
     1
102
RTVSPost2010Prop36
280
     0
102
RTVSPost2010PropOp36
 70
     1
102
RTVSPost2010Prop37
 90
       50
102
RTVSPost2010PropOp37
 70
     1
102
RTVSPost2010Prop38
140
0.0
102
RTVSPost2010PropOp38
 70
     1
102
RTVSPost2010Prop39
140
1.0
102
RTVSPost2010PropOp39
 70
     1
102
RTVSPost2010Prop40
 90
        0
102
RTVSPost2010PropOp40
 70
     1
102
RTVSPost2010Prop41ColorIndex
 90
       18
102
RTVSPost2010Prop41ColorRGB
 90
        0
102
RTVSPost2010PropOp41
 70
     1
102
RTVSPost2010Prop42
 90
       50
102
RTVSPost2010PropOp42
 70
     1
102
RTVSPost2010Prop43
 90
        3
102
RTVSPost2010PropOp43
 70
     1
102
RTVSPost2010Prop44ColorIndex
 90
        5
102
RTVSPost2010Prop44ColorRGB
 90
      255
102
RTVSPost2010PropOp44
 70
     1
102
RTVSPost2010Prop45
280
     0
102
RTVSPost2010PropOp45
 70
     1
102
RTVSPost2010Prop46
 90
       50
102
RTVSPost2010PropOp46
 70
     1
102
RTVSPost2010Prop47
 90
       50
102
RTVSPost2010PropOp47
 70
     1
102
RTVSPost2010Prop48
 90
       50
102
RTVSPost2010PropOp48
 70
     1
102
RTVSPost2010Prop49
280
     0
102
RTVSPost2010PropOp49
 70
     1
102
RTVSPost2010Prop50
 90
       50
102
RTVSPost2010PropOp50
 70
     1
102
RTVSPost2010Prop51ColorIndex
 90
      256
102
RTVSPost2010Prop51ColorRGB
 90
-16777216
102
RTVSPost2010PropOp51
 70
     0
102
RTVSPost2010Prop52
140
1.0
102
RTVSPost2010PropOp52
 70
     0
102
RTVSPost2010Prop53
 90
        2
102
RTVSPost2010PropOp53
 70
     1
102
RTVSPost2010Prop54
  1
strokes_ogs.tif
102
RTVSPost2010PropOp54
 70
     1
102
RTVSPost2010Prop55
280
     0
102
RTVSPost2010PropOp55
 70
     1
102
RTVSPost2010Prop56
140
1.0
102
RTVSPost2010PropOp56
 70
     1
102
RTVSPost2010Prop57
140
1.0
102
RTVSPost2010PropOp57
 70
     1
102
RTVSPropertyOp0
 70
     1
102
RTVSPropertyOp1
 70
     1
102
RTVSPropertyOp2
 70
     1
102
RTVSPropertyOp3
 70
     1
102
RTVSPropertyOp4
 70
     1
102
RTVSPropertyOp5
 70
     1
102
RTVSPropertyOp6
 70
     1
102
RTVSPropertyOp7
 70
     1
102
RTVSPropertyOp8
 70
     1
102
RTVSPropertyOp9
 70
     1
102
RTVSPropertyOp10
 70
     1
102
RTVSPropertyOp11
 70
     1
102
RTVSPropertyOp12
 70
     1
102
RTVSPropertyOp13
 70
     1
102
RTVSPropertyOp14
 70
     1
102
RTVSPropertyOp15
 70
     1
102
RTVSPropertyOp16
 70
     1
102
RTVSPropertyOp17
 70
     1
102
RTVSPropertyOp18
 70
     1
102
RTVSPropertyOp19
 70
     1
102
RTVSPropertyOp20
 70
     1
102
RTVSPropertyOp21
 70
     1
102
RTVSPropertyOp22
 70
     1
102
RTVSPropertyOp23
 70
     1
102
RTVSPropertyOp24
 70
     1
102
RTVSPropertyOp25
 70
     1
102
RTVSPropertyOp26
 70
     1
102
RTVSPropertyOp27
 70
     1
102
RTVSPropertyOp28
 70
     1
102
RTVSPropertyOp29
 70
     1
102
RTVSPropertyOp30
 70
     1
102
RTVSPropertyOp31
 70
     1
102
RTVSPropertyOp32
 70
     1
102
RTVSPropertyOp33
 70
     1
102
RTVSPropertyOp34
 70
     1
102
RTVSPropertyOp35
 70
     1
102
RTVSPropertyOp36
 70
     1
102
RTVSPropertyOp37
 70
     1
102
RTVSPropertyOp38
 70
     1
102
RTVSPropertyOp39
 70
     1
102
RTVSPropertyOp40
 70
     1
102
RTVSPropertyOp41
 70
     1
102
RTVSPropertyOp42
 70
     1
102
RTVSPropertyOp43
 70
     1
102
RTVSPropertyOp44
 70
     1
102
RTVSPropertyOp45
 70
     1
102
RTVSPropertyOp46
 70
     1
102
RTVSPropertyOp47
 70
     1
102
RTVSPropertyOp48
 70
     1
102
RTVSPropertyOp49
 70
     1
102
RTVSPropertyOp50
 70
     1
102
RTVSPropertyOp51
 70
     0
102
RTVSPropertyOp52
 70
     0
102
RTVSPropertyOp53
 70
     1
102
RTVSPropertyOp54
 70
     1
102
RTVSPropertyOp55
 70
     1
102
RTVSPropertyOp56
 70
     1
102
RTVSPropertyOp57
 70
     1
102
RTVSPropertyOp58
 70
     1
102
RTVSPropertyOp59
 70
     1
102
RTVSPropertyOp60
 70
     1
102
RTVSPropertyOp61
 70
     1
102
RTVSPropertyOp62
 70
     1
  0
XRECORD
  5
101242
102
{ACAD_REACTORS
330
101241
102
}
330
101241
100
AcDbXrecord
280
     1
102
RTVSPost2010Prop28
280
     0
102
RTVSPost2010PropOp28
 70
     0
102
RTVSPost2010Prop29
280
     1
102
RTVSPost2010PropOp29
 70
     0
102
RTVSPost2010Prop30
280
     1
102
RTVSPost2010PropOp30
 70
     0
102
RTVSPost2010Prop31
280
     0
102
RTVSPost2010PropOp31
 70
     0
102
RTVSPost2010Prop32
280
     0
102
RTVSPost2010PropOp32
 70
     0
102
RTVSPost2010Prop33
280
     0
102
RTVSPost2010PropOp33
 70
     0
102
RTVSPost2010Prop34
280
     0
102
RTVSPost2010PropOp34
 70
     0
102
RTVSPost2010Prop35
280
     0
102
RTVSPost2010PropOp35
 70
     0
102
RTVSPost2010Prop36
280
     0
102
RTVSPost2010PropOp36
 70
     0
102
RTVSPost2010Prop37
 90
       50
102
RTVSPost2010PropOp37
 70
     0
102
RTVSPost2010Prop38
140
0.0
102
RTVSPost2010PropOp38
 70
     0
102
RTVSPost2010Prop39
140
1.0
102
RTVSPost2010PropOp39
 70
     0
102
RTVSPost2010Prop40
 90
        0
102
RTVSPost2010PropOp40
 70
     0
102
RTVSPost2010Prop41ColorIndex
 90
       18
102
RTVSPost2010Prop41ColorRGB
 90
        0
102
RTVSPost2010PropOp41
 70
     0
102
RTVSPost2010Prop42
 90
       50
102
RTVSPost2010PropOp42
 70
     0
102
RTVSPost2010Prop43
 90
        3
102
RTVSPost2010PropOp43
 70
     0
102
RTVSPost2010Prop44ColorIndex
 90
        5
102
RTVSPost2010Prop44ColorRGB
 90
      255
102
RTVSPost2010PropOp44
 70
     0
102
RTVSPost2010Prop45
280
     0
102
RTVSPost2010PropOp45
 70
     0
102
RTVSPost2010Prop46
 90
       50
102
RTVSPost2010PropOp46
 70
     0
102
RTVSPost2010Prop47
 90
       50
102
RTVSPost2010PropOp47
 70
     0
102
RTVSPost2010Prop48
 90
       50
102
RTVSPost2010PropOp48
 70
     0
102
RTVSPost2010Prop49
280
     0
102
RTVSPost2010PropOp49
 70
     0
102
RTVSPost2010Prop50
 90
       50
102
RTVSPost2010PropOp50
 70
     0
102
RTVSPost2010Prop51ColorIndex
 90
      256
102
RTVSPost2010Prop51ColorRGB
 90
-16777216
102
RTVSPost2010PropOp51
 70
     0
102
RTVSPost2010Prop52
140
1.0
102
RTVSPost2010PropOp52
 70
     0
102
RTVSPost2010Prop53
 90
        2
102
RTVSPost2010PropOp53
 70
     0
102
RTVSPost2010Prop54
  1
strokes_ogs.tif
102
RTVSPost2010PropOp54
 70
     0
102
RTVSPost2010Prop55
280
     0
102
RTVSPost2010PropOp55
 70
     0
102
RTVSPost2010Prop56
140
1.0
102
RTVSPost2010PropOp56
 70
     0
102
RTVSPost2010Prop57
140
1.0
102
RTVSPost2010PropOp57
 70
     0
102
RTVSPropertyOp0
 70
     0
102
RTVSPropertyOp1
 70
     0
102
RTVSPropertyOp2
 70
     0
102
RTVSPropertyOp3
 70
     0
102
RTVSPropertyOp4
 70
     0
102
RTVSPropertyOp5
 70
     0
102
RTVSPropertyOp6
 70
     0
102
RTVSPropertyOp7
 70
     0
102
RTVSPropertyOp8
 70
     0
102
RTVSPropertyOp9
 70
     0
102
RTVSPropertyOp10
 70
     0
102
RTVSPropertyOp11
 70
     0
102
RTVSPropertyOp12
 70
     0
102
RTVSPropertyOp13
 70
     0
102
RTVSPropertyOp14
 70
     2
102
RTVSPropertyOp15
 70
     0
102
RTVSPropertyOp16
 70
     0
102
RTVSPropertyOp17
 70
     0
102
RTVSPropertyOp18
 70
     0
102
RTVSPropertyOp19
 70
     0
102
RTVSPropertyOp20
 70
     0
102
RTVSPropertyOp21
 70
     0
102
RTVSPropertyOp22
 70
     0
102
RTVSPropertyOp23
 70
     0
102
RTVSPropertyOp24
 70
     0
102
RTVSPropertyOp25
 70
     0
102
RTVSPropertyOp26
 70
     0
102
RTVSPropertyOp27
 70
     0
102
RTVSPropertyOp28
 70
     0
102
RTVSPropertyOp29
 70
     0
102
RTVSPropertyOp30
 70
     0
102
RTVSPropertyOp31
 70
     0
102
RTVSPropertyOp32
 70
     0
102
RTVSPropertyOp33
 70
     0
102
RTVSPropertyOp34
 70
     0
102
RTVSPropertyOp35
 70
     0
102
RTVSPropertyOp36
 70
     0
102
RTVSPropertyOp37
 70
     0
102
RTVSPropertyOp38
 70
     0
102
RTVSPropertyOp39
 70
     0
102
RTVSPropertyOp40
 70
     0
102
RTVSPropertyOp41
 70
     0
102
RTVSPropertyOp42
 70
     0
102
RTVSPropertyOp43
 70
     0
102
RTVSPropertyOp44
 70
     0
102
RTVSPropertyOp45
 70
     0
102
RTVSPropertyOp46
 70
     0
102
RTVSPropertyOp47
 70
     0
102
RTVSPropertyOp48
 70
     0
102
RTVSPropertyOp49
 70
     0
102
RTVSPropertyOp50
 70
     0
102
RTVSPropertyOp51
 70
     0
102
RTVSPropertyOp52
 70
     0
102
RTVSPropertyOp53
 70
     0
102
RTVSPropertyOp54
 70
     0
102
RTVSPropertyOp55
 70
     0
102
RTVSPropertyOp56
 70
     0
102
RTVSPropertyOp57
 70
     0
102
RTVSPropertyOp58
 70
     1
102
RTVSPropertyOp59
 70
     1
102
RTVSPropertyOp60
 70
     1
102
RTVSPropertyOp61
 70
     1
102
RTVSPropertyOp62
 70
     1
  0
XRECORD
  5
101228
102
{ACAD_REACTORS
330
101227
102
}
330
101227
100
AcDbXrecord
280
     1
102
RTVSPost2010Prop28
280
     0
102
RTVSPost2010PropOp28
 70
     1
102
RTVSPost2010Prop29
280
     1
102
RTVSPost2010PropOp29
 70
     1
102
RTVSPost2010Prop30
280
     1
102
RTVSPost2010PropOp30
 70
     1
102
RTVSPost2010Prop31
280
     0
102
RTVSPost2010PropOp31
 70
     1
102
RTVSPost2010Prop32
280
     0
102
RTVSPost2010PropOp32
 70
     1
102
RTVSPost2010Prop33
280
     0
102
RTVSPost2010PropOp33
 70
     1
102
RTVSPost2010Prop34
280
     0
102
RTVSPost2010PropOp34
 70
     1
102
RTVSPost2010Prop35
280
     0
102
RTVSPost2010PropOp35
 70
     1
102
RTVSPost2010Prop36
280
     0
102
RTVSPost2010PropOp36
 70
     1
102
RTVSPost2010Prop37
 90
       50
102
RTVSPost2010PropOp37
 70
     1
102
RTVSPost2010Prop38
140
0.0
102
RTVSPost2010PropOp38
 70
     1
102
RTVSPost2010Prop39
140
1.0
102
RTVSPost2010PropOp39
 70
     1
102
RTVSPost2010Prop40
 90
        0
102
RTVSPost2010PropOp40
 70
     1
102
RTVSPost2010Prop41ColorIndex
 90
       18
102
RTVSPost2010Prop41ColorRGB
 90
        0
102
RTVSPost2010PropOp41
 70
     1
102
RTVSPost2010Prop42
 90
       50
102
RTVSPost2010PropOp42
 70
     1
102
RTVSPost2010Prop43
 90
        3
102
RTVSPost2010PropOp43
 70
     1
102
RTVSPost2010Prop44ColorIndex
 90
        5
102
RTVSPost2010Prop44ColorRGB
 90
      255
102
RTVSPost2010PropOp44
 70
     1
102
RTVSPost2010Prop45
280
     0
102
RTVSPost2010PropOp45
 70
     1
102
RTVSPost2010Prop46
 90
       50
102
RTVSPost2010PropOp46
 70
     1
102
RTVSPost2010Prop47
 90
       50
102
RTVSPost2010PropOp47
 70
     1
102
RTVSPost2010Prop48
 90
       50
102
RTVSPost2010PropOp48
 70
     1
102
RTVSPost2010Prop49
280
     0
102
RTVSPost2010PropOp49
 70
     1
102
RTVSPost2010Prop50
 90
       50
102
RTVSPost2010PropOp50
 70
     1
102
RTVSPost2010Prop51ColorIndex
 90
      256
102
RTVSPost2010Prop51ColorRGB
 90
-16777216
102
RTVSPost2010PropOp51
 70
     0
102
RTVSPost2010Prop52
140
1.0
102
RTVSPost2010PropOp52
 70
     0
102
RTVSPost2010Prop53
 90
        2
102
RTVSPost2010PropOp53
 70
     1
102
RTVSPost2010Prop54
  1
strokes_ogs.tif
102
RTVSPost2010PropOp54
 70
     1
102
RTVSPost2010Prop55
280
     0
102
RTVSPost2010PropOp55
 70
     1
102
RTVSPost2010Prop56
140
1.0
102
RTVSPost2010PropOp56
 70
     1
102
RTVSPost2010Prop57
140
1.0
102
RTVSPost2010PropOp57
 70
     1
102
RTVSPropertyOp0
 70
     1
102
RTVSPropertyOp1
 70
     1
102
RTVSPropertyOp2
 70
     1
102
RTVSPropertyOp3
 70
     1
102
RTVSPropertyOp4
 70
     1
102
RTVSPropertyOp5
 70
     1
102
RTVSPropertyOp6
 70
     1
102
RTVSPropertyOp7
 70
     1
102
RTVSPropertyOp8
 70
     1
102
RTVSPropertyOp9
 70
     1
102
RTVSPropertyOp10
 70
     1
102
RTVSPropertyOp11
 70
     1
102
RTVSPropertyOp12
 70
     1
102
RTVSPropertyOp13
 70
     1
102
RTVSPropertyOp14
 70
     1
102
RTVSPropertyOp15
 70
     1
102
RTVSPropertyOp16
 70
     1
102
RTVSPropertyOp17
 70
     1
102
RTVSPropertyOp18
 70
     1
102
RTVSPropertyOp19
 70
     1
102
RTVSPropertyOp20
 70
     1
102
RTVSPropertyOp21
 70
     1
102
RTVSPropertyOp22
 70
     1
102
RTVSPropertyOp23
 70
     1
102
RTVSPropertyOp24
 70
     1
102
RTVSPropertyOp25
 70
     1
102
RTVSPropertyOp26
 70
     1
102
RTVSPropertyOp27
 70
     1
102
RTVSPropertyOp28
 70
     1
102
RTVSPropertyOp29
 70
     1
102
RTVSPropertyOp30
 70
     1
102
RTVSPropertyOp31
 70
     1
102
RTVSPropertyOp32
 70
     1
102
RTVSPropertyOp33
 70
     1
102
RTVSPropertyOp34
 70
     1
102
RTVSPropertyOp35
 70
     1
102
RTVSPropertyOp36
 70
     1
102
RTVSPropertyOp37
 70
     1
102
RTVSPropertyOp38
 70
     1
102
RTVSPropertyOp39
 70
     1
102
RTVSPropertyOp40
 70
     1
102
RTVSPropertyOp41
 70
     1
102
RTVSPropertyOp42
 70
     1
102
RTVSPropertyOp43
 70
     1
102
RTVSPropertyOp44
 70
     1
102
RTVSPropertyOp45
 70
     1
102
RTVSPropertyOp46
 70
     1
102
RTVSPropertyOp47
 70
     1
102
RTVSPropertyOp48
 70
     1
102
RTVSPropertyOp49
 70
     1
102
RTVSPropertyOp50
 70
     1
102
RTVSPropertyOp51
 70
     0
102
RTVSPropertyOp52
 70
     0
102
RTVSPropertyOp53
 70
     1
102
RTVSPropertyOp54
 70
     1
102
RTVSPropertyOp55
 70
     1
102
RTVSPropertyOp56
 70
     1
102
RTVSPropertyOp57
 70
     1
102
RTVSPropertyOp58
 70
     1
102
RTVSPropertyOp59
 70
     1
102
RTVSPropertyOp60
 70
     1
102
RTVSPropertyOp61
 70
     1
102
RTVSPropertyOp62
 70
     1
  0
XRECORD
  5
10123E
102
{ACAD_REACTORS
330
10123D
102
}
330
10123D
100
AcDbXrecord
280
     1
102
RTVSPost2010Prop28
280
     0
102
RTVSPost2010PropOp28
 70
     1
102
RTVSPost2010Prop29
280
     1
102
RTVSPost2010PropOp29
 70
     1
102
RTVSPost2010Prop30
280
     1
102
RTVSPost2010PropOp30
 70
     1
102
RTVSPost2010Prop31
280
     0
102
RTVSPost2010PropOp31
 70
     1
102
RTVSPost2010Prop32
280
     0
102
RTVSPost2010PropOp32
 70
     1
102
RTVSPost2010Prop33
280
     0
102
RTVSPost2010PropOp33
 70
     1
102
RTVSPost2010Prop34
280
     0
102
RTVSPost2010PropOp34
 70
     1
102
RTVSPost2010Prop35
280
     0
102
RTVSPost2010PropOp35
 70
     1
102
RTVSPost2010Prop36
280
     0
102
RTVSPost2010PropOp36
 70
     1
102
RTVSPost2010Prop37
 90
       50
102
RTVSPost2010PropOp37
 70
     1
102
RTVSPost2010Prop38
140
0.0
102
RTVSPost2010PropOp38
 70
     1
102
RTVSPost2010Prop39
140
1.0
102
RTVSPost2010PropOp39
 70
     1
102
RTVSPost2010Prop40
 90
        0
102
RTVSPost2010PropOp40
 70
     1
102
RTVSPost2010Prop41ColorIndex
 90
       18
102
RTVSPost2010Prop41ColorRGB
 90
        0
102
RTVSPost2010PropOp41
 70
     1
102
RTVSPost2010Prop42
 90
       50
102
RTVSPost2010PropOp42
 70
     1
102
RTVSPost2010Prop43
 90
        3
102
RTVSPost2010PropOp43
 70
     1
102
RTVSPost2010Prop44ColorIndex
 90
        5
102
RTVSPost2010Prop44ColorRGB
 90
      255
102
RTVSPost2010PropOp44
 70
     1
102
RTVSPost2010Prop45
280
     0
102
RTVSPost2010PropOp45
 70
     1
102
RTVSPost2010Prop46
 90
       50
102
RTVSPost2010PropOp46
 70
     1
102
RTVSPost2010Prop47
 90
       50
102
RTVSPost2010PropOp47
 70
     1
102
RTVSPost2010Prop48
 90
       50
102
RTVSPost2010PropOp48
 70
     1
102
RTVSPost2010Prop49
280
     0
102
RTVSPost2010PropOp49
 70
     1
102
RTVSPost2010Prop50
 90
       50
102
RTVSPost2010PropOp50
 70
     1
102
RTVSPost2010Prop51ColorIndex
 90
      256
102
RTVSPost2010Prop51ColorRGB
 90
-16777216
102
RTVSPost2010PropOp51
 70
     0
102
RTVSPost2010Prop52
140
1.0
102
RTVSPost2010PropOp52
 70
     0
102
RTVSPost2010Prop53
 90
        2
102
RTVSPost2010PropOp53
 70
     1
102
RTVSPost2010Prop54
  1
strokes_ogs.tif
102
RTVSPost2010PropOp54
 70
     1
102
RTVSPost2010Prop55
280
     0
102
RTVSPost2010PropOp55
 70
     1
102
RTVSPost2010Prop56
140
1.0
102
RTVSPost2010PropOp56
 70
     1
102
RTVSPost2010Prop57
140
1.0
102
RTVSPost2010PropOp57
 70
     1
102
RTVSPropertyOp0
 70
     1
102
RTVSPropertyOp1
 70
     1
102
RTVSPropertyOp2
 70
     1
102
RTVSPropertyOp3
 70
     1
102
RTVSPropertyOp4
 70
     1
102
RTVSPropertyOp5
 70
     1
102
RTVSPropertyOp6
 70
     1
102
RTVSPropertyOp7
 70
     1
102
RTVSPropertyOp8
 70
     1
102
RTVSPropertyOp9
 70
     1
102
RTVSPropertyOp10
 70
     1
102
RTVSPropertyOp11
 70
     1
102
RTVSPropertyOp12
 70
     1
102
RTVSPropertyOp13
 70
     1
102
RTVSPropertyOp14
 70
     1
102
RTVSPropertyOp15
 70
     1
102
RTVSPropertyOp16
 70
     1
102
RTVSPropertyOp17
 70
     1
102
RTVSPropertyOp18
 70
     1
102
RTVSPropertyOp19
 70
     1
102
RTVSPropertyOp20
 70
     1
102
RTVSPropertyOp21
 70
     1
102
RTVSPropertyOp22
 70
     1
102
RTVSPropertyOp23
 70
     1
102
RTVSPropertyOp24
 70
     1
102
RTVSPropertyOp25
 70
     1
102
RTVSPropertyOp26
 70
     1
102
RTVSPropertyOp27
 70
     1
102
RTVSPropertyOp28
 70
     1
102
RTVSPropertyOp29
 70
     1
102
RTVSPropertyOp30
 70
     1
102
RTVSPropertyOp31
 70
     1
102
RTVSPropertyOp32
 70
     1
102
RTVSPropertyOp33
 70
     1
102
RTVSPropertyOp34
 70
     1
102
RTVSPropertyOp35
 70
     1
102
RTVSPropertyOp36
 70
     1
102
RTVSPropertyOp37
 70
     1
102
RTVSPropertyOp38
 70
     1
102
RTVSPropertyOp39
 70
     1
102
RTVSPropertyOp40
 70
     1
102
RTVSPropertyOp41
 70
     1
102
RTVSPropertyOp42
 70
     1
102
RTVSPropertyOp43
 70
     1
102
RTVSPropertyOp44
 70
     1
102
RTVSPropertyOp45
 70
     1
102
RTVSPropertyOp46
 70
     1
102
RTVSPropertyOp47
 70
     1
102
RTVSPropertyOp48
 70
     1
102
RTVSPropertyOp49
 70
     1
102
RTVSPropertyOp50
 70
     1
102
RTVSPropertyOp51
 70
     0
102
RTVSPropertyOp52
 70
     0
102
RTVSPropertyOp53
 70
     1
102
RTVSPropertyOp54
 70
     1
102
RTVSPropertyOp55
 70
     1
102
RTVSPropertyOp56
 70
     1
102
RTVSPropertyOp57
 70
     1
102
RTVSPropertyOp58
 70
     1
102
RTVSPropertyOp59
 70
     1
102
RTVSPropertyOp60
 70
     1
102
RTVSPropertyOp61
 70
     1
102
RTVSPropertyOp62
 70
     1
  0
XRECORD
  5
10123C
102
{ACAD_REACTORS
330
10123B
102
}
330
10123B
100
AcDbXrecord
280
     1
102
RTVSPost2010Prop28
280
     0
102
RTVSPost2010PropOp28
 70
     1
102
RTVSPost2010Prop29
280
     1
102
RTVSPost2010PropOp29
 70
     1
102
RTVSPost2010Prop30
280
     1
102
RTVSPost2010PropOp30
 70
     1
102
RTVSPost2010Prop31
280
     0
102
RTVSPost2010PropOp31
 70
     1
102
RTVSPost2010Prop32
280
     0
102
RTVSPost2010PropOp32
 70
     1
102
RTVSPost2010Prop33
280
     0
102
RTVSPost2010PropOp33
 70
     1
102
RTVSPost2010Prop34
280
     0
102
RTVSPost2010PropOp34
 70
     1
102
RTVSPost2010Prop35
280
     0
102
RTVSPost2010PropOp35
 70
     1
102
RTVSPost2010Prop36
280
     0
102
RTVSPost2010PropOp36
 70
     1
102
RTVSPost2010Prop37
 90
       50
102
RTVSPost2010PropOp37
 70
     1
102
RTVSPost2010Prop38
140
0.0
102
RTVSPost2010PropOp38
 70
     1
102
RTVSPost2010Prop39
140
1.0
102
RTVSPost2010PropOp39
 70
     1
102
RTVSPost2010Prop40
 90
        0
102
RTVSPost2010PropOp40
 70
     1
102
RTVSPost2010Prop41ColorIndex
 90
       18
102
RTVSPost2010Prop41ColorRGB
 90
        0
102
RTVSPost2010PropOp41
 70
     1
102
RTVSPost2010Prop42
 90
       50
102
RTVSPost2010PropOp42
 70
     1
102
RTVSPost2010Prop43
 90
        3
102
RTVSPost2010PropOp43
 70
     1
102
RTVSPost2010Prop44ColorIndex
 90
        5
102
RTVSPost2010Prop44ColorRGB
 90
      255
102
RTVSPost2010PropOp44
 70
     1
102
RTVSPost2010Prop45
280
     0
102
RTVSPost2010PropOp45
 70
     1
102
RTVSPost2010Prop46
 90
       50
102
RTVSPost2010PropOp46
 70
     1
102
RTVSPost2010Prop47
 90
       50
102
RTVSPost2010PropOp47
 70
     1
102
RTVSPost2010Prop48
 90
       50
102
RTVSPost2010PropOp48
 70
     1
102
RTVSPost2010Prop49
280
     0
102
RTVSPost2010PropOp49
 70
     1
102
RTVSPost2010Prop50
 90
       50
102
RTVSPost2010PropOp50
 70
     1
102
RTVSPost2010Prop51ColorIndex
 90
      256
102
RTVSPost2010Prop51ColorRGB
 90
-16777216
102
RTVSPost2010PropOp51
 70
     0
102
RTVSPost2010Prop52
140
1.0
102
RTVSPost2010PropOp52
 70
     0
102
RTVSPost2010Prop53
 90
        2
102
RTVSPost2010PropOp53
 70
     1
102
RTVSPost2010Prop54
  1
strokes_ogs.tif
102
RTVSPost2010PropOp54
 70
     1
102
RTVSPost2010Prop55
280
     0
102
RTVSPost2010PropOp55
 70
     1
102
RTVSPost2010Prop56
140
1.0
102
RTVSPost2010PropOp56
 70
     1
102
RTVSPost2010Prop57
140
1.0
102
RTVSPost2010PropOp57
 70
     1
102
RTVSPropertyOp0
 70
     1
102
RTVSPropertyOp1
 70
     1
102
RTVSPropertyOp2
 70
     1
102
RTVSPropertyOp3
 70
     1
102
RTVSPropertyOp4
 70
     1
102
RTVSPropertyOp5
 70
     1
102
RTVSPropertyOp6
 70
     1
102
RTVSPropertyOp7
 70
     1
102
RTVSPropertyOp8
 70
     1
102
RTVSPropertyOp9
 70
     1
102
RTVSPropertyOp10
 70
     1
102
RTVSPropertyOp11
 70
     1
102
RTVSPropertyOp12
 70
     1
102
RTVSPropertyOp13
 70
     1
102
RTVSPropertyOp14
 70
     1
102
RTVSPropertyOp15
 70
     1
102
RTVSPropertyOp16
 70
     1
102
RTVSPropertyOp17
 70
     1
102
RTVSPropertyOp18
 70
     1
102
RTVSPropertyOp19
 70
     1
102
RTVSPropertyOp20
 70
     1
102
RTVSPropertyOp21
 70
     1
102
RTVSPropertyOp22
 70
     1
102
RTVSPropertyOp23
 70
     1
102
RTVSPropertyOp24
 70
     1
102
RTVSPropertyOp25
 70
     1
102
RTVSPropertyOp26
 70
     1
102
RTVSPropertyOp27
 70
     1
102
RTVSPropertyOp28
 70
     1
102
RTVSPropertyOp29
 70
     1
102
RTVSPropertyOp30
 70
     1
102
RTVSPropertyOp31
 70
     1
102
RTVSPropertyOp32
 70
     1
102
RTVSPropertyOp33
 70
     1
102
RTVSPropertyOp34
 70
     1
102
RTVSPropertyOp35
 70
     1
102
RTVSPropertyOp36
 70
     1
102
RTVSPropertyOp37
 70
     1
102
RTVSPropertyOp38
 70
     1
102
RTVSPropertyOp39
 70
     1
102
RTVSPropertyOp40
 70
     1
102
RTVSPropertyOp41
 70
     1
102
RTVSPropertyOp42
 70
     1
102
RTVSPropertyOp43
 70
     1
102
RTVSPropertyOp44
 70
     1
102
RTVSPropertyOp45
 70
     1
102
RTVSPropertyOp46
 70
     1
102
RTVSPropertyOp47
 70
     1
102
RTVSPropertyOp48
 70
     1
102
RTVSPropertyOp49
 70
     1
102
RTVSPropertyOp50
 70
     1
102
RTVSPropertyOp51
 70
     0
102
RTVSPropertyOp52
 70
     0
102
RTVSPropertyOp53
 70
     1
102
RTVSPropertyOp54
 70
     1
102
RTVSPropertyOp55
 70
     1
102
RTVSPropertyOp56
 70
     1
102
RTVSPropertyOp57
 70
     1
102
RTVSPropertyOp58
 70
     1
102
RTVSPropertyOp59
 70
     1
102
RTVSPropertyOp60
 70
     1
102
RTVSPropertyOp61
 70
     1
102
RTVSPropertyOp62
 70
     1
  0
XRECORD
  5
101236
102
{ACAD_REACTORS
330
101235
102
}
330
101235
100
AcDbXrecord
280
     1
102
RTVSPost2010Prop28
280
     0
102
RTVSPost2010PropOp28
 70
     1
102
RTVSPost2010Prop29
280
     1
102
RTVSPost2010PropOp29
 70
     1
102
RTVSPost2010Prop30
280
     1
102
RTVSPost2010PropOp30
 70
     1
102
RTVSPost2010Prop31
280
     0
102
RTVSPost2010PropOp31
 70
     1
102
RTVSPost2010Prop32
280
     0
102
RTVSPost2010PropOp32
 70
     1
102
RTVSPost2010Prop33
280
     0
102
RTVSPost2010PropOp33
 70
     1
102
RTVSPost2010Prop34
280
     0
102
RTVSPost2010PropOp34
 70
     1
102
RTVSPost2010Prop35
280
     0
102
RTVSPost2010PropOp35
 70
     1
102
RTVSPost2010Prop36
280
     0
102
RTVSPost2010PropOp36
 70
     1
102
RTVSPost2010Prop37
 90
       50
102
RTVSPost2010PropOp37
 70
     1
102
RTVSPost2010Prop38
140
0.0
102
RTVSPost2010PropOp38
 70
     1
102
RTVSPost2010Prop39
140
1.0
102
RTVSPost2010PropOp39
 70
     1
102
RTVSPost2010Prop40
 90
        0
102
RTVSPost2010PropOp40
 70
     1
102
RTVSPost2010Prop41ColorIndex
 90
       18
102
RTVSPost2010Prop41ColorRGB
 90
        0
102
RTVSPost2010PropOp41
 70
     1
102
RTVSPost2010Prop42
 90
       50
102
RTVSPost2010PropOp42
 70
     1
102
RTVSPost2010Prop43
 90
        3
102
RTVSPost2010PropOp43
 70
     1
102
RTVSPost2010Prop44ColorIndex
 90
        5
102
RTVSPost2010Prop44ColorRGB
 90
      255
102
RTVSPost2010PropOp44
 70
     1
102
RTVSPost2010Prop45
280
     0
102
RTVSPost2010PropOp45
 70
     1
102
RTVSPost2010Prop46
 90
       50
102
RTVSPost2010PropOp46
 70
     1
102
RTVSPost2010Prop47
 90
       50
102
RTVSPost2010PropOp47
 70
     1
102
RTVSPost2010Prop48
 90
       50
102
RTVSPost2010PropOp48
 70
     1
102
RTVSPost2010Prop49
280
     0
102
RTVSPost2010PropOp49
 70
     1
102
RTVSPost2010Prop50
 90
       50
102
RTVSPost2010PropOp50
 70
     1
102
RTVSPost2010Prop51ColorIndex
 90
      256
102
RTVSPost2010Prop51ColorRGB
 90
-16777216
102
RTVSPost2010PropOp51
 70
     0
102
RTVSPost2010Prop52
140
1.0
102
RTVSPost2010PropOp52
 70
     0
102
RTVSPost2010Prop53
 90
        2
102
RTVSPost2010PropOp53
 70
     1
102
RTVSPost2010Prop54
  1
strokes_ogs.tif
102
RTVSPost2010PropOp54
 70
     1
102
RTVSPost2010Prop55
280
     0
102
RTVSPost2010PropOp55
 70
     1
102
RTVSPost2010Prop56
140
1.0
102
RTVSPost2010PropOp56
 70
     1
102
RTVSPost2010Prop57
140
1.0
102
RTVSPost2010PropOp57
 70
     1
102
RTVSPropertyOp0
 70
     1
102
RTVSPropertyOp1
 70
     1
102
RTVSPropertyOp2
 70
     1
102
RTVSPropertyOp3
 70
     1
102
RTVSPropertyOp4
 70
     1
102
RTVSPropertyOp5
 70
     1
102
RTVSPropertyOp6
 70
     1
102
RTVSPropertyOp7
 70
     1
102
RTVSPropertyOp8
 70
     1
102
RTVSPropertyOp9
 70
     1
102
RTVSPropertyOp10
 70
     1
102
RTVSPropertyOp11
 70
     1
102
RTVSPropertyOp12
 70
     1
102
RTVSPropertyOp13
 70
     1
102
RTVSPropertyOp14
 70
     1
102
RTVSPropertyOp15
 70
     1
102
RTVSPropertyOp16
 70
     1
102
RTVSPropertyOp17
 70
     1
102
RTVSPropertyOp18
 70
     1
102
RTVSPropertyOp19
 70
     1
102
RTVSPropertyOp20
 70
     1
102
RTVSPropertyOp21
 70
     1
102
RTVSPropertyOp22
 70
     1
102
RTVSPropertyOp23
 70
     1
102
RTVSPropertyOp24
 70
     1
102
RTVSPropertyOp25
 70
     1
102
RTVSPropertyOp26
 70
     1
102
RTVSPropertyOp27
 70
     1
102
RTVSPropertyOp28
 70
     1
102
RTVSPropertyOp29
 70
     1
102
RTVSPropertyOp30
 70
     1
102
RTVSPropertyOp31
 70
     1
102
RTVSPropertyOp32
 70
     1
102
RTVSPropertyOp33
 70
     1
102
RTVSPropertyOp34
 70
     1
102
RTVSPropertyOp35
 70
     1
102
RTVSPropertyOp36
 70
     1
102
RTVSPropertyOp37
 70
     1
102
RTVSPropertyOp38
 70
     1
102
RTVSPropertyOp39
 70
     1
102
RTVSPropertyOp40
 70
     1
102
RTVSPropertyOp41
 70
     1
102
RTVSPropertyOp42
 70
     1
102
RTVSPropertyOp43
 70
     1
102
RTVSPropertyOp44
 70
     1
102
RTVSPropertyOp45
 70
     1
102
RTVSPropertyOp46
 70
     1
102
RTVSPropertyOp47
 70
     1
102
RTVSPropertyOp48
 70
     1
102
RTVSPropertyOp49
 70
     1
102
RTVSPropertyOp50
 70
     1
102
RTVSPropertyOp51
 70
     0
102
RTVSPropertyOp52
 70
     0
102
RTVSPropertyOp53
 70
     1
102
RTVSPropertyOp54
 70
     1
102
RTVSPropertyOp55
 70
     1
102
RTVSPropertyOp56
 70
     1
102
RTVSPropertyOp57
 70
     1
102
RTVSPropertyOp58
 70
     1
102
RTVSPropertyOp59
 70
     1
102
RTVSPropertyOp60
 70
     1
102
RTVSPropertyOp61
 70
     1
102
RTVSPropertyOp62
 70
     1
  0
XRECORD
  5
101238
102
{ACAD_REACTORS
330
101237
102
}
330
101237
100
AcDbXrecord
280
     1
102
RTVSPost2010Prop28
280
     0
102
RTVSPost2010PropOp28
 70
     1
102
RTVSPost2010Prop29
280
     1
102
RTVSPost2010PropOp29
 70
     1
102
RTVSPost2010Prop30
280
     1
102
RTVSPost2010PropOp30
 70
     1
102
RTVSPost2010Prop31
280
     0
102
RTVSPost2010PropOp31
 70
     1
102
RTVSPost2010Prop32
280
     0
102
RTVSPost2010PropOp32
 70
     1
102
RTVSPost2010Prop33
280
     0
102
RTVSPost2010PropOp33
 70
     1
102
RTVSPost2010Prop34
280
     0
102
RTVSPost2010PropOp34
 70
     1
102
RTVSPost2010Prop35
280
     0
102
RTVSPost2010PropOp35
 70
     1
102
RTVSPost2010Prop36
280
     0
102
RTVSPost2010PropOp36
 70
     1
102
RTVSPost2010Prop37
 90
       50
102
RTVSPost2010PropOp37
 70
     1
102
RTVSPost2010Prop38
140
0.0
102
RTVSPost2010PropOp38
 70
     1
102
RTVSPost2010Prop39
140
1.0
102
RTVSPost2010PropOp39
 70
     1
102
RTVSPost2010Prop40
 90
        0
102
RTVSPost2010PropOp40
 70
     1
102
RTVSPost2010Prop41ColorIndex
 90
       18
102
RTVSPost2010Prop41ColorRGB
 90
        0
102
RTVSPost2010PropOp41
 70
     1
102
RTVSPost2010Prop42
 90
       50
102
RTVSPost2010PropOp42
 70
     1
102
RTVSPost2010Prop43
 90
        3
102
RTVSPost2010PropOp43
 70
     1
102
RTVSPost2010Prop44ColorIndex
 90
        5
102
RTVSPost2010Prop44ColorRGB
 90
      255
102
RTVSPost2010PropOp44
 70
     1
102
RTVSPost2010Prop45
280
     0
102
RTVSPost2010PropOp45
 70
     1
102
RTVSPost2010Prop46
 90
       50
102
RTVSPost2010PropOp46
 70
     1
102
RTVSPost2010Prop47
 90
       50
102
RTVSPost2010PropOp47
 70
     1
102
RTVSPost2010Prop48
 90
       50
102
RTVSPost2010PropOp48
 70
     1
102
RTVSPost2010Prop49
280
     0
102
RTVSPost2010PropOp49
 70
     1
102
RTVSPost2010Prop50
 90
       50
102
RTVSPost2010PropOp50
 70
     1
102
RTVSPost2010Prop51ColorIndex
 90
      256
102
RTVSPost2010Prop51ColorRGB
 90
-16777216
102
RTVSPost2010PropOp51
 70
     0
102
RTVSPost2010Prop52
140
1.0
102
RTVSPost2010PropOp52
 70
     0
102
RTVSPost2010Prop53
 90
        2
102
RTVSPost2010PropOp53
 70
     1
102
RTVSPost2010Prop54
  1
strokes_ogs.tif
102
RTVSPost2010PropOp54
 70
     1
102
RTVSPost2010Prop55
280
     0
102
RTVSPost2010PropOp55
 70
     1
102
RTVSPost2010Prop56
140
1.0
102
RTVSPost2010PropOp56
 70
     1
102
RTVSPost2010Prop57
140
1.0
102
RTVSPost2010PropOp57
 70
     1
102
RTVSPropertyOp0
 70
     1
102
RTVSPropertyOp1
 70
     1
102
RTVSPropertyOp2
 70
     1
102
RTVSPropertyOp3
 70
     1
102
RTVSPropertyOp4
 70
     1
102
RTVSPropertyOp5
 70
     1
102
RTVSPropertyOp6
 70
     1
102
RTVSPropertyOp7
 70
     1
102
RTVSPropertyOp8
 70
     1
102
RTVSPropertyOp9
 70
     1
102
RTVSPropertyOp10
 70
     1
102
RTVSPropertyOp11
 70
     1
102
RTVSPropertyOp12
 70
     1
102
RTVSPropertyOp13
 70
     1
102
RTVSPropertyOp14
 70
     1
102
RTVSPropertyOp15
 70
     1
102
RTVSPropertyOp16
 70
     1
102
RTVSPropertyOp17
 70
     1
102
RTVSPropertyOp18
 70
     1
102
RTVSPropertyOp19
 70
     1
102
RTVSPropertyOp20
 70
     1
102
RTVSPropertyOp21
 70
     1
102
RTVSPropertyOp22
 70
     1
102
RTVSPropertyOp23
 70
     1
102
RTVSPropertyOp24
 70
     1
102
RTVSPropertyOp25
 70
     1
102
RTVSPropertyOp26
 70
     1
102
RTVSPropertyOp27
 70
     1
102
RTVSPropertyOp28
 70
     1
102
RTVSPropertyOp29
 70
     1
102
RTVSPropertyOp30
 70
     1
102
RTVSPropertyOp31
 70
     1
102
RTVSPropertyOp32
 70
     1
102
RTVSPropertyOp33
 70
     1
102
RTVSPropertyOp34
 70
     1
102
RTVSPropertyOp35
 70
     1
102
RTVSPropertyOp36
 70
     1
102
RTVSPropertyOp37
 70
     1
102
RTVSPropertyOp38
 70
     1
102
RTVSPropertyOp39
 70
     1
102
RTVSPropertyOp40
 70
     1
102
RTVSPropertyOp41
 70
     1
102
RTVSPropertyOp42
 70
     1
102
RTVSPropertyOp43
 70
     1
102
RTVSPropertyOp44
 70
     1
102
RTVSPropertyOp45
 70
     1
102
RTVSPropertyOp46
 70
     1
102
RTVSPropertyOp47
 70
     1
102
RTVSPropertyOp48
 70
     1
102
RTVSPropertyOp49
 70
     1
102
RTVSPropertyOp50
 70
     1
102
RTVSPropertyOp51
 70
     0
102
RTVSPropertyOp52
 70
     0
102
RTVSPropertyOp53
 70
     1
102
RTVSPropertyOp54
 70
     1
102
RTVSPropertyOp55
 70
     1
102
RTVSPropertyOp56
 70
     1
102
RTVSPropertyOp57
 70
     1
102
RTVSPropertyOp58
 70
     1
102
RTVSPropertyOp59
 70
     1
102
RTVSPropertyOp60
 70
     1
102
RTVSPropertyOp61
 70
     1
102
RTVSPropertyOp62
 70
     1
  0
XRECORD
  5
10122E
102
{ACAD_REACTORS
330
10122D
102
}
330
10122D
100
AcDbXrecord
280
     1
102
RTVSPost2010Prop28
280
     0
102
RTVSPost2010PropOp28
 70
     1
102
RTVSPost2010Prop29
280
     1
102
RTVSPost2010PropOp29
 70
     1
102
RTVSPost2010Prop30
280
     1
102
RTVSPost2010PropOp30
 70
     1
102
RTVSPost2010Prop31
280
     0
102
RTVSPost2010PropOp31
 70
     1
102
RTVSPost2010Prop32
280
     0
102
RTVSPost2010PropOp32
 70
     1
102
RTVSPost2010Prop33
280
     0
102
RTVSPost2010PropOp33
 70
     1
102
RTVSPost2010Prop34
280
     0
102
RTVSPost2010PropOp34
 70
     1
102
RTVSPost2010Prop35
280
     0
102
RTVSPost2010PropOp35
 70
     1
102
RTVSPost2010Prop36
280
     0
102
RTVSPost2010PropOp36
 70
     1
102
RTVSPost2010Prop37
 90
       50
102
RTVSPost2010PropOp37
 70
     1
102
RTVSPost2010Prop38
140
0.0
102
RTVSPost2010PropOp38
 70
     1
102
RTVSPost2010Prop39
140
1.0
102
RTVSPost2010PropOp39
 70
     1
102
RTVSPost2010Prop40
 90
        0
102
RTVSPost2010PropOp40
 70
     1
102
RTVSPost2010Prop41ColorIndex
 90
       18
102
RTVSPost2010Prop41ColorRGB
 90
        0
102
RTVSPost2010PropOp41
 70
     1
102
RTVSPost2010Prop42
 90
       50
102
RTVSPost2010PropOp42
 70
     1
102
RTVSPost2010Prop43
 90
        3
102
RTVSPost2010PropOp43
 70
     1
102
RTVSPost2010Prop44ColorIndex
 90
        5
102
RTVSPost2010Prop44ColorRGB
 90
      255
102
RTVSPost2010PropOp44
 70
     1
102
RTVSPost2010Prop45
280
     0
102
RTVSPost2010PropOp45
 70
     1
102
RTVSPost2010Prop46
 90
       50
102
RTVSPost2010PropOp46
 70
     1
102
RTVSPost2010Prop47
 90
       50
102
RTVSPost2010PropOp47
 70
     1
102
RTVSPost2010Prop48
 90
       50
102
RTVSPost2010PropOp48
 70
     1
102
RTVSPost2010Prop49
280
     0
102
RTVSPost2010PropOp49
 70
     1
102
RTVSPost2010Prop50
 90
       50
102
RTVSPost2010PropOp50
 70
     1
102
RTVSPost2010Prop51ColorIndex
 90
      256
102
RTVSPost2010Prop51ColorRGB
 90
-16777216
102
RTVSPost2010PropOp51
 70
     0
102
RTVSPost2010Prop52
140
1.0
102
RTVSPost2010PropOp52
 70
     0
102
RTVSPost2010Prop53
 90
        2
102
RTVSPost2010PropOp53
 70
     1
102
RTVSPost2010Prop54
  1
strokes_ogs.tif
102
RTVSPost2010PropOp54
 70
     1
102
RTVSPost2010Prop55
280
     0
102
RTVSPost2010PropOp55
 70
     1
102
RTVSPost2010Prop56
140
1.0
102
RTVSPost2010PropOp56
 70
     1
102
RTVSPost2010Prop57
140
1.0
102
RTVSPost2010PropOp57
 70
     1
102
RTVSPropertyOp0
 70
     1
102
RTVSPropertyOp1
 70
     1
102
RTVSPropertyOp2
 70
     1
102
RTVSPropertyOp3
 70
     1
102
RTVSPropertyOp4
 70
     1
102
RTVSPropertyOp5
 70
     1
102
RTVSPropertyOp6
 70
     1
102
RTVSPropertyOp7
 70
     1
102
RTVSPropertyOp8
 70
     1
102
RTVSPropertyOp9
 70
     1
102
RTVSPropertyOp10
 70
     1
102
RTVSPropertyOp11
 70
     1
102
RTVSPropertyOp12
 70
     1
102
RTVSPropertyOp13
 70
     1
102
RTVSPropertyOp14
 70
     1
102
RTVSPropertyOp15
 70
     1
102
RTVSPropertyOp16
 70
     1
102
RTVSPropertyOp17
 70
     1
102
RTVSPropertyOp18
 70
     1
102
RTVSPropertyOp19
 70
     1
102
RTVSPropertyOp20
 70
     1
102
RTVSPropertyOp21
 70
     1
102
RTVSPropertyOp22
 70
     1
102
RTVSPropertyOp23
 70
     1
102
RTVSPropertyOp24
 70
     1
102
RTVSPropertyOp25
 70
     1
102
RTVSPropertyOp26
 70
     1
102
RTVSPropertyOp27
 70
     1
102
RTVSPropertyOp28
 70
     1
102
RTVSPropertyOp29
 70
     1
102
RTVSPropertyOp30
 70
     1
102
RTVSPropertyOp31
 70
     1
102
RTVSPropertyOp32
 70
     1
102
RTVSPropertyOp33
 70
     1
102
RTVSPropertyOp34
 70
     1
102
RTVSPropertyOp35
 70
     1
102
RTVSPropertyOp36
 70
     1
102
RTVSPropertyOp37
 70
     1
102
RTVSPropertyOp38
 70
     1
102
RTVSPropertyOp39
 70
     1
102
RTVSPropertyOp40
 70
     1
102
RTVSPropertyOp41
 70
     1
102
RTVSPropertyOp42
 70
     1
102
RTVSPropertyOp43
 70
     1
102
RTVSPropertyOp44
 70
     1
102
RTVSPropertyOp45
 70
     1
102
RTVSPropertyOp46
 70
     1
102
RTVSPropertyOp47
 70
     1
102
RTVSPropertyOp48
 70
     1
102
RTVSPropertyOp49
 70
     1
102
RTVSPropertyOp50
 70
     1
102
RTVSPropertyOp51
 70
     0
102
RTVSPropertyOp52
 70
     0
102
RTVSPropertyOp53
 70
     1
102
RTVSPropertyOp54
 70
     1
102
RTVSPropertyOp55
 70
     1
102
RTVSPropertyOp56
 70
     1
102
RTVSPropertyOp57
 70
     1
102
RTVSPropertyOp58
 70
     1
102
RTVSPropertyOp59
 70
     1
102
RTVSPropertyOp60
 70
     1
102
RTVSPropertyOp61
 70
     1
102
RTVSPropertyOp62
 70
     1
  0
XRECORD
  5
101222
102
{ACAD_REACTORS
330
101221
102
}
330
101221
100
AcDbXrecord
280
     1
102
RTVSPost2010Prop28
280
     0
102
RTVSPost2010PropOp28
 70
     1
102
RTVSPost2010Prop29
280
     1
102
RTVSPost2010PropOp29
 70
     1
102
RTVSPost2010Prop30
280
     1
102
RTVSPost2010PropOp30
 70
     1
102
RTVSPost2010Prop31
280
     0
102
RTVSPost2010PropOp31
 70
     1
102
RTVSPost2010Prop32
280
     0
102
RTVSPost2010PropOp32
 70
     1
102
RTVSPost2010Prop33
280
     0
102
RTVSPost2010PropOp33
 70
     1
102
RTVSPost2010Prop34
280
     0
102
RTVSPost2010PropOp34
 70
     1
102
RTVSPost2010Prop35
280
     0
102
RTVSPost2010PropOp35
 70
     1
102
RTVSPost2010Prop36
280
     0
102
RTVSPost2010PropOp36
 70
     1
102
RTVSPost2010Prop37
 90
       50
102
RTVSPost2010PropOp37
 70
     1
102
RTVSPost2010Prop38
140
0.0
102
RTVSPost2010PropOp38
 70
     1
102
RTVSPost2010Prop39
140
1.0
102
RTVSPost2010PropOp39
 70
     1
102
RTVSPost2010Prop40
 90
        0
102
RTVSPost2010PropOp40
 70
     1
102
RTVSPost2010Prop41ColorIndex
 90
       18
102
RTVSPost2010Prop41ColorRGB
 90
        0
102
RTVSPost2010PropOp41
 70
     1
102
RTVSPost2010Prop42
 90
       50
102
RTVSPost2010PropOp42
 70
     1
102
RTVSPost2010Prop43
 90
        3
102
RTVSPost2010PropOp43
 70
     1
102
RTVSPost2010Prop44ColorIndex
 90
        5
102
RTVSPost2010Prop44ColorRGB
 90
      255
102
RTVSPost2010PropOp44
 70
     1
102
RTVSPost2010Prop45
280
     0
102
RTVSPost2010PropOp45
 70
     1
102
RTVSPost2010Prop46
 90
       50
102
RTVSPost2010PropOp46
 70
     1
102
RTVSPost2010Prop47
 90
       50
102
RTVSPost2010PropOp47
 70
     1
102
RTVSPost2010Prop48
 90
       50
102
RTVSPost2010PropOp48
 70
     1
102
RTVSPost2010Prop49
280
     0
102
RTVSPost2010PropOp49
 70
     1
102
RTVSPost2010Prop50
 90
       50
102
RTVSPost2010PropOp50
 70
     1
102
RTVSPost2010Prop51ColorIndex
 90
      256
102
RTVSPost2010Prop51ColorRGB
 90
-16777216
102
RTVSPost2010PropOp51
 70
     0
102
RTVSPost2010Prop52
140
1.0
102
RTVSPost2010PropOp52
 70
     0
102
RTVSPost2010Prop53
 90
        2
102
RTVSPost2010PropOp53
 70
     1
102
RTVSPost2010Prop54
  1
strokes_ogs.tif
102
RTVSPost2010PropOp54
 70
     1
102
RTVSPost2010Prop55
280
     0
102
RTVSPost2010PropOp55
 70
     1
102
RTVSPost2010Prop56
140
1.0
102
RTVSPost2010PropOp56
 70
     1
102
RTVSPost2010Prop57
140
1.0
102
RTVSPost2010PropOp57
 70
     1
102
RTVSPropertyOp0
 70
     1
102
RTVSPropertyOp1
 70
     1
102
RTVSPropertyOp2
 70
     1
102
RTVSPropertyOp3
 70
     1
102
RTVSPropertyOp4
 70
     1
102
RTVSPropertyOp5
 70
     1
102
RTVSPropertyOp6
 70
     1
102
RTVSPropertyOp7
 70
     1
102
RTVSPropertyOp8
 70
     1
102
RTVSPropertyOp9
 70
     1
102
RTVSPropertyOp10
 70
     1
102
RTVSPropertyOp11
 70
     1
102
RTVSPropertyOp12
 70
     1
102
RTVSPropertyOp13
 70
     1
102
RTVSPropertyOp14
 70
     1
102
RTVSPropertyOp15
 70
     1
102
RTVSPropertyOp16
 70
     1
102
RTVSPropertyOp17
 70
     1
102
RTVSPropertyOp18
 70
     1
102
RTVSPropertyOp19
 70
     1
102
RTVSPropertyOp20
 70
     1
102
RTVSPropertyOp21
 70
     1
102
RTVSPropertyOp22
 70
     1
102
RTVSPropertyOp23
 70
     1
102
RTVSPropertyOp24
 70
     1
102
RTVSPropertyOp25
 70
     1
102
RTVSPropertyOp26
 70
     1
102
RTVSPropertyOp27
 70
     1
102
RTVSPropertyOp28
 70
     1
102
RTVSPropertyOp29
 70
     1
102
RTVSPropertyOp30
 70
     1
102
RTVSPropertyOp31
 70
     1
102
RTVSPropertyOp32
 70
     1
102
RTVSPropertyOp33
 70
     1
102
RTVSPropertyOp34
 70
     1
102
RTVSPropertyOp35
 70
     1
102
RTVSPropertyOp36
 70
     1
102
RTVSPropertyOp37
 70
     1
102
RTVSPropertyOp38
 70
     1
102
RTVSPropertyOp39
 70
     1
102
RTVSPropertyOp40
 70
     1
102
RTVSPropertyOp41
 70
     1
102
RTVSPropertyOp42
 70
     1
102
RTVSPropertyOp43
 70
     1
102
RTVSPropertyOp44
 70
     1
102
RTVSPropertyOp45
 70
     1
102
RTVSPropertyOp46
 70
     1
102
RTVSPropertyOp47
 70
     1
102
RTVSPropertyOp48
 70
     1
102
RTVSPropertyOp49
 70
     1
102
RTVSPropertyOp50
 70
     1
102
RTVSPropertyOp51
 70
     0
102
RTVSPropertyOp52
 70
     0
102
RTVSPropertyOp53
 70
     1
102
RTVSPropertyOp54
 70
     1
102
RTVSPropertyOp55
 70
     1
102
RTVSPropertyOp56
 70
     1
102
RTVSPropertyOp57
 70
     1
102
RTVSPropertyOp58
 70
     1
102
RTVSPropertyOp59
 70
     1
102
RTVSPropertyOp60
 70
     1
102
RTVSPropertyOp61
 70
     1
102
RTVSPropertyOp62
 70
     1
  0
XRECORD
  5
10123A
102
{ACAD_REACTORS
330
101239
102
}
330
101239
100
AcDbXrecord
280
     1
102
RTVSPost2010Prop28
280
     0
102
RTVSPost2010PropOp28
 70
     1
102
RTVSPost2010Prop29
280
     1
102
RTVSPost2010PropOp29
 70
     1
102
RTVSPost2010Prop30
280
     1
102
RTVSPost2010PropOp30
 70
     1
102
RTVSPost2010Prop31
280
     0
102
RTVSPost2010PropOp31
 70
     1
102
RTVSPost2010Prop32
280
     0
102
RTVSPost2010PropOp32
 70
     1
102
RTVSPost2010Prop33
280
     0
102
RTVSPost2010PropOp33
 70
     1
102
RTVSPost2010Prop34
280
     0
102
RTVSPost2010PropOp34
 70
     1
102
RTVSPost2010Prop35
280
     0
102
RTVSPost2010PropOp35
 70
     1
102
RTVSPost2010Prop36
280
     0
102
RTVSPost2010PropOp36
 70
     1
102
RTVSPost2010Prop37
 90
       50
102
RTVSPost2010PropOp37
 70
     1
102
RTVSPost2010Prop38
140
0.0
102
RTVSPost2010PropOp38
 70
     1
102
RTVSPost2010Prop39
140
1.0
102
RTVSPost2010PropOp39
 70
     1
102
RTVSPost2010Prop40
 90
        0
102
RTVSPost2010PropOp40
 70
     1
102
RTVSPost2010Prop41ColorIndex
 90
       18
102
RTVSPost2010Prop41ColorRGB
 90
        0
102
RTVSPost2010PropOp41
 70
     1
102
RTVSPost2010Prop42
 90
       50
102
RTVSPost2010PropOp42
 70
     1
102
RTVSPost2010Prop43
 90
        3
102
RTVSPost2010PropOp43
 70
     1
102
RTVSPost2010Prop44ColorIndex
 90
        5
102
RTVSPost2010Prop44ColorRGB
 90
      255
102
RTVSPost2010PropOp44
 70
     1
102
RTVSPost2010Prop45
280
     0
102
RTVSPost2010PropOp45
 70
     1
102
RTVSPost2010Prop46
 90
       50
102
RTVSPost2010PropOp46
 70
     1
102
RTVSPost2010Prop47
 90
       50
102
RTVSPost2010PropOp47
 70
     1
102
RTVSPost2010Prop48
 90
       50
102
RTVSPost2010PropOp48
 70
     1
102
RTVSPost2010Prop49
280
     0
102
RTVSPost2010PropOp49
 70
     1
102
RTVSPost2010Prop50
 90
       50
102
RTVSPost2010PropOp50
 70
     1
102
RTVSPost2010Prop51ColorIndex
 90
      256
102
RTVSPost2010Prop51ColorRGB
 90
-16777216
102
RTVSPost2010PropOp51
 70
     0
102
RTVSPost2010Prop52
140
1.0
102
RTVSPost2010PropOp52
 70
     0
102
RTVSPost2010Prop53
 90
        2
102
RTVSPost2010PropOp53
 70
     1
102
RTVSPost2010Prop54
  1
strokes_ogs.tif
102
RTVSPost2010PropOp54
 70
     1
102
RTVSPost2010Prop55
280
     0
102
RTVSPost2010PropOp55
 70
     1
102
RTVSPost2010Prop56
140
1.0
102
RTVSPost2010PropOp56
 70
     1
102
RTVSPost2010Prop57
140
1.0
102
RTVSPost2010PropOp57
 70
     1
102
RTVSPropertyOp0
 70
     1
102
RTVSPropertyOp1
 70
     1
102
RTVSPropertyOp2
 70
     1
102
RTVSPropertyOp3
 70
     1
102
RTVSPropertyOp4
 70
     1
102
RTVSPropertyOp5
 70
     1
102
RTVSPropertyOp6
 70
     1
102
RTVSPropertyOp7
 70
     1
102
RTVSPropertyOp8
 70
     1
102
RTVSPropertyOp9
 70
     1
102
RTVSPropertyOp10
 70
     1
102
RTVSPropertyOp11
 70
     1
102
RTVSPropertyOp12
 70
     1
102
RTVSPropertyOp13
 70
     1
102
RTVSPropertyOp14
 70
     1
102
RTVSPropertyOp15
 70
     1
102
RTVSPropertyOp16
 70
     1
102
RTVSPropertyOp17
 70
     1
102
RTVSPropertyOp18
 70
     1
102
RTVSPropertyOp19
 70
     1
102
RTVSPropertyOp20
 70
     1
102
RTVSPropertyOp21
 70
     1
102
RTVSPropertyOp22
 70
     1
102
RTVSPropertyOp23
 70
     1
102
RTVSPropertyOp24
 70
     1
102
RTVSPropertyOp25
 70
     1
102
RTVSPropertyOp26
 70
     1
102
RTVSPropertyOp27
 70
     1
102
RTVSPropertyOp28
 70
     1
102
RTVSPropertyOp29
 70
     1
102
RTVSPropertyOp30
 70
     1
102
RTVSPropertyOp31
 70
     1
102
RTVSPropertyOp32
 70
     1
102
RTVSPropertyOp33
 70
     1
102
RTVSPropertyOp34
 70
     1
102
RTVSPropertyOp35
 70
     1
102
RTVSPropertyOp36
 70
     1
102
RTVSPropertyOp37
 70
     1
102
RTVSPropertyOp38
 70
     1
102
RTVSPropertyOp39
 70
     1
102
RTVSPropertyOp40
 70
     1
102
RTVSPropertyOp41
 70
     1
102
RTVSPropertyOp42
 70
     1
102
RTVSPropertyOp43
 70
     1
102
RTVSPropertyOp44
 70
     1
102
RTVSPropertyOp45
 70
     1
102
RTVSPropertyOp46
 70
     1
102
RTVSPropertyOp47
 70
     1
102
RTVSPropertyOp48
 70
     1
102
RTVSPropertyOp49
 70
     1
102
RTVSPropertyOp50
 70
     1
102
RTVSPropertyOp51
 70
     0
102
RTVSPropertyOp52
 70
     0
102
RTVSPropertyOp53
 70
     1
102
RTVSPropertyOp54
 70
     1
102
RTVSPropertyOp55
 70
     1
102
RTVSPropertyOp56
 70
     1
102
RTVSPropertyOp57
 70
     1
102
RTVSPropertyOp58
 70
     1
102
RTVSPropertyOp59
 70
     1
102
RTVSPropertyOp60
 70
     1
102
RTVSPropertyOp61
 70
     1
102
RTVSPropertyOp62
 70
     1
  0
ENDSEC
  0
EOF
