  0
SECTION
  2
HEADER
  9
$ACADVER
  1
AC1018
  9
$ACADMAINTVER
 70
   104
  9
$DWGCODEPAGE
  3
ANSI_932
  9
$LASTSAVEDBY
  1
開発
  9
$INSBASE
 10
0.0
 20
0.0
 30
0.0
  9
$EXTMIN
 10
578.6381199951689
 20
105.8581504863933
 30
0.0
  9
$EXTMAX
 10
821.3281286842427
 20
550.3662930383256
 30
0.0
  9
$LIMMIN
 10
0.0
 20
0.0
  9
$LIMMAX
 10
420.0
 20
297.0
  9
$ORTHOMODE
 70
     0
  9
$REGENMODE
 70
     1
  9
$FILLMODE
 70
     1
  9
$QTEXTMODE
 70
     0
  9
$MIRRTEXT
 70
     0
  9
$LTSCALE
 40
1.0
  9
$ATTMODE
 70
     1
  9
$TEXTSIZE
 40
2.5
  9
$TRACEWID
 40
1.0
  9
$TEXTSTYLE
  7
2014++
  9
$CLAYER
  8
04_ele1_0.15
  9
$CELTYPE
  6
ByLayer
  9
$CECOLOR
 62
   256
  9
$CELTSCALE
 40
1.0
  9
$DISPSILH
 70
     0
  9
$DIMSCALE
 40
1.0
  9
$DIMASZ
 40
2.5
  9
$DIMEXO
 40
1.0
  9
$DIMDLI
 40
10.0
  9
$DIMRND
 40
0.0
  9
$DIMDLE
 40
0.0
  9
$DIMEXE
 40
1.0
  9
$DIMTP
 40
0.1
  9
$DIMTM
 40
0.1
  9
$DIMTXT
 40
3.5
  9
$DIMCEN
 40
0.0
  9
$DIMTSZ
 40
0.0
  9
$DIMTOL
 70
     0
  9
$DIMLIM
 70
     0
  9
$DIMTIH
 70
     0
  9
$DIMTOH
 70
     0
  9
$DIMSE1
 70
     0
  9
$DIMSE2
 70
     0
  9
$DIMTAD
 70
     1
  9
$DIMZIN
 70
     8
  9
$DIMBLK
  1

  9
$DIMASO
 70
     1
  9
$DIMSHO
 70
     1
  9
$DIMPOST
  1

  9
$DIMAPOST
  1
"
  9
$DIMALT
 70
     0
  9
$DIMALTD
 70
     2
  9
$DIMALTF
 40
0.0393701
  9
$DIMLFAC
 40
1.0
  9
$DIMTOFL
 70
     1
  9
$DIMTVP
 40
0.0
  9
$DIMTIX
 70
     0
  9
$DIMSOXD
 70
     0
  9
$DIMSAH
 70
     0
  9
$DIMBLK1
  1

  9
$DIMBLK2
  1

  9
$DIMSTYLE
  2
AM_ISO
  9
$DIMCLRD
 70
   256
  9
$DIMCLRE
 70
   256
  9
$DIMCLRT
 70
     2
  9
$DIMTFAC
 40
0.71
  9
$DIMGAP
 40
1.5
  9
$DIMJUST
 70
     0
  9
$DIMSD1
 70
     0
  9
$DIMSD2
 70
     0
  9
$DIMTOLJ
 70
     0
  9
$DIMTZIN
 70
     8
  9
$DIMALTZ
 70
     0
  9
$DIMALTTZ
 70
     0
  9
$DIMUPT
 70
     0
  9
$DIMDEC
 70
     2
  9
$DIMTDEC
 70
     3
  9
$DIMALTU
 70
     2
  9
$DIMALTTD
 70
     4
  9
$DIMTXSTY
  7
STANDARD
  9
$DIMAUNIT
 70
     0
  9
$DIMADEC
 70
     0
  9
$DIMALTRND
 40
0.0
  9
$DIMAZIN
 70
     2
  9
$DIMDSEP
 70
    46
  9
$DIMATFIT
 70
     3
  9
$DIMFRAC
 70
     0
  9
$DIMLDRBLK
  1

  9
$DIMLUNIT
 70
     2
  9
$DIMLWD
 70
    -1
  9
$DIMLWE
 70
    -1
  9
$DIMTMOVE
 70
     0
  9
$LUNITS
 70
     2
  9
$LUPREC
 70
     2
  9
$SKETCHINC
 40
1.0
  9
$FILLETRAD
 40
2.5
  9
$AUNITS
 70
     0
  9
$AUPREC
 70
     0
  9
$MENU
  1
.
  9
$ELEVATION
 40
0.0
  9
$PELEVATION
 40
0.0
  9
$THICKNESS
 40
0.0
  9
$LIMCHECK
 70
     0
  9
$CHAMFERA
 40
2.5
  9
$CHAMFERB
 40
2.5
  9
$CHAMFERC
 40
20.0
  9
$CHAMFERD
 40
0.0
  9
$SKPOLY
 70
     0
  9
$TDCREATE
 40
2457115.695143044
  9
$TDUCREATE
 40
2457115.320143044
  9
$TDUPDATE
 40
2458414.610930775
  9
$TDUUPDATE
 40
2458414.235930775
  9
$TDINDWG
 40
0.0141344444
  9
$TDUSRTIMER
 40
0.0141342593
  9
$USRTIMER
 70
     1
  9
$ANGBASE
 50
0.0
  9
$ANGDIR
 70
     0
  9
$PDMODE
 70
     0
  9
$PDSIZE
 40
0.0
  9
$PLINEWID
 40
0.0
  9
$SPLFRAME
 70
     0
  9
$SPLINETYPE
 70
     6
  9
$SPLINESEGS
 70
     8
  9
$HANDSEED
  5
FADEB
  9
$SURFTAB1
 70
     6
  9
$SURFTAB2
 70
     6
  9
$SURFTYPE
 70
     6
  9
$SURFU
 70
     6
  9
$SURFV
 70
     6
  9
$UCSBASE
  2

  9
$UCSNAME
  2

  9
$UCSORG
 10
0.0
 20
0.0
 30
0.0
  9
$UCSXDIR
 10
1.0
 20
0.0
 30
0.0
  9
$UCSYDIR
 10
0.0
 20
1.0
 30
0.0
  9
$UCSORTHOREF
  2

  9
$UCSORTHOVIEW
 70
     0
  9
$UCSORGTOP
 10
0.0
 20
0.0
 30
0.0
  9
$UCSORGBOTTOM
 10
0.0
 20
0.0
 30
0.0
  9
$UCSORGLEFT
 10
0.0
 20
0.0
 30
0.0
  9
$UCSORGRIGHT
 10
0.0
 20
0.0
 30
0.0
  9
$UCSORGFRONT
 10
0.0
 20
0.0
 30
0.0
  9
$UCSORGBACK
 10
0.0
 20
0.0
 30
0.0
  9
$PUCSBASE
  2

  9
$PUCSNAME
  2

  9
$PUCSORG
 10
0.0
 20
0.0
 30
0.0
  9
$PUCSXDIR
 10
1.0
 20
0.0
 30
0.0
  9
$PUCSYDIR
 10
0.0
 20
1.0
 30
0.0
  9
$PUCSORTHOREF
  2

  9
$PUCSORTHOVIEW
 70
     0
  9
$PUCSORGTOP
 10
0.0
 20
0.0
 30
0.0
  9
$PUCSORGBOTTOM
 10
0.0
 20
0.0
 30
0.0
  9
$PUCSORGLEFT
 10
0.0
 20
0.0
 30
0.0
  9
$PUCSORGRIGHT
 10
0.0
 20
0.0
 30
0.0
  9
$PUCSORGFRONT
 10
0.0
 20
0.0
 30
0.0
  9
$PUCSORGBACK
 10
0.0
 20
0.0
 30
0.0
  9
$USERI1
 70
     0
  9
$USERI2
 70
     0
  9
$USERI3
 70
     0
  9
$USERI4
 70
     0
  9
$USERI5
 70
     0
  9
$USERR1
 40
0.0
  9
$USERR2
 40
0.0
  9
$USERR3
 40
0.0
  9
$USERR4
 40
0.0
  9
$USERR5
 40
0.0
  9
$WORLDVIEW
 70
     1
  9
$SHADEDGE
 70
     3
  9
$SHADEDIF
 70
    70
  9
$TILEMODE
 70
     1
  9
$MAXACTVP
 70
    64
  9
$PINSBASE
 10
0.0
 20
0.0
 30
0.0
  9
$PLIMCHECK
 70
     0
  9
$PEXTMIN
 10
1.000000000000000E+20
 20
1.000000000000000E+20
 30
1.000000000000000E+20
  9
$PEXTMAX
 10
-1.000000000000000E+20
 20
-1.000000000000000E+20
 30
-1.000000000000000E+20
  9
$PLIMMIN
 10
-5.873748779296875
 20
-5.873749732971191
  9
$PLIMMAX
 10
291.05224609375
 20
204.0995779037475
  9
$UNITMODE
 70
     0
  9
$VISRETAIN
 70
     1
  9
$PLINEGEN
 70
     0
  9
$PSLTSCALE
 70
     1
  9
$TREEDEPTH
 70
  3020
  9
$CMLSTYLE
  2
Standard
  9
$CMLJUST
 70
     0
  9
$CMLSCALE
 40
20.0
  9
$PROXYGRAPHICS
 70
     1
  9
$MEASUREMENT
 70
     1
  9
$CELWEIGHT
370
    -1
  9
$ENDCAPS
280
     0
  9
$JOINSTYLE
280
     0
  9
$LWDISPLAY
290
     0
  9
$INSUNITS
 70
     4
  9
$HYPERLINKBASE
  1

  9
$STYLESHEET
  1
MONOCHROME.CTB
  9
$XEDIT
290
     1
  9
$CEPSNTYPE
380
     0
  9
$PSTYLEMODE
290
     1
  9
$FINGERPRINTGUID
  2
{50BE1C40-7876-4AFD-8770-B7778E71A178}
  9
$VERSIONGUID
  2
{2A8688CF-FC64-4EAD-A049-2AD55DCD2287}
  9
$EXTNAMES
290
     1
  9
$PSVPSCALE
 40
0.0
  9
$OLESTARTUP
290
     0
  9
$SORTENTS
280
    96
  9
$INDEXCTL
280
     0
  9
$HIDETEXT
280
     0
  9
$XCLIPFRAME
290
     0
  9
$HALOGAP
280
     0
  9
$OBSCOLOR
 70
   257
  9
$OBSLTYPE
280
     0
  9
$INTERSECTIONDISPLAY
280
     0
  9
$INTERSECTIONCOLOR
 70
   257
  9
$DIMASSOC
280
     1
  9
$PROJECTNAME
  1

  0
ENDSEC
  0
SECTION
  2
CLASSES
  0
CLASS
  1
ACDBDICTIONARYWDFLT
  2
AcDbDictionaryWithDefault
  3
ObjectDBX Classes
 90
        0
 91
        1
280
     0
281
     0
  0
CLASS
  1
DICTIONARYVAR
  2
AcDbDictionaryVar
  3
ObjectDBX Classes
 90
        0
 91
       13
280
     0
281
     0
  0
CLASS
  1
ACME_DOCUMENT
  2
AcMeDbDoc
  3
AcMeServices
 90
     1024
 91
        2
280
     0
281
     0
  0
CLASS
  1
ACMESCOPE
  2
AcMeScope
  3
AcMeServices
 90
     1024
 91
        1
280
     0
281
     0
  0
CLASS
  1
ACMECOMMANDHISTORY
  2
AcMeCommandHistory
  3
AcMeServices
 90
     1024
 91
        1
280
     0
281
     0
  0
CLASS
  1
ACIMSYSVARMAN
  2
AcImSysVarManager
  3
AcMeServices
 90
     1024
 91
        5
280
     0
281
     0
  0
CLASS
  1
ACIMINTSYSVAR
  2
AcImIntSysVar
  3
AcMeServices
 90
     1024
 91
       28
280
     0
281
     0
  0
CLASS
  1
ACMEDRAWINGMAN
  2
AcMeDrawingMan
  3
AcMeServices
 90
     1024
 91
        0
280
     0
281
     0
  0
CLASS
  1
ACMEVIEW
  2
AcMeView
  3
AcMeServices
 90
     1024
 91
        0
280
     0
281
     0
  0
CLASS
  1
ACDBENTITYCACHE
  2
AcMeEntityCache
  3
AcMeServices
 90
     1024
 91
        1
280
     0
281
     0
  0
CLASS
  1
GSMANAGER
  2
AcMeGSManager
  3
AcMeServices
 90
        0
 91
        0
280
     0
281
     0
  0
CLASS
  1
AMDTINTERNALREACTOR
  2
AmdtInternalReactor
  3
AcMeServices
 90
     1024
 91
        1
280
     0
281
     0
  0
CLASS
  1
ACMESTATEMGR
  2
AcMeStateMgr
  3
AcMeServices
 90
     1024
 91
        1
280
     0
281
     0
  0
CLASS
  1
ACGREFMASTER
  2
AcGrefMaster
  3
AcAttribServices
 90
     1024
 91
        1
280
     0
281
     0
  0
CLASS
  1
AM_DRAWING_MGR
  2
AcDmDwgMgr
  3
AcMechDwgViewMgmt
 90
     1024
 91
        1
280
     0
281
     0
  0
CLASS
  1
AM_DWG_DOCUMENT
  2
AcDmDwgDocument
  3
AcMechDwgViewMgmt
 90
     1024
 91
        1
280
     0
281
     0
  0
CLASS
  1
AM_DWG_SHEET
  2
AcDmSheet
  3
AcMechDwgViewMgmt
 90
     1024
 91
        1
280
     0
281
     0
  0
CLASS
  1
AM_VIEWDIMPARMAP
  2
AcDmViewDimParMap
  3
AcMechDwgViewMgmt
 90
     1024
 91
        1
280
     0
281
     0
  0
CLASS
  1
ACIMREALSYSVAR
  2
AcImRealSysVar
  3
AcMeServices
 90
     1024
 91
        1
280
     0
281
     0
  0
CLASS
  1
AM_DWGMGR_NAME
  2
AcDmDwgMgrName
  3
AcMechDwgViewMgmt
 90
     1024
 91
        1
280
     0
281
     0
  0
CLASS
  1
ACME_DATABASE
  2
AcMeDbDatabase
  3
AcMeServices
 90
     1024
 91
        1
280
     0
281
     0
  0
CLASS
  1
ACRFINSADJUSTERMGR
  2
AcRfInsAdjusterMgr
  3
AcMeServices
 90
     1024
 91
        1
280
     0
281
     0
  0
CLASS
  1
ACGREFACADMASTER
  2
AcGrefacadMaster
  3
AcGrefServices
 90
     1024
 91
        1
280
     0
281
     0
  0
CLASS
  1
AMDTMENUSTATEMGR
  2
AmdtMenuStateMgr
  3
McadcomServices
 90
     1024
 91
        1
280
     0
281
     0
  0
CLASS
  1
AMDTMCOMMENUSTATE
  2
AmdtMcomMenuState
  3
McadcomServices
 90
     1024
 91
        1
280
     0
281
     0
  0
CLASS
  1
AMIMASTER
  2
AmiMaster
  3
AmiServices
 90
     1024
 91
        1
280
     0
281
     0
  0
CLASS
  1
AMGSETTINGSOBJ
  2
AmgSettingsObj
  3
"AcadM|Product Description: AutoCAD Mechanical|Company: Autodesk, Inc."
 90
     1024
 91
        3
280
     0
281
     0
  0
CLASS
  1
MAPIAMMOUDLE
  2
MApiAmModule
  3
MApiAmServices
 90
     1024
 91
        1
280
     0
281
     0
  0
CLASS
  1
AMDTADMENUSTATE
  2
AmdtAdMenuState
  3
DesignerServices
 90
        0
 91
        0
280
     0
281
     0
  0
CLASS
  1
ADAPPL
  2
AcAdAppl
  3
DesignerAssemblies
 90
     1024
 91
        0
280
     0
281
     0
  0
CLASS
  1
DEPMGR
  2
AcAdDepMgr
  3
DesignerAssemblies
 90
     1024
 91
        0
280
     0
281
     0
  0
CLASS
  1
PARAMMGR
  2
AcAdParamMgr
  3
DesignerAssemblies
 90
     1024
 91
        0
280
     0
281
     0
  0
CLASS
  1
PARAMSCOPE
  2
AcAdParamScope
  3
DesignerAssemblies
 90
     1024
 91
        0
280
     0
281
     0
  0
CLASS
  1
NAMEDAPPL
  2
AcAdNamedAppl
  3
DesignerAssemblies
 90
     1024
 91
        0
280
     0
281
     0
  0
CLASS
  1
AMDTDMMENUSTATE
  2
AmdtDmMenuState
  3
AcMechDwgViewMgmt
 90
        0
 91
        0
280
     0
281
     0
  0
CLASS
  1
AMDTAMMENUSTATE
  2
AmdtAmMenuState
  3
DesignerAssemblies
 90
     1024
 91
        1
280
     0
281
     0
  0
CLASS
  1
ACIMSTRSYSVAR
  2
AcImStrSysVar
  3
AcMeServices
 90
     1024
 91
        5
280
     0
281
     0
  0
CLASS
  1
ACAMPROJECT
  2
AcAmProject
  3
DesignerAssemblies
 90
     1024
 91
        1
280
     0
281
     0
  0
CLASS
  1
ACAMGRCOMPDEF
  2
AcAmGrCompDef
  3
DesignerAssemblies
 90
     1024
 91
        1
280
     0
281
     0
  0
CLASS
  1
ACCMCONTEXT
  2
AcCmContext
  3
DesignerAssemblies
 90
     1024
 91
        1
280
     0
281
     0
  0
CLASS
  1
ACAMCOMPDEF
  2
AcAmCompDef
  3
DesignerAssemblies
 90
     1024
 91
        1
280
     0
281
     0
  0
CLASS
  1
ACAMCOMPDEFMGR
  2
AcAmCompDefMgr
  3
DesignerAssemblies
 90
     1024
 91
        1
280
     0
281
     0
  0
CLASS
  1
AMCONTEXTMGR
  2
AcAmContextMgr
  3
DesignerAssemblies
 90
     1024
 91
        1
280
     0
281
     0
  0
CLASS
  1
ACAMCONTEXTMODELER
  2
AcAmContextModeler
  3
DesignerAssemblies
 90
     1024
 91
        1
280
     0
281
     0
  0
CLASS
  1
ACMDATADICTIONARY
  2
AcmDataDictionary
  3
"AcmSymBB|Product Description: AutoCAD Mechanical|Company: Autodesk, Inc."
 90
     1024
 91
        1
280
     0
281
     0
  0
CLASS
  1
CATALOGSTATE
  2
AcAmCatalogState
  3
DesignerAssemblies
 90
     1024
 91
        0
280
     0
281
     0
  0
CLASS
  1
ACAMGRCOMPDEFSET
  2
AcAmGrCompDefSet
  3
DesignerAssemblies
 90
     1024
 91
        1
280
     0
281
     0
  0
CLASS
  1
AMDTBROWSERDBTAB
  2
AmdtBrowserDbTab
  3
McadcomServices
 90
     1024
 91
        1
280
     0
281
     0
  0
CLASS
  1
CBROWSERAPPOBJECT
  2
CBrowserAppObject
  3
McadcomServices
 90
     1024
 91
        2
280
     0
281
     0
  0
CLASS
  1
DM_PLACEHOLDER
  2
AcDmSelsetPlaceholder
  3
McadcomServices
 90
     1024
 91
        1
280
     0
281
     0
  0
CLASS
  1
ACMSTANDARDISO
  2
AcmStandardISO
  3
"Amdt_StdImp|Product Description: AutoCAD Mechanical|Company: Autodesk, Inc."
 90
     1024
 91
        1
280
     0
281
     0
  0
CLASS
  1
AMGOBJPROPCFG
  2
AmgObjPropCfg
  3
"AmgLay|Product Description: AutoCAD Mechanical|Company: Autodesk, Inc."
 90
     1024
 91
        1
280
     0
281
     0
  0
CLASS
  1
AMDTEDGESTANDARDISO
  2
AmdtEdgeStdISO
  3
"Amdt_StdImp|Product Description: AutoCAD Mechanical|Company: Autodesk, Inc."
 90
     1024
 91
        1
280
     0
281
     0
  0
CLASS
  1
ACMSURFSTANDARDISO
  2
AcmSurfTextStdISO
  3
"Amdt_StdImp|Product Description: AutoCAD Mechanical|Company: Autodesk, Inc."
 90
     1024
 91
        1
280
     0
281
     0
  0
CLASS
  1
ACMFCFSTANDARDISO
  2
AcmFCFStdISO
  3
"Amdt_StdImp|Product Description: AutoCAD Mechanical|Company: Autodesk, Inc."
 90
     1024
 91
        1
280
     0
281
     0
  0
CLASS
  1
ACMWELDSTANDARDISO
  2
AcmWeldingStdISO
  3
"Amdt_StdImp|Product Description: AutoCAD Mechanical|Company: Autodesk, Inc."
 90
     1024
 91
        1
280
     0
281
     0
  0
CLASS
  1
ACMIDSTANDARDISO
  2
AcmIdStdISO
  3
"Amdt_StdImp|Product Description: AutoCAD Mechanical|Company: Autodesk, Inc."
 90
     1024
 91
        1
280
     0
281
     0
  0
CLASS
  1
ACMDATUMSTANDARDISO
  2
AcmDatumStdISO
  3
"Amdt_StdImp|Product Description: AutoCAD Mechanical|Company: Autodesk, Inc."
 90
     1024
 91
        1
280
     0
281
     0
  0
CLASS
  1
ACMBOMSTANDARDISO
  2
AcmBOMStdISO
  3
"Amdt_StdImp|Product Description: AutoCAD Mechanical|Company: Autodesk, Inc."
 90
     1024
 91
        1
280
     0
281
     0
  0
CLASS
  1
ACMDETAILSTANDARDISO
  2
AmdtDetailSymStdISO
  3
"Amdt_StdImp|Product Description: AutoCAD Mechanical|Company: Autodesk, Inc."
 90
     1024
 91
        1
280
     0
281
     0
  0
CLASS
  1
ACMSECTIONSTANDARDISO
  2
AmdtSectionSymStdISO
  3
"Amdt_StdImp|Product Description: AutoCAD Mechanical|Company: Autodesk, Inc."
 90
     1024
 91
        1
280
     0
281
     0
  0
CLASS
  1
ACMCENTERLINESTANDARDISO
  2
AmdtCenterLineStdISO
  3
"Amdt_StdImp|Product Description: AutoCAD Mechanical|Company: Autodesk, Inc."
 90
     1024
 91
        1
280
     0
281
     0
  0
CLASS
  1
ACMTHREADLINESTANDARDISO
  2
AmdtThreadLineStdISO
  3
"Amdt_StdImp|Product Description: AutoCAD Mechanical|Company: Autodesk, Inc."
 90
     1024
 91
        1
280
     0
281
     0
  0
CLASS
  1
ACMNOTESTANDARDISO
  2
AmdtNoteStdISO
  3
"Amdt_StdImp|Product Description: AutoCAD Mechanical|Company: Autodesk, Inc."
 90
     1024
 91
        1
280
     0
281
     0
  0
CLASS
  1
AMDTNOTETEMPLATEDB
  2
AmdtNoteTemplateDB
  3
AcmSymBB|Product Description: AutoCAD Mechanical|Company: Autodesk, Inc.
 90
     1024
 91
        4
280
     0
281
     0
  0
CLASS
  1
ACAMGLAYSTD
  2
AcAmgLayStd
  3
"AmgLay|Product Description: AutoCAD Mechanical|Company: Autodesk, Inc."
 90
     1024
 91
        1
280
     0
281
     0
  0
CLASS
  1
ACAMGDIMSTD
  2
AcAmgDimStd
  3
"AmgDim|Product Description: AutoCAD Mechanical|Company: Autodesk, Inc."
 90
     1024
 91
        1
280
     0
281
     0
  0
CLASS
  1
ACAMGHOLECHARTSTDISO
  2
AcAmgHoleChartStdISO
  3
AmgDim|Product Description: AutoCAD Mechanical|Company: Autodesk, Inc.
 90
     1024
 91
        1
280
     0
281
     0
  0
CLASS
  1
ACAMGTITLESTD
  2
AcAmgTitleStd
  3
"AmgTitle|Product Description: AutoCAD Mechanical|Company: Autodesk, Inc."
 90
     1024
 91
        1
280
     0
281
     0
  0
CLASS
  1
LAYER_INDEX
  2
AcDbLayerIndex
  3
ObjectDBX Classes
 90
        0
 91
        0
280
     0
281
     0
  0
CLASS
  1
IDBUFFER
  2
AcDbIdBuffer
  3
ObjectDBX Classes
 90
        0
 91
        0
280
     0
281
     0
  0
CLASS
  1
ACMSTANDARDANSI
  2
AcmStandardANSI
  3
"Amdt_StdImp|Product Description: AutoCAD Mechanical|Company: Autodesk, Inc."
 90
     1024
 91
        0
280
     0
281
     0
  0
CLASS
  1
ACMSURFSTANDARDANSI
  2
AcmSurfTextStdANSI
  3
"Amdt_StdImp|Product Description: AutoCAD Mechanical|Company: Autodesk, Inc."
 90
     1024
 91
        0
280
     0
281
     0
  0
CLASS
  1
ACMFCFSTANDARDANSI
  2
AcmFCFStdANSI
  3
"Amdt_StdImp|Product Description: AutoCAD Mechanical|Company: Autodesk, Inc."
 90
     1024
 91
        0
280
     0
281
     0
  0
CLASS
  1
ACMWELDSTANDARDANSI
  2
AcmWeldingStdANSI
  3
"Amdt_StdImp|Product Description: AutoCAD Mechanical|Company: Autodesk, Inc."
 90
     1024
 91
        0
280
     0
281
     0
  0
CLASS
  1
ACMIDSTANDARDANSI
  2
AcmIdStdANSI
  3
"Amdt_StdImp|Product Description: AutoCAD Mechanical|Company: Autodesk, Inc."
 90
     1024
 91
        0
280
     0
281
     0
  0
CLASS
  1
ACMDATUMSTANDARDANSI
  2
AcmDatumStdANSI
  3
"Amdt_StdImp|Product Description: AutoCAD Mechanical|Company: Autodesk, Inc."
 90
     1024
 91
        0
280
     0
281
     0
  0
CLASS
  1
ACMBOMSTANDARDANSI
  2
AcmBOMStdANSI
  3
"Amdt_StdImp|Product Description: AutoCAD Mechanical|Company: Autodesk, Inc."
 90
     1024
 91
        0
280
     0
281
     0
  0
CLASS
  1
ACMDETAILSTANDARDANSI
  2
AmdtDetailSymStdANSI
  3
"Amdt_StdImp|Product Description: AutoCAD Mechanical|Company: Autodesk, Inc."
 90
     1024
 91
        0
280
     0
281
     0
  0
CLASS
  1
ACMSECTIONSTANDARDANSI
  2
AmdtSectionSymStdANSI
  3
"Amdt_StdImp|Product Description: AutoCAD Mechanical|Company: Autodesk, Inc."
 90
     1024
 91
        0
280
     0
281
     0
  0
CLASS
  1
ACMCENTERLINESTANDARDANSI
  2
AmdtCenterLineStdANSI
  3
"Amdt_StdImp|Product Description: AutoCAD Mechanical|Company: Autodesk, Inc."
 90
     1024
 91
        0
280
     0
281
     0
  0
CLASS
  1
ACMTHREADLINESTANDARDANSI
  2
AmdtThreadLineStdANSI
  3
"Amdt_StdImp|Product Description: AutoCAD Mechanical|Company: Autodesk, Inc."
 90
     1024
 91
        0
280
     0
281
     0
  0
CLASS
  1
ACMNOTESTANDARDANSI
  2
AmdtNoteStdANSI
  3
"Amdt_StdImp|Product Description: AutoCAD Mechanical|Company: Autodesk, Inc."
 90
     1024
 91
        0
280
     0
281
     0
  0
CLASS
  1
ACAMGHOLECHARTSTDANSI
  2
AcAmgHoleChartStdANSI
  3
AmgDim|Product Description: AutoCAD Mechanical|Company: Autodesk, Inc.
 90
     1024
 91
        0
280
     0
281
     0
  0
CLASS
  1
ACAMGFILTERDAT
  2
AcAmgFilterDat
  3
"AcadM|Product Description: AutoCAD Mechanical|Company: Autodesk, Inc."
 90
     1024
 91
        0
280
     0
281
     0
  0
CLASS
  1
ACRFATTGENMGR
  2
AcRfAttGeneralMgr
  3
AcAttribServices
 90
     1024
 91
        0
280
     0
281
     0
  0
CLASS
  1
MATERIAL
  2
AcDbMaterial
  3
ObjectDBX Classes
 90
     1153
 91
        3
280
     0
281
     0
  0
CLASS
  1
VISUALSTYLE
  2
AcDbVisualStyle
  3
ObjectDBX Classes
 90
     4095
 91
       24
280
     0
281
     0
  0
CLASS
  1
TABLESTYLE
  2
AcDbTableStyle
  3
ObjectDBX Classes
 90
     4095
 91
        1
280
     0
281
     0
  0
CLASS
  1
SCALE
  2
AcDbScale
  3
ObjectDBX Classes
 90
     1153
 91
       17
280
     0
281
     0
  0
CLASS
  1
MLEADERSTYLE
  2
AcDbMLeaderStyle
  3
ACDB_MLEADERSTYLE_CLASS
 90
     4095
 91
        1
280
     0
281
     0
  0
CLASS
  1
ACDBSECTIONVIEWSTYLE
  2
AcDbSectionViewStyle
  3
ObjectDBX Classes
 90
     1025
 91
        2
280
     0
281
     0
  0
CLASS
  1
ACDBDETAILVIEWSTYLE
  2
AcDbDetailViewStyle
  3
ObjectDBX Classes
 90
     1025
 91
        2
280
     0
281
     0
  0
CLASS
  1
ACMTAPERSTANDARDISO
  2
AcmTaperStdISO
  3
"Amdt_StdImp|Product Description: AutoCAD Mechanical|Company: Autodesk, Inc."
 90
     1024
 91
        1
280
     0
281
     0
  0
CLASS
  1
ACMANOOTATIONVIEWSTANDARDISO
  2
AmdtAnViewStdISO
  3
"Amdt_StdImp|Product Description: AutoCAD Mechanical|Company: Autodesk, Inc."
 90
     1024
 91
        1
280
     0
281
     0
  0
CLASS
  1
ACMSECTIONSTANDARDCUSTOM
  2
AmdtSectionSymStdCustom
  3
"Amdt_StdImp|Product Description: AutoCAD Mechanical|Company: Autodesk, Inc."
 90
     1024
 91
        1
280
     0
281
     0
  0
CLASS
  1
ACMDETAILTANDARDCUSTOM
  2
AmdtDetailSymStdCustom
  3
"Amdt_StdImp|Product Description: AutoCAD Mechanical|Company: Autodesk, Inc."
 90
     1024
 91
        1
280
     0
281
     0
  0
CLASS
  1
FIELD
  2
AcDbField
  3
ObjectDBX Classes
 90
     1152
 91
        3
280
     0
281
     0
  0
CLASS
  1
FIELDLIST
  2
AcDbFieldList
  3
ObjectDBX Classes
 90
     1152
 91
        1
280
     0
281
     0
  0
CLASS
  1
CAMSSTRUCTBTNSTATE
  2
StructBtnState
  3
DesignerAssemblies
 90
     1024
 91
        1
280
     0
281
     0
  0
CLASS
  1
CELLSTYLEMAP
  2
AcDbCellStyleMap
  3
ObjectDBX Classes
 90
     1152
 91
        2
280
     0
281
     0
  0
ENDSEC
  0
SECTION
  2
TABLES
  0
TABLE
  2
VPORT
  5
8
330
0
100
AcDbSymbolTable
 70
     1
  0
VPORT
  5
FA880
330
8
100
AcDbSymbolTableRecord
100
AcDbViewportTableRecord
  2
*Active
 70
     0
 10
0.0
 20
0.0
 11
1.0
 21
1.0
 12
699.9931384752537
 22
335.8399525604274
 13
0.0
 23
0.0
 14
2.5
 24
2.5
 15
10.0
 25
10.0
 16
0.0
 26
0.0
 36
1.0
 17
0.0
 27
0.0
 37
0.0
 40
447.7498939048297
 41
2.266984505363527
 42
50.0
 43
0.0
 44
0.0
 50
0.0
 51
0.0
 71
     0
 72
   100
 73
     1
 74
     3
 75
     0
 76
     0
 77
     0
 78
     0
281
     0
 65
     0
110
0.0
120
0.0
130
0.0
111
1.0
121
0.0
131
0.0
112
0.0
122
1.0
132
0.0
 79
     0
146
0.0
1001
ACAD_NAV_VCDISPLAY
1070
     3
  0
ENDTAB
  0
TABLE
  2
LTYPE
  5
5
330
0
100
AcDbSymbolTable
 70
    14
  0
LTYPE
  5
14
330
5
100
AcDbSymbolTableRecord
100
AcDbLinetypeTableRecord
  2
ByBlock
 70
     0
  3

 72
    65
 73
     0
 40
0.0
  0
LTYPE
  5
15
330
5
100
AcDbSymbolTableRecord
100
AcDbLinetypeTableRecord
  2
ByLayer
 70
     0
  3

 72
    65
 73
     0
 40
0.0
  0
LTYPE
  5
16
330
5
100
AcDbSymbolTableRecord
100
AcDbLinetypeTableRecord
  2
Continuous
 70
     0
  3
Solid line
 72
    65
 73
     0
 40
0.0
  0
LTYPE
  5
2D
330
5
100
AcDbSymbolTableRecord
100
AcDbLinetypeTableRecord
  2
CENTER
 70
     0
  3
Center ____ _ ____ _ ____ _ ____ _ ____ _ ____
 72
    65
 73
     4
 40
50.8
 49
31.75
 74
     0
 49
-6.349999999999997
 74
     0
 49
6.349999999999997
 74
     0
 49
-6.349999999999997
 74
     0
  0
LTYPE
  5
3AE3
330
5
100
AcDbSymbolTableRecord
100
AcDbLinetypeTableRecord
  2
HIDDEN
 70
     0
  3
Hidden __ __ __ __ __ __ __ __ __ __ __ __ __ _
 72
    65
 73
     2
 40
9.524999999999996
 49
6.349999999999997
 74
     0
 49
-3.174999999999998
 74
     0
  0
LTYPE
  5
16CF6
330
5
100
AcDbSymbolTableRecord
100
AcDbLinetypeTableRecord
  2
PHANTOM2
 70
     0
  3
Phantom (.5x) ___ _ _ ___ _ _ ___ _ _ ___ _ _
 72
    65
 73
     6
 40
31.75
 49
15.875
 74
     0
 49
-3.174999999999998
 74
     0
 49
3.174999999999998
 74
     0
 49
-3.174999999999998
 74
     0
 49
3.174999999999998
 74
     0
 49
-3.174999999999998
 74
     0
  0
LTYPE
  5
16D41
330
5
100
AcDbSymbolTableRecord
100
AcDbLinetypeTableRecord
  2
AM_ISO02W050
 70
     0
  3
__ __ __ __ __ __ __ __ __ __ __ __ __ __ __
 72
    65
 73
     2
 40
7.5
 49
6.0
 74
     0
 49
-1.5
 74
     0
  0
LTYPE
  5
16D42
330
5
100
AcDbSymbolTableRecord
100
AcDbLinetypeTableRecord
  2
AM_ISO08W050
 70
     0
  3
____ . ____ . ____ . ____ . ____ . ____ . ____
 72
    65
 73
     4
 40
18.0
 49
12.0
 74
     0
 49
-1.5
 74
     0
 49
3.0
 74
     0
 49
-1.5
 74
     0
  0
LTYPE
  5
16D43
330
5
100
AcDbSymbolTableRecord
100
AcDbLinetypeTableRecord
  2
AM_ISO09W050
 70
     0
  3
_____ . . _____ . . _____ . . ____ .. ____
 72
    65
 73
     6
 40
22.5
 49
12.0
 74
     0
 49
-1.5
 74
     0
 49
3.0
 74
     0
 49
-1.5
 74
     0
 49
3.0
 74
     0
 49
-1.5
 74
     0
  0
LTYPE
  5
16D44
330
5
100
AcDbSymbolTableRecord
100
AcDbLinetypeTableRecord
  2
Amconstr
 70
     0
  3
_______________________
 72
    65
 73
     2
 40
9999.0
 49
9999.0
 74
     0
 49
0.0
 74
     0
  0
LTYPE
  5
16D45
330
5
100
AcDbSymbolTableRecord
100
AcDbLinetypeTableRecord
  2
AM_ISO08W050x2
 70
     0
  3
__ . __ . __ . __ . __ . __
 72
    65
 73
     4
 40
9.0
 49
6.0
 74
     0
 49
-0.75
 74
     0
 49
1.5
 74
     0
 49
-0.75
 74
     0
  0
LTYPE
  5
16D46
330
5
100
AcDbSymbolTableRecord
100
AcDbLinetypeTableRecord
  2
AM_ISO02W050x2
 70
     0
  3
 _ _ _ _ _ _ _ _ _ _ _ _
 72
    65
 73
     2
 40
3.75
 49
3.0
 74
     0
 49
-0.75
 74
     0
  0
LTYPE
  5
16D47
330
5
100
AcDbSymbolTableRecord
100
AcDbLinetypeTableRecord
  2
Amzigzag
 70
     0
  3
/\/-/\/-/\/-/\/-/\/-/\/
 72
    65
 73
     2
 40
11.0001
 49
0.0001
 74
     4
 75
   135
340
3AE2
 46
0.04
 50
0.0
 44
0.0
 45
0.0
 49
-11.0
 74
     0
  0
LTYPE
  5
16D56
330
5
100
AcDbSymbolTableRecord
100
AcDbLinetypeTableRecord
  2
ACISOWELD
 70
     0
  3
_ _ _ _ _
 72
    65
 73
     2
 40
2.0
 49
2.0
 74
     0
 49
-1.0
 74
     0
  0
LTYPE
  5
16D57
330
5
100
AcDbSymbolTableRecord
100
AcDbLinetypeTableRecord
  2
ACISOTGB
 70
     0
  3
__ . . __ . .
 72
    65
 73
     6
 40
9.0
 49
4.0
 74
     0
 49
-1.0
 74
     0
 49
1.0
 74
     0
 49
-1.0
 74
     0
 49
1.0
 74
     0
 49
-1.0
 74
     0
  0
LTYPE
  5
16D58
330
5
100
AcDbSymbolTableRecord
100
AcDbLinetypeTableRecord
  2
ACISOTGL
 70
     0
  3
_ _ _ _ _
 72
    65
 73
     2
 40
3.0
 49
2.0
 74
     0
 49
-1.0
 74
     0
  0
ENDTAB
  0
TABLE
  2
LAYER
  5
2
102
{ACAD_XDICTIONARY
360
F82BD
102
}
330
0
100
AcDbSymbolTable
 70
     4
  0
LAYER
  5
10
102
{ACAD_XDICTIONARY
360
FA93D
102
}
330
2
100
AcDbSymbolTableRecord
100
AcDbLayerTableRecord
  2
0
 70
     0
 62
     7
  6
Continuous
370
    20
390
F
  0
LAYER
  5
54
330
2
100
AcDbSymbolTableRecord
100
AcDbLayerTableRecord
  2
Defpoints
 70
     0
 62
     7
  6
Continuous
290
     0
370
    -3
390
F
  0
LAYER
  5
86C9
102
{ACAD_XDICTIONARY
360
FA94B
102
}
330
2
100
AcDbSymbolTableRecord
100
AcDbLayerTableRecord
  2
04_ele1_0.15
 70
     0
 62
     4
  6
Continuous
370
    15
390
F
  0
LAYER
  5
FA9BA
102
{ACAD_XDICTIONARY
360
FA9BB
102
}
330
2
100
AcDbSymbolTableRecord
100
AcDbLayerTableRecord
  2
AM_5
 70
     0
 62
     3
  6
Continuous
370
    25
390
F
1001
AcAecLayerStandard
1000

1000

  0
ENDTAB
  0
TABLE
  2
STYLE
  5
3
330
0
100
AcDbSymbolTable
 70
     5
  0
STYLE
  5
11
330
3
100
AcDbSymbolTableRecord
100
AcDbTextStyleTableRecord
  2
STANDARD
 70
     0
 40
0.0
 41
1.0
 50
0.0
 71
     0
 42
2.5
  3
ISOCP.SHX
  4
EXTFONT.SHX
  0
STYLE
  5
3AE2
330
3
100
AcDbSymbolTableRecord
100
AcDbTextStyleTableRecord
  2

 70
     1
 40
0.0
 41
1.0
 50
0.0
 71
     0
 42
2.5
  3
ltypeshp.shx
  4

  0
STYLE
  5
16D48
330
3
100
AcDbSymbolTableRecord
100
AcDbTextStyleTableRecord
  2
ACISOTS
 70
     0
 40
1.0
 41
1.0
 50
0.0
 71
     0
 42
2.5
  3
isocp.shx
  4
extfont.shx
  0
STYLE
  5
16D55
330
3
100
AcDbSymbolTableRecord
100
AcDbTextStyleTableRecord
  2
ACISOGDT
 70
     0
 40
0.0
 41
1.0
 50
0.0
 71
     0
 42
2.5
  3
amgdt.shx
  4

  0
STYLE
  5
F61F9
330
3
100
AcDbSymbolTableRecord
100
AcDbTextStyleTableRecord
  2
2014++
 70
     0
 40
0.0
 41
0.8
 50
0.0
 71
     0
 42
2.5
  3
simplex.shx
  4
bigfont.shx
  0
ENDTAB
  0
TABLE
  2
VIEW
  5
6
330
0
100
AcDbSymbolTable
 70
     0
  0
ENDTAB
  0
TABLE
  2
UCS
  5
7
330
0
100
AcDbSymbolTable
 70
     0
  0
ENDTAB
  0
TABLE
  2
APPID
  5
9
330
0
100
AcDbSymbolTable
 70
    23
  0
APPID
  5
12
330
9
100
AcDbSymbolTableRecord
100
AcDbRegAppTableRecord
  2
ACAD
 70
     0
  0
APPID
  5
16CD8
330
9
100
AcDbSymbolTableRecord
100
AcDbRegAppTableRecord
  2
MCAD_NO_VIS
 70
     0
  0
APPID
  5
16CD9
330
9
100
AcDbSymbolTableRecord
100
AcDbRegAppTableRecord
  2
ACAD_TEMP_GRAPHIC
 70
     0
  0
APPID
  5
16D0B
330
9
100
AcDbSymbolTableRecord
100
AcDbRegAppTableRecord
  2
AD_DRAW
 70
     0
  0
APPID
  5
16D0E
330
9
100
AcDbSymbolTableRecord
100
AcDbRegAppTableRecord
  2
ACATTRIBSERVICES
 70
     0
  0
APPID
  5
16D30
330
9
100
AcDbSymbolTableRecord
100
AcDbRegAppTableRecord
  2
DESIGNERASSEMBLIES
 70
     0
  0
APPID
  5
16D36
330
9
100
AcDbSymbolTableRecord
100
AcDbRegAppTableRecord
  2
ACADM_DIM_EDIT
 70
     0
  0
APPID
  5
16D37
330
9
100
AcDbSymbolTableRecord
100
AcDbRegAppTableRecord
  2
AMDT_DM_ADJ
 70
     0
  0
APPID
  5
16D6D
330
9
100
AcDbSymbolTableRecord
100
AcDbRegAppTableRecord
  2
GENIUS_GENSCREG_15
 70
     0
  0
APPID
  5
16D6E
330
9
100
AcDbSymbolTableRecord
100
AcDbRegAppTableRecord
  2
GENIUS_GENOBJ-N-SDF_13
 70
     0
  0
APPID
  5
16D6F
330
9
100
AcDbSymbolTableRecord
100
AcDbRegAppTableRecord
  2
GENIUS_GENODEF_13
 70
     0
  0
APPID
  5
ADC12
330
9
100
AcDbSymbolTableRecord
100
AcDbRegAppTableRecord
  2
GENIUS_GENDTOL_13
 70
     0
  0
APPID
  5
BA934
330
9
100
AcDbSymbolTableRecord
100
AcDbRegAppTableRecord
  2
GENIUS_GENOBJ-N-FIL_13
 70
     0
  0
APPID
  5
F4A76
330
9
100
AcDbSymbolTableRecord
100
AcDbRegAppTableRecord
  2
DCO15
 70
     0
  0
APPID
  5
FA916
330
9
100
AcDbSymbolTableRecord
100
AcDbRegAppTableRecord
  2
ACAD_NAV_VCDISPLAY
 70
     0
  0
APPID
  5
FA923
330
9
100
AcDbSymbolTableRecord
100
AcDbRegAppTableRecord
  2
ACAD_PSEXT
 70
     0
  0
APPID
  5
FA9BD
330
9
100
AcDbSymbolTableRecord
100
AcDbRegAppTableRecord
  2
ACAD_DSTYLE_DIMINSPECT
 70
     0
  0
APPID
  5
FA9BE
330
9
100
AcDbSymbolTableRecord
100
AcDbRegAppTableRecord
  2
ACAD_DSTYLE_DIMBREAK
 70
     0
  0
APPID
  5
FA9BF
330
9
100
AcDbSymbolTableRecord
100
AcDbRegAppTableRecord
  2
ACAD_DSTYLE_DIMJAG
 70
     0
  0
APPID
  5
FA9C0
330
9
100
AcDbSymbolTableRecord
100
AcDbRegAppTableRecord
  2
AcAecLayerStandard
 70
     0
  0
APPID
  5
FAB71
330
9
100
AcDbSymbolTableRecord
100
AcDbRegAppTableRecord
  2
ACAD_EXEMPT_FROM_CAD_STANDARDS
 70
     0
  0
APPID
  5
FABCF
330
9
100
AcDbSymbolTableRecord
100
AcDbRegAppTableRecord
  2
AcadAnnoMonitorAlertIconDisabled
 70
     0
  0
APPID
  5
FADE4
330
9
100
AcDbSymbolTableRecord
100
AcDbRegAppTableRecord
  2
ACAD_MLEADERVER
 70
     0
  0
ENDTAB
  0
TABLE
  2
DIMSTYLE
  5
A
330
0
100
AcDbSymbolTable
 70
     8
100
AcDbDimStyleTable
 71
     3
340
16D60
340
16D6A
340
16D65
  0
DIMSTYLE
105
16D60
330
A
100
AcDbSymbolTableRecord
100
AcDbDimStyleTableRecord
  2
AM_ISO
 70
     0
  4
"
 41
2.5
 42
1.0
 43
10.0
 44
1.0
 47
0.1
 48
0.1
 73
     0
 74
     0
 77
     1
 78
     8
 79
     2
140
3.5
141
0.0
143
0.0393701
146
0.71
147
1.5
172
     1
176
   256
177
   256
178
     2
271
     2
272
     3
274
     4
283
     0
284
     8
340
11
371
    -1
372
    -1
  0
DIMSTYLE
105
16D61
102
{ACAD_REACTORS
330
FA58A
102
}
330
A
100
AcDbSymbolTableRecord
100
AcDbDimStyleTableRecord
  2
AM_ISO$3
 70
     0
  4
"
 41
2.5
 42
1.0
 43
10.0
 44
1.0
 47
0.1
 48
0.1
 73
     0
 77
     1
 78
     8
 79
     2
140
3.5
141
0.0
143
0.0393701
146
0.71
147
1.5
176
   256
177
   256
178
     2
271
     2
272
     3
274
     4
283
     0
284
     8
288
     1
289
     0
340
11
371
    -1
372
    -1
  0
DIMSTYLE
105
16D62
330
A
100
AcDbSymbolTableRecord
100
AcDbDimStyleTableRecord
  2
AM_ISO$4
 70
     0
  4
"
 41
2.5
 42
1.0
 43
10.0
 44
1.0
 47
0.1
 48
0.1
 73
     0
 77
     1
 78
     8
 79
     2
140
3.5
141
0.0
143
0.0393701
146
0.71
147
1.5
176
   256
177
   256
178
     2
271
     2
272
     3
274
     4
283
     0
284
     8
288
     1
289
     0
340
11
371
    -1
372
    -1
  0
DIMSTYLE
105
16D63
330
A
100
AcDbSymbolTableRecord
100
AcDbDimStyleTableRecord
  2
AM_ISO$6
 70
     0
  4
"
 41
2.5
 42
1.0
 43
10.0
 44
1.0
 47
0.1
 48
0.1
 73
     0
 74
     0
 78
     8
 79
     2
140
3.5
141
0.0
143
0.0393701
146
0.71
147
1.5
172
     1
176
   256
177
   256
178
     2
271
     2
272
     3
274
     4
283
     0
284
     8
340
11
371
    -1
372
    -1
  0
DIMSTYLE
105
16D64
102
{ACAD_REACTORS
330
FAB02
102
}
330
A
100
AcDbSymbolTableRecord
100
AcDbDimStyleTableRecord
  2
AM_ISO$7
 70
     0
  4
"
 41
2.5
 42
1.0
 43
10.0
 44
1.0
 47
0.1
 48
0.1
 73
     0
 74
     0
 77
     1
 78
     8
 79
     2
140
5.0
141
0.0
143
0.0393701
146
0.71
147
1.5
172
     1
176
   256
177
   256
178
     2
271
     2
272
     3
274
     4
283
     0
284
     8
340
11
371
    -1
372
    -1
  0
DIMSTYLE
105
16D65
330
A
100
AcDbSymbolTableRecord
100
AcDbDimStyleTableRecord
  2
AM_ISO$SF
 70
     0
  4
"
 41
2.5
 42
1.0
 43
10.0
 44
1.0
 47
0.1
 48
0.1
 73
     0
 74
     0
 75
     1
 76
     1
 77
     1
 78
     8
 79
     2
140
3.5
141
0.0
143
0.0393701
146
0.71
147
1.5
172
     1
176
   256
177
   256
178
     2
271
     2
272
     3
274
     4
283
     0
284
     8
340
11
371
    -1
372
    -1
  0
DIMSTYLE
105
16D6A
330
A
100
AcDbSymbolTableRecord
100
AcDbDimStyleTableRecord
  2
AM_ISO$SH
 70
     0
  4
"
 41
2.5
 42
1.0
 43
10.0
 44
1.0
 47
0.1
 48
0.1
 73
     0
 74
     0
 75
     1
 76
     1
 77
     1
 78
     8
 79
     2
140
3.5
141
0.0
143
0.0393701
144
2.0
146
0.71
147
1.5
172
     1
173
     1
176
   256
177
   256
178
     2
271
     2
272
     3
274
     4
283
     0
284
     8
340
11
343
16D66
371
    -1
372
    -1
  0
DIMSTYLE
105
FA9BC
102
{ACAD_REACTORS
330
FABA7
330
FA5A0
330
FA592
330
FA593
330
FA5A8
330
FA59E
330
FA59C
330
FA5B2
330
FA589
330
FA59D
330
FA5A6
330
FA5A7
330
FA5DC
330
FA596
330
FA5AB
330
FA5AC
330
FA58B
330
FA5C9
330
FA5AF
330
FA5AE
330
FA58D
330
FA591
330
FA5D7
330
FA5E1
330
FA5D5
330
FA58C
330
FAA70
330
FAA72
330
FAB0A
330
FAB07
102
}
330
A
100
AcDbSymbolTableRecord
100
AcDbDimStyleTableRecord
  2
AM_ISO$0
 70
     0
  4
"
 41
2.5
 42
1.0
 43
10.0
 44
1.0
 47
0.1
 48
0.1
 73
     0
 74
     0
 77
     1
 78
     8
 79
     2
140
3.5
141
0.0
143
0.0393701
146
0.71
147
1.5
172
     1
176
   256
177
   256
178
     2
271
     2
272
     3
274
     4
283
     0
284
     8
340
11
371
    -1
372
    -1
1001
ACAD_DSTYLE_DIMBREAK
1070
   391
1040
3.75
1001
ACAD_DSTYLE_DIMJAG
1070
   388
1040
1.5
  0
ENDTAB
  0
TABLE
  2
BLOCK_RECORD
  5
1
330
0
100
AcDbSymbolTable
 70
    34
  0
BLOCK_RECORD
  5
1F
102
{ACAD_XDICTIONARY
360
16D78
102
}
330
1
100
AcDbSymbolTableRecord
100
AcDbBlockTableRecord
  2
*Model_Space
340
22
  0
BLOCK_RECORD
  5
FA917
330
1
100
AcDbSymbolTableRecord
100
AcDbBlockTableRecord
  2
*Paper_Space
340
FA918
  0
BLOCK_RECORD
  5
16D66
330
1
100
AcDbSymbolTableRecord
100
AcDbBlockTableRecord
  2
GENAXEH
340
0
  0
BLOCK_RECORD
  5
FA61E
330
1
100
AcDbSymbolTableRecord
100
AcDbBlockTableRecord
  2
*D2
340
0
  0
BLOCK_RECORD
  5
FA62A
330
1
100
AcDbSymbolTableRecord
100
AcDbBlockTableRecord
  2
*D3
340
0
  0
BLOCK_RECORD
  5
FA636
330
1
100
AcDbSymbolTableRecord
100
AcDbBlockTableRecord
  2
*D4
340
0
  0
BLOCK_RECORD
  5
FA642
330
1
100
AcDbSymbolTableRecord
100
AcDbBlockTableRecord
  2
*D5
340
0
  0
BLOCK_RECORD
  5
FA64E
330
1
100
AcDbSymbolTableRecord
100
AcDbBlockTableRecord
  2
*D6
340
0
  0
BLOCK_RECORD
  5
FA65A
330
1
100
AcDbSymbolTableRecord
100
AcDbBlockTableRecord
  2
*D7
340
0
  0
BLOCK_RECORD
  5
FA666
330
1
100
AcDbSymbolTableRecord
100
AcDbBlockTableRecord
  2
*D8
340
0
  0
BLOCK_RECORD
  5
FA672
330
1
100
AcDbSymbolTableRecord
100
AcDbBlockTableRecord
  2
*D9
340
0
  0
BLOCK_RECORD
  5
FA686
330
1
100
AcDbSymbolTableRecord
100
AcDbBlockTableRecord
  2
*D10
340
0
  0
BLOCK_RECORD
  5
FA69A
330
1
100
AcDbSymbolTableRecord
100
AcDbBlockTableRecord
  2
*D11
340
0
  0
BLOCK_RECORD
  5
FA6A6
330
1
100
AcDbSymbolTableRecord
100
AcDbBlockTableRecord
  2
*D12
340
0
  0
BLOCK_RECORD
  5
FA6B2
330
1
100
AcDbSymbolTableRecord
100
AcDbBlockTableRecord
  2
*D13
340
0
  0
BLOCK_RECORD
  5
FA6BE
330
1
100
AcDbSymbolTableRecord
100
AcDbBlockTableRecord
  2
*D14
340
0
  0
BLOCK_RECORD
  5
FA6CA
330
1
100
AcDbSymbolTableRecord
100
AcDbBlockTableRecord
  2
*D15
340
0
  0
BLOCK_RECORD
  5
FA6D6
330
1
100
AcDbSymbolTableRecord
100
AcDbBlockTableRecord
  2
*D16
340
0
  0
BLOCK_RECORD
  5
FA6E0
330
1
100
AcDbSymbolTableRecord
100
AcDbBlockTableRecord
  2
*D17
340
0
  0
BLOCK_RECORD
  5
FA6EC
330
1
100
AcDbSymbolTableRecord
100
AcDbBlockTableRecord
  2
*D18
340
0
  0
BLOCK_RECORD
  5
FA6F8
330
1
100
AcDbSymbolTableRecord
100
AcDbBlockTableRecord
  2
*D19
340
0
  0
BLOCK_RECORD
  5
FA704
330
1
100
AcDbSymbolTableRecord
100
AcDbBlockTableRecord
  2
*D20
340
0
  0
BLOCK_RECORD
  5
FA710
330
1
100
AcDbSymbolTableRecord
100
AcDbBlockTableRecord
  2
*D21
340
0
  0
BLOCK_RECORD
  5
FA71C
330
1
100
AcDbSymbolTableRecord
100
AcDbBlockTableRecord
  2
*D22
340
0
  0
BLOCK_RECORD
  5
FA728
330
1
100
AcDbSymbolTableRecord
100
AcDbBlockTableRecord
  2
*D23
340
0
  0
BLOCK_RECORD
  5
FA734
330
1
100
AcDbSymbolTableRecord
100
AcDbBlockTableRecord
  2
*D24
340
0
  0
BLOCK_RECORD
  5
FA740
330
1
100
AcDbSymbolTableRecord
100
AcDbBlockTableRecord
  2
*D25
340
0
  0
BLOCK_RECORD
  5
FA74C
330
1
100
AcDbSymbolTableRecord
100
AcDbBlockTableRecord
  2
*D26
340
0
  0
BLOCK_RECORD
  5
FA75B
330
1
100
AcDbSymbolTableRecord
100
AcDbBlockTableRecord
  2
*D27
340
0
  0
BLOCK_RECORD
  5
FA8F5
330
1
100
AcDbSymbolTableRecord
100
AcDbBlockTableRecord
  2
_ACMFILLED15
340
0
  0
BLOCK_RECORD
  5
FAB0B
330
1
100
AcDbSymbolTableRecord
100
AcDbBlockTableRecord
  2
*D29
340
0
  0
BLOCK_RECORD
  5
FAB17
330
1
100
AcDbSymbolTableRecord
100
AcDbBlockTableRecord
  2
*D30
340
0
  0
BLOCK_RECORD
  5
FAB25
330
1
100
AcDbSymbolTableRecord
100
AcDbBlockTableRecord
  2
*D31
340
0
  0
BLOCK_RECORD
  5
FAB33
330
1
100
AcDbSymbolTableRecord
100
AcDbBlockTableRecord
  2
*D32
340
0
  0
BLOCK_RECORD
  5
FABA8
330
1
100
AcDbSymbolTableRecord
100
AcDbBlockTableRecord
  2
*D33
340
0
  0
ENDTAB
  0
ENDSEC
  0
SECTION
  2
BLOCKS
  0
BLOCK
  5
20
330
1F
100
AcDbEntity
  8
0
100
AcDbBlockBegin
  2
*Model_Space
 70
     0
 10
0.0
 20
0.0
 30
0.0
  3
*Model_Space
  1

  0
ENDBLK
  5
21
330
1F
100
AcDbEntity
  8
0
100
AcDbBlockEnd
  0
BLOCK
  5
FA919
330
FA917
100
AcDbEntity
 67
     1
  8
0
100
AcDbBlockBegin
  2
*Paper_Space
 70
     0
 10
0.0
 20
0.0
 30
0.0
  3
*Paper_Space
  1

  0
ENDBLK
  5
FA91A
330
FA917
100
AcDbEntity
 67
     1
  8
0
100
AcDbBlockEnd
  0
BLOCK
  5
16D68
330
16D66
100
AcDbEntity
  8
0
100
AcDbBlockBegin
  2
GENAXEH
 70
     0
 10
0.0
 20
0.0
 30
0.0
  3
GENAXEH
  1

  0
LINE
  5
16D67
330
16D66
100
AcDbEntity
  8
0
100
AcDbLine
 10
-1.0
 20
0.0
 30
0.0
 11
1.0
 21
0.0
 31
0.0
  0
ENDBLK
  5
16D69
330
16D66
100
AcDbEntity
  8
0
100
AcDbBlockEnd
  0
BLOCK
  5
FA628
330
FA61E
100
AcDbEntity
  8
0
100
AcDbBlockBegin
  2
*D2
 70
     1
 10
0.0
 20
0.0
 30
0.0
  3
*D2
  1

  0
LINE
  5
FAC4B
330
FA61E
100
AcDbEntity
  8
AM_5
440
 16777216
100
AcDbLine
 10
681.6594457280796
 20
163.161623824593
 30
0.0
 11
681.6594457280796
 21
105.8581504863933
 31
0.0
  0
LINE
  5
FAC4C
330
FA61E
100
AcDbEntity
  8
AM_5
440
 16777216
100
AcDbLine
 10
696.6594457280796
 20
150.1616238246002
 30
0.0
 11
696.6594457280796
 21
105.8581504863933
 31
0.0
  0
LINE
  5
FAC4D
330
FA61E
100
AcDbEntity
  8
AM_5
440
 16777216
100
AcDbLine
 10
684.1594457280796
 20
106.8581504863933
 30
0.0
 11
694.1594457280796
 21
106.8581504863933
 31
0.0
  0
SOLID
  5
FAC4E
330
FA61E
100
AcDbEntity
  8
AM_5
440
 16777216
100
AcDbTrace
 10
684.1594457280796
 20
107.27481715306
 30
0.0
 11
684.1594457280796
 21
106.4414838197267
 31
0.0
 12
681.6594457280796
 22
106.8581504863933
 32
0.0
 13
681.6594457280796
 23
106.8581504863933
 33
0.0
  0
SOLID
  5
FAC4F
330
FA61E
100
AcDbEntity
  8
AM_5
440
 16777216
100
AcDbTrace
 10
694.1594457280796
 20
107.27481715306
 30
0.0
 11
694.1594457280796
 21
106.4414838197267
 31
0.0
 12
696.6594457280796
 22
106.8581504863933
 32
0.0
 13
696.6594457280796
 23
106.8581504863933
 33
0.0
  0
MTEXT
  5
FAC50
330
FA61E
100
AcDbEntity
  8
AM_5
 62
     2
440
 16777216
100
AcDbMText
 10
689.1594457280795
 20
110.1081504863933
 30
0.0
 40
3.5
 41
0.0
 71
     5
 72
     1
  1
15
 73
     1
 44
1.0
  0
POINT
  5
FAC51
330
FA61E
100
AcDbEntity
  8
Defpoints
 62
     0
440
 16777216
100
AcDbPoint
 10
681.6594457280796
 20
164.161623824593
 30
0.0
  0
POINT
  5
FAC52
330
FA61E
100
AcDbEntity
  8
Defpoints
 62
     0
440
 16777216
100
AcDbPoint
 10
696.6594457280796
 20
151.1616238246002
 30
0.0
  0
POINT
  5
FAC53
330
FA61E
100
AcDbEntity
  8
Defpoints
 62
     0
440
 16777216
100
AcDbPoint
 10
696.6594457280796
 20
106.8581504863933
 30
0.0
  0
ENDBLK
  5
FA629
330
FA61E
100
AcDbEntity
  8
0
100
AcDbBlockEnd
  0
BLOCK
  5
FA634
330
FA62A
100
AcDbEntity
  8
0
100
AcDbBlockBegin
  2
*D3
 70
     1
 10
0.0
 20
0.0
 30
0.0
  3
*D3
  1

  0
LINE
  5
FAC0D
330
FA62A
100
AcDbEntity
  8
AM_5
440
 16777216
100
AcDbLine
 10
710.9711128062433
 20
255.0418301073933
 30
0.0
 11
683.9099819315798
 21
200.6824187543009
 31
0.0
  0
LINE
  5
FAC0E
330
FA62A
100
AcDbEntity
  8
AM_5
440
 16777216
100
AcDbLine
 10
679.4089095245783
 20
191.640828894827
 30
0.0
 11
678.2947826911621
 21
189.4028116028782
 31
0.0
  0
MTEXT
  5
FAC0F
102
{ACAD_XDICTIONARY
360
FADE9
102
}
330
FA62A
100
AcDbEntity
  8
AM_5
 62
     2
440
 16777216
100
AcDbMText
 10
704.2736590930949
 20
248.8809361982082
 30
0.0
 40
3.5
 41
0.0
 71
     5
 72
     1
  1
13-\U+22055.1
 11
0.445650733366468
 21
0.8952069167795395
 31
0.0
 73
     1
 44
1.0
  0
LINE
  5
FAC10
330
FA62A
100
AcDbEntity
  8
AM_5
440
 16777216
100
AcDbLine
 10
680.5230363579944
 20
193.8788461867759
 30
0.0
 11
682.7958550981636
 21
198.444401462352
 31
0.0
  0
SOLID
  5
FAC11
330
FA62A
100
AcDbEntity
  8
AM_5
440
 16777216
100
AcDbTrace
 10
679.0359066425869
 20
191.8265167003963
 30
0.0
 11
679.7819124065697
 21
191.4551410892577
 31
0.0
 12
680.5230363579944
 22
193.8788461867759
 32
0.0
 13
680.5230363579944
 23
193.8788461867759
 33
0.0
  0
SOLID
  5
FAC12
330
FA62A
100
AcDbEntity
  8
AM_5
440
 16777216
100
AcDbTrace
 10
683.5369790495884
 20
200.8681065598702
 30
0.0
 11
684.2829848135713
 21
200.4967309487315
 31
0.0
 12
682.7958550981636
 22
198.444401462352
 32
0.0
 13
682.7958550981636
 23
198.444401462352
 33
0.0
  0
POINT
  5
FAC13
330
FA62A
100
AcDbEntity
  8
Defpoints
 62
     0
440
 16777216
100
AcDbPoint
 10
682.7958550981636
 20
198.444401462352
 30
0.0
  0
POINT
  5
FAC14
330
FA62A
100
AcDbEntity
  8
Defpoints
 62
     0
440
 16777216
100
AcDbPoint
 10
680.5230363579944
 20
193.8788461867759
 30
0.0
  0
ENDBLK
  5
FA635
330
FA62A
100
AcDbEntity
  8
0
100
AcDbBlockEnd
  0
BLOCK
  5
FA640
330
FA636
100
AcDbEntity
  8
0
100
AcDbBlockBegin
  2
*D4
 70
     1
 10
0.0
 20
0.0
 30
0.0
  3
*D4
  1

  0
LINE
  5
FAC95
330
FA636
100
AcDbEntity
  8
AM_5
440
 16777216
100
AcDbLine
 10
659.159445728065
 20
294.1616238245889
 30
0.0
 11
659.159445728065
 21
308.5477771920142
 31
0.0
  0
LINE
  5
FAC96
330
FA636
100
AcDbEntity
  8
AM_5
440
 16777216
100
AcDbLine
 10
696.659445728065
 20
294.1616238245889
 30
0.0
 11
696.659445728065
 21
308.5477771920142
 31
0.0
  0
LINE
  5
FAC97
330
FA636
100
AcDbEntity
  8
AM_5
440
 16777216
100
AcDbLine
 10
661.659445728065
 20
307.5477771920142
 30
0.0
 11
694.159445728065
 21
307.5477771920142
 31
0.0
  0
SOLID
  5
FAC98
330
FA636
100
AcDbEntity
  8
AM_5
440
 16777216
100
AcDbTrace
 10
661.659445728065
 20
307.9644438586809
 30
0.0
 11
661.659445728065
 21
307.1311105253475
 31
0.0
 12
659.159445728065
 22
307.5477771920142
 32
0.0
 13
659.159445728065
 23
307.5477771920142
 33
0.0
  0
SOLID
  5
FAC99
330
FA636
100
AcDbEntity
  8
AM_5
440
 16777216
100
AcDbTrace
 10
694.159445728065
 20
307.9644438586809
 30
0.0
 11
694.159445728065
 21
307.1311105253475
 31
0.0
 12
696.659445728065
 22
307.5477771920142
 32
0.0
 13
696.659445728065
 23
307.5477771920142
 33
0.0
  0
MTEXT
  5
FAC9A
330
FA636
100
AcDbEntity
  8
AM_5
 62
     2
440
 16777216
100
AcDbMText
 10
677.909445728065
 20
310.7977771920142
 30
0.0
 40
3.5
 41
0.0
 71
     5
 72
     1
  1
37.5
 73
     1
 44
1.0
  0
POINT
  5
FAC9B
330
FA636
100
AcDbEntity
  8
Defpoints
 62
     0
440
 16777216
100
AcDbPoint
 10
659.159445728065
 20
293.1616238245889
 30
0.0
  0
POINT
  5
FAC9C
330
FA636
100
AcDbEntity
  8
Defpoints
 62
     0
440
 16777216
100
AcDbPoint
 10
696.659445728065
 20
293.1616238245889
 30
0.0
  0
POINT
  5
FAC9D
330
FA636
100
AcDbEntity
  8
Defpoints
 62
     0
440
 16777216
100
AcDbPoint
 10
696.659445728065
 20
307.5477771920142
 30
0.0
  0
ENDBLK
  5
FA641
330
FA636
100
AcDbEntity
  8
0
100
AcDbBlockEnd
  0
BLOCK
  5
FA64C
330
FA642
100
AcDbEntity
  8
0
100
AcDbBlockBegin
  2
*D5
 70
     1
 10
0.0
 20
0.0
 30
0.0
  3
*D5
  1

  0
LINE
  5
FACE6
330
FA642
100
AcDbEntity
  8
AM_5
440
 16777216
100
AcDbLine
 10
679.1594457230301
 20
444.1616238245898
 30
0.0
 11
679.1594457230301
 21
465.8054066368442
 31
0.0
  0
LINE
  5
FACE7
330
FA642
100
AcDbEntity
  8
AM_5
440
 16777216
100
AcDbLine
 10
696.6594457280141
 20
442.1135291084712
 30
0.0
 11
696.6594457280141
 21
465.8054066368442
 31
0.0
  0
LINE
  5
FACE8
330
FA642
100
AcDbEntity
  8
AM_5
440
 16777216
100
AcDbLine
 10
681.65944572303
 20
464.8054066368441
 30
0.0
 11
694.1594457280141
 21
464.8054066368441
 31
0.0
  0
SOLID
  5
FACE9
330
FA642
100
AcDbEntity
  8
AM_5
440
 16777216
100
AcDbTrace
 10
681.65944572303
 20
465.2220733035108
 30
0.0
 11
681.65944572303
 21
464.3887399701775
 31
0.0
 12
679.1594457230301
 22
464.8054066368441
 32
0.0
 13
679.1594457230301
 23
464.8054066368441
 33
0.0
  0
SOLID
  5
FACEA
330
FA642
100
AcDbEntity
  8
AM_5
440
 16777216
100
AcDbTrace
 10
694.1594457280141
 20
465.2220733035108
 30
0.0
 11
694.1594457280141
 21
464.3887399701775
 31
0.0
 12
696.6594457280141
 22
464.8054066368441
 32
0.0
 13
696.6594457280141
 23
464.8054066368441
 33
0.0
  0
MTEXT
  5
FACEB
330
FA642
100
AcDbEntity
  8
AM_5
 62
     2
440
 16777216
100
AcDbMText
 10
687.9094457255221
 20
468.0554066368442
 30
0.0
 40
3.5
 41
0.0
 71
     5
 72
     1
  1
17.5
 73
     1
 44
1.0
  0
POINT
  5
FACEC
330
FA642
100
AcDbEntity
  8
Defpoints
 62
     0
440
 16777216
100
AcDbPoint
 10
679.1594457230301
 20
443.1616238245898
 30
0.0
  0
POINT
  5
FACED
330
FA642
100
AcDbEntity
  8
Defpoints
 62
     0
440
 16777216
100
AcDbPoint
 10
696.6594457280141
 20
441.1135291084711
 30
0.0
  0
POINT
  5
FACEE
330
FA642
100
AcDbEntity
  8
Defpoints
 62
     0
440
 16777216
100
AcDbPoint
 10
696.6594457280141
 20
464.8054066368441
 30
0.0
  0
ENDBLK
  5
FA64D
330
FA642
100
AcDbEntity
  8
0
100
AcDbBlockEnd
  0
BLOCK
  5
FA658
330
FA64E
100
AcDbEntity
  8
0
100
AcDbBlockBegin
  2
*D6
 70
     1
 10
0.0
 20
0.0
 30
0.0
  3
*D6
  1

  0
LINE
  5
FACB9
330
FA64E
100
AcDbEntity
  8
AM_5
440
 16777216
100
AcDbLine
 10
696.6594457280632
 20
398.1616238245898
 30
0.0
 11
696.6594457280632
 21
387.3612652963967
 31
0.0
  0
LINE
  5
FACBA
330
FA64E
100
AcDbEntity
  8
AM_5
440
 16777216
100
AcDbLine
 10
673.1594457275412
 20
398.1616238245953
 30
0.0
 11
673.1594457275412
 21
387.3612652963967
 31
0.0
  0
LINE
  5
FACBB
330
FA64E
100
AcDbEntity
  8
AM_5
440
 16777216
100
AcDbLine
 10
694.1594457280632
 20
388.3612652963967
 30
0.0
 11
675.6594457275411
 21
388.3612652963967
 31
0.0
  0
SOLID
  5
FACBC
330
FA64E
100
AcDbEntity
  8
AM_5
440
 16777216
100
AcDbTrace
 10
694.1594457280632
 20
388.7779319630634
 30
0.0
 11
694.1594457280632
 21
387.94459862973
 31
0.0
 12
696.6594457280632
 22
388.3612652963967
 32
0.0
 13
696.6594457280632
 23
388.3612652963967
 33
0.0
  0
SOLID
  5
FACBD
330
FA64E
100
AcDbEntity
  8
AM_5
440
 16777216
100
AcDbTrace
 10
675.6594457275411
 20
388.7779319630634
 30
0.0
 11
675.6594457275411
 21
387.94459862973
 31
0.0
 12
673.1594457275412
 22
388.3612652963967
 32
0.0
 13
673.1594457275412
 23
388.3612652963967
 33
0.0
  0
MTEXT
  5
FACBE
330
FA64E
100
AcDbEntity
  8
AM_5
 62
     2
440
 16777216
100
AcDbMText
 10
684.9094457278022
 20
391.6116097845857
 30
0.0
 40
3.5
 41
0.0
 71
     5
 72
     1
  1
23.5
 73
     1
 44
1.0
  0
POINT
  5
FACBF
330
FA64E
100
AcDbEntity
  8
Defpoints
 62
     0
440
 16777216
100
AcDbPoint
 10
696.6594457280632
 20
399.1616238245898
 30
0.0
  0
POINT
  5
FACC0
330
FA64E
100
AcDbEntity
  8
Defpoints
 62
     0
440
 16777216
100
AcDbPoint
 10
673.1594457275412
 20
399.1616238245953
 30
0.0
  0
POINT
  5
FACC1
330
FA64E
100
AcDbEntity
  8
Defpoints
 62
     0
440
 16777216
100
AcDbPoint
 10
673.1594457275412
 20
388.3612652963967
 30
0.0
  0
ENDBLK
  5
FA659
330
FA64E
100
AcDbEntity
  8
0
100
AcDbBlockEnd
  0
BLOCK
  5
FA664
330
FA65A
100
AcDbEntity
  8
0
100
AcDbBlockBegin
  2
*D7
 70
     1
 10
0.0
 20
0.0
 30
0.0
  3
*D7
  1

  0
LINE
  5
FACC2
330
FA65A
100
AcDbEntity
  8
AM_5
440
 16777216
100
AcDbLine
 10
621.6594457280641
 20
494.145176264733
 30
0.0
 11
621.6594457280641
 21
507.5251745026222
 31
0.0
  0
LINE
  5
FACC3
330
FA65A
100
AcDbEntity
  8
AM_5
440
 16777216
100
AcDbLine
 10
696.659445728065
 20
494.1451762646766
 30
0.0
 11
696.659445728065
 21
507.5251745026222
 31
0.0
  0
LINE
  5
FACC4
330
FA65A
100
AcDbEntity
  8
AM_5
440
 16777216
100
AcDbLine
 10
624.1594457280641
 20
506.5251745026222
 30
0.0
 11
694.159445728065
 21
506.5251745026222
 31
0.0
  0
SOLID
  5
FACC5
330
FA65A
100
AcDbEntity
  8
AM_5
440
 16777216
100
AcDbTrace
 10
624.1594457280641
 20
506.9418411692889
 30
0.0
 11
624.1594457280641
 21
506.1085078359555
 31
0.0
 12
621.6594457280641
 22
506.5251745026222
 32
0.0
 13
621.6594457280641
 23
506.5251745026222
 33
0.0
  0
SOLID
  5
FACC6
330
FA65A
100
AcDbEntity
  8
AM_5
440
 16777216
100
AcDbTrace
 10
694.159445728065
 20
506.9418411692889
 30
0.0
 11
694.159445728065
 21
506.1085078359555
 31
0.0
 12
696.659445728065
 22
506.5251745026222
 32
0.0
 13
696.659445728065
 23
506.5251745026222
 33
0.0
  0
MTEXT
  5
FACC7
330
FA65A
100
AcDbEntity
  8
AM_5
 62
     2
440
 16777216
100
AcDbMText
 10
659.1594457280645
 20
509.7751745026222
 30
0.0
 40
3.5
 41
0.0
 71
     5
 72
     1
  1
75
 73
     1
 44
1.0
  0
POINT
  5
FACC8
330
FA65A
100
AcDbEntity
  8
Defpoints
 62
     0
440
 16777216
100
AcDbPoint
 10
621.6594457280641
 20
493.1451762647331
 30
0.0
  0
POINT
  5
FACC9
330
FA65A
100
AcDbEntity
  8
Defpoints
 62
     0
440
 16777216
100
AcDbPoint
 10
696.659445728065
 20
493.1451762646767
 30
0.0
  0
POINT
  5
FACCA
330
FA65A
100
AcDbEntity
  8
Defpoints
 62
     0
440
 16777216
100
AcDbPoint
 10
696.659445728065
 20
506.5251745026222
 30
0.0
  0
ENDBLK
  5
FA665
330
FA65A
100
AcDbEntity
  8
0
100
AcDbBlockEnd
  0
BLOCK
  5
FA670
330
FA666
100
AcDbEntity
  8
0
100
AcDbBlockBegin
  2
*D8
 70
     1
 10
0.0
 20
0.0
 30
0.0
  3
*D8
  1

  0
LINE
  5
FAC15
330
FA666
100
AcDbEntity
  8
AM_5
440
 16777216
100
AcDbLine
 10
697.6594457280796
 20
151.1616238246002
 30
0.0
 11
736.9454872116818
 21
151.1616238246002
 31
0.0
  0
LINE
  5
FAC16
330
FA666
100
AcDbEntity
  8
AM_5
440
 16777216
100
AcDbLine
 10
689.6594457280796
 20
171.161623824593
 30
0.0
 11
736.9454872116818
 21
171.1616238245929
 31
0.0
  0
LINE
  5
FAC17
330
FA666
100
AcDbEntity
  8
AM_5
440
 16777216
100
AcDbLine
 10
735.9454872116819
 20
153.6616238246002
 30
0.0
 11
735.9454872116819
 21
168.6616238245929
 31
0.0
  0
SOLID
  5
FAC18
330
FA666
100
AcDbEntity
  8
AM_5
440
 16777216
100
AcDbTrace
 10
735.5288205450152
 20
153.6616238246002
 30
0.0
 11
736.3621538783485
 21
153.6616238246002
 31
0.0
 12
735.9454872116819
 22
151.1616238246002
 32
0.0
 13
735.9454872116819
 23
151.1616238246002
 33
0.0
  0
SOLID
  5
FAC19
330
FA666
100
AcDbEntity
  8
AM_5
440
 16777216
100
AcDbTrace
 10
735.5288205450152
 20
168.6616238245929
 30
0.0
 11
736.3621538783485
 21
168.6616238245929
 31
0.0
 12
735.9454872116819
 22
171.1616238245929
 32
0.0
 13
735.9454872116819
 23
171.1616238245929
 33
0.0
  0
MTEXT
  5
FAC1A
330
FA666
100
AcDbEntity
  8
AM_5
 62
     2
440
 16777216
100
AcDbMText
 10
732.6951427234929
 20
161.1616238245967
 30
0.0
 40
3.5
 41
0.0
 71
     5
 72
     1
  1
20
 11
0.0000000000000001
 21
1.0
 31
0.0
 73
     1
 44
1.0
  0
POINT
  5
FAC1B
330
FA666
100
AcDbEntity
  8
Defpoints
 62
     0
440
 16777216
100
AcDbPoint
 10
696.6594457280796
 20
151.1616238246002
 30
0.0
  0
POINT
  5
FAC1C
330
FA666
100
AcDbEntity
  8
Defpoints
 62
     0
440
 16777216
100
AcDbPoint
 10
688.6594457280796
 20
171.161623824593
 30
0.0
  0
POINT
  5
FAC1D
330
FA666
100
AcDbEntity
  8
Defpoints
 62
     0
440
 16777216
100
AcDbPoint
 10
735.9454872116819
 20
171.1616238245929
 30
0.0
  0
ENDBLK
  5
FA671
330
FA666
100
AcDbEntity
  8
0
100
AcDbBlockEnd
  0
BLOCK
  5
FA67C
330
FA672
100
AcDbEntity
  8
0
100
AcDbBlockBegin
  2
*D9
 70
     1
 10
0.0
 20
0.0
 30
0.0
  3
*D9
  1

  0
LINE
  5
FAC1E
330
FA672
100
AcDbEntity
  8
AM_5
440
 16777216
100
AcDbLine
 10
689.6594457280796
 20
171.161623824593
 30
0.0
 11
736.9454872116818
 21
171.1616238245929
 31
0.0
  0
LINE
  5
FAC1F
330
FA672
100
AcDbEntity
  8
AM_5
440
 16777216
100
AcDbLine
 10
689.6594457280796
 20
196.1616238245639
 30
0.0
 11
736.9454872116818
 21
196.1616238245638
 31
0.0
  0
LINE
  5
FAC20
330
FA672
100
AcDbEntity
  8
AM_5
440
 16777216
100
AcDbLine
 10
735.9454872116819
 20
173.6616238245929
 30
0.0
 11
735.9454872116819
 21
193.6616238245638
 31
0.0
  0
SOLID
  5
FAC21
330
FA672
100
AcDbEntity
  8
AM_5
440
 16777216
100
AcDbTrace
 10
735.5288205450152
 20
173.6616238245929
 30
0.0
 11
736.3621538783485
 21
173.6616238245929
 31
0.0
 12
735.9454872116819
 22
171.1616238245929
 32
0.0
 13
735.9454872116819
 23
171.1616238245929
 33
0.0
  0
SOLID
  5
FAC22
330
FA672
100
AcDbEntity
  8
AM_5
440
 16777216
100
AcDbTrace
 10
735.5288205450152
 20
193.6616238245638
 30
0.0
 11
736.3621538783485
 21
193.6616238245638
 31
0.0
 12
735.9454872116819
 22
196.1616238245638
 32
0.0
 13
735.9454872116819
 23
196.1616238245638
 33
0.0
  0
MTEXT
  5
FAC23
330
FA672
100
AcDbEntity
  8
AM_5
 62
     2
440
 16777216
100
AcDbMText
 10
732.6951427234929
 20
183.6616238245785
 30
0.0
 40
3.5
 41
0.0
 71
     5
 72
     1
  1
25
 11
0.0000000000000001
 21
1.0
 31
0.0
 73
     1
 44
1.0
  0
POINT
  5
FAC24
330
FA672
100
AcDbEntity
  8
Defpoints
 62
     0
440
 16777216
100
AcDbPoint
 10
688.6594457280796
 20
171.161623824593
 30
0.0
  0
POINT
  5
FAC25
330
FA672
100
AcDbEntity
  8
Defpoints
 62
     0
440
 16777216
100
AcDbPoint
 10
688.6594457280796
 20
196.1616238245639
 30
0.0
  0
POINT
  5
FAC26
330
FA672
100
AcDbEntity
  8
Defpoints
 62
     0
440
 16777216
100
AcDbPoint
 10
735.9454872116819
 20
196.1616238245638
 30
0.0
  0
ENDBLK
  5
FA67D
330
FA672
100
AcDbEntity
  8
0
100
AcDbBlockEnd
  0
BLOCK
  5
FA690
330
FA686
100
AcDbEntity
  8
0
100
AcDbBlockBegin
  2
*D10
 70
     1
 10
0.0
 20
0.0
 30
0.0
  3
*D10
  1

  0
LINE
  5
FAC7A
330
FA686
100
AcDbEntity
  8
AM_5
440
 16777216
100
AcDbLine
 10
631.1594457232192
 20
436.1616238246007
 30
0.0
 11
606.5896188959738
 21
436.1616238246007
 31
0.0
  0
LINE
  5
FAC7B
330
FA686
100
AcDbEntity
  8
AM_5
440
 16777216
100
AcDbLine
 10
637.1594457232192
 20
406.1616238246007
 30
0.0
 11
606.5896188959738
 21
406.1616238246007
 31
0.0
  0
LINE
  5
FAC7C
330
FA686
100
AcDbEntity
  8
AM_5
440
 16777216
100
AcDbLine
 10
607.5896188959738
 20
433.6616238246007
 30
0.0
 11
607.5896188959738
 21
408.6616238246007
 31
0.0
  0
SOLID
  5
FAC7D
330
FA686
100
AcDbEntity
  8
AM_5
440
 16777216
100
AcDbTrace
 10
607.1729522293073
 20
433.6616238246007
 30
0.0
 11
608.0062855626405
 21
433.6616238246007
 31
0.0
 12
607.5896188959738
 22
436.1616238246007
 32
0.0
 13
607.5896188959738
 23
436.1616238246007
 33
0.0
  0
SOLID
  5
FAC7E
330
FA686
100
AcDbEntity
  8
AM_5
440
 16777216
100
AcDbTrace
 10
607.1729522293073
 20
408.6616238246007
 30
0.0
 11
608.0062855626405
 21
408.6616238246007
 31
0.0
 12
607.5896188959738
 22
406.1616238246007
 32
0.0
 13
607.5896188959738
 23
406.1616238246007
 33
0.0
  0
MTEXT
  5
FAC7F
330
FA686
100
AcDbEntity
  8
AM_5
 62
     2
440
 16777216
100
AcDbMText
 10
604.3396188959738
 20
421.1616238246008
 30
0.0
 40
3.5
 41
0.0
 71
     5
 72
     1
  1
30
 11
0.0000000000000001
 21
1.0
 31
0.0
 73
     1
 44
1.0
  0
POINT
  5
FAC80
330
FA686
100
AcDbEntity
  8
Defpoints
 62
     0
440
 16777216
100
AcDbPoint
 10
632.1594457232192
 20
436.1616238246007
 30
0.0
  0
POINT
  5
FAC81
330
FA686
100
AcDbEntity
  8
Defpoints
 62
     0
440
 16777216
100
AcDbPoint
 10
638.1594457232193
 20
406.1616238246007
 30
0.0
  0
POINT
  5
FAC82
330
FA686
100
AcDbEntity
  8
Defpoints
 62
     0
440
 16777216
100
AcDbPoint
 10
607.5896188959738
 20
406.1616238246007
 30
0.0
  0
ENDBLK
  5
FA691
330
FA686
100
AcDbEntity
  8
0
100
AcDbBlockEnd
  0
BLOCK
  5
FA6A4
330
FA69A
100
AcDbEntity
  8
0
100
AcDbBlockBegin
  2
*D11
 70
     1
 10
0.0
 20
0.0
 30
0.0
  3
*D11
  1

  0
LINE
  5
FAC39
330
FA69A
100
AcDbEntity
  8
AM_5
440
 16777216
100
AcDbLine
 10
621.6594457280796
 20
150.1616238246002
 30
0.0
 11
621.6594457280796
 21
105.8581504863933
 31
0.0
  0
LINE
  5
FAC3A
330
FA69A
100
AcDbEntity
  8
AM_5
440
 16777216
100
AcDbLine
 10
636.6594457280796
 20
158.1616238245893
 30
0.0
 11
636.6594457280796
 21
105.8581504863933
 31
0.0
  0
LINE
  5
FAC3B
330
FA69A
100
AcDbEntity
  8
AM_5
440
 16777216
100
AcDbLine
 10
624.1594457280796
 20
106.8581504863933
 30
0.0
 11
634.1594457280796
 21
106.8581504863933
 31
0.0
  0
SOLID
  5
FAC3C
330
FA69A
100
AcDbEntity
  8
AM_5
440
 16777216
100
AcDbTrace
 10
624.1594457280796
 20
107.27481715306
 30
0.0
 11
624.1594457280796
 21
106.4414838197267
 31
0.0
 12
621.6594457280796
 22
106.8581504863933
 32
0.0
 13
621.6594457280796
 23
106.8581504863933
 33
0.0
  0
SOLID
  5
FAC3D
330
FA69A
100
AcDbEntity
  8
AM_5
440
 16777216
100
AcDbTrace
 10
634.1594457280796
 20
107.27481715306
 30
0.0
 11
634.1594457280796
 21
106.4414838197267
 31
0.0
 12
636.6594457280796
 22
106.8581504863933
 32
0.0
 13
636.6594457280796
 23
106.8581504863933
 33
0.0
  0
MTEXT
  5
FAC3E
330
FA69A
100
AcDbEntity
  8
AM_5
 62
     2
440
 16777216
100
AcDbMText
 10
629.1594457280796
 20
110.1081504863933
 30
0.0
 40
3.5
 41
0.0
 71
     5
 72
     1
  1
15
 73
     1
 44
1.0
  0
POINT
  5
FAC3F
330
FA69A
100
AcDbEntity
  8
Defpoints
 62
     0
440
 16777216
100
AcDbPoint
 10
621.6594457280796
 20
151.1616238246002
 30
0.0
  0
POINT
  5
FAC40
330
FA69A
100
AcDbEntity
  8
Defpoints
 62
     0
440
 16777216
100
AcDbPoint
 10
636.6594457280796
 20
159.1616238245893
 30
0.0
  0
POINT
  5
FAC41
330
FA69A
100
AcDbEntity
  8
Defpoints
 62
     0
440
 16777216
100
AcDbPoint
 10
636.6594457280796
 20
106.8581504863933
 30
0.0
  0
ENDBLK
  5
FA6A5
330
FA69A
100
AcDbEntity
  8
0
100
AcDbBlockEnd
  0
BLOCK
  5
FA6B0
330
FA6A6
100
AcDbEntity
  8
0
100
AcDbBlockBegin
  2
*D12
 70
     1
 10
0.0
 20
0.0
 30
0.0
  3
*D12
  1

  0
LINE
  5
FAC54
330
FA6A6
100
AcDbEntity
  8
AM_5
440
 16777216
100
AcDbLine
 10
659.1594457280796
 20
173.1616238245893
 30
0.0
 11
659.1594457280796
 21
105.8581504863933
 31
0.0
  0
LINE
  5
FAC55
330
FA6A6
100
AcDbEntity
  8
AM_5
440
 16777216
100
AcDbLine
 10
681.6594457280796
 20
163.161623824593
 30
0.0
 11
681.6594457280796
 21
105.8581504863933
 31
0.0
  0
LINE
  5
FAC56
330
FA6A6
100
AcDbEntity
  8
AM_5
440
 16777216
100
AcDbLine
 10
661.6594457280796
 20
106.8581504863933
 30
0.0
 11
679.1594457280796
 21
106.8581504863933
 31
0.0
  0
SOLID
  5
FAC57
330
FA6A6
100
AcDbEntity
  8
AM_5
440
 16777216
100
AcDbTrace
 10
661.6594457280796
 20
107.27481715306
 30
0.0
 11
661.6594457280796
 21
106.4414838197267
 31
0.0
 12
659.1594457280796
 22
106.8581504863933
 32
0.0
 13
659.1594457280796
 23
106.8581504863933
 33
0.0
  0
SOLID
  5
FAC58
330
FA6A6
100
AcDbEntity
  8
AM_5
440
 16777216
100
AcDbTrace
 10
679.1594457280796
 20
107.27481715306
 30
0.0
 11
679.1594457280796
 21
106.4414838197267
 31
0.0
 12
681.6594457280796
 22
106.8581504863933
 32
0.0
 13
681.6594457280796
 23
106.8581504863933
 33
0.0
  0
MTEXT
  5
FAC59
330
FA6A6
100
AcDbEntity
  8
AM_5
 62
     2
440
 16777216
100
AcDbMText
 10
670.4094457280795
 20
110.1084949745823
 30
0.0
 40
3.5
 41
0.0
 71
     5
 72
     1
  1
22.5
 73
     1
 44
1.0
  0
POINT
  5
FAC5A
330
FA6A6
100
AcDbEntity
  8
Defpoints
 62
     0
440
 16777216
100
AcDbPoint
 10
659.1594457280796
 20
174.1616238245893
 30
0.0
  0
POINT
  5
FAC5B
330
FA6A6
100
AcDbEntity
  8
Defpoints
 62
     0
440
 16777216
100
AcDbPoint
 10
681.6594457280796
 20
164.161623824593
 30
0.0
  0
POINT
  5
FAC5C
330
FA6A6
100
AcDbEntity
  8
Defpoints
 62
     0
440
 16777216
100
AcDbPoint
 10
681.6594457280796
 20
106.8581504863933
 30
0.0
  0
ENDBLK
  5
FA6B1
330
FA6A6
100
AcDbEntity
  8
0
100
AcDbBlockEnd
  0
BLOCK
  5
FA6BC
330
FA6B2
100
AcDbEntity
  8
0
100
AcDbBlockBegin
  2
*D13
 70
     1
 10
0.0
 20
0.0
 30
0.0
  3
*D13
  1

  0
LINE
  5
FAC30
330
FA6B2
100
AcDbEntity
  8
AM_5
440
 16777216
100
AcDbLine
 10
636.6594457280796
 20
158.1616238245893
 30
0.0
 11
636.6594457280796
 21
105.8581504863933
 31
0.0
  0
LINE
  5
FAC31
330
FA6B2
100
AcDbEntity
  8
AM_5
440
 16777216
100
AcDbLine
 10
659.1594457280796
 20
173.1616238245893
 30
0.0
 11
659.1594457280796
 21
105.8581504863933
 31
0.0
  0
LINE
  5
FAC32
330
FA6B2
100
AcDbEntity
  8
AM_5
440
 16777216
100
AcDbLine
 10
639.1594457280795
 20
106.8581504863933
 30
0.0
 11
656.6594457280796
 21
106.8581504863933
 31
0.0
  0
SOLID
  5
FAC33
330
FA6B2
100
AcDbEntity
  8
AM_5
440
 16777216
100
AcDbTrace
 10
639.1594457280795
 20
107.27481715306
 30
0.0
 11
639.1594457280795
 21
106.4414838197267
 31
0.0
 12
636.6594457280796
 22
106.8581504863933
 32
0.0
 13
636.6594457280796
 23
106.8581504863933
 33
0.0
  0
SOLID
  5
FAC34
330
FA6B2
100
AcDbEntity
  8
AM_5
440
 16777216
100
AcDbTrace
 10
656.6594457280796
 20
107.27481715306
 30
0.0
 11
656.6594457280796
 21
106.4414838197267
 31
0.0
 12
659.1594457280796
 22
106.8581504863933
 32
0.0
 13
659.1594457280796
 23
106.8581504863933
 33
0.0
  0
MTEXT
  5
FAC35
330
FA6B2
100
AcDbEntity
  8
AM_5
 62
     2
440
 16777216
100
AcDbMText
 10
647.9094457280796
 20
110.1084949745823
 30
0.0
 40
3.5
 41
0.0
 71
     5
 72
     1
  1
22.5
 73
     1
 44
1.0
  0
POINT
  5
FAC36
330
FA6B2
100
AcDbEntity
  8
Defpoints
 62
     0
440
 16777216
100
AcDbPoint
 10
636.6594457280796
 20
159.1616238245893
 30
0.0
  0
POINT
  5
FAC37
330
FA6B2
100
AcDbEntity
  8
Defpoints
 62
     0
440
 16777216
100
AcDbPoint
 10
659.1594457280796
 20
174.1616238245893
 30
0.0
  0
POINT
  5
FAC38
330
FA6B2
100
AcDbEntity
  8
Defpoints
 62
     0
440
 16777216
100
AcDbPoint
 10
659.1594457280796
 20
106.8581504863933
 30
0.0
  0
ENDBLK
  5
FA6BD
330
FA6B2
100
AcDbEntity
  8
0
100
AcDbBlockEnd
  0
BLOCK
  5
FA6C8
330
FA6BE
100
AcDbEntity
  8
0
100
AcDbBlockBegin
  2
*D14
 70
     1
 10
0.0
 20
0.0
 30
0.0
  3
*D14
  1

  0
LINE
  5
FAC04
330
FA6BE
100
AcDbEntity
  8
AM_5
440
 16777216
100
AcDbLine
 10
651.1594457224044
 20
286.1616238245898
 30
0.0
 11
606.589618895974
 21
286.1616238245899
 31
0.0
  0
LINE
  5
FAC05
330
FA6BE
100
AcDbEntity
  8
AM_5
440
 16777216
100
AcDbLine
 10
651.1594457280796
 20
206.1616238245894
 30
0.0
 11
606.5896188959738
 21
206.1616238245894
 31
0.0
  0
LINE
  5
FAC06
330
FA6BE
100
AcDbEntity
  8
AM_5
440
 16777216
100
AcDbLine
 10
607.589618895974
 20
283.6616238245899
 30
0.0
 11
607.5896188959738
 21
208.6616238245893
 31
0.0
  0
SOLID
  5
FAC07
330
FA6BE
100
AcDbEntity
  8
AM_5
440
 16777216
100
AcDbTrace
 10
607.1729522293074
 20
283.6616238245899
 30
0.0
 11
608.0062855626406
 21
283.6616238245899
 31
0.0
 12
607.589618895974
 22
286.1616238245899
 32
0.0
 13
607.589618895974
 23
286.1616238245899
 33
0.0
  0
SOLID
  5
FAC08
330
FA6BE
100
AcDbEntity
  8
AM_5
440
 16777216
100
AcDbTrace
 10
607.1729522293073
 20
208.6616238245893
 30
0.0
 11
608.0062855626405
 21
208.6616238245893
 31
0.0
 12
607.5896188959738
 22
206.1616238245894
 32
0.0
 13
607.5896188959738
 23
206.1616238245894
 33
0.0
  0
MTEXT
  5
FAC09
330
FA6BE
100
AcDbEntity
  8
AM_5
 62
     2
440
 16777216
100
AcDbMText
 10
604.3396188959738
 20
246.1616238245897
 30
0.0
 40
3.5
 41
0.0
 71
     5
 72
     1
  1
80
 11
0.0000000000000001
 21
1.0
 31
0.0
 73
     1
 44
1.0
  0
POINT
  5
FAC0A
330
FA6BE
100
AcDbEntity
  8
Defpoints
 62
     0
440
 16777216
100
AcDbPoint
 10
652.1594457224043
 20
286.1616238245898
 30
0.0
  0
POINT
  5
FAC0B
330
FA6BE
100
AcDbEntity
  8
Defpoints
 62
     0
440
 16777216
100
AcDbPoint
 10
652.1594457280796
 20
206.1616238245894
 30
0.0
  0
POINT
  5
FAC0C
330
FA6BE
100
AcDbEntity
  8
Defpoints
 62
     0
440
 16777216
100
AcDbPoint
 10
607.5896188959738
 20
206.1616238245894
 30
0.0
  0
ENDBLK
  5
FA6C9
330
FA6BE
100
AcDbEntity
  8
0
100
AcDbBlockEnd
  0
BLOCK
  5
FA6D4
330
FA6CA
100
AcDbEntity
  8
0
100
AcDbBlockBegin
  2
*D15
 70
     1
 10
0.0
 20
0.0
 30
0.0
  3
*D15
  1

  0
LINE
  5
FAC5D
330
FA6CA
100
AcDbEntity
  8
AM_5
440
 16777216
100
AcDbLine
 10
651.1594457280796
 20
206.1616238245894
 30
0.0
 11
606.5896188959738
 21
206.1616238245894
 31
0.0
  0
LINE
  5
FAC5E
330
FA6CA
100
AcDbEntity
  8
AM_5
440
 16777216
100
AcDbLine
 10
628.6594457280796
 20
191.1616238245893
 30
0.0
 11
606.5896188959738
 21
191.1616238245893
 31
0.0
  0
LINE
  5
FAC5F
330
FA6CA
100
AcDbEntity
  8
AM_5
440
 16777216
100
AcDbLine
 10
607.5896188959738
 20
203.6616238245894
 30
0.0
 11
607.5896188959738
 21
193.6616238245893
 31
0.0
  0
SOLID
  5
FAC60
330
FA6CA
100
AcDbEntity
  8
AM_5
440
 16777216
100
AcDbTrace
 10
607.1729522293073
 20
203.6616238245894
 30
0.0
 11
608.0062855626405
 21
203.6616238245894
 31
0.0
 12
607.5896188959738
 22
206.1616238245894
 32
0.0
 13
607.5896188959738
 23
206.1616238245894
 33
0.0
  0
SOLID
  5
FAC61
330
FA6CA
100
AcDbEntity
  8
AM_5
440
 16777216
100
AcDbTrace
 10
607.1729522293073
 20
193.6616238245893
 30
0.0
 11
608.0062855626405
 21
193.6616238245893
 31
0.0
 12
607.5896188959738
 22
191.1616238245893
 32
0.0
 13
607.5896188959738
 23
191.1616238245893
 33
0.0
  0
MTEXT
  5
FAC62
330
FA6CA
100
AcDbEntity
  8
AM_5
 62
     2
440
 16777216
100
AcDbMText
 10
604.3396188959738
 20
198.6616238245894
 30
0.0
 40
3.5
 41
0.0
 71
     5
 72
     1
  1
15
 11
0.0000000000000001
 21
1.0
 31
0.0
 73
     1
 44
1.0
  0
POINT
  5
FAC63
330
FA6CA
100
AcDbEntity
  8
Defpoints
 62
     0
440
 16777216
100
AcDbPoint
 10
652.1594457280796
 20
206.1616238245894
 30
0.0
  0
POINT
  5
FAC64
330
FA6CA
100
AcDbEntity
  8
Defpoints
 62
     0
440
 16777216
100
AcDbPoint
 10
629.6594457280796
 20
191.1616238245893
 30
0.0
  0
POINT
  5
FAC65
330
FA6CA
100
AcDbEntity
  8
Defpoints
 62
     0
440
 16777216
100
AcDbPoint
 10
607.5896188959738
 20
191.1616238245893
 30
0.0
  0
ENDBLK
  5
FA6D5
330
FA6CA
100
AcDbEntity
  8
0
100
AcDbBlockEnd
  0
BLOCK
  5
FA6DE
330
FA6D6
100
AcDbEntity
  8
0
100
AcDbBlockBegin
  2
*D16
 70
     1
 10
0.0
 20
0.0
 30
0.0
  3
*D16
  1

  0
LINE
  5
FAC66
330
FA6D6
100
AcDbEntity
  8
AM_5
440
 16777216
100
AcDbLine
 10
628.6594457280796
 20
191.1616238245893
 30
0.0
 11
606.5896188959738
 21
191.1616238245893
 31
0.0
  0
LINE
  5
FAC67
330
FA6D6
100
AcDbEntity
  8
AM_5
440
 16777216
100
AcDbLine
 10
651.1594457280796
 20
181.1616238245893
 30
0.0
 11
606.5896188959738
 21
181.1616238245893
 31
0.0
  0
LINE
  5
FAC68
330
FA6D6
100
AcDbEntity
  8
AM_5
440
 16777216
100
AcDbLine
 10
607.5896188959738
 20
188.6616238245893
 30
0.0
 11
607.5896188959738
 21
183.6616238245893
 31
0.0
  0
SOLID
  5
FAC69
330
FA6D6
100
AcDbEntity
  8
AM_5
440
 16777216
100
AcDbTrace
 10
607.1729522293073
 20
188.6616238245893
 30
0.0
 11
608.0062855626405
 21
188.6616238245893
 31
0.0
 12
607.5896188959738
 22
191.1616238245893
 32
0.0
 13
607.5896188959738
 23
191.1616238245893
 33
0.0
  0
SOLID
  5
FAC6A
330
FA6D6
100
AcDbEntity
  8
AM_5
440
 16777216
100
AcDbTrace
 10
607.1729522293073
 20
183.6616238245893
 30
0.0
 11
608.0062855626405
 21
183.6616238245893
 31
0.0
 12
607.5896188959738
 22
181.1616238245893
 32
0.0
 13
607.5896188959738
 23
181.1616238245893
 33
0.0
  0
MTEXT
  5
FAC6B
330
FA6D6
100
AcDbEntity
  8
AM_5
 62
     2
440
 16777216
100
AcDbMText
 10
604.3396188959738
 20
186.1616238245894
 30
0.0
 40
3.5
 41
0.0
 71
     5
 72
     1
  1
10
 11
0.0000000000000001
 21
1.0
 31
0.0
 73
     1
 44
1.0
  0
POINT
  5
FAC6C
330
FA6D6
100
AcDbEntity
  8
Defpoints
 62
     0
440
 16777216
100
AcDbPoint
 10
629.6594457280796
 20
191.1616238245893
 30
0.0
  0
POINT
  5
FAC6D
330
FA6D6
100
AcDbEntity
  8
Defpoints
 62
     0
440
 16777216
100
AcDbPoint
 10
652.1594457280796
 20
181.1616238245893
 30
0.0
  0
POINT
  5
FAC6E
330
FA6D6
100
AcDbEntity
  8
Defpoints
 62
     0
440
 16777216
100
AcDbPoint
 10
607.5896188959738
 20
181.1616238245893
 30
0.0
  0
ENDBLK
  5
FA6DF
330
FA6D6
100
AcDbEntity
  8
0
100
AcDbBlockEnd
  0
BLOCK
  5
FA6EA
330
FA6E0
100
AcDbEntity
  8
0
100
AcDbBlockBegin
  2
*D17
 70
     1
 10
0.0
 20
0.0
 30
0.0
  3
*D17
  1

  0
LINE
  5
FAC27
330
FA6E0
100
AcDbEntity
  8
AM_5
440
 16777216
100
AcDbLine
 10
651.1594457280796
 20
181.1616238245893
 30
0.0
 11
606.5896188959738
 21
181.1616238245893
 31
0.0
  0
LINE
  5
FAC28
330
FA6E0
100
AcDbEntity
  8
AM_5
440
 16777216
100
AcDbLine
 10
628.6594457280796
 20
166.1616238245893
 30
0.0
 11
606.5896188959738
 21
166.1616238245893
 31
0.0
  0
LINE
  5
FAC29
330
FA6E0
100
AcDbEntity
  8
AM_5
440
 16777216
100
AcDbLine
 10
607.5896188959738
 20
178.6616238245893
 30
0.0
 11
607.5896188959738
 21
168.6616238245893
 31
0.0
  0
SOLID
  5
FAC2A
330
FA6E0
100
AcDbEntity
  8
AM_5
440
 16777216
100
AcDbTrace
 10
607.1729522293073
 20
178.6616238245893
 30
0.0
 11
608.0062855626405
 21
178.6616238245893
 31
0.0
 12
607.5896188959738
 22
181.1616238245893
 32
0.0
 13
607.5896188959738
 23
181.1616238245893
 33
0.0
  0
SOLID
  5
FAC2B
330
FA6E0
100
AcDbEntity
  8
AM_5
440
 16777216
100
AcDbTrace
 10
607.1729522293073
 20
168.6616238245893
 30
0.0
 11
608.0062855626405
 21
168.6616238245893
 31
0.0
 12
607.5896188959738
 22
166.1616238245893
 32
0.0
 13
607.5896188959738
 23
166.1616238245893
 33
0.0
  0
MTEXT
  5
FAC2C
330
FA6E0
100
AcDbEntity
  8
AM_5
 62
     2
440
 16777216
100
AcDbMText
 10
604.3396188959738
 20
173.6616238245894
 30
0.0
 40
3.5
 41
0.0
 71
     5
 72
     1
  1
15
 11
0.0000000000000001
 21
1.0
 31
0.0
 73
     1
 44
1.0
  0
POINT
  5
FAC2D
330
FA6E0
100
AcDbEntity
  8
Defpoints
 62
     0
440
 16777216
100
AcDbPoint
 10
652.1594457280796
 20
181.1616238245893
 30
0.0
  0
POINT
  5
FAC2E
330
FA6E0
100
AcDbEntity
  8
Defpoints
 62
     0
440
 16777216
100
AcDbPoint
 10
629.6594457280796
 20
166.1616238245893
 30
0.0
  0
POINT
  5
FAC2F
330
FA6E0
100
AcDbEntity
  8
Defpoints
 62
     0
440
 16777216
100
AcDbPoint
 10
607.5896188959738
 20
166.1616238245893
 30
0.0
  0
ENDBLK
  5
FA6EB
330
FA6E0
100
AcDbEntity
  8
0
100
AcDbBlockEnd
  0
BLOCK
  5
FA6F6
330
FA6EC
100
AcDbEntity
  8
0
100
AcDbBlockBegin
  2
*D18
 70
     1
 10
0.0
 20
0.0
 30
0.0
  3
*D18
  1

  0
LINE
  5
FAC83
330
FA6EC
100
AcDbEntity
  8
AM_5
440
 16777216
100
AcDbLine
 10
631.1594457232192
 20
376.1616238246007
 30
0.0
 11
606.5896188959738
 21
376.1616238246007
 31
0.0
  0
LINE
  5
FAC84
330
FA6EC
100
AcDbEntity
  8
AM_5
440
 16777216
100
AcDbLine
 10
651.1594457224044
 20
286.1616238245898
 30
0.0
 11
606.5896188959738
 21
286.1616238245899
 31
0.0
  0
LINE
  5
FAC85
330
FA6EC
100
AcDbEntity
  8
AM_5
440
 16777216
100
AcDbLine
 10
607.5896188959738
 20
373.6616238246007
 30
0.0
 11
607.5896188959738
 21
288.6616238245899
 31
0.0
  0
SOLID
  5
FAC86
330
FA6EC
100
AcDbEntity
  8
AM_5
440
 16777216
100
AcDbTrace
 10
607.1729522293073
 20
373.6616238246007
 30
0.0
 11
608.0062855626405
 21
373.6616238246007
 31
0.0
 12
607.5896188959738
 22
376.1616238246007
 32
0.0
 13
607.5896188959738
 23
376.1616238246007
 33
0.0
  0
SOLID
  5
FAC87
330
FA6EC
100
AcDbEntity
  8
AM_5
440
 16777216
100
AcDbTrace
 10
607.1729522293073
 20
288.6616238245899
 30
0.0
 11
608.0062855626405
 21
288.6616238245899
 31
0.0
 12
607.5896188959738
 22
286.1616238245899
 32
0.0
 13
607.5896188959738
 23
286.1616238245899
 33
0.0
  0
MTEXT
  5
FAC88
330
FA6EC
100
AcDbEntity
  8
AM_5
 62
     2
440
 16777216
100
AcDbMText
 10
604.3396188959738
 20
331.1616238245953
 30
0.0
 40
3.5
 41
0.0
 71
     5
 72
     1
  1
90
 11
0.0000000000000001
 21
1.0
 31
0.0
 73
     1
 44
1.0
  0
POINT
  5
FAC89
330
FA6EC
100
AcDbEntity
  8
Defpoints
 62
     0
440
 16777216
100
AcDbPoint
 10
632.1594457232192
 20
376.1616238246007
 30
0.0
  0
POINT
  5
FAC8A
330
FA6EC
100
AcDbEntity
  8
Defpoints
 62
     0
440
 16777216
100
AcDbPoint
 10
652.1594457224043
 20
286.1616238245898
 30
0.0
  0
POINT
  5
FAC8B
330
FA6EC
100
AcDbEntity
  8
Defpoints
 62
     0
440
 16777216
100
AcDbPoint
 10
607.5896188959738
 20
286.1616238245899
 30
0.0
  0
ENDBLK
  5
FA6F7
330
FA6EC
100
AcDbEntity
  8
0
100
AcDbBlockEnd
  0
BLOCK
  5
FA702
330
FA6F8
100
AcDbEntity
  8
0
100
AcDbBlockBegin
  2
*D19
 70
     1
 10
0.0
 20
0.0
 30
0.0
  3
*D19
  1

  0
LINE
  5
FAC8C
330
FA6F8
100
AcDbEntity
  8
AM_5
440
 16777216
100
AcDbLine
 10
659.159445728065
 20
294.1616238245889
 30
0.0
 11
659.159445728065
 21
308.5477771920142
 31
0.0
  0
LINE
  5
FAC8D
330
FA6F8
100
AcDbEntity
  8
AM_5
440
 16777216
100
AcDbLine
 10
621.659445728065
 20
294.1616238245889
 30
0.0
 11
621.659445728065
 21
308.5477771920142
 31
0.0
  0
LINE
  5
FAC8E
330
FA6F8
100
AcDbEntity
  8
AM_5
440
 16777216
100
AcDbLine
 10
656.659445728065
 20
307.5477771920142
 30
0.0
 11
624.159445728065
 21
307.5477771920142
 31
0.0
  0
SOLID
  5
FAC8F
330
FA6F8
100
AcDbEntity
  8
AM_5
440
 16777216
100
AcDbTrace
 10
656.659445728065
 20
307.9644438586809
 30
0.0
 11
656.659445728065
 21
307.1311105253475
 31
0.0
 12
659.159445728065
 22
307.5477771920142
 32
0.0
 13
659.159445728065
 23
307.5477771920142
 33
0.0
  0
SOLID
  5
FAC90
330
FA6F8
100
AcDbEntity
  8
AM_5
440
 16777216
100
AcDbTrace
 10
624.159445728065
 20
307.9644438586809
 30
0.0
 11
624.159445728065
 21
307.1311105253475
 31
0.0
 12
621.659445728065
 22
307.5477771920142
 32
0.0
 13
621.659445728065
 23
307.5477771920142
 33
0.0
  0
MTEXT
  5
FAC91
330
FA6F8
100
AcDbEntity
  8
AM_5
 62
     2
440
 16777216
100
AcDbMText
 10
640.409445728065
 20
310.7977771920142
 30
0.0
 40
3.5
 41
0.0
 71
     5
 72
     1
  1
37.5
 73
     1
 44
1.0
  0
POINT
  5
FAC92
330
FA6F8
100
AcDbEntity
  8
Defpoints
 62
     0
440
 16777216
100
AcDbPoint
 10
659.159445728065
 20
293.1616238245889
 30
0.0
  0
POINT
  5
FAC93
330
FA6F8
100
AcDbEntity
  8
Defpoints
 62
     0
440
 16777216
100
AcDbPoint
 10
621.659445728065
 20
293.1616238245889
 30
0.0
  0
POINT
  5
FAC94
330
FA6F8
100
AcDbEntity
  8
Defpoints
 62
     0
440
 16777216
100
AcDbPoint
 10
621.659445728065
 20
307.5477771920142
 30
0.0
  0
ENDBLK
  5
FA703
330
FA6F8
100
AcDbEntity
  8
0
100
AcDbBlockEnd
  0
BLOCK
  5
FA70E
330
FA704
100
AcDbEntity
  8
0
100
AcDbBlockBegin
  2
*D20
 70
     1
 10
0.0
 20
0.0
 30
0.0
  3
*D20
  1

  0
LINE
  5
FACB0
330
FA704
100
AcDbEntity
  8
AM_5
440
 16777216
100
AcDbLine
 10
645.1594457285889
 20
398.1616238246062
 30
0.0
 11
645.1594457285889
 21
387.3612652963967
 31
0.0
  0
LINE
  5
FACB1
330
FA704
100
AcDbEntity
  8
AM_5
440
 16777216
100
AcDbLine
 10
621.6594457280769
 20
398.1616238245998
 30
0.0
 11
621.6594457280769
 21
387.3612652963967
 31
0.0
  0
LINE
  5
FACB2
330
FA704
100
AcDbEntity
  8
AM_5
440
 16777216
100
AcDbLine
 10
642.6594457285889
 20
388.3612652963967
 30
0.0
 11
624.1594457280768
 21
388.3612652963967
 31
0.0
  0
SOLID
  5
FACB3
330
FA704
100
AcDbEntity
  8
AM_5
440
 16777216
100
AcDbTrace
 10
642.6594457285889
 20
388.7779319630634
 30
0.0
 11
642.6594457285889
 21
387.94459862973
 31
0.0
 12
645.1594457285889
 22
388.3612652963967
 32
0.0
 13
645.1594457285889
 23
388.3612652963967
 33
0.0
  0
SOLID
  5
FACB4
330
FA704
100
AcDbEntity
  8
AM_5
440
 16777216
100
AcDbTrace
 10
624.1594457280768
 20
388.7779319630634
 30
0.0
 11
624.1594457280768
 21
387.94459862973
 31
0.0
 12
621.6594457280769
 22
388.3612652963967
 32
0.0
 13
621.6594457280769
 23
388.3612652963967
 33
0.0
  0
MTEXT
  5
FACB5
330
FA704
100
AcDbEntity
  8
AM_5
 62
     2
440
 16777216
100
AcDbMText
 10
633.4094457256421
 20
391.6116097845857
 30
0.0
 40
3.5
 41
0.0
 71
     5
 72
     1
  1
23.5
 73
     1
 44
1.0
  0
POINT
  5
FACB6
330
FA704
100
AcDbEntity
  8
Defpoints
 62
     0
440
 16777216
100
AcDbPoint
 10
645.1594457285889
 20
399.1616238246062
 30
0.0
  0
POINT
  5
FACB7
330
FA704
100
AcDbEntity
  8
Defpoints
 62
     0
440
 16777216
100
AcDbPoint
 10
621.6594457280769
 20
399.1616238245998
 30
0.0
  0
POINT
  5
FACB8
330
FA704
100
AcDbEntity
  8
Defpoints
 62
     0
440
 16777216
100
AcDbPoint
 10
621.6594457280769
 20
388.3612652963967
 30
0.0
  0
ENDBLK
  5
FA70F
330
FA704
100
AcDbEntity
  8
0
100
AcDbBlockEnd
  0
BLOCK
  5
FA71A
330
FA710
100
AcDbEntity
  8
0
100
AcDbBlockBegin
  2
*D21
 70
     1
 10
0.0
 20
0.0
 30
0.0
  3
*D21
  1

  0
LINE
  5
FACA7
330
FA710
100
AcDbEntity
  8
AM_5
440
 16777216
100
AcDbLine
 10
637.1594457232192
 20
406.1616238246007
 30
0.0
 11
606.5896188959738
 21
406.1616238246007
 31
0.0
  0
LINE
  5
FACA8
330
FA710
100
AcDbEntity
  8
AM_5
440
 16777216
100
AcDbLine
 10
631.1594457232192
 20
376.1616238246007
 30
0.0
 11
606.5896188959738
 21
376.1616238246007
 31
0.0
  0
LINE
  5
FACA9
330
FA710
100
AcDbEntity
  8
AM_5
440
 16777216
100
AcDbLine
 10
607.5896188959738
 20
403.6616238246007
 30
0.0
 11
607.5896188959738
 21
378.6616238246007
 31
0.0
  0
SOLID
  5
FACAA
330
FA710
100
AcDbEntity
  8
AM_5
440
 16777216
100
AcDbTrace
 10
607.1729522293073
 20
403.6616238246007
 30
0.0
 11
608.0062855626405
 21
403.6616238246007
 31
0.0
 12
607.5896188959738
 22
406.1616238246007
 32
0.0
 13
607.5896188959738
 23
406.1616238246007
 33
0.0
  0
SOLID
  5
FACAB
330
FA710
100
AcDbEntity
  8
AM_5
440
 16777216
100
AcDbTrace
 10
607.1729522293073
 20
378.6616238246007
 30
0.0
 11
608.0062855626405
 21
378.6616238246007
 31
0.0
 12
607.5896188959738
 22
376.1616238246007
 32
0.0
 13
607.5896188959738
 23
376.1616238246007
 33
0.0
  0
MTEXT
  5
FACAC
330
FA710
100
AcDbEntity
  8
AM_5
 62
     2
440
 16777216
100
AcDbMText
 10
604.3396188959738
 20
391.1616238246008
 30
0.0
 40
3.5
 41
0.0
 71
     5
 72
     1
  1
30
 11
0.0000000000000001
 21
1.0
 31
0.0
 73
     1
 44
1.0
  0
POINT
  5
FACAD
330
FA710
100
AcDbEntity
  8
Defpoints
 62
     0
440
 16777216
100
AcDbPoint
 10
638.1594457232193
 20
406.1616238246007
 30
0.0
  0
POINT
  5
FACAE
330
FA710
100
AcDbEntity
  8
Defpoints
 62
     0
440
 16777216
100
AcDbPoint
 10
632.1594457232192
 20
376.1616238246007
 30
0.0
  0
POINT
  5
FACAF
330
FA710
100
AcDbEntity
  8
Defpoints
 62
     0
440
 16777216
100
AcDbPoint
 10
607.5896188959738
 20
376.1616238246007
 30
0.0
  0
ENDBLK
  5
FA71B
330
FA710
100
AcDbEntity
  8
0
100
AcDbBlockEnd
  0
BLOCK
  5
FA726
330
FA71C
100
AcDbEntity
  8
0
100
AcDbBlockBegin
  2
*D22
 70
     1
 10
0.0
 20
0.0
 30
0.0
  3
*D22
  1

  0
LINE
  5
FAC42
330
FA71C
100
AcDbEntity
  8
AM_5
440
 16777216
100
AcDbLine
 10
628.6594457280796
 20
166.1616238245893
 30
0.0
 11
606.5896188959738
 21
166.1616238245893
 31
0.0
  0
LINE
  5
FAC43
330
FA71C
100
AcDbEntity
  8
AM_5
440
 16777216
100
AcDbLine
 10
620.659445728065
 20
151.1616238246002
 30
0.0
 11
606.5896188959738
 21
151.1616238246002
 31
0.0
  0
LINE
  5
FAC44
330
FA71C
100
AcDbEntity
  8
AM_5
440
 16777216
100
AcDbLine
 10
607.5896188959738
 20
163.6616238245893
 30
0.0
 11
607.5896188959738
 21
153.6616238246002
 31
0.0
  0
SOLID
  5
FAC45
330
FA71C
100
AcDbEntity
  8
AM_5
440
 16777216
100
AcDbTrace
 10
607.1729522293073
 20
163.6616238245893
 30
0.0
 11
608.0062855626405
 21
163.6616238245893
 31
0.0
 12
607.5896188959738
 22
166.1616238245893
 32
0.0
 13
607.5896188959738
 23
166.1616238245893
 33
0.0
  0
SOLID
  5
FAC46
330
FA71C
100
AcDbEntity
  8
AM_5
440
 16777216
100
AcDbTrace
 10
607.1729522293073
 20
153.6616238246002
 30
0.0
 11
608.0062855626405
 21
153.6616238246002
 31
0.0
 12
607.5896188959738
 22
151.1616238246002
 32
0.0
 13
607.5896188959738
 23
151.1616238246002
 33
0.0
  0
MTEXT
  5
FAC47
330
FA71C
100
AcDbEntity
  8
AM_5
 62
     2
440
 16777216
100
AcDbMText
 10
604.3396188959738
 20
158.6616238245949
 30
0.0
 40
3.5
 41
0.0
 71
     5
 72
     1
  1
15
 11
0.0000000000000001
 21
1.0
 31
0.0
 73
     1
 44
1.0
  0
POINT
  5
FAC48
330
FA71C
100
AcDbEntity
  8
Defpoints
 62
     0
440
 16777216
100
AcDbPoint
 10
629.6594457280796
 20
166.1616238245893
 30
0.0
  0
POINT
  5
FAC49
330
FA71C
100
AcDbEntity
  8
Defpoints
 62
     0
440
 16777216
100
AcDbPoint
 10
621.659445728065
 20
151.1616238246002
 30
0.0
  0
POINT
  5
FAC4A
330
FA71C
100
AcDbEntity
  8
Defpoints
 62
     0
440
 16777216
100
AcDbPoint
 10
607.5896188959738
 20
151.1616238246002
 30
0.0
  0
ENDBLK
  5
FA727
330
FA71C
100
AcDbEntity
  8
0
100
AcDbBlockEnd
  0
BLOCK
  5
FA732
330
FA728
100
AcDbEntity
  8
0
100
AcDbBlockBegin
  2
*D23
 70
     1
 10
0.0
 20
0.0
 30
0.0
  3
*D23
  1

  0
LINE
  5
FAC9E
330
FA728
100
AcDbEntity
  8
AM_5
440
 16777216
100
AcDbLine
 10
645.1594457285889
 20
398.1616238246062
 30
0.0
 11
645.1594457285889
 21
387.3612652963967
 31
0.0
  0
LINE
  5
FAC9F
330
FA728
100
AcDbEntity
  8
AM_5
440
 16777216
100
AcDbLine
 10
673.1594457275412
 20
398.1616238245953
 30
0.0
 11
673.1594457275412
 21
387.3612652963967
 31
0.0
  0
LINE
  5
FACA0
330
FA728
100
AcDbEntity
  8
AM_5
440
 16777216
100
AcDbLine
 10
647.6594457285889
 20
388.3612652963967
 30
0.0
 11
670.6594457275412
 21
388.3612652963967
 31
0.0
  0
SOLID
  5
FACA1
330
FA728
100
AcDbEntity
  8
AM_5
440
 16777216
100
AcDbTrace
 10
647.6594457285889
 20
388.7779319630634
 30
0.0
 11
647.6594457285889
 21
387.94459862973
 31
0.0
 12
645.1594457285889
 22
388.3612652963967
 32
0.0
 13
645.1594457285889
 23
388.3612652963967
 33
0.0
  0
SOLID
  5
FACA2
330
FA728
100
AcDbEntity
  8
AM_5
440
 16777216
100
AcDbTrace
 10
670.6594457275412
 20
388.7779319630634
 30
0.0
 11
670.6594457275412
 21
387.94459862973
 31
0.0
 12
673.1594457275412
 22
388.3612652963967
 32
0.0
 13
673.1594457275412
 23
388.3612652963967
 33
0.0
  0
MTEXT
  5
FACA3
330
FA728
100
AcDbEntity
  8
AM_5
 62
     2
440
 16777216
100
AcDbMText
 10
659.159445728065
 20
391.6116097845857
 30
0.0
 40
3.5
 41
0.0
 71
     5
 72
     1
  1
28
 73
     1
 44
1.0
  0
POINT
  5
FACA4
330
FA728
100
AcDbEntity
  8
Defpoints
 62
     0
440
 16777216
100
AcDbPoint
 10
645.1594457285889
 20
399.1616238246062
 30
0.0
  0
POINT
  5
FACA5
330
FA728
100
AcDbEntity
  8
Defpoints
 62
     0
440
 16777216
100
AcDbPoint
 10
673.1594457275412
 20
399.1616238245953
 30
0.0
  0
POINT
  5
FACA6
330
FA728
100
AcDbEntity
  8
Defpoints
 62
     0
440
 16777216
100
AcDbPoint
 10
673.1594457275412
 20
388.3612652963967
 30
0.0
  0
ENDBLK
  5
FA733
330
FA728
100
AcDbEntity
  8
0
100
AcDbBlockEnd
  0
BLOCK
  5
FA73E
330
FA734
100
AcDbEntity
  8
0
100
AcDbBlockBegin
  2
*D24
 70
     1
 10
0.0
 20
0.0
 30
0.0
  3
*D24
  1

  0
LINE
  5
FACDD
330
FA734
100
AcDbEntity
  8
AM_5
440
 16777216
100
AcDbLine
 10
621.6594457281451
 20
442.1135291084712
 30
0.0
 11
621.6594457281451
 21
465.8054066368442
 31
0.0
  0
LINE
  5
FACDE
330
FA734
100
AcDbEntity
  8
AM_5
440
 16777216
100
AcDbLine
 10
639.1594457232192
 20
444.1616238246007
 30
0.0
 11
639.1594457232192
 21
465.8054066368442
 31
0.0
  0
LINE
  5
FACDF
330
FA734
100
AcDbEntity
  8
AM_5
440
 16777216
100
AcDbLine
 10
624.1594457281451
 20
464.8054066368441
 30
0.0
 11
636.6594457232192
 21
464.8054066368441
 31
0.0
  0
SOLID
  5
FACE0
330
FA734
100
AcDbEntity
  8
AM_5
440
 16777216
100
AcDbTrace
 10
624.1594457281451
 20
465.2220733035108
 30
0.0
 11
624.1594457281451
 21
464.3887399701775
 31
0.0
 12
621.6594457281451
 22
464.8054066368441
 32
0.0
 13
621.6594457281451
 23
464.8054066368441
 33
0.0
  0
SOLID
  5
FACE1
330
FA734
100
AcDbEntity
  8
AM_5
440
 16777216
100
AcDbTrace
 10
636.6594457232192
 20
465.2220733035108
 30
0.0
 11
636.6594457232192
 21
464.3887399701775
 31
0.0
 12
639.1594457232192
 22
464.8054066368441
 32
0.0
 13
639.1594457232192
 23
464.8054066368441
 33
0.0
  0
MTEXT
  5
FACE2
330
FA734
100
AcDbEntity
  8
AM_5
 62
     2
440
 16777216
100
AcDbMText
 10
630.4094457256821
 20
468.0554066368442
 30
0.0
 40
3.5
 41
0.0
 71
     5
 72
     1
  1
17.5
 73
     1
 44
1.0
  0
POINT
  5
FACE3
330
FA734
100
AcDbEntity
  8
Defpoints
 62
     0
440
 16777216
100
AcDbPoint
 10
621.6594457281451
 20
441.1135291084711
 30
0.0
  0
POINT
  5
FACE4
330
FA734
100
AcDbEntity
  8
Defpoints
 62
     0
440
 16777216
100
AcDbPoint
 10
639.1594457232192
 20
443.1616238246006
 30
0.0
  0
POINT
  5
FACE5
330
FA734
100
AcDbEntity
  8
Defpoints
 62
     0
440
 16777216
100
AcDbPoint
 10
639.1594457232192
 20
464.8054066368441
 30
0.0
  0
ENDBLK
  5
FA73F
330
FA734
100
AcDbEntity
  8
0
100
AcDbBlockEnd
  0
BLOCK
  5
FA74A
330
FA740
100
AcDbEntity
  8
0
100
AcDbBlockBegin
  2
*D25
 70
     1
 10
0.0
 20
0.0
 30
0.0
  3
*D25
  1

  0
LINE
  5
FACCB
330
FA740
100
AcDbEntity
  8
AM_5
440
 16777216
100
AcDbLine
 10
658.1594457280796
 20
451.1616238246006
 30
0.0
 11
606.5896188959738
 21
451.1616238246007
 31
0.0
  0
LINE
  5
FACCC
330
FA740
100
AcDbEntity
  8
AM_5
440
 16777216
100
AcDbLine
 10
631.1594457232192
 20
436.1616238246007
 30
0.0
 11
606.5896188959738
 21
436.1616238246007
 31
0.0
  0
LINE
  5
FACCD
330
FA740
100
AcDbEntity
  8
AM_5
440
 16777216
100
AcDbLine
 10
607.5896188959738
 20
448.6616238246007
 30
0.0
 11
607.5896188959738
 21
438.6616238246006
 31
0.0
  0
SOLID
  5
FACCE
330
FA740
100
AcDbEntity
  8
AM_5
440
 16777216
100
AcDbTrace
 10
607.1729522293073
 20
448.6616238246007
 30
0.0
 11
608.0062855626405
 21
448.6616238246007
 31
0.0
 12
607.5896188959738
 22
451.1616238246007
 32
0.0
 13
607.5896188959738
 23
451.1616238246007
 33
0.0
  0
SOLID
  5
FACCF
330
FA740
100
AcDbEntity
  8
AM_5
440
 16777216
100
AcDbTrace
 10
607.1729522293073
 20
438.6616238246006
 30
0.0
 11
608.0062855626405
 21
438.6616238246006
 31
0.0
 12
607.5896188959738
 22
436.1616238246007
 32
0.0
 13
607.5896188959738
 23
436.1616238246007
 33
0.0
  0
MTEXT
  5
FACD0
330
FA740
100
AcDbEntity
  8
AM_5
 62
     2
440
 16777216
100
AcDbMText
 10
604.3396188959738
 20
443.6616238246007
 30
0.0
 40
3.5
 41
0.0
 71
     5
 72
     1
  1
15
 11
0.0000000000000001
 21
1.0
 31
0.0
 73
     1
 44
1.0
  0
POINT
  5
FACD1
330
FA740
100
AcDbEntity
  8
Defpoints
 62
     0
440
 16777216
100
AcDbPoint
 10
659.1594457280796
 20
451.1616238246006
 30
0.0
  0
POINT
  5
FACD2
330
FA740
100
AcDbEntity
  8
Defpoints
 62
     0
440
 16777216
100
AcDbPoint
 10
632.1594457232192
 20
436.1616238246007
 30
0.0
  0
POINT
  5
FACD3
330
FA740
100
AcDbEntity
  8
Defpoints
 62
     0
440
 16777216
100
AcDbPoint
 10
607.5896188959738
 20
436.1616238246007
 30
0.0
  0
ENDBLK
  5
FA74B
330
FA740
100
AcDbEntity
  8
0
100
AcDbBlockEnd
  0
BLOCK
  5
FA759
330
FA74C
100
AcDbEntity
  8
0
100
AcDbBlockBegin
  2
*D26
 70
     1
 10
0.0
 20
0.0
 30
0.0
  3
*D26
  1

  0
LINE
  5
FAC6F
330
FA74C
100
AcDbEntity
  8
AM_5
440
 16777216
100
AcDbLine
 10
620.6594457280632
 20
492.5451762647327
 30
0.0
 11
595.0062855626403
 21
492.5451762647327
 31
0.0
  0
LINE
  5
FAC70
330
FA74C
100
AcDbEntity
  8
AM_5
440
 16777216
100
AcDbLine
 10
620.6594457280632
 20
493.1451762647331
 30
0.0
 11
595.0062855626403
 21
493.1451762647331
 31
0.0
  0
LINE
  5
FAC71
330
FA74C
100
AcDbEntity
  8
AM_5
440
 16777216
100
AcDbLine
 10
596.0062855626403
 20
490.0451762647327
 30
0.0
 11
596.0062855626403
 21
487.5451762647327
 31
0.0
  0
LINE
  5
FAC72
330
FA74C
100
AcDbEntity
  8
AM_5
440
 16777216
100
AcDbLine
 10
596.0062855626403
 20
495.6451762647331
 30
0.0
 11
596.0062855626403
 21
512.8369855262446
 31
0.0
  0
LINE
  5
FAC73
330
FA74C
100
AcDbEntity
  8
AM_5
440
 16777216
100
AcDbLine
 10
596.0062855626403
 20
492.5451762647327
 30
0.0
 11
596.0062855626403
 21
493.1451762647331
 31
0.0
  0
SOLID
  5
FAC74
330
FA74C
100
AcDbEntity
  8
AM_5
440
 16777216
100
AcDbTrace
 10
595.5896188959736
 20
490.0451762647327
 30
0.0
 11
596.4229522293069
 21
490.0451762647327
 31
0.0
 12
596.0062855626403
 22
492.5451762647327
 32
0.0
 13
596.0062855626403
 23
492.5451762647327
 33
0.0
  0
SOLID
  5
FAC75
330
FA74C
100
AcDbEntity
  8
AM_5
440
 16777216
100
AcDbTrace
 10
595.5896188959736
 20
495.6451762647331
 30
0.0
 11
596.4229522293069
 21
495.6451762647331
 31
0.0
 12
596.0062855626403
 22
493.1451762647331
 32
0.0
 13
596.0062855626403
 23
493.1451762647331
 33
0.0
  0
MTEXT
  5
FAC76
330
FA74C
100
AcDbEntity
  8
AM_5
 62
     2
440
 16777216
100
AcDbMText
 10
592.7562855626401
 20
506.5251745026227
 30
0.0
 40
3.5
 41
0.0
 71
     5
 72
     1
  1
t=0.6
 11
0.0000000000000001
 21
1.0
 31
0.0
 73
     1
 44
1.0
  0
POINT
  5
FAC77
330
FA74C
100
AcDbEntity
  8
Defpoints
 62
     0
440
 16777216
100
AcDbPoint
 10
621.6594457280632
 20
492.5451762647327
 30
0.0
  0
POINT
  5
FAC78
330
FA74C
100
AcDbEntity
  8
Defpoints
 62
     0
440
 16777216
100
AcDbPoint
 10
621.6594457280632
 20
493.1451762647331
 30
0.0
  0
POINT
  5
FAC79
330
FA74C
100
AcDbEntity
  8
Defpoints
 62
     0
440
 16777216
100
AcDbPoint
 10
596.0062855626403
 20
493.1451762647331
 30
0.0
  0
ENDBLK
  5
FA75A
330
FA74C
100
AcDbEntity
  8
0
100
AcDbBlockEnd
  0
BLOCK
  5
FA765
330
FA75B
100
AcDbEntity
  8
0
100
AcDbBlockBegin
  2
*D27
 70
     1
 10
0.0
 20
0.0
 30
0.0
  3
*D27
  1

  0
LINE
  5
FACD4
330
FA75B
100
AcDbEntity
  8
AM_5
440
 16777216
100
AcDbLine
 10
639.1594457232192
 20
444.1616238246007
 30
0.0
 11
639.1594457232192
 21
465.8054066368442
 31
0.0
  0
LINE
  5
FACD5
330
FA75B
100
AcDbEntity
  8
AM_5
440
 16777216
100
AcDbLine
 10
679.1594457230301
 20
444.1616238245898
 30
0.0
 11
679.1594457230301
 21
465.8054066368442
 31
0.0
  0
LINE
  5
FACD6
330
FA75B
100
AcDbEntity
  8
AM_5
440
 16777216
100
AcDbLine
 10
641.6594457232193
 20
464.8054066368441
 30
0.0
 11
676.6594457230301
 21
464.8054066368441
 31
0.0
  0
SOLID
  5
FACD7
330
FA75B
100
AcDbEntity
  8
AM_5
440
 16777216
100
AcDbTrace
 10
641.6594457232193
 20
465.2220733035108
 30
0.0
 11
641.6594457232193
 21
464.3887399701775
 31
0.0
 12
639.1594457232192
 22
464.8054066368441
 32
0.0
 13
639.1594457232192
 23
464.8054066368441
 33
0.0
  0
SOLID
  5
FACD8
330
FA75B
100
AcDbEntity
  8
AM_5
440
 16777216
100
AcDbTrace
 10
676.6594457230301
 20
465.2220733035108
 30
0.0
 11
676.6594457230301
 21
464.3887399701775
 31
0.0
 12
679.1594457230301
 22
464.8054066368441
 32
0.0
 13
679.1594457230301
 23
464.8054066368441
 33
0.0
  0
MTEXT
  5
FACD9
330
FA75B
100
AcDbEntity
  8
AM_5
 62
     2
440
 16777216
100
AcDbMText
 10
659.1594457231247
 20
468.0554066368442
 30
0.0
 40
3.5
 41
0.0
 71
     5
 72
     1
  1
40
 73
     1
 44
1.0
  0
POINT
  5
FACDA
330
FA75B
100
AcDbEntity
  8
Defpoints
 62
     0
440
 16777216
100
AcDbPoint
 10
639.1594457232192
 20
443.1616238246006
 30
0.0
  0
POINT
  5
FACDB
330
FA75B
100
AcDbEntity
  8
Defpoints
 62
     0
440
 16777216
100
AcDbPoint
 10
679.1594457230301
 20
443.1616238245898
 30
0.0
  0
POINT
  5
FACDC
330
FA75B
100
AcDbEntity
  8
Defpoints
 62
     0
440
 16777216
100
AcDbPoint
 10
679.1594457230301
 20
464.8054066368441
 30
0.0
  0
ENDBLK
  5
FA766
330
FA75B
100
AcDbEntity
  8
0
100
AcDbBlockEnd
  0
BLOCK
  5
FA8F6
330
FA8F5
100
AcDbEntity
  8
0
100
AcDbBlockBegin
  2
_ACMFILLED15
 70
     0
 10
0.0
 20
0.0
 30
0.0
  3
_ACMFILLED15
  1

  0
TRACE
  5
FA8F8
330
FA8F5
100
AcDbEntity
  8
04_ele1_0.15
 62
     0
100
AcDbTrace
 10
-1.0
 20
-0.131652497
 30
0.0
 11
-1.0
 21
0.131652497
 31
0.0
 12
0.0
 22
0.0
 32
0.0
 13
0.0
 23
0.0
 33
0.0
  0
ENDBLK
  5
FA8F7
330
FA8F5
100
AcDbEntity
  8
0
100
AcDbBlockEnd
  0
BLOCK
  5
FAB0C
330
FAB0B
100
AcDbEntity
  8
0
100
AcDbBlockBegin
  2
*D29
 70
     1
 10
0.0
 20
0.0
 30
0.0
  3
*D29
  1

  0
LINE
  5
FACEF
330
FAB0B
100
AcDbEntity
  8
AM_5
440
 16777216
100
AcDbLine
 10
787.7352786629715
 20
482.4298815003963
 30
0.0
 11
773.6614121730079
 21
482.4298815003963
 31
0.0
  0
LINE
  5
FACF0
330
FAB0B
100
AcDbEntity
  8
AM_5
440
 16777216
100
AcDbLine
 10
791.8352786629711
 20
407.4298815003954
 30
0.0
 11
773.6614121730079
 21
407.4298815003954
 31
0.0
  0
LINE
  5
FACF1
330
FAB0B
100
AcDbEntity
  8
AM_5
440
 16777216
100
AcDbLine
 10
774.661412173008
 20
479.9298815003964
 30
0.0
 11
774.661412173008
 21
409.9298815003955
 31
0.0
  0
SOLID
  5
FACF2
330
FAB0B
100
AcDbEntity
  8
AM_5
440
 16777216
100
AcDbTrace
 10
774.2447455063413
 20
479.9298815003964
 30
0.0
 11
775.0780788396746
 21
479.9298815003964
 31
0.0
 12
774.661412173008
 22
482.4298815003963
 32
0.0
 13
774.661412173008
 23
482.4298815003963
 33
0.0
  0
SOLID
  5
FACF3
330
FAB0B
100
AcDbEntity
  8
AM_5
440
 16777216
100
AcDbTrace
 10
774.2447455063413
 20
409.9298815003955
 30
0.0
 11
775.0780788396746
 21
409.9298815003955
 31
0.0
 12
774.661412173008
 22
407.4298815003954
 32
0.0
 13
774.661412173008
 23
407.4298815003954
 33
0.0
  0
MTEXT
  5
FACF4
330
FAB0B
100
AcDbEntity
  8
AM_5
 62
     2
440
 16777216
100
AcDbMText
 10
771.4114121730078
 20
444.929881500396
 30
0.0
 40
3.5
 41
0.0
 71
     5
 72
     1
  1
75
 11
0.0000000000000001
 21
1.0
 31
0.0
 73
     1
 44
1.0
  0
POINT
  5
FACF5
330
FAB0B
100
AcDbEntity
  8
Defpoints
 62
     0
440
 16777216
100
AcDbPoint
 10
788.7352786629715
 20
482.4298815003963
 30
0.0
  0
POINT
  5
FACF6
330
FAB0B
100
AcDbEntity
  8
Defpoints
 62
     0
440
 16777216
100
AcDbPoint
 10
792.835278662971
 20
407.4298815003954
 30
0.0
  0
POINT
  5
FACF7
330
FAB0B
100
AcDbEntity
  8
Defpoints
 62
     0
440
 16777216
100
AcDbPoint
 10
774.661412173008
 20
407.4298815003954
 30
0.0
  0
ENDBLK
  5
FAB0D
330
FAB0B
100
AcDbEntity
  8
0
100
AcDbBlockEnd
  0
BLOCK
  5
FAB18
330
FAB17
100
AcDbEntity
  8
0
100
AcDbBlockBegin
  2
*D30
 70
     1
 10
0.0
 20
0.0
 30
0.0
  3
*D30
  1

  0
LINE
  5
FACF8
330
FAB17
100
AcDbEntity
  8
AM_5
440
 16777216
100
AcDbLine
 10
790.0852786629712
 20
429.2958185151501
 30
0.0
 11
790.0852786629712
 21
425.324144802198
 31
0.0
  0
LINE
  5
FACF9
330
FAB17
100
AcDbEntity
  8
AM_5
440
 16777216
100
AcDbLine
 10
795.5852786629711
 20
429.733893716227
 30
0.0
 11
795.5852786629711
 21
425.324144802198
 31
0.0
  0
LINE
  5
FACFA
330
FAB17
100
AcDbEntity
  8
AM_5
440
 16777216
100
AcDbLine
 10
787.5852786629711
 20
426.324144802198
 30
0.0
 11
785.0852786629712
 21
426.324144802198
 31
0.0
  0
LINE
  5
FACFB
330
FAB17
100
AcDbEntity
  8
AM_5
440
 16777216
100
AcDbLine
 10
798.0852786629712
 20
426.324144802198
 30
0.0
 11
811.7802534098016
 21
426.324144802198
 31
0.0
  0
LINE
  5
FACFC
330
FAB17
100
AcDbEntity
  8
AM_5
440
 16777216
100
AcDbLine
 10
790.0852786629712
 20
426.324144802198
 30
0.0
 11
795.5852786629711
 21
426.324144802198
 31
0.0
  0
SOLID
  5
FACFD
330
FAB17
100
AcDbEntity
  8
AM_5
440
 16777216
100
AcDbTrace
 10
787.5852786629711
 20
426.7408114688647
 30
0.0
 11
787.5852786629711
 21
425.9074781355313
 31
0.0
 12
790.0852786629712
 22
426.324144802198
 32
0.0
 13
790.0852786629712
 23
426.324144802198
 33
0.0
  0
SOLID
  5
FACFE
330
FAB17
100
AcDbEntity
  8
AM_5
440
 16777216
100
AcDbTrace
 10
798.0852786629712
 20
426.7408114688647
 30
0.0
 11
798.0852786629712
 21
425.9074781355313
 31
0.0
 12
795.5852786629711
 22
426.324144802198
 32
0.0
 13
795.5852786629711
 23
426.324144802198
 33
0.0
  0
MTEXT
  5
FACFF
330
FAB17
100
AcDbEntity
  8
AM_5
 62
     2
440
 16777216
100
AcDbMText
 10
806.1827660363865
 20
429.5741448021979
 30
0.0
 40
3.5
 41
0.0
 71
     5
 72
     1
  1
%%c5.5
 73
     1
 44
1.0
  0
POINT
  5
FAD00
330
FAB17
100
AcDbEntity
  8
Defpoints
 62
     0
440
 16777216
100
AcDbPoint
 10
790.0852786629712
 20
430.2958185151502
 30
0.0
  0
POINT
  5
FAD01
330
FAB17
100
AcDbEntity
  8
Defpoints
 62
     0
440
 16777216
100
AcDbPoint
 10
795.5852786629711
 20
430.733893716227
 30
0.0
  0
POINT
  5
FAD02
330
FAB17
100
AcDbEntity
  8
Defpoints
 62
     0
440
 16777216
100
AcDbPoint
 10
795.5852786629711
 20
426.324144802198
 30
0.0
  0
ENDBLK
  5
FAB19
330
FAB17
100
AcDbEntity
  8
0
100
AcDbBlockEnd
  0
BLOCK
  5
FAB26
330
FAB25
100
AcDbEntity
  8
0
100
AcDbBlockBegin
  2
*D31
 70
     1
 10
0.0
 20
0.0
 30
0.0
  3
*D31
  1

  0
LINE
  5
FAD0E
330
FAB25
100
AcDbEntity
  8
AM_5
440
 16777216
100
AcDbLine
 10
788.8352786629714
 20
514.3666280629491
 30
0.0
 11
788.8352786629714
 21
523.6907797418573
 31
0.0
  0
LINE
  5
FAD0F
330
FAB25
100
AcDbEntity
  8
AM_5
440
 16777216
100
AcDbLine
 10
796.8352786629714
 20
514.3666280629491
 30
0.0
 11
796.8352786629714
 21
523.6907797418573
 31
0.0
  0
LINE
  5
FAD10
330
FAB25
100
AcDbEntity
  8
AM_5
440
 16777216
100
AcDbLine
 10
791.3352786629713
 20
522.6907797418573
 30
0.0
 11
794.3352786629714
 21
522.6907797418573
 31
0.0
  0
SOLID
  5
FAD11
330
FAB25
100
AcDbEntity
  8
AM_5
440
 16777216
100
AcDbTrace
 10
791.3352786629713
 20
523.107446408524
 30
0.0
 11
791.3352786629713
 21
522.2741130751907
 31
0.0
 12
788.8352786629714
 22
522.6907797418573
 32
0.0
 13
788.8352786629714
 23
522.6907797418573
 33
0.0
  0
SOLID
  5
FAD12
330
FAB25
100
AcDbEntity
  8
AM_5
440
 16777216
100
AcDbTrace
 10
794.3352786629714
 20
523.107446408524
 30
0.0
 11
794.3352786629714
 21
522.2741130751907
 31
0.0
 12
796.8352786629714
 22
522.6907797418573
 32
0.0
 13
796.8352786629714
 23
522.6907797418573
 33
0.0
  0
MTEXT
  5
FAD13
330
FAB25
100
AcDbEntity
  8
AM_5
 62
     2
440
 16777216
100
AcDbMText
 10
792.8352786629714
 20
525.9407797418573
 30
0.0
 40
3.5
 41
0.0
 71
     5
 72
     1
  1
%%c8
 73
     1
 44
1.0
  0
POINT
  5
FAD14
330
FAB25
100
AcDbEntity
  8
Defpoints
 62
     0
440
 16777216
100
AcDbPoint
 10
788.8352786629714
 20
513.3666280629491
 30
0.0
  0
POINT
  5
FAD15
330
FAB25
100
AcDbEntity
  8
Defpoints
 62
     0
440
 16777216
100
AcDbPoint
 10
796.8352786629714
 20
513.3666280629491
 30
0.0
  0
POINT
  5
FAD16
330
FAB25
100
AcDbEntity
  8
Defpoints
 62
     0
440
 16777216
100
AcDbPoint
 10
796.8352786629714
 20
522.6907797418573
 30
0.0
  0
ENDBLK
  5
FAB27
330
FAB25
100
AcDbEntity
  8
0
100
AcDbBlockEnd
  0
BLOCK
  5
FAB34
330
FAB33
100
AcDbEntity
  8
0
100
AcDbBlockBegin
  2
*D32
 70
     1
 10
0.0
 20
0.0
 30
0.0
  3
*D32
  1

  0
LINE
  5
FAD03
330
FAB33
100
AcDbEntity
  8
AM_5
440
 16777216
100
AcDbLine
 10
795.8352786629713
 20
476.9298815003963
 30
0.0
 11
809.9352786629713
 21
476.9298815003963
 31
0.0
  0
LINE
  5
FAD04
330
FAB33
100
AcDbEntity
  8
AM_5
440
 16777216
100
AcDbLine
 10
797.9352786629712
 20
482.4298815003963
 30
0.0
 11
809.9352786629713
 21
482.4298815003963
 31
0.0
  0
LINE
  5
FAD05
330
FAB33
100
AcDbEntity
  8
AM_5
440
 16777216
100
AcDbLine
 10
808.9352786629714
 20
474.4298815003962
 30
0.0
 11
808.9352786629714
 21
471.9298815003963
 31
0.0
  0
LINE
  5
FAD06
330
FAB33
100
AcDbEntity
  8
AM_5
440
 16777216
100
AcDbLine
 10
808.9352786629714
 20
484.9298815003963
 30
0.0
 11
808.9352786629714
 21
495.474856247227
 31
0.0
  0
LINE
  5
FAD07
330
FAB33
100
AcDbEntity
  8
AM_5
440
 16777216
100
AcDbLine
 10
808.9352786629714
 20
476.9298815003963
 30
0.0
 11
808.9352786629714
 21
482.4298815003963
 31
0.0
  0
SOLID
  5
FAD08
330
FAB33
100
AcDbEntity
  8
AM_5
440
 16777216
100
AcDbTrace
 10
808.5186119963047
 20
474.4298815003962
 30
0.0
 11
809.3519453296378
 21
474.4298815003962
 31
0.0
 12
808.9352786629714
 22
476.9298815003963
 32
0.0
 13
808.9352786629714
 23
476.9298815003963
 33
0.0
  0
SOLID
  5
FAD09
330
FAB33
100
AcDbEntity
  8
AM_5
440
 16777216
100
AcDbTrace
 10
808.5186119963047
 20
484.9298815003963
 30
0.0
 11
809.3519453296378
 21
484.9298815003963
 31
0.0
 12
808.9352786629714
 22
482.4298815003963
 32
0.0
 13
808.9352786629714
 23
482.4298815003963
 33
0.0
  0
MTEXT
  5
FAD0A
330
FAB33
100
AcDbEntity
  8
AM_5
 62
     2
440
 16777216
100
AcDbMText
 10
805.6852786629711
 20
491.4523688738118
 30
0.0
 40
3.5
 41
0.0
 71
     5
 72
     1
  1
5.5
 11
0.0000000000000001
 21
1.0
 31
0.0
 73
     1
 44
1.0
  0
POINT
  5
FAD0B
330
FAB33
100
AcDbEntity
  8
Defpoints
 62
     0
440
 16777216
100
AcDbPoint
 10
794.8352786629713
 20
476.9298815003963
 30
0.0
  0
POINT
  5
FAD0C
330
FAB33
100
AcDbEntity
  8
Defpoints
 62
     0
440
 16777216
100
AcDbPoint
 10
796.9352786629713
 20
482.4298815003963
 30
0.0
  0
POINT
  5
FAD0D
330
FAB33
100
AcDbEntity
  8
Defpoints
 62
     0
440
 16777216
100
AcDbPoint
 10
808.9352786629714
 20
482.4298815003963
 30
0.0
  0
ENDBLK
  5
FAB35
330
FAB33
100
AcDbEntity
  8
0
100
AcDbBlockEnd
  0
BLOCK
  5
FABA9
330
FABA8
100
AcDbEntity
  8
0
100
AcDbBlockBegin
  2
*D33
 70
     1
 10
0.0
 20
0.0
 30
0.0
  3
*D33
  1

  0
LINE
  5
FABE2
330
FABA8
100
AcDbEntity
  8
AM_5
440
 16777216
100
AcDbLine
 10
658.1594457280796
 20
451.1616238246006
 30
0.0
 11
582.4644979479254
 21
451.1616238246007
 31
0.0
  0
LINE
  5
FABE3
330
FABA8
100
AcDbEntity
  8
AM_5
440
 16777216
100
AcDbLine
 10
620.659445728065
 20
151.1616238246002
 30
0.0
 11
582.4644979479253
 21
151.1616238246002
 31
0.0
  0
LINE
  5
FABE4
330
FABA8
100
AcDbEntity
  8
AM_5
440
 16777216
100
AcDbLine
 10
583.4644979479254
 20
448.6616238246007
 30
0.0
 11
583.4644979479253
 21
153.6616238246002
 31
0.0
  0
SOLID
  5
FABE5
330
FABA8
100
AcDbEntity
  8
AM_5
440
 16777216
100
AcDbTrace
 10
583.0478312812588
 20
448.6616238246007
 30
0.0
 11
583.881164614592
 21
448.6616238246007
 31
0.0
 12
583.4644979479254
 22
451.1616238246007
 32
0.0
 13
583.4644979479254
 23
451.1616238246007
 33
0.0
  0
SOLID
  5
FABE6
330
FABA8
100
AcDbEntity
  8
AM_5
440
 16777216
100
AcDbTrace
 10
583.0478312812586
 20
153.6616238246002
 30
0.0
 11
583.8811646145919
 21
153.6616238246002
 31
0.0
 12
583.4644979479253
 22
151.1616238246002
 32
0.0
 13
583.4644979479253
 23
151.1616238246002
 33
0.0
  0
MTEXT
  5
FABE7
330
FABA8
100
AcDbEntity
  8
AM_5
 62
     2
440
 16777216
100
AcDbMText
 10
580.2144979479253
 20
301.1616238246006
 30
0.0
 40
3.5
 41
0.0
 71
     5
 72
     1
  1
300
 11
0.0000000000000001
 21
1.0
 31
0.0
 73
     1
 44
1.0
  0
POINT
  5
FABE8
330
FABA8
100
AcDbEntity
  8
Defpoints
 62
     0
440
 16777216
100
AcDbPoint
 10
659.1594457280796
 20
451.1616238246006
 30
0.0
  0
POINT
  5
FABE9
330
FABA8
100
AcDbEntity
  8
Defpoints
 62
     0
440
 16777216
100
AcDbPoint
 10
621.659445728065
 20
151.1616238246002
 30
0.0
  0
POINT
  5
FABEA
330
FABA8
100
AcDbEntity
  8
Defpoints
 62
     0
440
 16777216
100
AcDbPoint
 10
583.4644979479253
 20
151.1616238246002
 30
0.0
  0
ENDBLK
  5
FABAA
330
FABA8
100
AcDbEntity
  8
0
100
AcDbBlockEnd
  0
ENDSEC
  0
SECTION
  2
ENTITIES
  0
LINE
  5
FA588
330
1F
100
AcDbEntity
  8
AM_5
100
AcDbLine
 10
686.0465003641937
 20
151.1616238245966
 30
0.0
 11
696.6594457280796
 21
151.1616238246002
 31
0.0
  0
DIMENSION
  5
FA589
330
1F
100
AcDbEntity
  8
AM_5
100
AcDbDimension
  2
*D2
 10
696.6594457280796
 20
106.8581504863933
 30
0.0
 11
689.1594457280795
 21
110.1081504863933
 31
0.0
 70
    32
 71
     5
 42
15.0
  3
AM_ISO$0
100
AcDbAlignedDimension
 13
681.6594457280796
 23
164.161623824593
 33
0.0
 14
696.6594457280796
 24
151.1616238246002
 34
0.0
100
AcDbRotatedDimension
1001
ACAD_DSTYLE_DIMINSPECT
1070
   396
1000
100%
1070
   395
1000

1070
   394
1070
    33
1070
   393
1070
     0
  0
DIMENSION
  5
FA58A
330
1F
100
AcDbEntity
  8
AM_5
100
AcDbDimension
  2
*D3
 10
680.5230363579944
 20
193.8788461867759
 30
0.0
 11
707.1830815726285
 21
247.4325713147672
 31
0.0
 70
   163
  1
13-<>
 71
     5
 42
5.100000000000534
  3
AM_ISO$3
100
AcDbDiametricDimension
 15
682.7958550981636
 25
198.444401462352
 35
0.0
 40
0.0
1001
ACAD
1000
DSTYLE
1002
{
1070
    74
1070
     0
1070
   172
1070
     1
1070
   288
1070
     0
1070
   289
1070
     3
1002
}
1001
ACAD_DSTYLE_DIMINSPECT
1070
   396
1000
100%
1070
   395
1000

1070
   394
1070
    33
1070
   393
1070
     0
  0
DIMENSION
  5
FA58B
330
1F
100
AcDbEntity
  8
AM_5
100
AcDbDimension
  2
*D4
 10
696.659445728065
 20
307.5477771920142
 30
0.0
 11
677.909445728065
 21
310.7977771920142
 31
0.0
 70
    32
 71
     5
 42
37.5
  3
AM_ISO$0
100
AcDbAlignedDimension
 13
659.159445728065
 23
293.1616238245889
 33
0.0
 14
696.659445728065
 24
293.1616238245889
 34
0.0
100
AcDbRotatedDimension
1001
ACAD_DSTYLE_DIMINSPECT
1070
   396
1000
100%
1070
   395
1000

1070
   394
1070
    33
1070
   393
1070
     0
  0
DIMENSION
  5
FA58C
330
1F
100
AcDbEntity
  8
AM_5
100
AcDbDimension
  2
*D5
 10
696.6594457280141
 20
464.8054066368441
 30
0.0
 11
687.9094457255221
 21
468.0554066368442
 31
0.0
 70
    32
 71
     5
 42
17.50000000498403
  3
AM_ISO$0
100
AcDbAlignedDimension
 13
679.1594457230301
 23
443.1616238245898
 33
0.0
 14
696.6594457280141
 24
441.1135291084711
 34
0.0
100
AcDbRotatedDimension
1001
ACAD_DSTYLE_DIMINSPECT
1070
   396
1000
100%
1070
   395
1000

1070
   394
1070
    33
1070
   393
1070
     0
  0
DIMENSION
  5
FA58D
330
1F
100
AcDbEntity
  8
AM_5
100
AcDbDimension
  2
*D6
 10
673.1594457275412
 20
388.3612652963967
 30
0.0
 11
684.9094457278022
 21
391.6116097845857
 31
0.0
 70
    32
 71
     5
 42
23.50000000052205
  3
AM_ISO$0
100
AcDbAlignedDimension
 13
696.6594457280632
 23
399.1616238245898
 33
0.0
 14
673.1594457275412
 24
399.1616238245953
 34
0.0
100
AcDbRotatedDimension
1001
ACAD_DSTYLE_DIMINSPECT
1070
   396
1000
100%
1070
   395
1000

1070
   394
1070
    33
1070
   393
1070
     0
  0
ARC
  5
FA58E
330
1F
100
AcDbEntity
  8
AM_5
100
AcDbCircle
 10
659.1594457280796
 20
376.1616238246007
 30
0.0
 40
75.0
100
AcDbArc
 50
60.00000000006046
 51
119.9999999999395
  0
LINE
  5
FA58F
330
1F
100
AcDbEntity
  8
AM_5
100
AcDbLine
 10
696.659445728065
 20
493.1451762647331
 30
0.0
 11
621.6594457280641
 21
493.1451762647331
 31
0.0
  0
LINE
  5
FA590
330
1F
100
AcDbEntity
  8
AM_5
100
AcDbLine
 10
696.659445728065
 20
492.5451762647327
 30
0.0
 11
621.6594457280641
 21
492.5451762647327
 31
0.0
  0
DIMENSION
  5
FA591
330
1F
100
AcDbEntity
  8
AM_5
100
AcDbDimension
  2
*D7
 10
696.659445728065
 20
506.5251745026222
 30
0.0
 11
659.1594457280645
 21
506.5251745026222
 31
0.0
 70
   160
 71
     5
 42
75.00000000000091
  3
AM_ISO$0
100
AcDbAlignedDimension
 13
621.6594457280641
 23
493.1451762647331
 33
0.0
 14
696.659445728065
 24
493.1451762646767
 34
0.0
100
AcDbRotatedDimension
1001
ACAD_DSTYLE_DIMINSPECT
1070
   396
1000
100%
1070
   395
1000

1070
   394
1070
    33
1070
   393
1070
     0
  0
DIMENSION
  5
FA592
330
1F
100
AcDbEntity
  8
AM_5
100
AcDbDimension
  2
*D8
 10
735.9454872116819
 20
171.1616238245929
 30
0.0
 11
732.6951427234929
 21
161.1616238245967
 31
0.0
 70
    32
 71
     5
 42
19.99999999999272
  3
AM_ISO$0
100
AcDbAlignedDimension
 13
696.6594457280796
 23
151.1616238246002
 33
0.0
 14
688.6594457280796
 24
171.161623824593
 34
0.0
 50
90.0
100
AcDbRotatedDimension
1001
ACAD_DSTYLE_DIMINSPECT
1070
   396
1000
100%
1070
   395
1000

1070
   394
1070
    33
1070
   393
1070
     0
  0
DIMENSION
  5
FA593
330
1F
100
AcDbEntity
  8
AM_5
100
AcDbDimension
  2
*D9
 10
735.9454872116819
 20
196.1616238245638
 30
0.0
 11
732.6951427234929
 21
183.6616238245785
 31
0.0
 70
    32
 71
     5
 42
24.9999999999709
  3
AM_ISO$0
100
AcDbAlignedDimension
 13
688.6594457280796
 23
171.161623824593
 33
0.0
 14
688.6594457280796
 24
196.1616238245639
 34
0.0
 50
90.0
100
AcDbRotatedDimension
1001
ACAD_DSTYLE_DIMINSPECT
1070
   396
1000
100%
1070
   395
1000

1070
   394
1070
    33
1070
   393
1070
     0
  0
LINE
  5
FA595
330
1F
100
AcDbEntity
  8
AM_5
100
AcDbLine
 10
621.659445728065
 20
441.1135291084266
 30
0.0
 11
621.659445728065
 21
151.1616238246002
 31
0.0
  0
DIMENSION
  5
FA596
330
1F
100
AcDbEntity
  8
AM_5
100
AcDbDimension
  2
*D10
 10
607.5896188959738
 20
406.1616238246007
 30
0.0
 11
604.3396188959738
 21
421.1616238246008
 31
0.0
 70
    32
 71
     5
 42
30.0
  3
AM_ISO$0
100
AcDbAlignedDimension
 13
632.1594457232192
 23
436.1616238246007
 33
0.0
 14
638.1594457232193
 24
406.1616238246007
 34
0.0
 50
90.0
100
AcDbRotatedDimension
1001
ACAD_DSTYLE_DIMINSPECT
1070
   396
1000
100%
1070
   395
1000

1070
   394
1070
    33
1070
   393
1070
     0
  0
CIRCLE
  5
FA597
330
1F
100
AcDbEntity
  8
AM_5
100
AcDbCircle
 10
645.1594457285889
 20
406.1437200341353
 30
0.0
 40
5.0
  0
LINE
  5
FA598
330
1F
100
AcDbEntity
  8
AM_5
100
AcDbLine
 10
645.1594457285889
 20
399.1616238246062
 30
0.0
 11
645.1594457285889
 21
413.1616238246062
 31
0.0
  0
CIRCLE
  5
FA599
330
1F
100
AcDbEntity
  8
AM_5
100
AcDbCircle
 10
673.1594457275412
 20
406.1437200341243
 30
0.0
 40
5.0
  0
LINE
  5
FA59A
330
1F
100
AcDbEntity
  8
AM_5
100
AcDbLine
 10
673.1594457275412
 20
399.1616238245953
 30
0.0
 11
673.1594457275412
 21
413.1616238245952
 31
0.0
  0
DIMENSION
  5
FA59C
330
1F
100
AcDbEntity
  8
AM_5
100
AcDbDimension
  2
*D11
 10
636.6594457280796
 20
106.8581504863933
 30
0.0
 11
629.1594457280796
 21
110.1081504863933
 31
0.0
 70
    32
 71
     5
 42
15.0
  3
AM_ISO$0
100
AcDbAlignedDimension
 13
621.6594457280796
 23
151.1616238246002
 33
0.0
 14
636.6594457280796
 24
159.1616238245893
 34
0.0
100
AcDbRotatedDimension
1001
ACAD_DSTYLE_DIMINSPECT
1070
   396
1000
100%
1070
   395
1000

1070
   394
1070
    33
1070
   393
1070
     0
  0
DIMENSION
  5
FA59D
330
1F
100
AcDbEntity
  8
AM_5
100
AcDbDimension
  2
*D12
 10
681.6594457280796
 20
106.8581504863933
 30
0.0
 11
670.4094457280795
 21
110.1084949745823
 31
0.0
 70
    32
 71
     5
 42
22.5
  3
AM_ISO$0
100
AcDbAlignedDimension
 13
659.1594457280796
 23
174.1616238245893
 33
0.0
 14
681.6594457280796
 24
164.161623824593
 34
0.0
100
AcDbRotatedDimension
1001
ACAD_DSTYLE_DIMINSPECT
1070
   396
1000
100%
1070
   395
1000

1070
   394
1070
    33
1070
   393
1070
     0
  0
DIMENSION
  5
FA59E
330
1F
100
AcDbEntity
  8
AM_5
100
AcDbDimension
  2
*D13
 10
659.1594457280796
 20
106.8581504863933
 30
0.0
 11
647.9094457280796
 21
110.1084949745823
 31
0.0
 70
    32
 71
     5
 42
22.5
  3
AM_ISO$0
100
AcDbAlignedDimension
 13
636.6594457280796
 23
159.1616238245893
 33
0.0
 14
659.1594457280796
 24
174.1616238245893
 34
0.0
100
AcDbRotatedDimension
1001
ACAD_DSTYLE_DIMINSPECT
1070
   396
1000
100%
1070
   395
1000

1070
   394
1070
    33
1070
   393
1070
     0
  0
DIMENSION
  5
FA5A0
330
1F
100
AcDbEntity
  8
AM_5
100
AcDbDimension
  2
*D14
 10
607.5896188959738
 20
206.1616238245894
 30
0.0
 11
604.3396188959738
 21
246.1616238245897
 31
0.0
 70
    32
 71
     5
 42
80.00000000000047
  3
AM_ISO$0
100
AcDbAlignedDimension
 13
652.1594457224043
 23
286.1616238245898
 33
0.0
 14
652.1594457280796
 24
206.1616238245894
 34
0.0
 50
90.0
100
AcDbRotatedDimension
1001
ACAD_DSTYLE_DIMINSPECT
1070
   396
1000
100%
1070
   395
1000

1070
   394
1070
    33
1070
   393
1070
     0
  0
CIRCLE
  5
FA5A1
330
1F
100
AcDbEntity
  8
AM_5
100
AcDbCircle
 10
636.6594457280796
 20
166.1437200341184
 30
0.0
 40
5.0
  0
ARC
  5
FA5A2
330
1F
100
AcDbEntity
  8
AM_5
100
AcDbCircle
 10
659.1594457280796
 20
81.14672331767508
 30
0.0
 40
75.0
100
AcDbArc
 50
68.99226002596295
 51
111.007739974037
  0
CIRCLE
  5
FA5A3
330
1F
100
AcDbEntity
  8
AM_5
100
AcDbCircle
 10
636.6594457280796
 20
191.1437200341184
 30
0.0
 40
5.0
  0
LINE
  5
FA5A4
330
1F
100
AcDbEntity
  8
AM_5
100
AcDbLine
 10
629.6594457280796
 20
191.1616238245893
 30
0.0
 11
643.6594457280796
 21
191.1616238245893
 31
0.0
  0
LINE
  5
FA5A5
330
1F
100
AcDbEntity
  8
AM_5
100
AcDbLine
 10
629.6594457280796
 20
166.1616238245893
 30
0.0
 11
643.6594457280796
 21
166.1616238245893
 31
0.0
  0
DIMENSION
  5
FA5A6
330
1F
100
AcDbEntity
  8
AM_5
100
AcDbDimension
  2
*D15
 10
607.5896188959738
 20
191.1616238245893
 30
0.0
 11
604.3396188959738
 21
198.6616238245894
 31
0.0
 70
    32
 71
     5
 42
15.0
  3
AM_ISO$0
100
AcDbAlignedDimension
 13
652.1594457280796
 23
206.1616238245894
 33
0.0
 14
629.6594457280796
 24
191.1616238245893
 34
0.0
 50
90.0
100
AcDbRotatedDimension
1001
ACAD_DSTYLE_DIMINSPECT
1070
   396
1000
100%
1070
   395
1000

1070
   394
1070
    33
1070
   393
1070
     0
  0
DIMENSION
  5
FA5A7
330
1F
100
AcDbEntity
  8
AM_5
100
AcDbDimension
  2
*D16
 10
607.5896188959738
 20
181.1616238245893
 30
0.0
 11
604.3396188959738
 21
186.1616238245894
 31
0.0
 70
    32
 71
     5
 42
10.0
  3
AM_ISO$0
100
AcDbAlignedDimension
 13
629.6594457280796
 23
191.1616238245893
 33
0.0
 14
652.1594457280796
 24
181.1616238245893
 34
0.0
 50
90.0
100
AcDbRotatedDimension
1001
ACAD_DSTYLE_DIMINSPECT
1070
   396
1000
100%
1070
   395
1000

1070
   394
1070
    33
1070
   393
1070
     0
  0
DIMENSION
  5
FA5A8
330
1F
100
AcDbEntity
  8
AM_5
100
AcDbDimension
  2
*D17
 10
607.5896188959738
 20
166.1616238245893
 30
0.0
 11
604.3396188959738
 21
173.6616238245894
 31
0.0
 70
    32
 71
     5
 42
15.0
  3
AM_ISO$0
100
AcDbAlignedDimension
 13
652.1594457280796
 23
181.1616238245893
 33
0.0
 14
629.6594457280796
 24
166.1616238245893
 34
0.0
 50
90.0
100
AcDbRotatedDimension
1001
ACAD_DSTYLE_DIMINSPECT
1070
   396
1000
100%
1070
   395
1000

1070
   394
1070
    33
1070
   393
1070
     0
  0
CIRCLE
  5
FA5A9
330
1F
100
AcDbEntity
  8
AM_5
100
AcDbCircle
 10
636.6594457280796
 20
166.1616238245893
 30
0.0
 40
2.549999999999999
  0
CIRCLE
  5
FA5AA
330
1F
100
AcDbEntity
  8
AM_5
100
AcDbCircle
 10
636.6594457280796
 20
191.1616238245893
 30
0.0
 40
2.549999999999999
  0
DIMENSION
  5
FA5AB
330
1F
100
AcDbEntity
  8
AM_5
100
AcDbDimension
  2
*D18
 10
607.5896188959738
 20
286.1616238245899
 30
0.0
 11
604.3396188959738
 21
331.1616238245953
 31
0.0
 70
    32
 71
     5
 42
90.00000000001085
  3
AM_ISO$0
100
AcDbAlignedDimension
 13
632.1594457232192
 23
376.1616238246007
 33
0.0
 14
652.1594457224043
 24
286.1616238245898
 34
0.0
 50
90.0
100
AcDbRotatedDimension
1001
ACAD_DSTYLE_DIMINSPECT
1070
   396
1000
100%
1070
   395
1000

1070
   394
1070
    33
1070
   393
1070
     0
  0
DIMENSION
  5
FA5AC
330
1F
100
AcDbEntity
  8
AM_5
100
AcDbDimension
  2
*D19
 10
621.659445728065
 20
307.5477771920142
 30
0.0
 11
640.409445728065
 21
310.7977771920142
 31
0.0
 70
    32
 71
     5
 42
37.5
  3
AM_ISO$0
100
AcDbAlignedDimension
 13
659.159445728065
 23
293.1616238245889
 33
0.0
 14
621.659445728065
 24
293.1616238245889
 34
0.0
100
AcDbRotatedDimension
1001
ACAD_DSTYLE_DIMINSPECT
1070
   396
1000
100%
1070
   395
1000

1070
   394
1070
    33
1070
   393
1070
     0
  0
LINE
  5
FA5AD
330
1F
100
AcDbEntity
  8
AM_5
100
AcDbLine
 10
632.1594457232192
 20
376.1616238246007
 30
0.0
 11
646.1594457232193
 21
376.1616238246007
 31
0.0
  0
DIMENSION
  5
FA5AE
330
1F
100
AcDbEntity
  8
AM_5
100
AcDbDimension
  2
*D20
 10
621.6594457280769
 20
388.3612652963967
 30
0.0
 11
633.4094457256421
 21
388.3612652963967
 31
0.0
 70
   160
 71
     5
 42
23.50000000051204
  3
AM_ISO$0
100
AcDbAlignedDimension
 13
645.1594457285889
 23
399.1616238246062
 33
0.0
 14
621.6594457280769
 24
399.1616238245998
 34
0.0
100
AcDbRotatedDimension
1001
ACAD_DSTYLE_DIMINSPECT
1070
   396
1000
100%
1070
   395
1000

1070
   394
1070
    33
1070
   393
1070
     0
  0
DIMENSION
  5
FA5AF
330
1F
100
AcDbEntity
  8
AM_5
100
AcDbDimension
  2
*D21
 10
607.5896188959738
 20
376.1616238246007
 30
0.0
 11
604.3396188959738
 21
391.1616238246008
 31
0.0
 70
    32
 71
     5
 42
30.0
  3
AM_ISO$0
100
AcDbAlignedDimension
 13
638.1594457232193
 23
406.1616238246007
 33
0.0
 14
632.1594457232192
 24
376.1616238246007
 34
0.0
 50
90.0
100
AcDbRotatedDimension
1001
ACAD_DSTYLE_DIMINSPECT
1070
   396
1000
100%
1070
   395
1000

1070
   394
1070
    33
1070
   393
1070
     0
  0
CIRCLE
  5
FA5B0
330
1F
100
AcDbEntity
  8
AM_5
100
AcDbCircle
 10
639.1594457232192
 20
376.1437200341299
 30
0.0
 40
5.0
  0
CIRCLE
  5
FA5B1
330
1F
100
AcDbEntity
  8
AM_5
100
AcDbCircle
 10
639.1594457232192
 20
376.1616238246007
 30
0.0
 40
2.549999999999999
  0
DIMENSION
  5
FA5B2
330
1F
100
AcDbEntity
  8
AM_5
100
AcDbDimension
  2
*D22
 10
607.5896188959738
 20
151.1616238246002
 30
0.0
 11
604.3396188959738
 21
158.6616238245949
 31
0.0
 70
    32
 71
     5
 42
14.99999999998908
  3
AM_ISO$0
100
AcDbAlignedDimension
 13
629.6594457280796
 23
166.1616238245893
 33
0.0
 14
621.659445728065
 24
151.1616238246002
 34
0.0
 50
90.0
100
AcDbRotatedDimension
1001
ACAD_DSTYLE_DIMINSPECT
1070
   396
1000
100%
1070
   395
1000

1070
   394
1070
    33
1070
   393
1070
     0
  0
LINE
  5
FA5B3
330
1F
100
AcDbEntity
  8
AM_5
100
AcDbLine
 10
621.6594457280796
 20
151.1616238246002
 30
0.0
 11
632.2723910919656
 21
151.1616238246002
 31
0.0
  0
LINE
  5
FA5B4
330
1F
100
AcDbEntity
  8
AM_5
100
AcDbLine
 10
636.6594457280796
 20
159.1616238245893
 30
0.0
 11
636.6594457280796
 21
173.1616238245893
 31
0.0
  0
LINE
  5
FA5B5
330
1F
100
AcDbEntity
  8
AM_5
100
AcDbLine
 10
636.6594457280796
 20
184.1616238245893
 30
0.0
 11
636.6594457280796
 21
198.1616238245893
 31
0.0
  0
LINE
  5
FA5B6
330
1F
100
AcDbEntity
  8
AM_5
100
AcDbLine
 10
659.159445728065
 20
279.1616238245889
 30
0.0
 11
659.159445728065
 21
293.1616238245889
 31
0.0
  0
LINE
  5
FA5B7
330
1F
100
AcDbEntity
  8
AM_5
100
AcDbLine
 10
652.1594457280796
 20
206.1616238245894
 30
0.0
 11
666.1594457280796
 21
206.1616238245894
 31
0.0
  0
LINE
  5
FA5B8
330
1F
100
AcDbEntity
  8
AM_5
100
AcDbLine
 10
652.1594457280796
 20
181.1616238245893
 30
0.0
 11
666.1594457280796
 21
181.1616238245893
 31
0.0
  0
CIRCLE
  5
FA5B9
330
1F
100
AcDbEntity
  8
AM_5
100
AcDbCircle
 10
659.1594457280796
 20
206.1437200341185
 30
0.0
 40
5.0
  0
CIRCLE
  5
FA5BA
330
1F
100
AcDbEntity
  8
AM_5
100
AcDbCircle
 10
659.1594457280796
 20
206.1616238245894
 30
0.0
 40
2.549999999999999
  0
CIRCLE
  5
FA5BB
330
1F
100
AcDbEntity
  8
AM_5
100
AcDbCircle
 10
659.1594457280796
 20
181.1616238245893
 30
0.0
 40
2.549999999999999
  0
CIRCLE
  5
FA5BC
330
1F
100
AcDbEntity
  8
AM_5
100
AcDbCircle
 10
659.1594457280796
 20
181.1437200341184
 30
0.0
 40
5.0
  0
LINE
  5
FA5BD
330
1F
100
AcDbEntity
  8
AM_5
100
AcDbLine
 10
659.1594457280796
 20
199.1616238245893
 30
0.0
 11
659.1594457280796
 21
213.1616238245893
 31
0.0
  0
LINE
  5
FA5BE
330
1F
100
AcDbEntity
  8
AM_5
100
AcDbLine
 10
659.1594457280796
 20
174.1616238245893
 30
0.0
 11
659.1594457280796
 21
188.1616238245893
 31
0.0
  0
LINE
  5
FA5BF
330
1F
100
AcDbEntity
  8
AM_5
100
AcDbLine
 10
674.6594457280796
 20
196.1616238245639
 30
0.0
 11
688.6594457280796
 21
196.1616238245639
 31
0.0
  0
LINE
  5
FA5C0
330
1F
100
AcDbEntity
  8
AM_5
100
AcDbLine
 10
674.6594457280796
 20
171.161623824593
 30
0.0
 11
688.6594457280796
 21
171.161623824593
 31
0.0
  0
CIRCLE
  5
FA5C1
330
1F
100
AcDbEntity
  8
AM_5
100
AcDbCircle
 10
681.6594457280796
 20
171.1437200341221
 30
0.0
 40
5.0
  0
CIRCLE
  5
FA5C2
330
1F
100
AcDbEntity
  8
AM_5
100
AcDbCircle
 10
681.6594457280796
 20
171.161623824593
 30
0.0
 40
2.549999999999999
  0
CIRCLE
  5
FA5C3
330
1F
100
AcDbEntity
  8
AM_5
100
AcDbCircle
 10
681.6594457280796
 20
196.143720034093
 30
0.0
 40
5.0
  0
CIRCLE
  5
FA5C4
330
1F
100
AcDbEntity
  8
AM_5
100
AcDbCircle
 10
681.6594457280796
 20
196.1616238245639
 30
0.0
 40
2.549999999999999
  0
LINE
  5
FA5C5
330
1F
100
AcDbEntity
  8
AM_5
100
AcDbLine
 10
681.6594457280796
 20
164.161623824593
 30
0.0
 11
681.6594457280796
 21
178.161623824593
 31
0.0
  0
LINE
  5
FA5C6
330
1F
100
AcDbEntity
  8
AM_5
100
AcDbLine
 10
681.6594457280796
 20
189.1616238245639
 30
0.0
 11
681.6594457280796
 21
203.1616238245639
 31
0.0
  0
LINE
  5
FA5C8
330
1F
100
AcDbEntity
  8
AM_5
100
AcDbLine
 10
652.1594457280651
 20
286.1616238245889
 30
0.0
 11
666.159445728065
 21
286.1616238245889
 31
0.0
  0
DIMENSION
  5
FA5C9
330
1F
100
AcDbEntity
  8
AM_5
100
AcDbDimension
  2
*D23
 10
673.1594457275412
 20
388.3612652963967
 30
0.0
 11
659.159445728065
 21
391.6116097845857
 31
0.0
 70
    32
 71
     5
 42
27.99999999895226
  3
AM_ISO$0
100
AcDbAlignedDimension
 13
645.1594457285889
 23
399.1616238246062
 33
0.0
 14
673.1594457275412
 24
399.1616238245953
 34
0.0
100
AcDbRotatedDimension
1001
ACAD_DSTYLE_DIMINSPECT
1070
   396
1000
100%
1070
   395
1000

1070
   394
1070
    33
1070
   393
1070
     0
  0
CIRCLE
  5
FA5CA
330
1F
100
AcDbEntity
  8
AM_5
100
AcDbCircle
 10
659.159445728065
 20
286.1437200341189
 30
0.0
 40
5.0
  0
CIRCLE
  5
FA5CB
330
1F
100
AcDbEntity
  8
AM_5
100
AcDbCircle
 10
659.159445728065
 20
286.1616238245889
 30
0.0
 40
2.549999999999999
  0
LINE
  5
FA5CC
330
1F
100
AcDbEntity
  8
AM_5
100
AcDbLine
 10
638.1594457285889
 20
406.1616238246061
 30
0.0
 11
652.1594457285889
 21
406.1616238246061
 31
0.0
  0
LINE
  5
FA5CD
330
1F
100
AcDbEntity
  8
AM_5
100
AcDbLine
 10
639.1594457232192
 20
369.1616238246007
 30
0.0
 11
639.1594457232192
 21
383.1616238246007
 31
0.0
  0
CIRCLE
  5
FA5CE
330
1F
100
AcDbEntity
  8
AM_5
100
AcDbCircle
 10
645.1594457285889
 20
406.1616238246061
 30
0.0
 40
2.549999999999999
  0
CIRCLE
  5
FA5CF
330
1F
100
AcDbEntity
  8
AM_5
100
AcDbCircle
 10
679.1594457221715
 20
376.1437200341189
 30
0.0
 40
5.0
  0
LINE
  5
FA5D0
330
1F
100
AcDbEntity
  8
AM_5
100
AcDbLine
 10
666.1594457275412
 20
406.1616238245952
 30
0.0
 11
680.1594457275411
 21
406.1616238245952
 31
0.0
  0
LINE
  5
FA5D1
330
1F
100
AcDbEntity
  8
AM_5
100
AcDbLine
 10
672.1594457221715
 20
376.1616238245898
 30
0.0
 11
686.1594457221715
 21
376.1616238245898
 31
0.0
  0
CIRCLE
  5
FA5D2
330
1F
100
AcDbEntity
  8
AM_5
100
AcDbCircle
 10
679.1594457221715
 20
376.1616238245898
 30
0.0
 40
2.549999999999999
  0
LINE
  5
FA5D3
330
1F
100
AcDbEntity
  8
AM_5
100
AcDbLine
 10
679.1594457221715
 20
369.1616238245898
 30
0.0
 11
679.1594457221715
 21
383.1616238245898
 31
0.0
  0
CIRCLE
  5
FA5D4
330
1F
100
AcDbEntity
  8
AM_5
100
AcDbCircle
 10
673.1594457275412
 20
406.1616238245952
 30
0.0
 40
2.549999999999999
  0
DIMENSION
  5
FA5D5
330
1F
100
AcDbEntity
  8
AM_5
100
AcDbDimension
  2
*D24
 10
639.1594457232192
 20
464.8054066368441
 30
0.0
 11
630.4094457256821
 21
468.0554066368442
 31
0.0
 70
    32
 71
     5
 42
17.49999999507418
  3
AM_ISO$0
100
AcDbAlignedDimension
 13
621.6594457281451
 23
441.1135291084711
 33
0.0
 14
639.1594457232192
 24
443.1616238246006
 34
0.0
100
AcDbRotatedDimension
1001
ACAD_DSTYLE_DIMINSPECT
1070
   396
1000
100%
1070
   395
1000

1070
   394
1070
    33
1070
   393
1070
     0
  0
LINE
  5
FA5D6
330
1F
100
AcDbEntity
  8
AM_5
100
AcDbLine
 10
632.1594457232192
 20
436.1616238246007
 30
0.0
 11
646.1594457232193
 21
436.1616238246007
 31
0.0
  0
DIMENSION
  5
FA5D7
330
1F
100
AcDbEntity
  8
AM_5
100
AcDbDimension
  2
*D25
 10
607.5896188959738
 20
436.1616238246007
 30
0.0
 11
604.3396188959738
 21
443.6616238246007
 31
0.0
 70
    32
 71
     5
 42
15.00000000000006
  3
AM_ISO$0
100
AcDbAlignedDimension
 13
659.1594457280796
 23
451.1616238246006
 33
0.0
 14
632.1594457232192
 24
436.1616238246007
 34
0.0
 50
90.0
100
AcDbRotatedDimension
1001
ACAD_DSTYLE_DIMINSPECT
1070
   396
1000
100%
1070
   395
1000

1070
   394
1070
    33
1070
   393
1070
     0
  0
CIRCLE
  5
FA5D8
330
1F
100
AcDbEntity
  8
AM_5
100
AcDbCircle
 10
639.1594457232192
 20
436.1437200341298
 30
0.0
 40
5.0
  0
CIRCLE
  5
FA5D9
330
1F
100
AcDbEntity
  8
AM_5
100
AcDbCircle
 10
639.1594457232192
 20
436.1616238246007
 30
0.0
 40
2.549999999999999
  0
LINE
  5
FA5DA
330
1F
100
AcDbEntity
  8
AM_5
100
AcDbLine
 10
641.709445723264
 20
493.7451762647316
 30
0.0
 11
636.6094457232027
 21
493.7451762647325
 31
0.0
  0
LINE
  5
FA5DB
330
1F
100
AcDbEntity
  8
AM_5
100
AcDbLine
 10
639.2094457281244
 20
493.7451762647316
 30
0.0
 11
634.109445728064
 21
493.7451762647325
 31
0.0
  0
DIMENSION
  5
FA5DC
330
1F
100
AcDbEntity
  8
AM_5
100
AcDbDimension
  2
*D26
 10
596.0062855626403
 20
493.1451762647331
 30
0.0
 11
596.0062855626402
 21
506.5251745026227
 31
0.0
 70
   160
  1
t=<>
 71
     5
 42
0.6000000000003638
  3
AM_ISO$0
100
AcDbAlignedDimension
 13
621.6594457280632
 23
492.5451762647327
 33
0.0
 14
621.6594457280632
 24
493.1451762647331
 34
0.0
 50
270.0
100
AcDbRotatedDimension
1001
ACAD_DSTYLE_DIMINSPECT
1070
   396
1000
100%
1070
   395
1000

1070
   394
1070
    33
1070
   393
1070
     0
  0
LINE
  5
FA5DD
330
1F
100
AcDbEntity
  8
AM_5
100
AcDbLine
 10
621.6594457280641
 20
493.1451762647331
 30
0.0
 11
621.6594457280632
 21
492.5451762647327
 31
0.0
  0
ARC
  5
FA5DE
330
1F
100
AcDbEntity
  8
AM_5
100
AcDbCircle
 10
634.2730918468758
 20
487.7748712796475
 30
0.0
 40
5.972547334859612
100
AcDbArc
 50
91.57008475681832
 51
115.9514854667534
  0
ARC
  5
FA5DF
330
1F
100
AcDbEntity
  8
AM_5
100
AcDbCircle
 10
636.7730918420154
 20
487.7748712796475
 30
0.0
 40
5.972547334859612
100
AcDbArc
 50
91.57008475681832
 51
115.9514854667534
  0
LINE
  5
FA5E0
330
1F
100
AcDbEntity
  8
AM_5
100
AcDbLine
 10
636.6594457280796
 20
490.5451762647336
 30
0.0
 11
636.6594457280796
 21
495.9451762647332
 31
0.0
  0
DIMENSION
  5
FA5E1
330
1F
100
AcDbEntity
  8
AM_5
100
AcDbDimension
  2
*D27
 10
679.1594457230301
 20
464.8054066368441
 30
0.0
 11
659.1594457231247
 21
468.0554066368442
 31
0.0
 70
    32
 71
     5
 42
39.99999999981083
  3
AM_ISO$0
100
AcDbAlignedDimension
 13
639.1594457232192
 23
443.1616238246006
 33
0.0
 14
679.1594457230301
 24
443.1616238245898
 34
0.0
100
AcDbRotatedDimension
1001
ACAD_DSTYLE_DIMINSPECT
1070
   396
1000
100%
1070
   395
1000

1070
   394
1070
    33
1070
   393
1070
     0
  0
LINE
  5
FA5E2
330
1F
100
AcDbEntity
  8
AM_5
100
AcDbLine
 10
639.1594457232192
 20
429.1616238246007
 30
0.0
 11
639.1594457232192
 21
443.1616238246006
 31
0.0
  0
LINE
  5
FA5E3
330
1F
100
AcDbEntity
  8
AM_5
100
AcDbLine
 10
647.709445723264
 20
493.7451762647316
 30
0.0
 11
642.6094457232027
 21
493.7451762647325
 31
0.0
  0
LINE
  5
FA5E4
330
1F
100
AcDbEntity
  8
AM_5
100
AcDbLine
 10
639.1594457232192
 20
490.5451762647336
 30
0.0
 11
639.1594457232192
 21
495.9451762647332
 31
0.0
  0
ARC
  5
FA5E5
330
1F
100
AcDbEntity
  8
AM_5
100
AcDbCircle
 10
641.5457996044231
 20
487.7748712796475
 30
0.0
 40
5.972547334859612
100
AcDbArc
 50
64.04851453324662
 51
88.4299152431817
  0
ARC
  5
FA5E6
330
1F
100
AcDbEntity
  8
AM_5
100
AcDbCircle
 10
639.0457996092834
 20
487.7748712796475
 30
0.0
 40
5.972547334859612
100
AcDbArc
 50
64.04851453324662
 51
88.4299152431817
  0
LINE
  5
FA5E7
330
1F
100
AcDbEntity
  8
AM_5
100
AcDbLine
 10
645.1594457232192
 20
490.5451762647336
 30
0.0
 11
645.1594457232192
 21
495.9451762647332
 31
0.0
  0
ARC
  5
FA5E8
330
1F
100
AcDbEntity
  8
AM_5
100
AcDbCircle
 10
642.7730918420154
 20
487.7748712796475
 30
0.0
 40
5.972547334859612
100
AcDbArc
 50
91.57008475681832
 51
115.9514854667534
  0
ARC
  5
FA5E9
330
1F
100
AcDbEntity
  8
AM_5
100
AcDbCircle
 10
647.5457996044231
 20
487.7748712796475
 30
0.0
 40
5.972547334859612
100
AcDbArc
 50
64.04851453324662
 51
88.4299152431817
  0
LINE
  5
FA5EA
330
1F
100
AcDbEntity
  8
AM_5
100
AcDbLine
 10
661.7094457281089
 20
493.7451762647316
 30
0.0
 11
656.6094457280476
 21
493.7451762647325
 31
0.0
  0
LINE
  5
FA5EB
330
1F
100
AcDbEntity
  8
AM_5
100
AcDbLine
 10
659.159445728065
 20
490.5451762647336
 30
0.0
 11
659.159445728065
 21
495.9451762647332
 31
0.0
  0
ARC
  5
FA5EC
330
1F
100
AcDbEntity
  8
AM_5
100
AcDbCircle
 10
656.7730918468612
 20
487.7748712796475
 30
0.0
 40
5.972547334859612
100
AcDbArc
 50
91.57008475681832
 51
115.9514854667534
  0
ARC
  5
FA5ED
330
1F
100
AcDbEntity
  8
AM_5
100
AcDbCircle
 10
661.5457996092689
 20
487.7748712796475
 30
0.0
 40
5.972547334859612
100
AcDbArc
 50
64.04851453324662
 51
88.4299152431817
  0
LINE
  5
FA5EE
330
1F
100
AcDbEntity
  8
AM_5
100
AcDbLine
 10
672.1594457230301
 20
436.1616238245898
 30
0.0
 11
686.15944572303
 21
436.1616238245898
 31
0.0
  0
CIRCLE
  5
FA5EF
330
1F
100
AcDbEntity
  8
AM_5
100
AcDbCircle
 10
679.1594457230301
 20
436.1437200341189
 30
0.0
 40
5.0
  0
CIRCLE
  5
FA5F0
330
1F
100
AcDbEntity
  8
AM_5
100
AcDbCircle
 10
679.1594457230301
 20
436.1616238245898
 30
0.0
 40
2.549999999999999
  0
LINE
  5
FA5F1
330
1F
100
AcDbEntity
  8
AM_5
100
AcDbLine
 10
679.1594457230301
 20
429.1616238245897
 30
0.0
 11
679.1594457230301
 21
443.1616238245898
 31
0.0
  0
LINE
  5
FA5F2
330
1F
100
AcDbEntity
  8
AM_5
100
AcDbLine
 10
681.7094457230748
 20
493.7451762647316
 30
0.0
 11
676.6094457230145
 21
493.7451762647325
 31
0.0
  0
LINE
  5
FA5F3
330
1F
100
AcDbEntity
  8
AM_5
100
AcDbLine
 10
684.2094457281243
 20
493.7451762647316
 30
0.0
 11
679.109445728064
 21
493.7451762647325
 31
0.0
  0
LINE
  5
FA5F4
330
1F
100
AcDbEntity
  8
AM_5
100
AcDbLine
 10
675.7094457222162
 20
493.7451762647316
 30
0.0
 11
670.6094457221549
 21
493.7451762647325
 31
0.0
  0
ARC
  5
FA5F5
330
1F
100
AcDbEntity
  8
AM_5
100
AcDbCircle
 10
676.7730918418262
 20
487.7748712796475
 30
0.0
 40
5.972547334859612
100
AcDbArc
 50
91.57008475681832
 51
115.9514854667534
  0
LINE
  5
FA5F6
330
1F
100
AcDbEntity
  8
AM_5
100
AcDbLine
 10
673.1594457221715
 20
490.5451762647336
 30
0.0
 11
673.1594457221715
 21
495.9451762647332
 31
0.0
  0
ARC
  5
FA5F7
330
1F
100
AcDbEntity
  8
AM_5
100
AcDbCircle
 10
670.7730918409676
 20
487.7748712796475
 30
0.0
 40
5.972547334859612
100
AcDbArc
 50
91.57008475681832
 51
115.9514854667534
  0
ARC
  5
FA5F8
330
1F
100
AcDbEntity
  8
AM_5
100
AcDbCircle
 10
675.5457996033753
 20
487.7748712796475
 30
0.0
 40
5.972547334859612
100
AcDbArc
 50
64.04851453324662
 51
88.4299152431817
  0
LINE
  5
FA5F9
330
1F
100
AcDbEntity
  8
AM_5
100
AcDbLine
 10
679.1594457230301
 20
490.5451762647336
 30
0.0
 11
679.1594457230301
 21
495.9451762647332
 31
0.0
  0
ARC
  5
FA5FA
330
1F
100
AcDbEntity
  8
AM_5
100
AcDbCircle
 10
679.2730918468757
 20
487.7748712796475
 30
0.0
 40
5.972547334859612
100
AcDbArc
 50
91.57008475681832
 51
115.9514854667534
  0
ARC
  5
FA5FB
330
1F
100
AcDbEntity
  8
AM_5
100
AcDbCircle
 10
681.5457996042339
 20
487.7748712796475
 30
0.0
 40
5.972547334859612
100
AcDbArc
 50
64.04851453324662
 51
88.4299152431817
  0
LINE
  5
FA5FC
330
1F
100
AcDbEntity
  8
AM_5
100
AcDbLine
 10
681.6594457280796
 20
490.5451762647336
 30
0.0
 11
681.6594457280796
 21
495.9451762647332
 31
0.0
  0
ARC
  5
FA5FD
330
1F
100
AcDbEntity
  8
AM_5
100
AcDbCircle
 10
684.0457996092834
 20
487.7748712796475
 30
0.0
 40
5.972547334859612
100
AcDbArc
 50
64.04851453324662
 51
88.4299152431817
  0
LINE
  5
FA5FE
330
1F
100
AcDbEntity
  8
AM_5
100
AcDbLine
 10
696.659445728065
 20
441.1135291084412
 30
0.0
 11
696.659445728065
 21
151.1616238246002
 31
0.0
  0
LINE
  5
FA5FF
330
1F
100
AcDbEntity
  8
AM_5
100
AcDbLine
 10
696.659445728065
 20
493.1451762647331
 30
0.0
 11
696.659445728065
 21
492.5451762647327
 31
0.0
  0
LINE
  5
FAA6C
330
1F
100
AcDbEntity
  8
AM_5
100
AcDbLine
 10
794.6852786629713
 20
443.9809385669277
 30
0.0
 11
794.6852786629713
 21
441.5574579591911
 31
0.0
  0
LINE
  5
FAA6D
330
1F
100
AcDbEntity
  8
AM_5
100
AcDbLine
 10
794.6852786629671
 20
444.7374579591895
 30
0.0
 11
790.0852786629712
 21
443.0158185151501
 31
0.0
  0
LINE
  5
FAA6E
330
1F
100
AcDbEntity
  8
AM_5
100
AcDbLine
 10
795.5852786629711
 20
444.317781066848
 30
0.0
 11
790.0852786629712
 21
443.0158185151501
 31
0.0
  0
LINE
  5
FAA6F
330
1F
100
AcDbEntity
  8
AM_5
100
AcDbLine
 10
795.5852786629711
 20
444.317781066848
 30
0.0
 11
790.9852786629713
 21
442.5961416228107
 31
0.0
  0
DIMENSION
  5
FAA70
330
1F
100
AcDbEntity
  8
AM_5
100
AcDbDimension
  2
*D29
 10
774.661412173008
 20
407.4298815003954
 30
0.0
 11
771.4114121730078
 21
444.929881500396
 31
0.0
 70
    32
  1
<>
 71
     5
 42
75.00000000000091
  3
AM_ISO$0
100
AcDbAlignedDimension
 13
788.7352786629715
 23
482.4298815003963
 33
0.0
 14
792.835278662971
 24
407.4298815003954
 34
0.0
 50
270.0
100
AcDbRotatedDimension
1001
ACAD_DSTYLE_DIMINSPECT
1070
   396
1000
100%
1070
   395
1000

1070
   394
1070
    33
1070
   393
1070
     0
  0
LINE
  5
FAA71
330
1F
100
AcDbEntity
  8
AM_5
100
AcDbLine
 10
792.8352786629712
 20
489.5886998072352
 30
0.0
 11
792.835278662971
 21
402.6692558177018
 31
0.0
  0
DIMENSION
  5
FAA72
330
1F
100
AcDbEntity
  8
AM_5
100
AcDbDimension
  2
*D30
 10
795.5852786629711
 20
426.324144802198
 30
0.0
 11
806.1827660363865
 21
426.324144802198
 31
0.0
 70
   160
  1
%%c<>
 71
     5
 42
5.5
  3
AM_ISO$0
100
AcDbAlignedDimension
 13
790.0852786629712
 23
430.2958185151502
 33
0.0
 14
795.5852786629711
 24
430.733893716227
 34
0.0
100
AcDbRotatedDimension
1001
ACAD_DSTYLE_DIMINSPECT
1070
   396
1000
100%
1070
   395
1000

1070
   394
1070
    33
1070
   393
1070
     0
  0
LINE
  5
FAA73
330
1F
100
AcDbEntity
  8
AM_5
100
AcDbLine
 10
794.6852786629713
 20
421.7209385669279
 30
0.0
 11
794.6852786629713
 21
419.297457959191
 31
0.0
  0
LINE
  5
FAA74
330
1F
100
AcDbEntity
  8
AM_5
100
AcDbLine
 10
790.9852786629713
 20
420.3361416228107
 30
0.0
 11
790.9852786629713
 21
417.9126610150713
 31
0.0
  0
LINE
  5
FAA75
330
1F
100
AcDbEntity
  8
AM_5
100
AcDbLine
 10
794.1457472378368
 20
408.79900844023
 30
0.0
 11
792.6355258897353
 21
408.2310461147114
 31
0.0
  0
LINE
  5
FAA76
330
1F
100
AcDbEntity
  8
AM_5
100
AcDbLine
 10
792.835278662971
 20
407.4298815003954
 30
0.0
 11
793.0763678616398
 21
408.3968374616977
 31
0.0
  0
LINE
  5
FAA77
330
1F
100
AcDbEntity
  8
AM_5
100
AcDbLine
 10
792.6355258897353
 20
408.2310461147114
 30
0.0
 11
791.7136546780938
 21
408.6452699015327
 31
0.0
  0
LINE
  5
FAA78
330
1F
100
AcDbEntity
  8
AM_5
100
AcDbLine
 10
792.8352786629714
 20
407.4298815003954
 30
0.0
 11
792.6355258897353
 21
408.2310461147115
 31
0.0
  0
LINE
  5
FAA79
330
1F
100
AcDbEntity
  8
AM_5
100
AcDbLine
 10
792.4653128440597
 20
408.9137333529459
 30
0.0
 11
791.9102786629713
 21
411.1398538639163
 31
0.0
  0
LINE
  5
FAA7A
330
1F
100
AcDbEntity
  8
AM_5
100
AcDbLine
 10
793.2775769180785
 20
409.2038429089162
 30
0.0
 11
791.7136546780938
 21
408.6452699015327
 31
0.0
  0
LINE
  5
FAA7B
330
1F
100
AcDbEntity
  8
AM_5
100
AcDbLine
 10
794.1457472378368
 20
408.79900844023
 30
0.0
 11
791.7136546780938
 21
408.6452699015327
 31
0.0
  0
LINE
  5
FAA7C
330
1F
100
AcDbEntity
  8
AM_5
100
AcDbLine
 10
794.9440028886919
 20
412.2777711391291
 30
0.0
 11
790.9115635401449
 21
411.5250716970104
 31
0.0
  0
LINE
  5
FAA7D
330
1F
100
AcDbEntity
  8
AM_5
100
AcDbLine
 10
794.1377330984152
 20
412.6537409168742
 30
0.0
 11
790.9115635401449
 21
411.5250716970104
 31
0.0
  0
LINE
  5
FAA7E
330
1F
100
AcDbEntity
  8
AM_5
100
AcDbLine
 10
794.6852786629671
 20
416.1174579591895
 30
0.0
 11
790.0852786629712
 21
414.3958185151502
 31
0.0
  0
LINE
  5
FAA7F
330
1F
100
AcDbEntity
  8
AM_5
100
AcDbLine
 10
795.5852786629711
 20
415.697781066848
 30
0.0
 11
790.0852786629712
 21
414.3958185151502
 31
0.0
  0
LINE
  5
FAA80
330
1F
100
AcDbEntity
  8
AM_5
100
AcDbLine
 10
795.5852786629711
 20
415.697781066848
 30
0.0
 11
791.1845202974646
 21
414.050711678645
 31
0.0
  0
LINE
  5
FAA81
330
1F
100
AcDbEntity
  8
AM_5
100
AcDbLine
 10
795.5852786629711
 20
418.877781066848
 30
0.0
 11
790.9852786629713
 21
417.1561416228106
 31
0.0
  0
LINE
  5
FAA82
330
1F
100
AcDbEntity
  8
AM_5
100
AcDbLine
 10
795.5852786629711
 20
418.877781066848
 30
0.0
 11
790.0852786629712
 21
417.5758185151502
 31
0.0
  0
LINE
  5
FAA83
330
1F
100
AcDbEntity
  8
AM_5
100
AcDbLine
 10
794.6852786629671
 20
419.2974579591894
 30
0.0
 11
790.0852786629712
 21
417.5758185151502
 31
0.0
  0
LINE
  5
FAA84
330
1F
100
AcDbEntity
  8
AM_5
100
AcDbLine
 10
794.9440028886919
 20
412.2777711391291
 30
0.0
 11
791.9102786629713
 21
411.1398538639163
 31
0.0
  0
LINE
  5
FAA85
330
1F
100
AcDbEntity
  8
AM_5
100
AcDbLine
 10
791.741812967427
 20
411.8155328635602
 30
0.0
 11
791.1845202974646
 21
414.050711678645
 31
0.0
  0
LINE
  5
FAA86
330
1F
100
AcDbEntity
  8
AM_5
100
AcDbLine
 10
791.9102786629713
 20
411.1398538639163
 30
0.0
 11
790.9115635401457
 21
411.5250716970099
 31
0.0
  0
LINE
  5
FAA87
330
1F
100
AcDbEntity
  8
AM_5
100
AcDbLine
 10
791.1845202974646
 20
414.050711678645
 30
0.0
 11
790.0852786629712
 21
414.3958185151502
 31
0.0
  0
LINE
  5
FAA88
330
1F
100
AcDbEntity
  8
AM_5
100
AcDbLine
 10
791.011997902722
 20
414.7426612100863
 30
0.0
 11
790.9852786629713
 21
414.8498262274372
 31
0.0
  0
LINE
  5
FAA89
330
1F
100
AcDbEntity
  8
AM_5
100
AcDbLine
 10
790.9852786629713
 20
417.1561416228106
 30
0.0
 11
790.0852786629712
 21
417.5758185151502
 31
0.0
  0
LINE
  5
FAA8A
330
1F
100
AcDbEntity
  8
AM_5
100
AcDbLine
 10
790.9852786629713
 20
417.1561416228106
 30
0.0
 11
790.9852786629713
 21
414.8498262274372
 31
0.0
  0
LINE
  5
FAA8B
330
1F
100
AcDbEntity
  8
AM_5
100
AcDbLine
 10
794.1377330984152
 20
412.6537409168742
 30
0.0
 11
794.6852786629713
 21
414.8498262274375
 31
0.0
  0
LINE
  5
FAA8C
330
1F
100
AcDbEntity
  8
AM_5
100
AcDbLine
 10
793.2775769180785
 20
409.2038429089162
 30
0.0
 11
794.145747237838
 21
408.7990084402295
 31
0.0
  0
LINE
  5
FAA8D
330
1F
100
AcDbEntity
  8
AM_5
100
AcDbLine
 10
794.1377330984152
 20
412.6537409168742
 30
0.0
 11
794.9440028886919
 21
412.2777711391291
 31
0.0
  0
LINE
  5
FAA8E
330
1F
100
AcDbEntity
  8
AM_5
100
AcDbLine
 10
793.2775769180785
 20
409.2038429089162
 30
0.0
 11
793.9511405748898
 21
411.9053591811784
 31
0.0
  0
LINE
  5
FAA8F
330
1F
100
AcDbEntity
  8
AM_5
100
AcDbLine
 10
794.6852786629671
 20
416.1174579591895
 30
0.0
 11
795.5852786629711
 21
415.697781066848
 31
0.0
  0
LINE
  5
FAA90
330
1F
100
AcDbEntity
  8
AM_5
100
AcDbLine
 10
794.6852786629712
 20
415.3609385669277
 30
0.0
 11
794.6852786629713
 21
414.8498262274377
 31
0.0
  0
LINE
  5
FAA91
330
1F
100
AcDbEntity
  8
AM_5
100
AcDbLine
 10
794.6852786629671
 20
419.2974579591894
 30
0.0
 11
795.5852786629711
 21
418.877781066848
 31
0.0
  0
LINE
  5
FAA92
330
1F
100
AcDbEntity
  8
AM_5
100
AcDbLine
 10
794.6852786629713
 20
418.5409385669278
 30
0.0
 11
794.6852786629713
 21
416.1174579591911
 31
0.0
  0
LINE
  5
FAA93
330
1F
100
AcDbEntity
  8
AM_5
100
AcDbLine
 10
795.5852786629711
 20
431.597781066848
 30
0.0
 11
790.9852786629713
 21
429.8761416228106
 31
0.0
  0
LINE
  5
FAA94
330
1F
100
AcDbEntity
  8
AM_5
100
AcDbLine
 10
795.5852786629711
 20
431.597781066848
 30
0.0
 11
790.0852786629712
 21
430.2958185151502
 31
0.0
  0
LINE
  5
FAA95
330
1F
100
AcDbEntity
  8
AM_5
100
AcDbLine
 10
790.9852786629713
 20
433.0561416228106
 30
0.0
 11
790.9852786629713
 21
430.6326610150712
 31
0.0
  0
LINE
  5
FAA96
330
1F
100
AcDbEntity
  8
AM_5
100
AcDbLine
 10
794.6852786629671
 20
432.0174579591895
 30
0.0
 11
790.0852786629712
 21
430.2958185151502
 31
0.0
  0
LINE
  5
FAA97
330
1F
100
AcDbEntity
  8
AM_5
100
AcDbLine
 10
794.6852786629671
 20
422.4774579591894
 30
0.0
 11
790.0852786629712
 21
420.7558185151501
 31
0.0
  0
LINE
  5
FAA98
330
1F
100
AcDbEntity
  8
AM_5
100
AcDbLine
 10
795.5852786629711
 20
422.057781066848
 30
0.0
 11
790.0852786629712
 21
420.7558185151501
 31
0.0
  0
LINE
  5
FAA99
330
1F
100
AcDbEntity
  8
AM_5
100
AcDbLine
 10
795.5852786629711
 20
422.057781066848
 30
0.0
 11
790.9852786629713
 21
420.3361416228107
 31
0.0
  0
LINE
  5
FAA9A
330
1F
100
AcDbEntity
  8
AM_5
100
AcDbLine
 10
794.6852786629671
 20
425.6574579591895
 30
0.0
 11
790.0852786629712
 21
423.9358185151502
 31
0.0
  0
LINE
  5
FAA9B
330
1F
100
AcDbEntity
  8
AM_5
100
AcDbLine
 10
795.5852786629711
 20
425.237781066848
 30
0.0
 11
790.9852786629713
 21
423.5161416228106
 31
0.0
  0
LINE
  5
FAA9C
330
1F
100
AcDbEntity
  8
AM_5
100
AcDbLine
 10
795.5852786629711
 20
425.237781066848
 30
0.0
 11
790.0852786629712
 21
423.9358185151502
 31
0.0
  0
LINE
  5
FAA9D
330
1F
100
AcDbEntity
  8
AM_5
100
AcDbLine
 10
794.6852786629671
 20
428.8374579591895
 30
0.0
 11
790.0852786629712
 21
427.1158185151502
 31
0.0
  0
LINE
  5
FAA9E
330
1F
100
AcDbEntity
  8
AM_5
100
AcDbLine
 10
795.5852786629711
 20
428.4177810668482
 30
0.0
 11
790.0852786629712
 21
427.1158185151502
 31
0.0
  0
LINE
  5
FAA9F
330
1F
100
AcDbEntity
  8
AM_5
100
AcDbLine
 10
795.5852786629711
 20
428.4177810668482
 30
0.0
 11
790.9852786629713
 21
426.6961416228107
 31
0.0
  0
LINE
  5
FAAA0
330
1F
100
AcDbEntity
  8
AM_5
100
AcDbLine
 10
790.9852786629713
 20
426.6961416228107
 30
0.0
 11
790.9852786629713
 21
424.2726610150713
 31
0.0
  0
LINE
  5
FAAA1
330
1F
100
AcDbEntity
  8
AM_5
100
AcDbLine
 10
790.9852786629713
 20
420.3361416228107
 30
0.0
 11
790.0852786629712
 21
420.7558185151501
 31
0.0
  0
LINE
  5
FAAA2
330
1F
100
AcDbEntity
  8
AM_5
100
AcDbLine
 10
790.9852786629713
 20
423.5161416228106
 30
0.0
 11
790.0852786629712
 21
423.9358185151502
 31
0.0
  0
LINE
  5
FAAA3
330
1F
100
AcDbEntity
  8
AM_5
100
AcDbLine
 10
790.9852786629713
 20
423.5161416228106
 30
0.0
 11
790.9852786629713
 21
421.0926610150711
 31
0.0
  0
LINE
  5
FAAA4
330
1F
100
AcDbEntity
  8
AM_5
100
AcDbLine
 10
790.9852786629713
 20
429.8761416228107
 30
0.0
 11
790.9852786629713
 21
427.4526610150712
 31
0.0
  0
LINE
  5
FAAA5
330
1F
100
AcDbEntity
  8
AM_5
100
AcDbLine
 10
790.9852786629713
 20
429.8761416228106
 30
0.0
 11
790.0852786629712
 21
430.2958185151502
 31
0.0
  0
LINE
  5
FAAA6
330
1F
100
AcDbEntity
  8
AM_5
100
AcDbLine
 10
790.9852786629713
 20
426.6961416228107
 30
0.0
 11
790.0852786629712
 21
427.1158185151502
 31
0.0
  0
LINE
  5
FAAA7
330
1F
100
AcDbEntity
  8
AM_5
100
AcDbLine
 10
794.6852786629671
 20
425.6574579591895
 30
0.0
 11
795.5852786629711
 21
425.237781066848
 31
0.0
  0
LINE
  5
FAAA8
330
1F
100
AcDbEntity
  8
AM_5
100
AcDbLine
 10
794.6852786629713
 20
424.9009385669277
 30
0.0
 11
794.6852786629713
 21
422.4774579591911
 31
0.0
  0
LINE
  5
FAAA9
330
1F
100
AcDbEntity
  8
AM_5
100
AcDbLine
 10
794.6852786629671
 20
422.4774579591894
 30
0.0
 11
795.5852786629711
 21
422.057781066848
 31
0.0
  0
LINE
  5
FAAAA
330
1F
100
AcDbEntity
  8
AM_5
100
AcDbLine
 10
794.6852786629713
 20
431.2609385669277
 30
0.0
 11
794.6852786629713
 21
428.837457959191
 31
0.0
  0
LINE
  5
FAAAB
330
1F
100
AcDbEntity
  8
AM_5
100
AcDbLine
 10
794.6852786629671
 20
428.8374579591895
 30
0.0
 11
795.5852786629711
 21
428.4177810668482
 31
0.0
  0
LINE
  5
FAAAC
330
1F
100
AcDbEntity
  8
AM_5
100
AcDbLine
 10
794.6852786629713
 20
428.0809385669278
 30
0.0
 11
794.6852786629713
 21
425.657457959191
 31
0.0
  0
LINE
  5
FAAAD
330
1F
100
AcDbEntity
  8
AM_5
100
AcDbLine
 10
794.6852786629671
 20
435.1974579591895
 30
0.0
 11
790.0852786629712
 21
433.4758185151502
 31
0.0
  0
LINE
  5
FAAAE
330
1F
100
AcDbEntity
  8
AM_5
100
AcDbLine
 10
795.5852786629711
 20
434.7777810668482
 30
0.0
 11
790.0852786629712
 21
433.4758185151502
 31
0.0
  0
LINE
  5
FAAAF
330
1F
100
AcDbEntity
  8
AM_5
100
AcDbLine
 10
795.5852786629711
 20
434.7777810668482
 30
0.0
 11
790.9852786629713
 21
433.0561416228106
 31
0.0
  0
LINE
  5
FAAB0
330
1F
100
AcDbEntity
  8
AM_5
100
AcDbLine
 10
794.6852786629671
 20
438.3774579591896
 30
0.0
 11
790.0852786629712
 21
436.6558185151502
 31
0.0
  0
LINE
  5
FAAB1
330
1F
100
AcDbEntity
  8
AM_5
100
AcDbLine
 10
795.5852786629711
 20
437.9577810668481
 30
0.0
 11
790.0852786629712
 21
436.6558185151502
 31
0.0
  0
LINE
  5
FAAB2
330
1F
100
AcDbEntity
  8
AM_5
100
AcDbLine
 10
795.5852786629711
 20
437.9577810668481
 30
0.0
 11
790.9852786629713
 21
436.2361416228107
 31
0.0
  0
LINE
  5
FAAB3
330
1F
100
AcDbEntity
  8
AM_5
100
AcDbLine
 10
794.6852786629671
 20
441.5574579591896
 30
0.0
 11
790.0852786629712
 21
439.8358185151503
 31
0.0
  0
LINE
  5
FAAB4
330
1F
100
AcDbEntity
  8
AM_5
100
AcDbLine
 10
795.5852786629711
 20
441.1377810668482
 30
0.0
 11
790.9852786629713
 21
439.4161416228107
 31
0.0
  0
LINE
  5
FAAB5
330
1F
100
AcDbEntity
  8
AM_5
100
AcDbLine
 10
795.5852786629711
 20
441.1377810668482
 30
0.0
 11
790.0852786629712
 21
439.8358185151503
 31
0.0
  0
LINE
  5
FAAB6
330
1F
100
AcDbEntity
  8
AM_5
100
AcDbLine
 10
790.9852786629713
 20
439.4161416228107
 30
0.0
 11
790.9852786629713
 21
436.9926610150712
 31
0.0
  0
LINE
  5
FAAB7
330
1F
100
AcDbEntity
  8
AM_5
100
AcDbLine
 10
790.9852786629713
 20
436.2361416228107
 30
0.0
 11
790.9852786629713
 21
433.8126610150712
 31
0.0
  0
LINE
  5
FAAB8
330
1F
100
AcDbEntity
  8
AM_5
100
AcDbLine
 10
790.9852786629713
 20
433.0561416228106
 30
0.0
 11
790.0852786629712
 21
433.4758185151502
 31
0.0
  0
LINE
  5
FAAB9
330
1F
100
AcDbEntity
  8
AM_5
100
AcDbLine
 10
790.9852786629713
 20
436.2361416228107
 30
0.0
 11
790.0852786629712
 21
436.6558185151502
 31
0.0
  0
LINE
  5
FAABA
330
1F
100
AcDbEntity
  8
AM_5
100
AcDbLine
 10
790.9852786629713
 20
439.4161416228107
 30
0.0
 11
790.0852786629712
 21
439.8358185151503
 31
0.0
  0
LINE
  5
FAABB
330
1F
100
AcDbEntity
  8
AM_5
100
AcDbLine
 10
790.9852786629713
 20
442.5961416228107
 30
0.0
 11
790.0852786629712
 21
443.0158185151501
 31
0.0
  0
LINE
  5
FAABC
330
1F
100
AcDbEntity
  8
AM_5
100
AcDbLine
 10
790.9852786629713
 20
442.5961416228107
 30
0.0
 11
790.9852786629713
 21
440.1726610150713
 31
0.0
  0
LINE
  5
FAABD
330
1F
100
AcDbEntity
  8
AM_5
100
AcDbLine
 10
794.6852786629713
 20
437.6209385669277
 30
0.0
 11
794.6852786629713
 21
435.197457959191
 31
0.0
  0
LINE
  5
FAABE
330
1F
100
AcDbEntity
  8
AM_5
100
AcDbLine
 10
794.6852786629713
 20
434.4409385669279
 30
0.0
 11
794.6852786629713
 21
432.0174579591911
 31
0.0
  0
LINE
  5
FAABF
330
1F
100
AcDbEntity
  8
AM_5
100
AcDbLine
 10
794.6852786629671
 20
435.1974579591895
 30
0.0
 11
795.5852786629711
 21
434.7777810668482
 31
0.0
  0
LINE
  5
FAAC0
330
1F
100
AcDbEntity
  8
AM_5
100
AcDbLine
 10
794.6852786629671
 20
432.0174579591895
 30
0.0
 11
795.5852786629711
 21
431.597781066848
 31
0.0
  0
LINE
  5
FAAC1
330
1F
100
AcDbEntity
  8
AM_5
100
AcDbLine
 10
794.6852786629713
 20
440.8009385669278
 30
0.0
 11
794.6852786629713
 21
438.3774579591911
 31
0.0
  0
LINE
  5
FAAC2
330
1F
100
AcDbEntity
  8
AM_5
100
AcDbLine
 10
794.6852786629671
 20
438.3774579591896
 30
0.0
 11
795.5852786629711
 21
437.9577810668481
 31
0.0
  0
LINE
  5
FAAC3
330
1F
100
AcDbEntity
  8
AM_5
100
AcDbLine
 10
794.6852786629671
 20
441.5574579591896
 30
0.0
 11
795.5852786629711
 21
441.1377810668482
 31
0.0
  0
LINE
  5
FAAC4
330
1F
100
AcDbEntity
  8
AM_5
100
AcDbLine
 10
790.8356424488227
 20
476.9298815003963
 30
0.0
 11
790.8356424488227
 21
462.4298815003964
 31
0.0
  0
LINE
  5
FAAC5
330
1F
100
AcDbEntity
  8
AM_5
100
AcDbLine
 10
794.8349148771198
 20
476.9298815003963
 30
0.0
 11
794.8349148771198
 21
462.4298815003964
 31
0.0
  0
LINE
  5
FAAC6
330
1F
100
AcDbEntity
  8
AM_5
100
AcDbLine
 10
794.6852786629713
 20
456.7009385669279
 30
0.0
 11
794.6852786629713
 21
454.2774579591912
 31
0.0
  0
LINE
  5
FAAC7
330
1F
100
AcDbEntity
  8
AM_5
100
AcDbLine
 10
790.9852786629713
 20
455.3161416228107
 30
0.0
 11
790.9852786629713
 21
452.8926610150714
 31
0.0
  0
LINE
  5
FAAC8
330
1F
100
AcDbEntity
  8
AM_5
100
AcDbLine
 10
794.6852786629671
 20
454.2774579591896
 30
0.0
 11
790.0852786629712
 21
452.5558185151503
 31
0.0
  0
LINE
  5
FAAC9
330
1F
100
AcDbEntity
  8
AM_5
100
AcDbLine
 10
795.5852786629711
 20
453.8577810668481
 30
0.0
 11
790.0852786629712
 21
452.5558185151503
 31
0.0
  0
LINE
  5
FAACA
330
1F
100
AcDbEntity
  8
AM_5
100
AcDbLine
 10
795.5852786629711
 20
453.8577810668481
 30
0.0
 11
790.9852786629713
 21
452.1361416228107
 31
0.0
  0
LINE
  5
FAACB
330
1F
100
AcDbEntity
  8
AM_5
100
AcDbLine
 10
794.6852786629671
 20
447.9174579591896
 30
0.0
 11
790.0852786629712
 21
446.1958185151503
 31
0.0
  0
LINE
  5
FAACC
330
1F
100
AcDbEntity
  8
AM_5
100
AcDbLine
 10
795.5852786629711
 20
447.4977810668482
 30
0.0
 11
790.0852786629712
 21
446.1958185151503
 31
0.0
  0
LINE
  5
FAACD
330
1F
100
AcDbEntity
  8
AM_5
100
AcDbLine
 10
795.5852786629711
 20
447.4977810668482
 30
0.0
 11
790.9852786629713
 21
445.7761416228106
 31
0.0
  0
LINE
  5
FAACE
330
1F
100
AcDbEntity
  8
AM_5
100
AcDbLine
 10
795.5852786629711
 20
450.6777810668482
 30
0.0
 11
790.9852786629713
 21
448.9561416228107
 31
0.0
  0
LINE
  5
FAACF
330
1F
100
AcDbEntity
  8
AM_5
100
AcDbLine
 10
795.5852786629711
 20
450.6777810668482
 30
0.0
 11
790.0852786629712
 21
449.3758185151502
 31
0.0
  0
LINE
  5
FAAD0
330
1F
100
AcDbEntity
  8
AM_5
100
AcDbLine
 10
794.6852786629671
 20
451.0974579591895
 30
0.0
 11
790.0852786629712
 21
449.3758185151502
 31
0.0
  0
LINE
  5
FAAD1
330
1F
100
AcDbEntity
  8
AM_5
100
AcDbLine
 10
790.9852786629713
 20
448.9561416228108
 30
0.0
 11
790.9852786629713
 21
446.5326610150713
 31
0.0
  0
LINE
  5
FAAD2
330
1F
100
AcDbEntity
  8
AM_5
100
AcDbLine
 10
790.9852786629713
 20
445.7761416228106
 30
0.0
 11
790.9852786629713
 21
443.3526610150712
 31
0.0
  0
LINE
  5
FAAD3
330
1F
100
AcDbEntity
  8
AM_5
100
AcDbLine
 10
790.9852786629713
 20
445.7761416228106
 30
0.0
 11
790.0852786629712
 21
446.1958185151503
 31
0.0
  0
LINE
  5
FAAD4
330
1F
100
AcDbEntity
  8
AM_5
100
AcDbLine
 10
790.9852786629713
 20
452.1361416228107
 30
0.0
 11
790.0852786629712
 21
452.5558185151503
 31
0.0
  0
LINE
  5
FAAD5
330
1F
100
AcDbEntity
  8
AM_5
100
AcDbLine
 10
790.9852786629713
 20
448.9561416228107
 30
0.0
 11
790.0852786629712
 21
449.3758185151502
 31
0.0
  0
LINE
  5
FAAD6
330
1F
100
AcDbEntity
  8
AM_5
100
AcDbLine
 10
790.9852786629713
 20
452.1361416228107
 30
0.0
 11
790.9852786629713
 21
449.7126610150712
 31
0.0
  0
LINE
  5
FAAD7
330
1F
100
AcDbEntity
  8
AM_5
100
AcDbLine
 10
794.6852786629713
 20
450.3409385669279
 30
0.0
 11
794.6852786629713
 21
447.9174579591911
 31
0.0
  0
LINE
  5
FAAD8
330
1F
100
AcDbEntity
  8
AM_5
100
AcDbLine
 10
794.6852786629713
 20
447.1609385669278
 30
0.0
 11
794.6852786629713
 21
444.7374579591911
 31
0.0
  0
LINE
  5
FAAD9
330
1F
100
AcDbEntity
  8
AM_5
100
AcDbLine
 10
794.6852786629671
 20
447.9174579591896
 30
0.0
 11
795.5852786629711
 21
447.4977810668482
 31
0.0
  0
LINE
  5
FAADA
330
1F
100
AcDbEntity
  8
AM_5
100
AcDbLine
 10
794.6852786629671
 20
444.7374579591895
 30
0.0
 11
795.5852786629711
 21
444.317781066848
 31
0.0
  0
LINE
  5
FAADB
330
1F
100
AcDbEntity
  8
AM_5
100
AcDbLine
 10
794.6852786629713
 20
453.5209385669278
 30
0.0
 11
794.6852786629713
 21
451.0974579591911
 31
0.0
  0
LINE
  5
FAADC
330
1F
100
AcDbEntity
  8
AM_5
100
AcDbLine
 10
794.6852786629671
 20
454.2774579591896
 30
0.0
 11
795.5852786629711
 21
453.8577810668481
 31
0.0
  0
LINE
  5
FAADD
330
1F
100
AcDbEntity
  8
AM_5
100
AcDbLine
 10
794.6852786629671
 20
451.0974579591895
 30
0.0
 11
795.5852786629711
 21
450.6777810668482
 31
0.0
  0
LINE
  5
FAADE
330
1F
100
AcDbEntity
  8
AM_5
100
AcDbLine
 10
795.5852786629711
 20
457.0377810668482
 30
0.0
 11
790.9852786629713
 21
455.3161416228107
 31
0.0
  0
LINE
  5
FAADF
330
1F
100
AcDbEntity
  8
AM_5
100
AcDbLine
 10
794.6852786629671
 20
457.4574579591895
 30
0.0
 11
790.0852786629712
 21
455.7358185151502
 31
0.0
  0
LINE
  5
FAAE0
330
1F
100
AcDbEntity
  8
AM_5
100
AcDbLine
 10
795.5852786629711
 20
457.0377810668482
 30
0.0
 11
790.0852786629712
 21
455.7358185151502
 31
0.0
  0
LINE
  5
FAAE1
330
1F
100
AcDbEntity
  8
AM_5
100
AcDbLine
 10
794.6852786629671
 20
460.6374579591896
 30
0.0
 11
790.0852786629712
 21
458.9158185151502
 31
0.0
  0
LINE
  5
FAAE2
330
1F
100
AcDbEntity
  8
AM_5
100
AcDbLine
 10
795.5852786629711
 20
460.2177810668481
 30
0.0
 11
790.9852786629713
 21
458.4961416228107
 31
0.0
  0
LINE
  5
FAAE3
330
1F
100
AcDbEntity
  8
AM_5
100
AcDbLine
 10
795.5852786629711
 20
460.2177810668481
 30
0.0
 11
790.0852786629712
 21
458.9158185151502
 31
0.0
  0
LINE
  5
FAAE4
330
1F
100
AcDbEntity
  8
AM_5
100
AcDbLine
 10
792.9991750388364
 20
462.4298815003964
 30
0.0
 11
790.9852786629713
 21
461.6761416228107
 31
0.0
  0
LINE
  5
FAAE5
330
1F
100
AcDbEntity
  8
AM_5
100
AcDbLine
 10
790.8352786629714
 20
462.4298815003964
 30
0.0
 11
794.8352786629713
 21
462.4298815003964
 31
0.0
  0
LINE
  5
FAAE6
330
1F
100
AcDbEntity
  8
AM_5
100
AcDbLine
 10
790.9852786629713
 20
461.6761416228107
 30
0.0
 11
790.9852786629713
 21
459.2526610150714
 31
0.0
  0
LINE
  5
FAAE7
330
1F
100
AcDbEntity
  8
AM_5
100
AcDbLine
 10
790.9852786629713
 20
458.4961416228107
 30
0.0
 11
790.0852786629712
 21
458.9158185151502
 31
0.0
  0
LINE
  5
FAAE8
330
1F
100
AcDbEntity
  8
AM_5
100
AcDbLine
 10
790.9852786629713
 20
455.3161416228107
 30
0.0
 11
790.0852786629712
 21
455.7358185151502
 31
0.0
  0
LINE
  5
FAAE9
330
1F
100
AcDbEntity
  8
AM_5
100
AcDbLine
 10
790.9852786629713
 20
458.4961416228107
 30
0.0
 11
790.9852786629713
 21
456.0726610150713
 31
0.0
  0
LINE
  5
FAAEA
330
1F
100
AcDbEntity
  8
AM_5
100
AcDbLine
 10
790.9852786629713
 20
461.6761416228107
 30
0.0
 11
790.0852786629712
 21
462.0958185151502
 31
0.0
  0
LINE
  5
FAAEB
330
1F
100
AcDbEntity
  8
AM_5
100
AcDbLine
 10
790.9778521558999
 20
462.4298815003964
 30
0.0
 11
790.0852786629712
 21
462.0958185151502
 31
0.0
  0
LINE
  5
FAAEC
330
1F
100
AcDbEntity
  8
AM_5
100
AcDbLine
 10
791.4964916171816
 20
462.4298815003962
 30
0.0
 11
790.0852786629712
 21
462.0958185151502
 31
0.0
  0
LINE
  5
FAAED
330
1F
100
AcDbEntity
  8
AM_5
100
AcDbLine
 10
794.6852786629671
 20
460.6374579591896
 30
0.0
 11
795.5852786629711
 21
460.2177810668481
 31
0.0
  0
LINE
  5
FAAEE
330
1F
100
AcDbEntity
  8
AM_5
100
AcDbLine
 10
794.6852786629713
 20
459.8809385669278
 30
0.0
 11
794.6852786629713
 21
457.4574579591911
 31
0.0
  0
LINE
  5
FAAEF
330
1F
100
AcDbEntity
  8
AM_5
100
AcDbLine
 10
794.6852786629671
 20
457.4574579591895
 30
0.0
 11
795.5852786629711
 21
457.0377810668482
 31
0.0
  0
LINE
  5
FAAF0
330
1F
100
AcDbEntity
  8
AM_5
100
AcDbLine
 10
794.6852786629713
 20
462.4298815003964
 30
0.0
 11
794.6852786629713
 21
460.6374579591912
 31
0.0
  0
LINE
  5
FAAF1
330
1F
100
AcDbEntity
  8
AM_5
100
AcDbLine
 10
794.8352786629713
 20
476.9298815003963
 30
0.0
 11
795.5852786629711
 21
477.9298815003963
 31
0.0
  0
LINE
  5
FAAF2
330
1F
100
AcDbEntity
  8
AM_5
100
AcDbLine
 10
790.0852786629712
 20
477.9298815003963
 30
0.0
 11
790.8352786629714
 21
476.9298815003963
 31
0.0
  0
LINE
  5
FAAF3
330
1F
100
AcDbEntity
  8
AM_5
100
AcDbLine
 10
790.8352786629714
 20
476.9298815003963
 30
0.0
 11
794.8352786629713
 21
476.9298815003963
 31
0.0
  0
LINE
  5
FAAF4
330
1F
100
AcDbEntity
  8
AM_5
100
AcDbLine
 10
792.8352786629714
 20
479.7525527826354
 30
0.0
 11
791.1652786629713
 21
480.1298815003963
 31
0.0
  0
LINE
  5
FAAF5
330
1F
100
AcDbEntity
  8
AM_5
100
AcDbLine
 10
795.5852786629714
 20
480.9252006548255
 30
0.0
 11
790.0852786629713
 21
480.9252006548255
 31
0.0
  0
LINE
  5
FAAF6
330
1F
100
AcDbEntity
  8
AM_5
100
AcDbLine
 10
796.9352786629713
 20
482.1752006548255
 30
0.0
 11
788.7352786629715
 21
482.1752006548255
 31
0.0
  0
LINE
  5
FAAF7
330
1F
100
AcDbEntity
  8
AM_5
100
AcDbLine
 10
788.7352786629715
 20
482.4298815003963
 30
0.0
 11
796.9352786629713
 21
482.4298815003963
 31
0.0
  0
LINE
  5
FAAF8
330
1F
100
AcDbEntity
  8
AM_5
100
AcDbLine
 10
795.5852786629711
 20
477.9298815003963
 30
0.0
 11
790.0852786629712
 21
477.9298815003963
 31
0.0
  0
LINE
  5
FAAF9
330
1F
100
AcDbEntity
  8
AM_5
100
AcDbLine
 10
791.1652786629713
 20
480.1298815003963
 30
0.0
 11
791.1652786629713
 21
482.4298815003963
 31
0.0
  0
LINE
  5
FAAFA
330
1F
100
AcDbEntity
  8
AM_5
100
AcDbLine
 10
788.7352786629715
 20
482.4298815003963
 30
0.0
 11
788.7352786629715
 21
482.1752006548255
 31
0.0
  0
LINE
  5
FAAFB
330
1F
100
AcDbEntity
  8
AM_5
100
AcDbLine
 10
788.7352786629715
 20
482.1752006548255
 30
0.0
 11
790.0852786629713
 21
480.9252006548255
 31
0.0
  0
LINE
  5
FAAFC
330
1F
100
AcDbEntity
  8
AM_5
100
AcDbLine
 10
790.0852786629713
 20
480.9252006548255
 30
0.0
 11
790.0852786629712
 21
477.9298815003963
 31
0.0
  0
LINE
  5
FAAFD
330
1F
100
AcDbEntity
  8
AM_5
100
AcDbLine
 10
796.9352786629713
 20
482.1752006548255
 30
0.0
 11
795.5852786629714
 21
480.9252006548255
 31
0.0
  0
LINE
  5
FAAFE
330
1F
100
AcDbEntity
  8
AM_5
100
AcDbLine
 10
792.8352786629714
 20
479.7525527826354
 30
0.0
 11
794.5052786629714
 21
480.1298815003963
 31
0.0
  0
LINE
  5
FAAFF
330
1F
100
AcDbEntity
  8
AM_5
100
AcDbLine
 10
794.5052786629714
 20
480.1298815003963
 30
0.0
 11
794.5052786629714
 21
482.4298815003963
 31
0.0
  0
LINE
  5
FAB00
330
1F
100
AcDbEntity
  8
AM_5
100
AcDbLine
 10
795.5852786629714
 20
480.9252006548255
 30
0.0
 11
795.5852786629711
 21
477.9298815003963
 31
0.0
  0
LINE
  5
FAB01
330
1F
100
AcDbEntity
  8
AM_5
100
AcDbLine
 10
796.9352786629713
 20
482.4298815003963
 30
0.0
 11
796.9352786629713
 21
482.1752006548255
 31
0.0
  0
LEADER
  5
FAB02
330
1F
100
AcDbEntity
  8
AM_5
100
AcDbLeader
  3
AM_ISO$7
 76
     3
 10
793.96679804681
 20
512.4104485322665
 30
0.0
 10
799.215439190067
 20
504.8155363180766
 30
0.0
 10
809.6420830783149
 20
504.8155363180766
 30
0.0
211
1.0
221
-0.0000000000000002
231
0.0
1001
ACAD
1000
DSTYLE
1002
{
1070
   140
1040
3.5
1002
}
  0
MTEXT
  5
FAB03
330
1F
100
AcDbEntity
  8
AM_5
100
AcDbMText
 10
804.3526962484058
 20
507.2071319585374
 30
0.0
 40
2.0
 41
16.24518138417357
 71
     5
 72
     5
  1
3# 四角孔
  7
2014++
 73
     1
 44
1.0
  0
LWPOLYLINE
  5
FAB04
330
1F
100
AcDbEntity
  8
AM_5
100
AcDbPolyline
 90
        4
 70
     1
 43
0.0
 10
791.1652786629713
 20
515.0366280629491
 10
791.1652786629713
 20
511.6966280629496
 10
794.5052786629714
 20
511.6966280629496
 10
794.5052786629714
 20
515.0366280629491
  0
LINE
  5
FAB05
330
1F
100
AcDbEntity
  8
AM_5
100
AcDbLine
 10
792.8352786629714
 20
507.3666280629492
 30
0.0
 11
792.8352786629714
 21
519.3666280629492
 31
0.0
  0
CIRCLE
  5
FAB06
330
1F
100
AcDbEntity
  8
AM_5
100
AcDbCircle
 10
792.8352786629714
 20
513.3666280629491
 30
0.0
 40
4.0
  0
DIMENSION
  5
FAB07
330
1F
100
AcDbEntity
  8
AM_5
100
AcDbDimension
  2
*D31
 10
796.8352786629714
 20
522.6907797418573
 30
0.0
 11
792.8352786629714
 21
522.6907797418573
 31
0.0
 70
   160
  1
%%c<>
 71
     5
 42
8.0
  3
AM_ISO$0
100
AcDbAlignedDimension
 13
788.8352786629714
 23
513.3666280629491
 33
0.0
 14
796.8352786629714
 24
513.3666280629491
 34
0.0
100
AcDbRotatedDimension
1001
ACAD_DSTYLE_DIMINSPECT
1070
   396
1000
100%
1070
   395
1000

1070
   394
1070
    33
1070
   393
1070
     0
  0
LINE
  5
FAB08
330
1F
100
AcDbEntity
  8
AM_5
100
AcDbLine
 10
798.8352786629714
 20
513.3666280629491
 30
0.0
 11
786.8352786629714
 21
513.3666280629491
 31
0.0
  0
MTEXT
  5
FAB09
330
1F
100
AcDbEntity
  8
AM_5
100
AcDbMText
 10
774.8519382080521
 20
550.3662930383256
 30
0.0
 40
10.0
 41
16.80016178190794
 71
     1
 72
     5
  1
YA-S75
  7
2014++
 73
     1
 44
1.0
1001
ACAD
1000
ACAD_MTEXT_COLUMN_INFO_BEGIN
1070
    75
1070
     2
1070
    79
1070
     0
1070
    76
1070
     1
1070
    78
1070
     0
1070
    48
1040
16.80016178190794
1070
    49
1040
12.5
1070
    50
1070
     1
1040
0.0
1000
ACAD_MTEXT_COLUMN_INFO_END
  0
DIMENSION
  5
FAB0A
330
1F
100
AcDbEntity
  8
AM_5
100
AcDbDimension
  2
*D32
 10
808.9352786629714
 20
482.4298815003963
 30
0.0
 11
805.6852786629711
 21
491.4523688738118
 31
0.0
 70
    32
 71
     5
 42
5.500000000000113
  3
AM_ISO$0
100
AcDbAlignedDimension
 13
794.8352786629713
 23
476.9298815003963
 33
0.0
 14
796.9352786629713
 24
482.4298815003963
 34
0.0
 50
90.0
100
AcDbRotatedDimension
1001
ACAD_DSTYLE_DIMINSPECT
1070
   396
1000
100%
1070
   395
1000

1070
   394
1070
    33
1070
   393
1070
     0
  0
MTEXT
  5
FAB70
330
1F
100
AcDbEntity
  8
AM_5
100
AcDbMText
 10
592.5466740856882
 20
550.3662930383256
 30
0.0
 40
10.0
 41
135.868830615158
 71
     1
 72
     5
  1
ツーバイステンプレート
  7
2014++
 73
     1
 44
1.0
1001
ACAD
1000
ACAD_MTEXT_COLUMN_INFO_BEGIN
1070
    75
1070
     2
1070
    79
1070
     0
1070
    76
1070
     1
1070
    78
1070
     0
1070
    48
1040
135.868830615158
1070
    49
1040
12.5
1070
    50
1070
     1
1040
0.0
1000
ACAD_MTEXT_COLUMN_INFO_END
  0
DIMENSION
  5
FABA7
330
1F
100
AcDbEntity
  8
AM_5
100
AcDbDimension
  2
*D33
 10
583.4644979479253
 20
151.1616238246002
 30
0.0
 11
580.2144979479253
 21
301.1616238246006
 31
0.0
 70
    32
  1
<>
 71
     5
 42
300.0000000000004
  3
AM_ISO$0
100
AcDbAlignedDimension
 13
659.1594457280796
 23
451.1616238246006
 33
0.0
 14
621.659445728065
 24
151.1616238246002
 34
0.0
 50
90.00000000000003
100
AcDbRotatedDimension
1001
ACAD_DSTYLE_DIMINSPECT
1070
   396
1000
100%
1070
   395
1000

1070
   394
1070
    33
1070
   393
1070
     0
1001
ACAD
1000
DSTYLE
1002
{
1070
     3
1000

1002
}
  0
VIEWPORT
  5
FA920
102
{ACAD_XDICTIONARY
360
FA921
102
}
330
FA917
100
AcDbEntity
 67
     1
  8
0
100
AcDbViewport
 10
142.5892486572266
 20
99.11291408538819
 30
0.0
 40
503.6146445490003
 41
222.1517806396485
 68
     1
 69
     1
 12
142.5892486572266
 22
99.11291408538819
 13
0.0
 23
0.0
 14
10.0
 24
10.0
 15
10.0
 25
10.0
 16
0.0
 26
0.0
 36
1.0
 17
0.0
 27
0.0
 37
0.0
 42
50.0
 43
0.0
 44
0.0
 45
222.1517806396485
 50
0.0
 51
0.0
 72
   100
 90
   819232
  1

281
     0
 71
     1
 74
     0
110
0.0
120
0.0
130
0.0
111
1.0
121
0.0
131
0.0
112
0.0
122
1.0
132
0.0
 79
     0
146
0.0
170
     0
  0
ENDSEC
  0
SECTION
  2
OBJECTS
  0
DICTIONARY
  5
C
330
0
100
AcDbDictionary
281
     1
  3
ACAD_CIP_PREVIOUS_PRODUCT_INFO
350
FA8E2
  3
ACAD_COLOR
350
8712
  3
ACAD_DETAILVIEWSTYLE
350
FA8CB
  3
ACAD_FIELDLIST
350
FA8FE
  3
ACAD_GROUP
350
D
  3
ACAD_LAYOUT
350
1A
  3
ACAD_MATERIAL
350
8711
  3
ACAD_MLEADERSTYLE
350
FA8C7
  3
ACAD_MLINESTYLE
350
17
  3
ACAD_PLOTSETTINGS
350
19
  3
ACAD_PLOTSTYLENAME
350
E
  3
ACAD_SCALELIST
350
FA8B5
  3
ACAD_SECTIONVIEWSTYLE
350
FA8C9
  3
ACAD_TABLESTYLE
350
FA8B3
  3
ACAD_VISUALSTYLE
350
FA89A
  3
AcadDim
350
CCA4E
  3
ACDB_RECOMPOSE_DATA
350
FADA7
  3
AcDbVariableDictionary
350
6B9
  3
AcDsDecomposeData
350
FADAD
  3
AcmDictionary
350
16D31
  3
AMG
350
16D13
  3
AMGSNAPSETTINGS
350
17AE6
  3
ASE_INDEX_DICTIONARY
350
F4A75
  0
DICTIONARY
  5
F82BD
330
2
100
AcDbDictionary
280
     1
281
     1
  3
ACAD_LAYERFILTERS
360
F82C0
  3
ACAD_LAYERSTATES
360
F82BE
  0
DICTIONARY
  5
FA93D
330
10
100
AcDbDictionary
280
     1
281
     1
  3
ADSK_XREC_LAYER_RECONCILED
360
FA93E
  0
DICTIONARY
  5
FA94B
330
86C9
100
AcDbDictionary
280
     1
281
     1
  3
ADSK_XREC_LAYER_RECONCILED
360
FA94C
  0
DICTIONARY
  5
FA9BB
330
FA9BA
100
AcDbDictionary
280
     1
281
     1
  0
DICTIONARY
  5
16D78
330
1F
100
AcDbDictionary
280
     1
281
     1
  0
DICTIONARY
  5
FADE9
330
FAC0F
100
AcDbDictionary
280
     1
281
     1
  3
ACAD_MTEXT_2008_RT
360
FADEA
  0
DICTIONARY
  5
FA921
330
FA920
100
AcDbDictionary
280
     1
281
     1
  3
ASDK_XREC_ANNOTATION_SCALE_INFO
360
FA922
  0
XRECORD
  5
FA8E2
102
{ACAD_REACTORS
330
C
102
}
330
C
100
AcDbXrecord
280
     1
300
AMECH_PP
300
2016
300
AMECH_PP_F_S
  0
DICTIONARY
  5
8712
102
{ACAD_REACTORS
330
C
102
}
330
C
100
AcDbDictionary
281
     1
  0
DICTIONARY
  5
FA8CB
102
{ACAD_REACTORS
330
C
102
}
330
C
100
AcDbDictionary
281
     1
  3
Metric50
350
FA8CC
  0
FIELDLIST
  5
FA8FE
102
{ACAD_REACTORS
330
C
102
}
330
C
100
AcDbIdSet
 90
        3
330
FA8FC
330
FA8FD
330
FA8FF
100
AcDbFieldList
  0
DICTIONARY
  5
D
102
{ACAD_REACTORS
330
C
102
}
330
C
100
AcDbDictionary
281
     1
  0
DICTIONARY
  5
1A
102
{ACAD_REACTORS
330
C
102
}
330
C
100
AcDbDictionary
281
     1
  3
Model
350
22
  3
レイアウト1
350
FA918
  0
DICTIONARY
  5
8711
102
{ACAD_REACTORS
330
C
102
}
330
C
100
AcDbDictionary
281
     1
  3
ByBlock
350
FA88A
  3
ByLayer
350
FA882
  3
Global
350
FA892
  0
DICTIONARY
  5
FA8C7
102
{ACAD_REACTORS
330
C
102
}
330
C
100
AcDbDictionary
281
     1
  3
Standard
350
FA8C8
  0
DICTIONARY
  5
17
102
{ACAD_REACTORS
330
C
102
}
330
C
100
AcDbDictionary
281
     1
  3
Standard
350
18
  0
DICTIONARY
  5
19
102
{ACAD_REACTORS
330
C
102
}
330
C
100
AcDbDictionary
281
     1
  0
ACDBDICTIONARYWDFLT
  5
E
102
{ACAD_REACTORS
330
C
102
}
330
C
100
AcDbDictionary
281
     1
  3
Normal
350
F
100
AcDbDictionaryWithDefault
340
F
  0
DICTIONARY
  5
FA8B5
102
{ACAD_REACTORS
330
C
102
}
330
C
100
AcDbDictionary
281
     1
  3
A0
350
FA8B6
  3
A1
350
FA8B7
  3
A2
350
FA8B8
  3
A3
350
FA8B9
  3
A4
350
FA8BA
  3
A5
350
FA8BB
  3
A6
350
FA8BC
  3
A7
350
FA8BD
  3
A8
350
FA8BE
  3
A9
350
FA8BF
  3
B0
350
FA8C0
  3
B1
350
FA8C1
  3
B2
350
FA8C2
  3
B3
350
FA8C3
  3
B4
350
FA8C4
  3
B5
350
FA8C5
  3
B6
350
FA8C6
  0
DICTIONARY
  5
FA8C9
102
{ACAD_REACTORS
330
C
102
}
330
C
100
AcDbDictionary
281
     1
  3
Metric50
350
FA8CA
  0
DICTIONARY
  5
FA8B3
102
{ACAD_REACTORS
330
C
102
}
330
C
100
AcDbDictionary
281
     1
  3
Standard
350
FA8B4
  0
DICTIONARY
  5
FA89A
102
{ACAD_REACTORS
330
C
102
}
330
C
100
AcDbDictionary
281
     1
  3
2dWireframe
350
FA8A0
  3
Basic
350
FA89F
  3
Brighten
350
FA8A6
  3
ColorChange
350
FA8AA
  3
Conceptual
350
FA8A3
  3
Dim
350
FA8A5
  3
EdgeColorOff
350
FA8B2
  3
Facepattern
350
FA8A9
  3
Flat
350
FA89B
  3
FlatWithEdges
350
FA89C
  3
Gouraud
350
FA89D
  3
GouraudWithEdges
350
FA89E
  3
Hidden
350
FA8A2
  3
JitterOff
350
FA8B0
  3
Linepattern
350
FA8A8
  3
OverhangOff
350
FA8B1
  3
Realistic
350
FA8A4
  3
Shaded
350
FA8AF
  3
Shaded with edges
350
FA8AE
  3
Shades of Gray
350
FA8AB
  3
Sketchy
350
FA8AC
  3
Thicken
350
FA8A7
  3
Wireframe
350
FA8A1
  3
X-Ray
350
FA8AD
  0
XRECORD
  5
CCA4E
102
{ACAD_REACTORS
330
C
102
}
330
C
100
AcDbXrecord
280
     1
 90
   990106
  3

 60
     0
 61
     0
 62
     1
 63
     3
 64
     0
 65
     0
 66
     0
 67
     3
 68
     1
 69
     0
 70
     0
 71
     0
 72
     0
 40
17.73254125325911
170
     0
  0
XRECORD
  5
FADA7
102
{ACAD_REACTORS
330
C
102
}
330
C
100
AcDbXrecord
280
     1
 90
        1
330
FA58A
330
FA8B4
330
FAB09
330
FAB70
  0
DICTIONARY
  5
6B9
102
{ACAD_REACTORS
330
C
102
}
330
C
100
AcDbDictionary
281
     1
  3
CANNOSCALE
350
FAD43
  3
CMLEADERSTYLE
350
FAD3F
  3
CTABLESTYLE
350
FAD3E
  3
CVIEWDETAILSTYLE
350
FAD40
  3
CVIEWSECTIONSTYLE
350
FAD41
  3
DIMASSOC
350
F4248
  3
INDEXCTL
350
F4247
  3
LAYEREVAL
350
FAD45
  3
LAYERNOTIFY
350
FAD46
  3
LIGHTINGUNITS
350
FAD44
  3
MSLTSCALE
350
FAD42
  3
PROJECTNAME
350
F4249
  3
SORTENTS
350
6BA
  0
DICTIONARY
  5
FADAD
102
{ACAD_REACTORS
330
C
102
}
330
C
100
AcDbDictionary
281
     1
  3
AcDsRecords
350
FADAF
  3
AcDsSchemas
350
FADAE
1001
ACAD
1070
     2
  0
DICTIONARY
  5
16D31
102
{ACAD_REACTORS
330
C
102
}
330
C
100
AcDbDictionary
281
     1
  3
AcmStdDictionary
350
16D3E
  3
AMDTSECTSYM_ARROWCOLOR
350
16DB5
  0
DICTIONARY
  5
16D13
102
{ACAD_REACTORS
330
C
102
}
330
C
100
AcDbDictionary
281
     1
  0
DICTIONARY
  5
17AE6
102
{ACAD_REACTORS
330
C
102
}
330
C
100
AcDbDictionary
281
     1
  0
DICTIONARY
  5
F4A75
102
{ACAD_REACTORS
330
C
102
}
330
C
100
AcDbDictionary
281
     1
  3
ASEBlockHierarchyIndexRecord
350
F4A77
1001
DCO15
1040
1654516794.149
  0
DICTIONARY
  5
F82C0
102
{ACAD_REACTORS
330
F82BD
102
}
330
F82BD
100
AcDbDictionary
281
     1
  0
DICTIONARY
  5
F82BE
102
{ACAD_REACTORS
330
F82BD
102
}
330
F82BD
100
AcDbDictionary
281
     1
  3
2014++
350
F82D2
  3
2014+++
350
F82BF
  0
XRECORD
  5
FA93E
102
{ACAD_REACTORS
330
FA93D
102
}
330
FA93D
100
AcDbXrecord
280
     1
290
     1
  0
XRECORD
  5
FA94C
102
{ACAD_REACTORS
330
FA94B
102
}
330
FA94B
100
AcDbXrecord
280
     1
290
     1
  0
XRECORD
  5
FADEA
102
{ACAD_REACTORS
330
FADE9
102
}
330
FADE9
100
AcDbXrecord
280
     1
 40
4821.0
  1
13-\U+22055.1
  0
XRECORD
  5
FA922
102
{ACAD_REACTORS
330
FA921
102
}
330
FA921
100
AcDbXrecord
280
     1
 90
        1
340
FA8B6
  0
ACDBDETAILVIEWSTYLE
  5
FA8CC
102
{ACAD_XDICTIONARY
360
FAD38
102
}
102
{ACAD_REACTORS
330
FA8CB
330
FA8EF
102
}
330
FA8CB
100
AcDbModelDocViewStyle
 70
     0
  3
Metric50
290
     0
100
AcDbDetailViewStyle
 70
     0
 71
     0
 90
        3
 71
     1
340
11
 62
   256
 40
5.0
340
0
 62
   256
 40
5.0
300

 40
0.0
280
     1
 71
     2
340
16
 90
       25
 62
   256
 71
     3
340
11
 62
   256
 40
5.0
 90
        0
 40
15.0
 90
        1
300
%<\AcVar ViewDetailId>% (%<\AcVar ViewScale \f "%sn">%)
 71
     4
340
16
 90
       25
 62
   256
340
16
 90
       25
 62
   256
280
     0
  0
LAYOUT
  5
22
102
{ACAD_REACTORS
330
1A
102
}
330
1A
100
AcDbPlotSettings
  1

  2
FUJITSU FAX Print Driver
  4
User261
  6

 40
3.174999952316282
 41
3.174999952316282
 42
3.17498779296875
 43
3.17498779296875
 44
297.0244750976562
 45
419.8775329589842
 46
0.0
 47
0.0
 48
0.0
 49
0.0
140
0.0
141
0.0
142
1.0
143
1.197207273994177
 70
 11952
 72
     1
 73
     1
 74
     0
  7
monochrome.ctb
 75
     0
147
0.8352772504160906
 76
     0
 77
     2
 78
   300
148
-6.027674911478015
149
-7.671586470139232
100
AcDbLayout
  1
Model
 70
     1
 71
     0
 10
0.0
 20
0.0
 11
12.0
 21
9.0
 12
0.0
 22
0.0
 32
0.0
 14
0.0
 24
0.0
 34
0.0
 15
0.0
 25
0.0
 35
0.0
146
0.0
 13
0.0
 23
0.0
 33
0.0
 16
1.0
 26
0.0
 36
0.0
 17
0.0
 27
1.0
 37
0.0
 76
     0
330
1F
331
FA880
  0
LAYOUT
  5
FA918
102
{ACAD_REACTORS
330
1A
102
}
330
1A
100
AcDbPlotSettings
  1

  2
RICOH imagio MP C5001 RPCS
  4
A4
  6

 40
5.873749732971191
 41
5.873748779296875
 42
5.873733520507812
 43
5.873748779296875
 44
209.9733276367187
 45
296.9259948730469
 46
0.0
 47
0.0
 48
0.0
 49
0.0
140
0.0
141
0.0
142
1.0
143
1.0
 70
   688
 72
     1
 73
     1
 74
     5
  7

 75
    16
147
1.0
 76
     0
 77
     2
 78
   300
148
0.0
149
0.0
100
AcDbLayout
  1
レイアウト1
 70
     1
 71
     1
 10
-5.873748779296875
 20
-5.873749732971191
 11
291.05224609375
 21
204.0995779037475
 12
0.0
 22
0.0
 32
0.0
 14
1.000000000000000E+20
 24
1.000000000000000E+20
 34
1.000000000000000E+20
 15
-1.000000000000000E+20
 25
-1.000000000000000E+20
 35
-1.000000000000000E+20
146
0.0
 13
0.0
 23
0.0
 33
0.0
 16
1.0
 26
0.0
 36
0.0
 17
0.0
 27
1.0
 37
0.0
 76
     0
330
FA917
331
FA920
1001
ACAD_PSEXT
1000
RICOH imagio MP C5001 RPCS
1000
RICOH imagio MP C5001 RPCS
1000
IP_192.168.13.100
1000
RPCS Driver (For Windows)
1070
     0
  0
MATERIAL
  5
FA88A
102
{ACAD_XDICTIONARY
360
FA88B
102
}
102
{ACAD_REACTORS
330
8711
102
}
330
8711
100
AcDbMaterial
  1
ByBlock
 72
     0
 43
0.0008202099737533
 43
0.0
 43
0.0
 43
0.0
 43
0.0
 43
0.0008202099737533
 43
0.0
 43
0.0
 43
0.0
 43
0.0
 43
1.0
 43
0.0
 43
0.0
 43
0.0
 43
0.0
 43
1.0
 77
     0
 47
0.0008202099737533
 47
0.0
 47
0.0
 47
0.0
 47
0.0
 47
0.0008202099737533
 47
0.0
 47
0.0
 47
0.0
 47
0.0
 47
1.0
 47
0.0
 47
0.0
 47
0.0
 47
0.0
 47
1.0
171
     0
 49
0.0008202099737533
 49
0.0
 49
0.0
 49
0.0
 49
0.0
 49
0.0008202099737533
 49
0.0
 49
0.0
 49
0.0
 49
0.0
 49
1.0
 49
0.0
 49
0.0
 49
0.0
 49
0.0
 49
1.0
175
     0
142
0.0008202099737533
142
0.0
142
0.0
142
0.0
142
0.0
142
0.0008202099737533
142
0.0
142
0.0
142
0.0
142
0.0
142
1.0
142
0.0
142
0.0
142
0.0
142
0.0
142
1.0
179
     0
144
0.0008202099737533
144
0.0
144
0.0
144
0.0
144
0.0
144
0.0008202099737533
144
0.0
144
0.0
144
0.0
144
0.0
144
1.0
144
0.0
144
0.0
144
0.0
144
0.0
144
1.0
147
0.0008202099737533
147
0.0
147
0.0
147
0.0
147
0.0
147
0.0008202099737533
147
0.0
147
0.0
147
0.0
147
0.0
147
1.0
147
0.0
147
0.0
147
0.0
147
0.0
147
1.0
  0
MATERIAL
  5
FA882
102
{ACAD_XDICTIONARY
360
FA883
102
}
102
{ACAD_REACTORS
330
8711
102
}
330
8711
100
AcDbMaterial
  1
ByLayer
 72
     0
 43
0.0008202099737533
 43
0.0
 43
0.0
 43
0.0
 43
0.0
 43
0.0008202099737533
 43
0.0
 43
0.0
 43
0.0
 43
0.0
 43
1.0
 43
0.0
 43
0.0
 43
0.0
 43
0.0
 43
1.0
 77
     0
 47
0.0008202099737533
 47
0.0
 47
0.0
 47
0.0
 47
0.0
 47
0.0008202099737533
 47
0.0
 47
0.0
 47
0.0
 47
0.0
 47
1.0
 47
0.0
 47
0.0
 47
0.0
 47
0.0
 47
1.0
171
     0
 49
0.0008202099737533
 49
0.0
 49
0.0
 49
0.0
 49
0.0
 49
0.0008202099737533
 49
0.0
 49
0.0
 49
0.0
 49
0.0
 49
1.0
 49
0.0
 49
0.0
 49
0.0
 49
0.0
 49
1.0
175
     0
142
0.0008202099737533
142
0.0
142
0.0
142
0.0
142
0.0
142
0.0008202099737533
142
0.0
142
0.0
142
0.0
142
0.0
142
1.0
142
0.0
142
0.0
142
0.0
142
0.0
142
1.0
179
     0
144
0.0008202099737533
144
0.0
144
0.0
144
0.0
144
0.0
144
0.0008202099737533
144
0.0
144
0.0
144
0.0
144
0.0
144
1.0
144
0.0
144
0.0
144
0.0
144
0.0
144
1.0
147
0.0008202099737533
147
0.0
147
0.0
147
0.0
147
0.0
147
0.0008202099737533
147
0.0
147
0.0
147
0.0
147
0.0
147
1.0
147
0.0
147
0.0
147
0.0
147
0.0
147
1.0
  0
MATERIAL
  5
FA892
102
{ACAD_XDICTIONARY
360
FA893
102
}
102
{ACAD_REACTORS
330
8711
102
}
330
8711
100
AcDbMaterial
  1
Global
 72
     0
 43
0.0008202099737533
 43
0.0
 43
0.0
 43
0.0
 43
0.0
 43
0.0008202099737533
 43
0.0
 43
0.0
 43
0.0
 43
0.0
 43
1.0
 43
0.0
 43
0.0
 43
0.0
 43
0.0
 43
1.0
 77
     0
 47
0.0008202099737533
 47
0.0
 47
0.0
 47
0.0
 47
0.0
 47
0.0008202099737533
 47
0.0
 47
0.0
 47
0.0
 47
0.0
 47
1.0
 47
0.0
 47
0.0
 47
0.0
 47
0.0
 47
1.0
171
     0
 49
0.0008202099737533
 49
0.0
 49
0.0
 49
0.0
 49
0.0
 49
0.0008202099737533
 49
0.0
 49
0.0
 49
0.0
 49
0.0
 49
1.0
 49
0.0
 49
0.0
 49
0.0
 49
0.0
 49
1.0
175
     0
142
0.0008202099737533
142
0.0
142
0.0
142
0.0
142
0.0
142
0.0008202099737533
142
0.0
142
0.0
142
0.0
142
0.0
142
1.0
142
0.0
142
0.0
142
0.0
142
0.0
142
1.0
179
     0
144
0.0008202099737533
144
0.0
144
0.0
144
0.0
144
0.0
144
0.0008202099737533
144
0.0
144
0.0
144
0.0
144
0.0
144
1.0
144
0.0
144
0.0
144
0.0
144
0.0
144
1.0
147
0.0008202099737533
147
0.0
147
0.0
147
0.0
147
0.0
147
0.0008202099737533
147
0.0
147
0.0
147
0.0
147
0.0
147
1.0
147
0.0
147
0.0
147
0.0
147
0.0
147
1.0
  0
MLEADERSTYLE
  5
FA8C8
102
{ACAD_XDICTIONARY
360
FADE5
102
}
102
{ACAD_REACTORS
330
FA8C7
102
}
330
FA8C7
100
AcDbMLeaderStyle
170
     2
171
     1
172
     0
 90
        2
 40
0.0
 41
0.0
173
     1
 91
-1056964608
340
14
 92
       -2
290
     1
 42
2.0
291
     1
 43
0.36
  3
Standard
 44
4.0
300

342
11
174
     1
178
     6
175
     1
176
     0
 93
-1056964608
 45
4.0
292
     0
297
     0
 46
4.0
 94
-1056964608
 47
1.0
 49
1.0
140
1.0
293
     1
141
0.0
294
     1
177
     0
142
1.0
295
     0
296
     0
143
0.125
1001
ACAD_MLEADERVER
1070
     2
  0
MLINESTYLE
  5
18
102
{ACAD_REACTORS
330
17
102
}
330
17
100
AcDbMlineStyle
  2
STANDARD
 70
     0
  3

 62
   256
 51
90.0
 52
90.0
 71
     2
 49
0.5
 62
   256
  6
BYLAYER
 49
-0.5
 62
   256
  6
BYLAYER
  0
ACDBPLACEHOLDER
  5
F
102
{ACAD_REACTORS
330
E
102
}
330
E
  0
SCALE
  5
FA8B6
102
{ACAD_REACTORS
330
FA8B5
102
}
330
FA8B5
100
AcDbScale
 70
     0
300
1:1
140
1.0
141
1.0
290
     1
  0
SCALE
  5
FA8B7
102
{ACAD_REACTORS
330
FA8B5
102
}
330
FA8B5
100
AcDbScale
 70
     0
300
1:2
140
1.0
141
2.0
290
     0
  0
SCALE
  5
FA8B8
102
{ACAD_REACTORS
330
FA8B5
102
}
330
FA8B5
100
AcDbScale
 70
     0
300
1:4
140
1.0
141
4.0
290
     0
  0
SCALE
  5
FA8B9
102
{ACAD_REACTORS
330
FA8B5
102
}
330
FA8B5
100
AcDbScale
 70
     0
300
1:5
140
1.0
141
5.0
290
     0
  0
SCALE
  5
FA8BA
102
{ACAD_REACTORS
330
FA8B5
102
}
330
FA8B5
100
AcDbScale
 70
     0
300
1:8
140
1.0
141
8.0
290
     0
  0
SCALE
  5
FA8BB
102
{ACAD_REACTORS
330
FA8B5
102
}
330
FA8B5
100
AcDbScale
 70
     0
300
1:10
140
1.0
141
10.0
290
     0
  0
SCALE
  5
FA8BC
102
{ACAD_REACTORS
330
FA8B5
102
}
330
FA8B5
100
AcDbScale
 70
     0
300
1:16
140
1.0
141
16.0
290
     0
  0
SCALE
  5
FA8BD
102
{ACAD_REACTORS
330
FA8B5
102
}
330
FA8B5
100
AcDbScale
 70
     0
300
1:20
140
1.0
141
20.0
290
     0
  0
SCALE
  5
FA8BE
102
{ACAD_REACTORS
330
FA8B5
102
}
330
FA8B5
100
AcDbScale
 70
     0
300
1:30
140
1.0
141
30.0
290
     0
  0
SCALE
  5
FA8BF
102
{ACAD_REACTORS
330
FA8B5
102
}
330
FA8B5
100
AcDbScale
 70
     0
300
1:40
140
1.0
141
40.0
290
     0
  0
SCALE
  5
FA8C0
102
{ACAD_REACTORS
330
FA8B5
102
}
330
FA8B5
100
AcDbScale
 70
     0
300
1:50
140
1.0
141
50.0
290
     0
  0
SCALE
  5
FA8C1
102
{ACAD_REACTORS
330
FA8B5
102
}
330
FA8B5
100
AcDbScale
 70
     0
300
1:100
140
1.0
141
100.0
290
     0
  0
SCALE
  5
FA8C2
102
{ACAD_REACTORS
330
FA8B5
102
}
330
FA8B5
100
AcDbScale
 70
     0
300
2:1
140
2.0
141
1.0
290
     0
  0
SCALE
  5
FA8C3
102
{ACAD_REACTORS
330
FA8B5
102
}
330
FA8B5
100
AcDbScale
 70
     0
300
4:1
140
4.0
141
1.0
290
     0
  0
SCALE
  5
FA8C4
102
{ACAD_REACTORS
330
FA8B5
102
}
330
FA8B5
100
AcDbScale
 70
     0
300
8:1
140
8.0
141
1.0
290
     0
  0
SCALE
  5
FA8C5
102
{ACAD_REACTORS
330
FA8B5
102
}
330
FA8B5
100
AcDbScale
 70
     0
300
10:1
140
10.0
141
1.0
290
     0
  0
SCALE
  5
FA8C6
102
{ACAD_REACTORS
330
FA8B5
102
}
330
FA8B5
100
AcDbScale
 70
     0
300
100:1
140
100.0
141
1.0
290
     0
  0
ACDBSECTIONVIEWSTYLE
  5
FA8CA
102
{ACAD_XDICTIONARY
360
FAD36
102
}
102
{ACAD_REACTORS
330
FA8C9
330
FA8EE
102
}
330
FA8C9
100
AcDbModelDocViewStyle
 70
     0
  3
Metric50
290
     0
100
AcDbSectionViewStyle
 70
     0
 71
     0
 90
      102
 71
     1
340
11
 62
   256
 40
5.0
340
0
340
0
 62
   256
 40
5.0
300
I, O, Q, S, X, Z
 40
10.0
 90
        0
 40
2.5
 90
        0
 71
     2
340
16
 90
       25
 62
   256
340
16
 90
       50
 62
   256
 40
5.0
 40
2.5
 40
5.0
 71
     3
340
11
 62
   256
 40
5.0
 90
        0
 40
15.0
 90
        1
300
%<\AcVar ViewSectionStartId>%-%<\AcVar ViewSectionEndId>% (%<\AcVar ViewScale \f "%sn">%)
 71
     4
 62
   256
 62
   257
300
ANSI31
 40
1.0
 90
        0
290
     0
290
     0
 90
        6
 40
0.0
 40
1.570796326794896
 40
0.2617993877991494
 40
1.308996938995747
 40
-0.2617993877991494
 40
1.832595714594046
  0
TABLESTYLE
  5
FA8B4
102
{ACAD_XDICTIONARY
360
FADA5
102
}
102
{ACAD_REACTORS
330
FA8B3
102
}
330
FA8B3
100
AcDbTableStyle
  3
Standard
 70
     0
 71
     0
 40
1.5
 41
1.5
280
     0
281
     0
  7
STANDARD
140
4.5
170
     2
 62
     0
 63
     7
283
     0
274
    -2
284
     1
 64
     0
275
    -2
285
     1
 65
     0
276
    -2
286
     1
 66
     0
277
    -2
287
     1
 67
     0
278
    -2
288
     1
 68
     0
279
    -2
289
     1
 69
     0
  7
STANDARD
140
6.0
170
     5
 62
     0
 63
     7
283
     0
274
    -2
284
     1
 64
     0
275
    -2
285
     1
 65
     0
276
    -2
286
     1
 66
     0
277
    -2
287
     1
 67
     0
278
    -2
288
     1
 68
     0
279
    -2
289
     1
 69
     0
  7
STANDARD
140
4.5
170
     5
 62
     0
 63
     7
283
     0
274
    -2
284
     1
 64
     0
275
    -2
285
     1
 65
     0
276
    -2
286
     1
 66
     0
277
    -2
287
     1
 67
     0
278
    -2
288
     1
 68
     0
279
    -2
289
     1
 69
     0
  0
VISUALSTYLE
  5
FA8A0
102
{ACAD_XDICTIONARY
360
FADBD
102
}
102
{ACAD_REACTORS
330
FA89A
102
}
330
FA89A
100
AcDbVisualStyle
  2
2dWireframe
 70
     4
 71
     0
 72
     2
 73
     0
 90
        0
 40
-0.6
 41
-30.0
 62
     5
 63
     7
421
 16777215
 74
     1
 91
        4
 64
     7
 65
   257
 75
     1
175
     1
 42
1.0
 92
        0
 66
   257
 43
1.0
 76
     1
 77
     6
 78
     2
 67
     7
 79
     5
170
     0
171
     0
290
     0
174
     0
 93
        1
 44
0.0
173
     0
291
     0
 45
0.0
1001
ACAD
1000
AcDbSavedByObjectVersion
1070
     0
  0
VISUALSTYLE
  5
FA89F
102
{ACAD_XDICTIONARY
360
FADBB
102
}
102
{ACAD_REACTORS
330
FA89A
102
}
330
FA89A
100
AcDbVisualStyle
  2
Basic
 70
     7
 71
     1
 72
     0
 73
     1
 90
        0
 40
-0.6
 41
-30.0
 62
     5
 63
     7
421
 16777215
 74
     0
 91
        4
 64
     7
 65
   257
 75
     1
175
     1
 42
1.0
 92
        8
 66
     7
 43
1.0
 76
     1
 77
     6
 78
     2
 67
     7
 79
     5
170
     0
171
     0
290
     0
174
     0
 93
        1
 44
0.0
173
     0
291
     1
 45
0.0
1001
ACAD
1000
AcDbSavedByObjectVersion
1070
     0
  0
VISUALSTYLE
  5
FA8A6
102
{ACAD_XDICTIONARY
360
FADC9
102
}
102
{ACAD_REACTORS
330
FA89A
102
}
330
FA89A
100
AcDbVisualStyle
  2
Brighten
 70
    12
 71
     2
 72
     2
 73
     0
 90
        0
 40
-0.6
 41
-30.0
 62
     5
 63
     7
421
 16777215
 74
     1
 91
        4
 64
     7
 65
   257
 75
     1
175
     1
 42
1.0
 92
        8
 66
     7
 43
1.0
 76
     1
 77
     6
 78
     2
 67
     7
 79
     5
170
     0
171
     0
290
     0
174
     0
 93
        1
 44
50.0
173
     0
291
     1
 45
0.0
1001
ACAD
1000
AcDbSavedByObjectVersion
1070
     0
  0
VISUALSTYLE
  5
FA8AA
102
{ACAD_XDICTIONARY
360
FADD1
102
}
102
{ACAD_REACTORS
330
FA89A
102
}
330
FA89A
100
AcDbVisualStyle
  2
ColorChange
 70
    16
 71
     2
 72
     2
 73
     3
 90
        0
 40
-0.6
 41
-30.0
 62
     5
 63
     8
421
  8421504
 74
     1
 91
        4
 64
     7
 65
   257
 75
     1
175
     1
 42
1.0
 92
        8
 66
     8
424
  8421504
 43
1.0
 76
     1
 77
     6
 78
     2
 67
     7
 79
     5
170
     0
171
     0
290
     0
174
     0
 93
        1
 44
0.0
173
     0
291
     1
 45
0.0
1001
ACAD
1000
AcDbSavedByObjectVersion
1070
     0
  0
VISUALSTYLE
  5
FA8A3
102
{ACAD_XDICTIONARY
360
FADC3
102
}
102
{ACAD_REACTORS
330
FA89A
102
}
330
FA89A
100
AcDbVisualStyle
  2
Conceptual
 70
     9
 71
     3
 72
     2
 73
     0
 90
        0
 40
-0.6
 41
-30.0
 62
     5
 63
     7
421
 16777215
 74
     2
 91
        2
 64
     7
 65
   257
 75
     1
175
     1
 42
179.0
 92
        8
 66
     7
 43
1.0
 76
     1
 77
     6
 78
     2
 67
     7
 79
     3
170
     0
171
     0
290
     0
174
     0
 93
        1
 44
0.0
173
     0
291
     0
 45
0.0
1001
ACAD
1000
AcDbSavedByObjectVersion
1070
     0
  0
VISUALSTYLE
  5
FA8A5
102
{ACAD_XDICTIONARY
360
FADC7
102
}
102
{ACAD_REACTORS
330
FA89A
102
}
330
FA89A
100
AcDbVisualStyle
  2
Dim
 70
    11
 71
     2
 72
     2
 73
     0
 90
        0
 40
-0.6
 41
-30.0
 62
     5
 63
     7
421
 16777215
 74
     1
 91
        4
 64
     7
 65
   257
 75
     1
175
     1
 42
1.0
 92
        8
 66
     7
 43
1.0
 76
     1
 77
     6
 78
     2
 67
     7
 79
     5
170
     0
171
     0
290
     0
174
     0
 93
        1
 44
-50.0
173
     0
291
     1
 45
0.0
1001
ACAD
1000
AcDbSavedByObjectVersion
1070
     0
  0
VISUALSTYLE
  5
FA8B2
102
{ACAD_XDICTIONARY
360
FADE1
102
}
102
{ACAD_REACTORS
330
FA89A
102
}
330
FA89A
100
AcDbVisualStyle
  2
EdgeColorOff
 70
    22
 71
     2
 72
     2
 73
     0
 90
        0
 40
-0.6
 41
-30.0
 62
     5
 63
     7
421
 16777215
 74
     1
 91
        4
 64
     7
 65
   257
 75
     1
175
     1
 42
1.0
 92
        8
 66
     7
 43
1.0
 76
     1
 77
     6
 78
     2
 67
     7
 79
     5
170
     0
171
     0
290
     0
174
     0
 93
        1
 44
0.0
173
     0
291
     1
 45
0.0
1001
ACAD
1000
AcDbSavedByObjectVersion
1070
     0
  0
VISUALSTYLE
  5
FA8A9
102
{ACAD_XDICTIONARY
360
FADCF
102
}
102
{ACAD_REACTORS
330
FA89A
102
}
330
FA89A
100
AcDbVisualStyle
  2
Facepattern
 70
    15
 71
     2
 72
     2
 73
     0
 90
        0
 40
-0.6
 41
-30.0
 62
     5
 63
     7
421
 16777215
 74
     1
 91
        4
 64
     7
 65
   257
 75
     1
175
     1
 42
1.0
 92
        8
 66
     7
 43
1.0
 76
     1
 77
     6
 78
     2
 67
     7
 79
     5
170
     0
171
     0
290
     0
174
     0
 93
        1
 44
0.0
173
     0
291
     1
 45
0.0
1001
ACAD
1000
AcDbSavedByObjectVersion
1070
     0
  0
VISUALSTYLE
  5
FA89B
102
{ACAD_XDICTIONARY
360
FADB3
102
}
102
{ACAD_REACTORS
330
FA89A
102
}
330
FA89A
100
AcDbVisualStyle
  2
Flat
 70
     0
 71
     2
 72
     1
 73
     1
 90
        2
 40
-0.6
 41
30.0
 62
     5
 63
     7
421
 16777215
 74
     0
 91
        0
 64
     7
 65
   257
 75
     1
175
     1
 42
1.0
 92
        8
 66
     7
 43
1.0
 76
     1
 77
     6
 78
     2
 67
     7
 79
     5
170
     0
171
     0
290
     0
174
     0
 93
       13
 44
0.0
173
     0
291
     1
 45
0.0
1001
ACAD
1000
AcDbSavedByObjectVersion
1070
     0
  0
VISUALSTYLE
  5
FA89C
102
{ACAD_XDICTIONARY
360
FADB5
102
}
102
{ACAD_REACTORS
330
FA89A
102
}
330
FA89A
100
AcDbVisualStyle
  2
FlatWithEdges
 70
     1
 71
     2
 72
     1
 73
     1
 90
        2
 40
-0.6
 41
30.0
 62
     5
 63
     7
421
 16777215
 74
     1
 91
        0
 64
     7
 65
   257
 75
     1
175
     1
 42
1.0
 92
        0
 66
   257
 43
1.0
 76
     1
 77
     6
 78
     2
 67
     7
 79
     5
170
     0
171
     0
290
     0
174
     0
 93
       13
 44
0.0
173
     0
291
     1
 45
0.0
1001
ACAD
1000
AcDbSavedByObjectVersion
1070
     0
  0
VISUALSTYLE
  5
FA89D
102
{ACAD_XDICTIONARY
360
FADB7
102
}
102
{ACAD_REACTORS
330
FA89A
102
}
330
FA89A
100
AcDbVisualStyle
  2
Gouraud
 70
     2
 71
     2
 72
     2
 73
     1
 90
        2
 40
-0.6
 41
30.0
 62
     5
 63
     7
421
 16777215
 74
     0
 91
        0
 64
     7
 65
   257
 75
     1
175
     1
 42
1.0
 92
        0
 66
     7
 43
1.0
 76
     1
 77
     6
 78
     2
 67
     7
 79
     5
170
     0
171
     0
290
     0
174
     0
 93
       13
 44
0.0
173
     0
291
     1
 45
0.0
1001
ACAD
1000
AcDbSavedByObjectVersion
1070
     0
  0
VISUALSTYLE
  5
FA89E
102
{ACAD_XDICTIONARY
360
FADB9
102
}
102
{ACAD_REACTORS
330
FA89A
102
}
330
FA89A
100
AcDbVisualStyle
  2
GouraudWithEdges
 70
     3
 71
     2
 72
     2
 73
     1
 90
        2
 40
-0.6
 41
30.0
 62
     5
 63
     7
421
 16777215
 74
     1
 91
        0
 64
     7
 65
   257
 75
     1
175
     1
 42
1.0
 92
        0
 66
   257
 43
1.0
 76
     1
 77
     6
 78
     2
 67
     7
 79
     5
170
     0
171
     0
290
     0
174
     0
 93
       13
 44
0.0
173
     0
291
     1
 45
0.0
1001
ACAD
1000
AcDbSavedByObjectVersion
1070
     0
  0
VISUALSTYLE
  5
FA8A2
102
{ACAD_XDICTIONARY
360
FADC1
102
}
102
{ACAD_REACTORS
330
FA89A
102
}
330
FA89A
100
AcDbVisualStyle
  2
Hidden
 70
     6
 71
     1
 72
     2
 73
     2
 90
        0
 40
-0.6
 41
-30.0
 62
     5
 63
     7
421
 16777215
 74
     2
 91
        2
 64
     7
 65
   257
 75
     2
175
     1
 42
40.0
 92
        0
 66
   257
 43
1.0
 76
     1
 77
     6
 78
     2
 67
     7
 79
     3
170
     0
171
     0
290
     0
174
     0
 93
        1
 44
0.0
173
     0
291
     0
 45
0.0
1001
ACAD
1000
AcDbSavedByObjectVersion
1070
     0
  0
VISUALSTYLE
  5
FA8B0
102
{ACAD_XDICTIONARY
360
FADDD
102
}
102
{ACAD_REACTORS
330
FA89A
102
}
330
FA89A
100
AcDbVisualStyle
  2
JitterOff
 70
    20
 71
     2
 72
     2
 73
     0
 90
        0
 40
-0.6
 41
-30.0
 62
     5
 63
     7
421
 16777215
 74
     1
 91
        4
 64
     7
 65
   257
 75
     1
175
     1
 42
1.0
 92
       10
 66
     7
 43
1.0
 76
     1
 77
     6
 78
     2
 67
     7
 79
     5
170
     0
171
     0
290
     0
174
     0
 93
        1
 44
0.0
173
     0
291
     1
 45
0.0
1001
ACAD
1000
AcDbSavedByObjectVersion
1070
     0
  0
VISUALSTYLE
  5
FA8A8
102
{ACAD_XDICTIONARY
360
FADCD
102
}
102
{ACAD_REACTORS
330
FA89A
102
}
330
FA89A
100
AcDbVisualStyle
  2
Linepattern
 70
    14
 71
     2
 72
     2
 73
     0
 90
        0
 40
-0.6
 41
-30.0
 62
     5
 63
     7
421
 16777215
 74
     1
 91
        4
 64
     7
 65
   257
 75
     7
175
     7
 42
1.0
 92
        8
 66
     7
 43
1.0
 76
     1
 77
     6
 78
     2
 67
     7
 79
     5
170
     0
171
     0
290
     0
174
     0
 93
        1
 44
0.0
173
     0
291
     1
 45
0.0
1001
ACAD
1000
AcDbSavedByObjectVersion
1070
     0
  0
VISUALSTYLE
  5
FA8B1
102
{ACAD_XDICTIONARY
360
FADDF
102
}
102
{ACAD_REACTORS
330
FA89A
102
}
330
FA89A
100
AcDbVisualStyle
  2
OverhangOff
 70
    21
 71
     2
 72
     2
 73
     0
 90
        0
 40
-0.6
 41
-30.0
 62
     5
 63
     7
421
 16777215
 74
     1
 91
        4
 64
     7
 65
   257
 75
     1
175
     1
 42
1.0
 92
        9
 66
     7
 43
1.0
 76
     1
 77
     6
 78
     2
 67
     7
 79
     5
170
     0
171
     0
290
     0
174
     0
 93
        1
 44
0.0
173
     0
291
     1
 45
0.0
1001
ACAD
1000
AcDbSavedByObjectVersion
1070
     0
  0
VISUALSTYLE
  5
FA8A4
102
{ACAD_XDICTIONARY
360
FADC5
102
}
102
{ACAD_REACTORS
330
FA89A
102
}
330
FA89A
100
AcDbVisualStyle
  2
Realistic
 70
     8
 71
     2
 72
     3
 73
     0
 90
        2
 40
-0.6
 41
30.0
 62
     5
 63
     7
421
 16777215
 74
     0
 91
        0
 64
     7
 65
   257
 75
     1
175
     1
 42
1.0
 92
        8
 66
   257
 43
1.0
 76
     1
 77
     6
 78
     2
 67
     7
 79
     3
170
     0
171
     0
290
     0
174
     0
 93
       13
 44
0.0
173
     0
291
     0
 45
0.0
1001
ACAD
1000
AcDbSavedByObjectVersion
1070
     0
  0
VISUALSTYLE
  5
FA8AF
102
{ACAD_XDICTIONARY
360
FADDB
102
}
102
{ACAD_REACTORS
330
FA89A
102
}
330
FA89A
100
AcDbVisualStyle
  2
Shaded
 70
    27
 71
     2
 72
     2
 73
     1
 90
        2
 40
-0.6
 41
30.0
 62
     5
 63
     7
421
 16777215
 74
     0
 91
        4
 64
     7
 65
   257
 75
     1
175
     1
 42
1.0
 92
        8
 66
   257
 43
1.0
 76
     1
 77
     6
 78
     2
 67
     8
425
  7895160
 79
     3
170
     0
171
     0
290
     0
174
     0
 93
        5
 44
0.0
173
     0
291
     0
 45
0.0
1001
ACAD
1000
AcDbSavedByObjectVersion
1070
     0
  0
VISUALSTYLE
  5
FA8AE
102
{ACAD_XDICTIONARY
360
FADD9
102
}
102
{ACAD_REACTORS
330
FA89A
102
}
330
FA89A
100
AcDbVisualStyle
  2
Shaded with edges
 70
    26
 71
     2
 72
     2
 73
     1
 90
        2
 40
-0.6
 41
30.0
 62
     5
 63
     7
421
 16777215
 74
     1
 91
       10
 64
     7
 65
   257
 75
     2
175
     1
 42
1.0
 92
        8
 66
   257
 43
1.0
 76
     1
 77
     6
 78
     2
 67
     7
 79
     3
170
     0
171
     0
290
     0
174
     0
 93
        5
 44
0.0
173
     0
291
     0
 45
0.0
1001
ACAD
1000
AcDbSavedByObjectVersion
1070
     0
  0
VISUALSTYLE
  5
FA8AB
102
{ACAD_XDICTIONARY
360
FADD3
102
}
102
{ACAD_REACTORS
330
FA89A
102
}
330
FA89A
100
AcDbVisualStyle
  2
Shades of Gray
 70
    23
 71
     2
 72
     2
 73
     3
 90
        0
 40
-0.6
 41
-30.0
 62
     5
 63
     7
421
 16777215
 74
     2
 91
        2
 64
     7
 65
     7
 75
     1
175
     1
 42
40.0
 92
        8
 66
     7
 43
1.0
 76
     1
 77
     6
 78
     2
 67
     7
 79
     3
170
     0
171
     0
290
     0
174
     0
 93
        1
 44
0.0
173
     0
291
     0
 45
0.0
1001
ACAD
1000
AcDbSavedByObjectVersion
1070
     0
  0
VISUALSTYLE
  5
FA8AC
102
{ACAD_XDICTIONARY
360
FADD5
102
}
102
{ACAD_REACTORS
330
FA89A
102
}
330
FA89A
100
AcDbVisualStyle
  2
Sketchy
 70
    24
 71
     1
 72
     2
 73
     2
 90
        0
 40
-0.6
 41
-30.0
 62
     5
 63
     7
421
 16777215
 74
     2
 91
        2
 64
     7
 65
     7
 75
     1
175
     1
 42
40.0
 92
       11
 66
     7
 43
1.0
 76
     1
 77
     6
 78
     2
 67
     7
 79
     6
170
     0
171
     0
290
     0
174
     0
 93
        1
 44
0.0
173
     0
291
     0
 45
0.0
1001
ACAD
1000
AcDbSavedByObjectVersion
1070
     0
  0
VISUALSTYLE
  5
FA8A7
102
{ACAD_XDICTIONARY
360
FADCB
102
}
102
{ACAD_REACTORS
330
FA89A
102
}
330
FA89A
100
AcDbVisualStyle
  2
Thicken
 70
    13
 71
     2
 72
     2
 73
     0
 90
        0
 40
-0.6
 41
-30.0
 62
     5
 63
     7
421
 16777215
 74
     1
 91
        4
 64
     7
 65
   257
 75
     1
175
     1
 42
1.0
 92
       12
 66
     7
 43
1.0
 76
     1
 77
     6
 78
     2
 67
     7
 79
     5
170
     0
171
     0
290
     0
174
     0
 93
        1
 44
0.0
173
     0
291
     1
 45
0.0
1001
ACAD
1000
AcDbSavedByObjectVersion
1070
     0
  0
VISUALSTYLE
  5
FA8A1
102
{ACAD_XDICTIONARY
360
FADBF
102
}
102
{ACAD_REACTORS
330
FA89A
102
}
330
FA89A
100
AcDbVisualStyle
  2
Wireframe
 70
     5
 71
     0
 72
     2
 73
     0
 90
        0
 40
-0.6
 41
-30.0
 62
     5
 63
     7
421
 16777215
 74
     1
 91
        4
 64
     7
 65
   257
 75
     1
175
     1
 42
1.0
 92
        0
 66
   257
 43
1.0
 76
     1
 77
     6
 78
     2
 67
     7
 79
     3
170
     0
171
     0
290
     0
174
     0
 93
        1
 44
0.0
173
     0
291
     0
 45
0.0
1001
ACAD
1000
AcDbSavedByObjectVersion
1070
     0
  0
VISUALSTYLE
  5
FA8AD
102
{ACAD_XDICTIONARY
360
FADD7
102
}
102
{ACAD_REACTORS
330
FA89A
102
}
330
FA89A
100
AcDbVisualStyle
  2
X-Ray
 70
    25
 71
     2
 72
     2
 73
     1
 90
        1
 40
0.5
 41
-30.0
 62
     5
 63
     7
421
 16777215
 74
     1
 91
        0
 64
     7
 65
   257
 75
     1
175
     1
 42
1.0
 92
        8
 66
     7
 43
1.0
 76
     1
 77
     6
 78
     2
 67
     7
 79
     3
170
     0
171
     0
290
     0
174
     0
 93
       13
 44
0.0
173
     0
291
     0
 45
0.0
1001
ACAD
1000
AcDbSavedByObjectVersion
1070
     0
  0
DICTIONARYVAR
  5
FAD43
102
{ACAD_REACTORS
330
6B9
102
}
330
6B9
100
DictionaryVariables
280
     0
  1
1:1
  0
DICTIONARYVAR
  5
FAD3F
102
{ACAD_REACTORS
330
6B9
102
}
330
6B9
100
DictionaryVariables
280
     0
  1
STANDARD
  0
DICTIONARYVAR
  5
FAD3E
102
{ACAD_REACTORS
330
6B9
102
}
330
6B9
100
DictionaryVariables
280
     0
  1
STANDARD
  0
DICTIONARYVAR
  5
FAD40
102
{ACAD_REACTORS
330
6B9
102
}
330
6B9
100
DictionaryVariables
280
     0
  1
Metric50
  0
DICTIONARYVAR
  5
FAD41
102
{ACAD_REACTORS
330
6B9
102
}
330
6B9
100
DictionaryVariables
280
     0
  1
Metric50
  0
DICTIONARYVAR
  5
F4248
102
{ACAD_REACTORS
330
6B9
102
}
330
6B9
100
DictionaryVariables
280
     0
  1
1
  0
DICTIONARYVAR
  5
F4247
102
{ACAD_REACTORS
330
6B9
102
}
330
6B9
100
DictionaryVariables
280
     0
  1
1
  0
DICTIONARYVAR
  5
FAD45
102
{ACAD_REACTORS
330
6B9
102
}
330
6B9
100
DictionaryVariables
280
     0
  1
1
  0
DICTIONARYVAR
  5
FAD46
102
{ACAD_REACTORS
330
6B9
102
}
330
6B9
100
DictionaryVariables
280
     0
  1
15
  0
DICTIONARYVAR
  5
FAD44
102
{ACAD_REACTORS
330
6B9
102
}
330
6B9
100
DictionaryVariables
280
     0
  1
0
  0
DICTIONARYVAR
  5
FAD42
102
{ACAD_REACTORS
330
6B9
102
}
330
6B9
100
DictionaryVariables
280
     0
  1
0
  0
DICTIONARYVAR
  5
F4249
102
{ACAD_REACTORS
330
6B9
102
}
330
6B9
100
DictionaryVariables
280
     0
  1

  0
DICTIONARYVAR
  5
6BA
102
{ACAD_REACTORS
330
6B9
102
}
330
6B9
100
DictionaryVariables
280
     0
  1
96
  0
DICTIONARY
  5
FADAF
102
{ACAD_REACTORS
330
FADAD
102
}
330
FADAD
100
AcDbDictionary
281
     1
  0
DICTIONARY
  5
FADAE
102
{ACAD_REACTORS
330
FADAD
102
}
330
FADAD
100
AcDbDictionary
281
     1
  3
8796088257664
350
FADA8
  3
8796088257680
350
FADA9
  3
8796088257696
350
FADAA
  3
8796088257712
350
FADAB
  3
8796088257728
350
FADAC
  0
DICTIONARY
  5
16D3E
102
{ACAD_REACTORS
330
16D31
102
}
330
16D31
100
AcDbDictionary
281
     1
  0
XRECORD
  5
16DB5
102
{ACAD_REACTORS
330
16D31
102
}
330
16D31
100
AcDbXrecord
280
     1
 90
-1023410169
  0
XRECORD
  5
F4A77
102
{ACAD_REACTORS
330
F4A75
102
}
330
F4A75
100
AcDbXrecord
280
     1
330
0
330
0
330
0
330
0
330
0
330
0
330
0
330
0
330
0
  0
XRECORD
  5
F82D2
102
{ACAD_REACTORS
330
F82BE
102
}
330
F82BE
100
AcDbXrecord
280
     1
 91
      484
330
0
 90
        8
 62
     2
370
    40
331
16
  1
色_2
330
0
 90
        8
 62
    30
370
     9
331
0
  1
色_30
330
0
 90
        8
 62
   123
370
     9
331
3AE3
  1
色_123
330
0
 90
        8
 62
   233
370
     9
331
16CF6
  1
色_233
330
0
 90
        8
 62
     8
370
     9
331
16
  1
色_8
330
0
 90
        8
 62
     7
370
    20
331
16
  1
色_7
330
86C9
 90
        8
 62
     4
370
    15
331
16
  1
色_4
330
0
 90
        8
 62
   173
370
     9
331
16
  1
色_173
420
-1034792193
330
0
 90
        8
 62
     1
370
     5
331
16
  1
色_1
330
0
 90
        0
 62
     6
370
    -3
331
16
  1
色_6
330
0
 90
        8
 62
   241
370
     5
331
0
  1
色_241
330
54
 90
        0
 62
     7
370
    -3
331
16
  1
色_7
330
0
 90
        0
 62
     1
370
    25
331
16
  1
色_1
330
10
 90
        8
 62
     7
370
    20
331
16
  1
色_7
  0
XRECORD
  5
F82BF
102
{ACAD_REACTORS
330
F82BE
102
}
330
F82BE
100
AcDbXrecord
280
     1
 91
      484
330
0
 90
        8
 62
     2
370
    40
331
16
  1
色_2
330
0
 90
        8
 62
    30
370
     9
331
0
  1
色_30
330
0
 90
        8
 62
   123
370
     9
331
3AE3
  1
色_123
330
0
 90
        8
 62
   233
370
     9
331
16CF6
  1
色_233
330
0
 90
        8
 62
     8
370
     9
331
16
  1
色_8
330
0
 90
        8
 62
   173
370
     5
331
16
  1
色_173
420
-1034792193
330
0
 90
        0
 62
     6
370
    -3
331
16
  1
色_6
330
0
 90
        8
 62
   241
370
     5
331
0
  1
色_241
330
0
 90
        8
 62
     1
370
     9
331
16
  1
色_1
330
0
 90
        8
 62
     5
370
    20
331
16
  1
色_5
330
86C9
 90
        8
 62
     4
370
    15
331
16
  1
色_4
330
54
 90
        0
 62
     7
370
    -3
331
16
  1
色_7
330
0
 90
        0
 62
     1
370
    25
331
16
  1
色_1
330
10
 90
        8
 62
     7
370
    20
331
16
  1
色_7
  0
DICTIONARY
  5
FAD38
330
FA8CC
100
AcDbDictionary
280
     1
281
     1
  3
ACAD_XREC_ROUNDTRIP
360
FADE8
  0
DICTIONARY
  5
FA88B
330
FA88A
100
AcDbDictionary
280
     1
281
     1
  3
ACAD_XREC_ROUNDTRIP
360
FADB1
  3
BUMPTILE
360
FA88D
  3
DIFFUSETILE
360
FA88C
  3
OPACITYTILE
360
FA890
  3
REFLECTIONTILE
360
FA88F
  3
REFRACTIONTILE
360
FA891
  3
SPECULARTILE
360
FA88E
  0
DICTIONARY
  5
FA883
330
FA882
100
AcDbDictionary
280
     1
281
     1
  3
ACAD_XREC_ROUNDTRIP
360
FADB0
  3
BUMPTILE
360
FA885
  3
DIFFUSETILE
360
FA884
  3
OPACITYTILE
360
FA888
  3
REFLECTIONTILE
360
FA887
  3
REFRACTIONTILE
360
FA889
  3
SPECULARTILE
360
FA886
  0
DICTIONARY
  5
FA893
330
FA892
100
AcDbDictionary
280
     1
281
     1
  3
ACAD_XREC_ROUNDTRIP
360
FADB2
  3
BUMPTILE
360
FA895
  3
DIFFUSETILE
360
FA894
  3
OPACITYTILE
360
FA898
  3
REFLECTIONTILE
360
FA897
  3
REFRACTIONTILE
360
FA899
  3
SPECULARTILE
360
FA896
  0
DICTIONARY
  5
FADE5
330
FA8C8
100
AcDbDictionary
280
     1
281
     1
  3
ACAD_XREC_ROUNDTRIP
360
FADE6
  0
DICTIONARY
  5
FAD36
330
FA8CA
100
AcDbDictionary
280
     1
281
     1
  3
ACAD_XREC_ROUNDTRIP
360
FADE7
  0
DICTIONARY
  5
FADA5
330
FA8B4
100
AcDbDictionary
280
     1
281
     1
  3
ACAD_ROUNDTRIP_2008_TABLESTYLE_CELLSTYLEMAP
360
FADA6
  3
ACAD_XREC_ROUNDTRIP
360
FADE3
  0
DICTIONARY
  5
FADBD
330
FA8A0
100
AcDbDictionary
280
     1
281
     1
  3
ACAD_XREC_ROUNDTRIP
360
FADBE
  0
DICTIONARY
  5
FADBB
330
FA89F
100
AcDbDictionary
280
     1
281
     1
  3
ACAD_XREC_ROUNDTRIP
360
FADBC
  0
DICTIONARY
  5
FADC9
330
FA8A6
100
AcDbDictionary
280
     1
281
     1
  3
ACAD_XREC_ROUNDTRIP
360
FADCA
  0
DICTIONARY
  5
FADD1
330
FA8AA
100
AcDbDictionary
280
     1
281
     1
  3
ACAD_XREC_ROUNDTRIP
360
FADD2
  0
DICTIONARY
  5
FADC3
330
FA8A3
100
AcDbDictionary
280
     1
281
     1
  3
ACAD_XREC_ROUNDTRIP
360
FADC4
  0
DICTIONARY
  5
FADC7
330
FA8A5
100
AcDbDictionary
280
     1
281
     1
  3
ACAD_XREC_ROUNDTRIP
360
FADC8
  0
DICTIONARY
  5
FADE1
330
FA8B2
100
AcDbDictionary
280
     1
281
     1
  3
ACAD_XREC_ROUNDTRIP
360
FADE2
  0
DICTIONARY
  5
FADCF
330
FA8A9
100
AcDbDictionary
280
     1
281
     1
  3
ACAD_XREC_ROUNDTRIP
360
FADD0
  0
DICTIONARY
  5
FADB3
330
FA89B
100
AcDbDictionary
280
     1
281
     1
  3
ACAD_XREC_ROUNDTRIP
360
FADB4
  0
DICTIONARY
  5
FADB5
330
FA89C
100
AcDbDictionary
280
     1
281
     1
  3
ACAD_XREC_ROUNDTRIP
360
FADB6
  0
DICTIONARY
  5
FADB7
330
FA89D
100
AcDbDictionary
280
     1
281
     1
  3
ACAD_XREC_ROUNDTRIP
360
FADB8
  0
DICTIONARY
  5
FADB9
330
FA89E
100
AcDbDictionary
280
     1
281
     1
  3
ACAD_XREC_ROUNDTRIP
360
FADBA
  0
DICTIONARY
  5
FADC1
330
FA8A2
100
AcDbDictionary
280
     1
281
     1
  3
ACAD_XREC_ROUNDTRIP
360
FADC2
  0
DICTIONARY
  5
FADDD
330
FA8B0
100
AcDbDictionary
280
     1
281
     1
  3
ACAD_XREC_ROUNDTRIP
360
FADDE
  0
DICTIONARY
  5
FADCD
330
FA8A8
100
AcDbDictionary
280
     1
281
     1
  3
ACAD_XREC_ROUNDTRIP
360
FADCE
  0
DICTIONARY
  5
FADDF
330
FA8B1
100
AcDbDictionary
280
     1
281
     1
  3
ACAD_XREC_ROUNDTRIP
360
FADE0
  0
DICTIONARY
  5
FADC5
330
FA8A4
100
AcDbDictionary
280
     1
281
     1
  3
ACAD_XREC_ROUNDTRIP
360
FADC6
  0
DICTIONARY
  5
FADDB
330
FA8AF
100
AcDbDictionary
280
     1
281
     1
  3
ACAD_XREC_ROUNDTRIP
360
FADDC
  0
DICTIONARY
  5
FADD9
330
FA8AE
100
AcDbDictionary
280
     1
281
     1
  3
ACAD_XREC_ROUNDTRIP
360
FADDA
  0
DICTIONARY
  5
FADD3
330
FA8AB
100
AcDbDictionary
280
     1
281
     1
  3
ACAD_XREC_ROUNDTRIP
360
FADD4
  0
DICTIONARY
  5
FADD5
330
FA8AC
100
AcDbDictionary
280
     1
281
     1
  3
ACAD_XREC_ROUNDTRIP
360
FADD6
  0
DICTIONARY
  5
FADCB
330
FA8A7
100
AcDbDictionary
280
     1
281
     1
  3
ACAD_XREC_ROUNDTRIP
360
FADCC
  0
DICTIONARY
  5
FADBF
330
FA8A1
100
AcDbDictionary
280
     1
281
     1
  3
ACAD_XREC_ROUNDTRIP
360
FADC0
  0
DICTIONARY
  5
FADD7
330
FA8AD
100
AcDbDictionary
280
     1
281
     1
  3
ACAD_XREC_ROUNDTRIP
360
FADD8
  0
XRECORD
  5
FADA8
102
{ACAD_REACTORS
330
FADAE
102
}
330
FADAE
100
AcDbXrecord
280
     1
  1
AcDb_Thumbnail_Schema
102
{ATTRRECORD
341
FADA9
  2
AcDbDs::TreatedAsObjectData
280
     1
291
     1
102
ATTRRECORD}
102
{ATTRRECORD
341
FADAA
  2
AcDbDs::Legacy
280
     1
291
     1
102
ATTRRECORD}
  2
AcDbDs::ID
280
    10
 91
        8
102
{ATTRRECORD
341
FADAB
  2
AcDs:Indexable
280
     1
291
     1
102
ATTRRECORD}
102
{ATTRRECORD
341
FADAC
  2
AcDbDs::HandleAttribute
280
     7
282
     1
102
ATTRRECORD}
  2
Thumbnail_Data
280
    15
 91
        0
  0
XRECORD
  5
FADA9
102
{ACAD_REACTORS
330
FADAE
102
}
330
FADAE
100
AcDbXrecord
280
     1
  1
AcDbDs::TreatedAsObjectDataSchema
  2
AcDbDs::TreatedAsObjectData
280
     1
 91
        0
  0
XRECORD
  5
FADAA
102
{ACAD_REACTORS
330
FADAE
102
}
330
FADAE
100
AcDbXrecord
280
     1
  1
AcDbDs::LegacySchema
  2
AcDbDs::Legacy
280
     1
 91
        0
  0
XRECORD
  5
FADAB
102
{ACAD_REACTORS
330
FADAE
102
}
330
FADAE
100
AcDbXrecord
280
     1
  1
AcDbDs::IndexedPropertySchema
  2
AcDs:Indexable
280
     1
 91
        0
  0
XRECORD
  5
FADAC
102
{ACAD_REACTORS
330
FADAE
102
}
330
FADAE
100
AcDbXrecord
280
     1
  1
AcDbDs::HandleAttributeSchema
  2
AcDbDs::HandleAttribute
280
     7
 91
        1
284
     1
  0
XRECORD
  5
FADE8
102
{ACAD_REACTORS
330
FAD38
102
}
330
FAD38
100
AcDbXrecord
280
     1
102
DISPLAYNAME
  1
Metric50
102
FLAGS
 90
        0
  0
XRECORD
  5
FADB1
102
{ACAD_REACTORS
330
FA88B
102
}
330
FA88B
100
AcDbXrecord
280
     1
102
MATERIAL
148
0.0
149
0.0
149
0.0
 93
        0
 94
      127
282
     0
 72
     0
 77
     0
171
     0
175
     0
179
     0
273
     0
  0
XRECORD
  5
FA88D
102
{ACAD_REACTORS
330
FA88B
102
}
330
FA88B
100
AcDbXrecord
280
     1
270
     1
271
     1
  0
XRECORD
  5
FA88C
102
{ACAD_REACTORS
330
FA88B
102
}
330
FA88B
100
AcDbXrecord
280
     1
270
     1
271
     1
  0
XRECORD
  5
FA890
102
{ACAD_REACTORS
330
FA88B
102
}
330
FA88B
100
AcDbXrecord
280
     1
270
     1
271
     1
  0
XRECORD
  5
FA88F
102
{ACAD_REACTORS
330
FA88B
102
}
330
FA88B
100
AcDbXrecord
280
     1
270
     1
271
     1
  0
XRECORD
  5
FA891
102
{ACAD_REACTORS
330
FA88B
102
}
330
FA88B
100
AcDbXrecord
280
     1
270
     1
271
     1
  0
XRECORD
  5
FA88E
102
{ACAD_REACTORS
330
FA88B
102
}
330
FA88B
100
AcDbXrecord
280
     1
270
     1
271
     1
  0
XRECORD
  5
FADB0
102
{ACAD_REACTORS
330
FA883
102
}
330
FA883
100
AcDbXrecord
280
     1
102
MATERIAL
148
0.0
149
0.0
149
0.0
 93
        0
 94
      127
282
     0
 72
     0
 77
     0
171
     0
175
     0
179
     0
273
     0
  0
XRECORD
  5
FA885
102
{ACAD_REACTORS
330
FA883
102
}
330
FA883
100
AcDbXrecord
280
     1
270
     1
271
     1
  0
XRECORD
  5
FA884
102
{ACAD_REACTORS
330
FA883
102
}
330
FA883
100
AcDbXrecord
280
     1
270
     1
271
     1
  0
XRECORD
  5
FA888
102
{ACAD_REACTORS
330
FA883
102
}
330
FA883
100
AcDbXrecord
280
     1
270
     1
271
     1
  0
XRECORD
  5
FA887
102
{ACAD_REACTORS
330
FA883
102
}
330
FA883
100
AcDbXrecord
280
     1
270
     1
271
     1
  0
XRECORD
  5
FA889
102
{ACAD_REACTORS
330
FA883
102
}
330
FA883
100
AcDbXrecord
280
     1
270
     1
271
     1
  0
XRECORD
  5
FA886
102
{ACAD_REACTORS
330
FA883
102
}
330
FA883
100
AcDbXrecord
280
     1
270
     1
271
     1
  0
XRECORD
  5
FADB2
102
{ACAD_REACTORS
330
FA893
102
}
330
FA893
100
AcDbXrecord
280
     1
102
MATERIAL
148
0.0
149
0.0
149
0.0
 93
        0
 94
      127
282
     0
 72
     0
 77
     0
171
     0
175
     0
179
     0
273
     0
  0
XRECORD
  5
FA895
102
{ACAD_REACTORS
330
FA893
102
}
330
FA893
100
AcDbXrecord
280
     1
270
     1
271
     1
  0
XRECORD
  5
FA894
102
{ACAD_REACTORS
330
FA893
102
}
330
FA893
100
AcDbXrecord
280
     1
270
     1
271
     1
  0
XRECORD
  5
FA898
102
{ACAD_REACTORS
330
FA893
102
}
330
FA893
100
AcDbXrecord
280
     1
270
     1
271
     1
  0
XRECORD
  5
FA897
102
{ACAD_REACTORS
330
FA893
102
}
330
FA893
100
AcDbXrecord
280
     1
270
     1
271
     1
  0
XRECORD
  5
FA899
102
{ACAD_REACTORS
330
FA893
102
}
330
FA893
100
AcDbXrecord
280
     1
270
     1
271
     1
  0
XRECORD
  5
FA896
102
{ACAD_REACTORS
330
FA893
102
}
330
FA893
100
AcDbXrecord
280
     1
270
     1
271
     1
  0
XRECORD
  5
FADE6
102
{ACAD_REACTORS
330
FADE5
102
}
330
FADE5
100
AcDbXrecord
280
     1
102
ACAD_ROUNDTRIP_2012_MLEADER_STYLE
298
     1
  0
XRECORD
  5
FADE7
102
{ACAD_REACTORS
330
FAD36
102
}
330
FAD36
100
AcDbXrecord
280
     1
102
DISPLAYNAME
  1
Metric50
102
FLAGS
 90
        0
  0
CELLSTYLEMAP
  5
FADA6
102
{ACAD_REACTORS
330
FADA5
102
}
330
FADA5
100
AcDbCellStyleMap
 90
        3
300
CELLSTYLE
  1
TABLEFORMAT_BEGIN
 90
        5
170
     1
 91
        0
 92
    32768
 62
   257
 93
        1
300
CONTENTFORMAT
  1
CONTENTFORMAT_BEGIN
 90
        0
 91
        0
 92
      512
 93
        0
300

 40
0.0
140
1.0
 94
        5
 62
     0
340
11
144
6.0
309
CONTENTFORMAT_END
171
     1
301
MARGIN
  1
CELLMARGIN_BEGIN
 40
1.5
 40
1.5
 40
1.5
 40
1.5
 40
4.5
 40
4.5
309
CELLMARGIN_END
 94
        6
 95
        1
302
GRIDFORMAT
  1
GRIDFORMAT_BEGIN
 90
        0
 91
        1
 62
     0
 92
       -2
340
0
 93
        0
 40
1.125
309
GRIDFORMAT_END
 95
        2
302
GRIDFORMAT
  1
GRIDFORMAT_BEGIN
 90
        0
 91
        1
 62
     0
 92
       -2
340
0
 93
        0
 40
1.125
309
GRIDFORMAT_END
 95
        4
302
GRIDFORMAT
  1
GRIDFORMAT_BEGIN
 90
        0
 91
        1
 62
     0
 92
       -2
340
0
 93
        0
 40
1.125
309
GRIDFORMAT_END
 95
        8
302
GRIDFORMAT
  1
GRIDFORMAT_BEGIN
 90
        0
 91
        1
 62
     0
 92
       -2
340
0
 93
        0
 40
1.125
309
GRIDFORMAT_END
 95
       16
302
GRIDFORMAT
  1
GRIDFORMAT_BEGIN
 90
        0
 91
        1
 62
     0
 92
       -2
340
0
 93
        0
 40
1.125
309
GRIDFORMAT_END
 95
       32
302
GRIDFORMAT
  1
GRIDFORMAT_BEGIN
 90
        0
 91
        1
 62
     0
 92
       -2
340
0
 93
        0
 40
1.125
309
GRIDFORMAT_END
309
TABLEFORMAT_END
  1
CELLSTYLE_BEGIN
 90
        1
 91
        1
300
_TITLE
309
CELLSTYLE_END
300
CELLSTYLE
  1
TABLEFORMAT_BEGIN
 90
        5
170
     1
 91
        0
 92
        0
 62
   257
 93
        1
300
CONTENTFORMAT
  1
CONTENTFORMAT_BEGIN
 90
        0
 91
        0
 92
      512
 93
        0
300

 40
0.0
140
1.0
 94
        5
 62
     0
340
11
144
4.5
309
CONTENTFORMAT_END
171
     1
301
MARGIN
  1
CELLMARGIN_BEGIN
 40
1.5
 40
1.5
 40
1.5
 40
1.5
 40
4.5
 40
4.5
309
CELLMARGIN_END
 94
        6
 95
        1
302
GRIDFORMAT
  1
GRIDFORMAT_BEGIN
 90
        0
 91
        1
 62
     0
 92
       -2
340
0
 93
        0
 40
1.125
309
GRIDFORMAT_END
 95
        2
302
GRIDFORMAT
  1
GRIDFORMAT_BEGIN
 90
        0
 91
        1
 62
     0
 92
       -2
340
0
 93
        0
 40
1.125
309
GRIDFORMAT_END
 95
        4
302
GRIDFORMAT
  1
GRIDFORMAT_BEGIN
 90
        0
 91
        1
 62
     0
 92
       -2
340
0
 93
        0
 40
1.125
309
GRIDFORMAT_END
 95
        8
302
GRIDFORMAT
  1
GRIDFORMAT_BEGIN
 90
        0
 91
        1
 62
     0
 92
       -2
340
0
 93
        0
 40
1.125
309
GRIDFORMAT_END
 95
       16
302
GRIDFORMAT
  1
GRIDFORMAT_BEGIN
 90
        0
 91
        1
 62
     0
 92
       -2
340
0
 93
        0
 40
1.125
309
GRIDFORMAT_END
 95
       32
302
GRIDFORMAT
  1
GRIDFORMAT_BEGIN
 90
        0
 91
        1
 62
     0
 92
       -2
340
0
 93
        0
 40
1.125
309
GRIDFORMAT_END
309
TABLEFORMAT_END
  1
CELLSTYLE_BEGIN
 90
        2
 91
        1
300
_HEADER
309
CELLSTYLE_END
300
CELLSTYLE
  1
TABLEFORMAT_BEGIN
 90
        5
170
     1
 91
        0
 92
        0
 62
   257
 93
        1
300
CONTENTFORMAT
  1
CONTENTFORMAT_BEGIN
 90
        0
 91
        0
 92
      512
 93
        0
300

 40
0.0
140
1.0
 94
        2
 62
     0
340
11
144
4.5
309
CONTENTFORMAT_END
171
     1
301
MARGIN
  1
CELLMARGIN_BEGIN
 40
1.5
 40
1.5
 40
1.5
 40
1.5
 40
4.5
 40
4.5
309
CELLMARGIN_END
 94
        6
 95
        1
302
GRIDFORMAT
  1
GRIDFORMAT_BEGIN
 90
        0
 91
        1
 62
     0
 92
       -2
340
0
 93
        0
 40
1.125
309
GRIDFORMAT_END
 95
        2
302
GRIDFORMAT
  1
GRIDFORMAT_BEGIN
 90
        0
 91
        1
 62
     0
 92
       -2
340
0
 93
        0
 40
1.125
309
GRIDFORMAT_END
 95
        4
302
GRIDFORMAT
  1
GRIDFORMAT_BEGIN
 90
        0
 91
        1
 62
     0
 92
       -2
340
0
 93
        0
 40
1.125
309
GRIDFORMAT_END
 95
        8
302
GRIDFORMAT
  1
GRIDFORMAT_BEGIN
 90
        0
 91
        1
 62
     0
 92
       -2
340
0
 93
        0
 40
1.125
309
GRIDFORMAT_END
 95
       16
302
GRIDFORMAT
  1
GRIDFORMAT_BEGIN
 90
        0
 91
        1
 62
     0
 92
       -2
340
0
 93
        0
 40
1.125
309
GRIDFORMAT_END
 95
       32
302
GRIDFORMAT
  1
GRIDFORMAT_BEGIN
 90
        0
 91
        1
 62
     0
 92
       -2
340
0
 93
        0
 40
1.125
309
GRIDFORMAT_END
309
TABLEFORMAT_END
  1
CELLSTYLE_BEGIN
 90
        3
 91
        2
300
_DATA
309
CELLSTYLE_END
  0
XRECORD
  5
FADE3
102
{ACAD_REACTORS
330
FADA5
102
}
330
FADA5
100
AcDbXrecord
280
     1
102
ACAD_ROUNDTRIP_PRE2007_TABLESTYLE
 90
      512
 91
        0
  1

 92
      512
 93
        0
  2

 94
      512
 95
        0
  3

  0
XRECORD
  5
FADBE
102
{ACAD_REACTORS
330
FADBD
102
}
330
FADBD
100
AcDbXrecord
280
     1
102
RTVSPost2010Prop28
280
     1
102
RTVSPost2010PropOp28
 70
     1
102
RTVSPost2010Prop29
280
     1
102
RTVSPost2010PropOp29
 70
     1
102
RTVSPost2010Prop30
280
     0
102
RTVSPost2010PropOp30
 70
     1
102
RTVSPost2010Prop31
280
     0
102
RTVSPost2010PropOp31
 70
     1
102
RTVSPost2010Prop32
280
     0
102
RTVSPost2010PropOp32
 70
     1
102
RTVSPost2010Prop33
280
     0
102
RTVSPost2010PropOp33
 70
     1
102
RTVSPost2010Prop34
280
     0
102
RTVSPost2010PropOp34
 70
     1
102
RTVSPost2010Prop35
280
     0
102
RTVSPost2010PropOp35
 70
     1
102
RTVSPost2010Prop36
280
     0
102
RTVSPost2010PropOp36
 70
     1
102
RTVSPost2010Prop37
 90
       50
102
RTVSPost2010PropOp37
 70
     1
102
RTVSPost2010Prop38
140
0.0
102
RTVSPost2010PropOp38
 70
     1
102
RTVSPost2010Prop39
140
1.0
102
RTVSPost2010PropOp39
 70
     1
102
RTVSPost2010Prop40
 90
        0
102
RTVSPost2010PropOp40
 70
     1
102
RTVSPost2010Prop41ColorIndex
 90
       18
102
RTVSPost2010Prop41ColorRGB
 90
        0
102
RTVSPost2010PropOp41
 70
     1
102
RTVSPost2010Prop42
 90
       50
102
RTVSPost2010PropOp42
 70
     1
102
RTVSPost2010Prop43
 90
        3
102
RTVSPost2010PropOp43
 70
     1
102
RTVSPost2010Prop44ColorIndex
 90
        5
102
RTVSPost2010Prop44ColorRGB
 90
      255
102
RTVSPost2010PropOp44
 70
     1
102
RTVSPost2010Prop45
280
     0
102
RTVSPost2010PropOp45
 70
     1
102
RTVSPost2010Prop46
 90
       50
102
RTVSPost2010PropOp46
 70
     1
102
RTVSPost2010Prop47
 90
       50
102
RTVSPost2010PropOp47
 70
     1
102
RTVSPost2010Prop48
 90
       50
102
RTVSPost2010PropOp48
 70
     1
102
RTVSPost2010Prop49
280
     0
102
RTVSPost2010PropOp49
 70
     1
102
RTVSPost2010Prop50
 90
       50
102
RTVSPost2010PropOp50
 70
     1
102
RTVSPost2010Prop51ColorIndex
 90
      256
102
RTVSPost2010Prop51ColorRGB
 90
-16777216
102
RTVSPost2010PropOp51
 70
     0
102
RTVSPost2010Prop52
140
1.0
102
RTVSPost2010PropOp52
 70
     0
102
RTVSPost2010Prop53
 90
        2
102
RTVSPost2010PropOp53
 70
     1
102
RTVSPost2010Prop54
  1
strokes_ogs.tif
102
RTVSPost2010PropOp54
 70
     1
102
RTVSPost2010Prop55
280
     0
102
RTVSPost2010PropOp55
 70
     1
102
RTVSPost2010Prop56
140
1.0
102
RTVSPost2010PropOp56
 70
     1
102
RTVSPost2010Prop57
140
1.0
102
RTVSPost2010PropOp57
 70
     1
102
RTVSPropertyOp0
 70
     1
102
RTVSPropertyOp1
 70
     1
102
RTVSPropertyOp2
 70
     1
102
RTVSPropertyOp3
 70
     1
102
RTVSPropertyOp4
 70
     1
102
RTVSPropertyOp5
 70
     1
102
RTVSPropertyOp6
 70
     1
102
RTVSPropertyOp7
 70
     1
102
RTVSPropertyOp8
 70
     1
102
RTVSPropertyOp9
 70
     1
102
RTVSPropertyOp10
 70
     1
102
RTVSPropertyOp11
 70
     1
102
RTVSPropertyOp12
 70
     1
102
RTVSPropertyOp13
 70
     1
102
RTVSPropertyOp14
 70
     1
102
RTVSPropertyOp15
 70
     1
102
RTVSPropertyOp16
 70
     1
102
RTVSPropertyOp17
 70
     1
102
RTVSPropertyOp18
 70
     1
102
RTVSPropertyOp19
 70
     1
102
RTVSPropertyOp20
 70
     1
102
RTVSPropertyOp21
 70
     1
102
RTVSPropertyOp22
 70
     1
102
RTVSPropertyOp23
 70
     1
102
RTVSPropertyOp24
 70
     1
102
RTVSPropertyOp25
 70
     1
102
RTVSPropertyOp26
 70
     1
102
RTVSPropertyOp27
 70
     1
102
RTVSPropertyOp28
 70
     1
102
RTVSPropertyOp29
 70
     1
102
RTVSPropertyOp30
 70
     1
102
RTVSPropertyOp31
 70
     1
102
RTVSPropertyOp32
 70
     1
102
RTVSPropertyOp33
 70
     1
102
RTVSPropertyOp34
 70
     1
102
RTVSPropertyOp35
 70
     1
102
RTVSPropertyOp36
 70
     1
102
RTVSPropertyOp37
 70
     1
102
RTVSPropertyOp38
 70
     1
102
RTVSPropertyOp39
 70
     1
102
RTVSPropertyOp40
 70
     1
102
RTVSPropertyOp41
 70
     1
102
RTVSPropertyOp42
 70
     1
102
RTVSPropertyOp43
 70
     1
102
RTVSPropertyOp44
 70
     1
102
RTVSPropertyOp45
 70
     1
102
RTVSPropertyOp46
 70
     1
102
RTVSPropertyOp47
 70
     1
102
RTVSPropertyOp48
 70
     1
102
RTVSPropertyOp49
 70
     1
102
RTVSPropertyOp50
 70
     1
102
RTVSPropertyOp51
 70
     0
102
RTVSPropertyOp52
 70
     0
102
RTVSPropertyOp53
 70
     1
102
RTVSPropertyOp54
 70
     1
102
RTVSPropertyOp55
 70
     1
102
RTVSPropertyOp56
 70
     1
102
RTVSPropertyOp57
 70
     1
102
RTVSPropertyOp58
 70
     1
102
RTVSPropertyOp59
 70
     1
102
RTVSPropertyOp60
 70
     1
102
RTVSPropertyOp61
 70
     1
102
RTVSPropertyOp62
 70
     1
  0
XRECORD
  5
FADBC
102
{ACAD_REACTORS
330
FADBB
102
}
330
FADBB
100
AcDbXrecord
280
     1
102
RTVSPost2010Prop28
280
     0
102
RTVSPost2010PropOp28
 70
     1
102
RTVSPost2010Prop29
280
     1
102
RTVSPost2010PropOp29
 70
     1
102
RTVSPost2010Prop30
280
     1
102
RTVSPost2010PropOp30
 70
     1
102
RTVSPost2010Prop31
280
     0
102
RTVSPost2010PropOp31
 70
     1
102
RTVSPost2010Prop32
280
     0
102
RTVSPost2010PropOp32
 70
     1
102
RTVSPost2010Prop33
280
     0
102
RTVSPost2010PropOp33
 70
     1
102
RTVSPost2010Prop34
280
     0
102
RTVSPost2010PropOp34
 70
     1
102
RTVSPost2010Prop35
280
     0
102
RTVSPost2010PropOp35
 70
     1
102
RTVSPost2010Prop36
280
     0
102
RTVSPost2010PropOp36
 70
     1
102
RTVSPost2010Prop37
 90
       50
102
RTVSPost2010PropOp37
 70
     1
102
RTVSPost2010Prop38
140
0.0
102
RTVSPost2010PropOp38
 70
     1
102
RTVSPost2010Prop39
140
1.0
102
RTVSPost2010PropOp39
 70
     1
102
RTVSPost2010Prop40
 90
        0
102
RTVSPost2010PropOp40
 70
     1
102
RTVSPost2010Prop41ColorIndex
 90
       18
102
RTVSPost2010Prop41ColorRGB
 90
        0
102
RTVSPost2010PropOp41
 70
     1
102
RTVSPost2010Prop42
 90
       50
102
RTVSPost2010PropOp42
 70
     1
102
RTVSPost2010Prop43
 90
        3
102
RTVSPost2010PropOp43
 70
     1
102
RTVSPost2010Prop44ColorIndex
 90
        5
102
RTVSPost2010Prop44ColorRGB
 90
      255
102
RTVSPost2010PropOp44
 70
     1
102
RTVSPost2010Prop45
280
     0
102
RTVSPost2010PropOp45
 70
     1
102
RTVSPost2010Prop46
 90
       50
102
RTVSPost2010PropOp46
 70
     1
102
RTVSPost2010Prop47
 90
       50
102
RTVSPost2010PropOp47
 70
     1
102
RTVSPost2010Prop48
 90
       50
102
RTVSPost2010PropOp48
 70
     1
102
RTVSPost2010Prop49
280
     0
102
RTVSPost2010PropOp49
 70
     1
102
RTVSPost2010Prop50
 90
       50
102
RTVSPost2010PropOp50
 70
     1
102
RTVSPost2010Prop51ColorIndex
 90
      256
102
RTVSPost2010Prop51ColorRGB
 90
-16777216
102
RTVSPost2010PropOp51
 70
     0
102
RTVSPost2010Prop52
140
1.0
102
RTVSPost2010PropOp52
 70
     0
102
RTVSPost2010Prop53
 90
        2
102
RTVSPost2010PropOp53
 70
     1
102
RTVSPost2010Prop54
  1
strokes_ogs.tif
102
RTVSPost2010PropOp54
 70
     1
102
RTVSPost2010Prop55
280
     0
102
RTVSPost2010PropOp55
 70
     1
102
RTVSPost2010Prop56
140
1.0
102
RTVSPost2010PropOp56
 70
     1
102
RTVSPost2010Prop57
140
1.0
102
RTVSPost2010PropOp57
 70
     1
102
RTVSPropertyOp0
 70
     1
102
RTVSPropertyOp1
 70
     1
102
RTVSPropertyOp2
 70
     1
102
RTVSPropertyOp3
 70
     1
102
RTVSPropertyOp4
 70
     1
102
RTVSPropertyOp5
 70
     1
102
RTVSPropertyOp6
 70
     1
102
RTVSPropertyOp7
 70
     1
102
RTVSPropertyOp8
 70
     1
102
RTVSPropertyOp9
 70
     1
102
RTVSPropertyOp10
 70
     1
102
RTVSPropertyOp11
 70
     1
102
RTVSPropertyOp12
 70
     1
102
RTVSPropertyOp13
 70
     1
102
RTVSPropertyOp14
 70
     1
102
RTVSPropertyOp15
 70
     1
102
RTVSPropertyOp16
 70
     1
102
RTVSPropertyOp17
 70
     1
102
RTVSPropertyOp18
 70
     1
102
RTVSPropertyOp19
 70
     1
102
RTVSPropertyOp20
 70
     1
102
RTVSPropertyOp21
 70
     1
102
RTVSPropertyOp22
 70
     1
102
RTVSPropertyOp23
 70
     1
102
RTVSPropertyOp24
 70
     1
102
RTVSPropertyOp25
 70
     1
102
RTVSPropertyOp26
 70
     1
102
RTVSPropertyOp27
 70
     1
102
RTVSPropertyOp28
 70
     1
102
RTVSPropertyOp29
 70
     1
102
RTVSPropertyOp30
 70
     1
102
RTVSPropertyOp31
 70
     1
102
RTVSPropertyOp32
 70
     1
102
RTVSPropertyOp33
 70
     1
102
RTVSPropertyOp34
 70
     1
102
RTVSPropertyOp35
 70
     1
102
RTVSPropertyOp36
 70
     1
102
RTVSPropertyOp37
 70
     1
102
RTVSPropertyOp38
 70
     1
102
RTVSPropertyOp39
 70
     1
102
RTVSPropertyOp40
 70
     1
102
RTVSPropertyOp41
 70
     1
102
RTVSPropertyOp42
 70
     1
102
RTVSPropertyOp43
 70
     1
102
RTVSPropertyOp44
 70
     1
102
RTVSPropertyOp45
 70
     1
102
RTVSPropertyOp46
 70
     1
102
RTVSPropertyOp47
 70
     1
102
RTVSPropertyOp48
 70
     1
102
RTVSPropertyOp49
 70
     1
102
RTVSPropertyOp50
 70
     1
102
RTVSPropertyOp51
 70
     0
102
RTVSPropertyOp52
 70
     0
102
RTVSPropertyOp53
 70
     1
102
RTVSPropertyOp54
 70
     1
102
RTVSPropertyOp55
 70
     1
102
RTVSPropertyOp56
 70
     1
102
RTVSPropertyOp57
 70
     1
102
RTVSPropertyOp58
 70
     1
102
RTVSPropertyOp59
 70
     1
102
RTVSPropertyOp60
 70
     1
102
RTVSPropertyOp61
 70
     1
102
RTVSPropertyOp62
 70
     1
  0
XRECORD
  5
FADCA
102
{ACAD_REACTORS
330
FADC9
102
}
330
FADC9
100
AcDbXrecord
280
     1
102
RTVSPost2010Prop28
280
     0
102
RTVSPost2010PropOp28
 70
     1
102
RTVSPost2010Prop29
280
     1
102
RTVSPost2010PropOp29
 70
     1
102
RTVSPost2010Prop30
280
     1
102
RTVSPost2010PropOp30
 70
     1
102
RTVSPost2010Prop31
280
     0
102
RTVSPost2010PropOp31
 70
     1
102
RTVSPost2010Prop32
280
     0
102
RTVSPost2010PropOp32
 70
     1
102
RTVSPost2010Prop33
280
     0
102
RTVSPost2010PropOp33
 70
     1
102
RTVSPost2010Prop34
280
     0
102
RTVSPost2010PropOp34
 70
     1
102
RTVSPost2010Prop35
280
     0
102
RTVSPost2010PropOp35
 70
     1
102
RTVSPost2010Prop36
280
     0
102
RTVSPost2010PropOp36
 70
     1
102
RTVSPost2010Prop37
 90
       50
102
RTVSPost2010PropOp37
 70
     1
102
RTVSPost2010Prop38
140
0.0
102
RTVSPost2010PropOp38
 70
     1
102
RTVSPost2010Prop39
140
1.0
102
RTVSPost2010PropOp39
 70
     1
102
RTVSPost2010Prop40
 90
        0
102
RTVSPost2010PropOp40
 70
     1
102
RTVSPost2010Prop41ColorIndex
 90
       18
102
RTVSPost2010Prop41ColorRGB
 90
        0
102
RTVSPost2010PropOp41
 70
     1
102
RTVSPost2010Prop42
 90
       50
102
RTVSPost2010PropOp42
 70
     1
102
RTVSPost2010Prop43
 90
        3
102
RTVSPost2010PropOp43
 70
     1
102
RTVSPost2010Prop44ColorIndex
 90
        5
102
RTVSPost2010Prop44ColorRGB
 90
      255
102
RTVSPost2010PropOp44
 70
     1
102
RTVSPost2010Prop45
280
     0
102
RTVSPost2010PropOp45
 70
     1
102
RTVSPost2010Prop46
 90
       50
102
RTVSPost2010PropOp46
 70
     1
102
RTVSPost2010Prop47
 90
       50
102
RTVSPost2010PropOp47
 70
     1
102
RTVSPost2010Prop48
 90
       50
102
RTVSPost2010PropOp48
 70
     1
102
RTVSPost2010Prop49
280
     0
102
RTVSPost2010PropOp49
 70
     1
102
RTVSPost2010Prop50
 90
       50
102
RTVSPost2010PropOp50
 70
     1
102
RTVSPost2010Prop51ColorIndex
 90
      256
102
RTVSPost2010Prop51ColorRGB
 90
-16777216
102
RTVSPost2010PropOp51
 70
     0
102
RTVSPost2010Prop52
140
1.0
102
RTVSPost2010PropOp52
 70
     0
102
RTVSPost2010Prop53
 90
        2
102
RTVSPost2010PropOp53
 70
     1
102
RTVSPost2010Prop54
  1
strokes_ogs.tif
102
RTVSPost2010PropOp54
 70
     1
102
RTVSPost2010Prop55
280
     0
102
RTVSPost2010PropOp55
 70
     1
102
RTVSPost2010Prop56
140
1.0
102
RTVSPost2010PropOp56
 70
     1
102
RTVSPost2010Prop57
140
1.0
102
RTVSPost2010PropOp57
 70
     1
102
RTVSPropertyOp0
 70
     1
102
RTVSPropertyOp1
 70
     1
102
RTVSPropertyOp2
 70
     1
102
RTVSPropertyOp3
 70
     1
102
RTVSPropertyOp4
 70
     1
102
RTVSPropertyOp5
 70
     1
102
RTVSPropertyOp6
 70
     1
102
RTVSPropertyOp7
 70
     1
102
RTVSPropertyOp8
 70
     1
102
RTVSPropertyOp9
 70
     1
102
RTVSPropertyOp10
 70
     1
102
RTVSPropertyOp11
 70
     1
102
RTVSPropertyOp12
 70
     1
102
RTVSPropertyOp13
 70
     1
102
RTVSPropertyOp14
 70
     1
102
RTVSPropertyOp15
 70
     1
102
RTVSPropertyOp16
 70
     1
102
RTVSPropertyOp17
 70
     1
102
RTVSPropertyOp18
 70
     1
102
RTVSPropertyOp19
 70
     1
102
RTVSPropertyOp20
 70
     1
102
RTVSPropertyOp21
 70
     1
102
RTVSPropertyOp22
 70
     1
102
RTVSPropertyOp23
 70
     1
102
RTVSPropertyOp24
 70
     1
102
RTVSPropertyOp25
 70
     1
102
RTVSPropertyOp26
 70
     1
102
RTVSPropertyOp27
 70
     1
102
RTVSPropertyOp28
 70
     1
102
RTVSPropertyOp29
 70
     1
102
RTVSPropertyOp30
 70
     1
102
RTVSPropertyOp31
 70
     1
102
RTVSPropertyOp32
 70
     1
102
RTVSPropertyOp33
 70
     1
102
RTVSPropertyOp34
 70
     1
102
RTVSPropertyOp35
 70
     1
102
RTVSPropertyOp36
 70
     1
102
RTVSPropertyOp37
 70
     1
102
RTVSPropertyOp38
 70
     1
102
RTVSPropertyOp39
 70
     1
102
RTVSPropertyOp40
 70
     1
102
RTVSPropertyOp41
 70
     1
102
RTVSPropertyOp42
 70
     1
102
RTVSPropertyOp43
 70
     1
102
RTVSPropertyOp44
 70
     1
102
RTVSPropertyOp45
 70
     1
102
RTVSPropertyOp46
 70
     1
102
RTVSPropertyOp47
 70
     1
102
RTVSPropertyOp48
 70
     1
102
RTVSPropertyOp49
 70
     1
102
RTVSPropertyOp50
 70
     1
102
RTVSPropertyOp51
 70
     0
102
RTVSPropertyOp52
 70
     0
102
RTVSPropertyOp53
 70
     1
102
RTVSPropertyOp54
 70
     1
102
RTVSPropertyOp55
 70
     1
102
RTVSPropertyOp56
 70
     1
102
RTVSPropertyOp57
 70
     1
102
RTVSPropertyOp58
 70
     1
102
RTVSPropertyOp59
 70
     1
102
RTVSPropertyOp60
 70
     1
102
RTVSPropertyOp61
 70
     1
102
RTVSPropertyOp62
 70
     1
  0
XRECORD
  5
FADD2
102
{ACAD_REACTORS
330
FADD1
102
}
330
FADD1
100
AcDbXrecord
280
     1
102
RTVSPost2010Prop28
280
     0
102
RTVSPost2010PropOp28
 70
     1
102
RTVSPost2010Prop29
280
     1
102
RTVSPost2010PropOp29
 70
     1
102
RTVSPost2010Prop30
280
     1
102
RTVSPost2010PropOp30
 70
     1
102
RTVSPost2010Prop31
280
     0
102
RTVSPost2010PropOp31
 70
     1
102
RTVSPost2010Prop32
280
     0
102
RTVSPost2010PropOp32
 70
     1
102
RTVSPost2010Prop33
280
     0
102
RTVSPost2010PropOp33
 70
     1
102
RTVSPost2010Prop34
280
     0
102
RTVSPost2010PropOp34
 70
     1
102
RTVSPost2010Prop35
280
     0
102
RTVSPost2010PropOp35
 70
     1
102
RTVSPost2010Prop36
280
     0
102
RTVSPost2010PropOp36
 70
     1
102
RTVSPost2010Prop37
 90
       50
102
RTVSPost2010PropOp37
 70
     1
102
RTVSPost2010Prop38
140
0.0
102
RTVSPost2010PropOp38
 70
     1
102
RTVSPost2010Prop39
140
1.0
102
RTVSPost2010PropOp39
 70
     1
102
RTVSPost2010Prop40
 90
        0
102
RTVSPost2010PropOp40
 70
     1
102
RTVSPost2010Prop41ColorIndex
 90
       18
102
RTVSPost2010Prop41ColorRGB
 90
        0
102
RTVSPost2010PropOp41
 70
     1
102
RTVSPost2010Prop42
 90
       50
102
RTVSPost2010PropOp42
 70
     1
102
RTVSPost2010Prop43
 90
        3
102
RTVSPost2010PropOp43
 70
     1
102
RTVSPost2010Prop44ColorIndex
 90
        5
102
RTVSPost2010Prop44ColorRGB
 90
      255
102
RTVSPost2010PropOp44
 70
     1
102
RTVSPost2010Prop45
280
     0
102
RTVSPost2010PropOp45
 70
     1
102
RTVSPost2010Prop46
 90
       50
102
RTVSPost2010PropOp46
 70
     1
102
RTVSPost2010Prop47
 90
       50
102
RTVSPost2010PropOp47
 70
     1
102
RTVSPost2010Prop48
 90
       50
102
RTVSPost2010PropOp48
 70
     1
102
RTVSPost2010Prop49
280
     0
102
RTVSPost2010PropOp49
 70
     1
102
RTVSPost2010Prop50
 90
       50
102
RTVSPost2010PropOp50
 70
     1
102
RTVSPost2010Prop51ColorIndex
 90
      256
102
RTVSPost2010Prop51ColorRGB
 90
-16777216
102
RTVSPost2010PropOp51
 70
     0
102
RTVSPost2010Prop52
140
1.0
102
RTVSPost2010PropOp52
 70
     0
102
RTVSPost2010Prop53
 90
        2
102
RTVSPost2010PropOp53
 70
     1
102
RTVSPost2010Prop54
  1
strokes_ogs.tif
102
RTVSPost2010PropOp54
 70
     1
102
RTVSPost2010Prop55
280
     0
102
RTVSPost2010PropOp55
 70
     1
102
RTVSPost2010Prop56
140
1.0
102
RTVSPost2010PropOp56
 70
     1
102
RTVSPost2010Prop57
140
1.0
102
RTVSPost2010PropOp57
 70
     1
102
RTVSPropertyOp0
 70
     1
102
RTVSPropertyOp1
 70
     1
102
RTVSPropertyOp2
 70
     1
102
RTVSPropertyOp3
 70
     1
102
RTVSPropertyOp4
 70
     1
102
RTVSPropertyOp5
 70
     1
102
RTVSPropertyOp6
 70
     1
102
RTVSPropertyOp7
 70
     1
102
RTVSPropertyOp8
 70
     1
102
RTVSPropertyOp9
 70
     1
102
RTVSPropertyOp10
 70
     1
102
RTVSPropertyOp11
 70
     1
102
RTVSPropertyOp12
 70
     1
102
RTVSPropertyOp13
 70
     1
102
RTVSPropertyOp14
 70
     1
102
RTVSPropertyOp15
 70
     1
102
RTVSPropertyOp16
 70
     1
102
RTVSPropertyOp17
 70
     1
102
RTVSPropertyOp18
 70
     1
102
RTVSPropertyOp19
 70
     1
102
RTVSPropertyOp20
 70
     1
102
RTVSPropertyOp21
 70
     1
102
RTVSPropertyOp22
 70
     1
102
RTVSPropertyOp23
 70
     1
102
RTVSPropertyOp24
 70
     1
102
RTVSPropertyOp25
 70
     1
102
RTVSPropertyOp26
 70
     1
102
RTVSPropertyOp27
 70
     1
102
RTVSPropertyOp28
 70
     1
102
RTVSPropertyOp29
 70
     1
102
RTVSPropertyOp30
 70
     1
102
RTVSPropertyOp31
 70
     1
102
RTVSPropertyOp32
 70
     1
102
RTVSPropertyOp33
 70
     1
102
RTVSPropertyOp34
 70
     1
102
RTVSPropertyOp35
 70
     1
102
RTVSPropertyOp36
 70
     1
102
RTVSPropertyOp37
 70
     1
102
RTVSPropertyOp38
 70
     1
102
RTVSPropertyOp39
 70
     1
102
RTVSPropertyOp40
 70
     1
102
RTVSPropertyOp41
 70
     1
102
RTVSPropertyOp42
 70
     1
102
RTVSPropertyOp43
 70
     1
102
RTVSPropertyOp44
 70
     1
102
RTVSPropertyOp45
 70
     1
102
RTVSPropertyOp46
 70
     1
102
RTVSPropertyOp47
 70
     1
102
RTVSPropertyOp48
 70
     1
102
RTVSPropertyOp49
 70
     1
102
RTVSPropertyOp50
 70
     1
102
RTVSPropertyOp51
 70
     0
102
RTVSPropertyOp52
 70
     0
102
RTVSPropertyOp53
 70
     1
102
RTVSPropertyOp54
 70
     1
102
RTVSPropertyOp55
 70
     1
102
RTVSPropertyOp56
 70
     1
102
RTVSPropertyOp57
 70
     1
102
RTVSPropertyOp58
 70
     1
102
RTVSPropertyOp59
 70
     1
102
RTVSPropertyOp60
 70
     1
102
RTVSPropertyOp61
 70
     1
102
RTVSPropertyOp62
 70
     1
  0
XRECORD
  5
FADC4
102
{ACAD_REACTORS
330
FADC3
102
}
330
FADC3
100
AcDbXrecord
280
     1
102
RTVSPost2010Prop28
280
     0
102
RTVSPost2010PropOp28
 70
     1
102
RTVSPost2010Prop29
280
     1
102
RTVSPost2010PropOp29
 70
     1
102
RTVSPost2010Prop30
280
     1
102
RTVSPost2010PropOp30
 70
     1
102
RTVSPost2010Prop31
280
     0
102
RTVSPost2010PropOp31
 70
     1
102
RTVSPost2010Prop32
280
     0
102
RTVSPost2010PropOp32
 70
     1
102
RTVSPost2010Prop33
280
     0
102
RTVSPost2010PropOp33
 70
     1
102
RTVSPost2010Prop34
280
     0
102
RTVSPost2010PropOp34
 70
     1
102
RTVSPost2010Prop35
280
     0
102
RTVSPost2010PropOp35
 70
     1
102
RTVSPost2010Prop36
280
     0
102
RTVSPost2010PropOp36
 70
     1
102
RTVSPost2010Prop37
 90
       50
102
RTVSPost2010PropOp37
 70
     1
102
RTVSPost2010Prop38
140
0.0
102
RTVSPost2010PropOp38
 70
     1
102
RTVSPost2010Prop39
140
1.0
102
RTVSPost2010PropOp39
 70
     1
102
RTVSPost2010Prop40
 90
        0
102
RTVSPost2010PropOp40
 70
     1
102
RTVSPost2010Prop41ColorIndex
 90
       18
102
RTVSPost2010Prop41ColorRGB
 90
        0
102
RTVSPost2010PropOp41
 70
     1
102
RTVSPost2010Prop42
 90
       50
102
RTVSPost2010PropOp42
 70
     1
102
RTVSPost2010Prop43
 90
        3
102
RTVSPost2010PropOp43
 70
     1
102
RTVSPost2010Prop44ColorIndex
 90
        5
102
RTVSPost2010Prop44ColorRGB
 90
      255
102
RTVSPost2010PropOp44
 70
     1
102
RTVSPost2010Prop45
280
     0
102
RTVSPost2010PropOp45
 70
     1
102
RTVSPost2010Prop46
 90
       50
102
RTVSPost2010PropOp46
 70
     1
102
RTVSPost2010Prop47
 90
       50
102
RTVSPost2010PropOp47
 70
     1
102
RTVSPost2010Prop48
 90
       50
102
RTVSPost2010PropOp48
 70
     1
102
RTVSPost2010Prop49
280
     0
102
RTVSPost2010PropOp49
 70
     1
102
RTVSPost2010Prop50
 90
       50
102
RTVSPost2010PropOp50
 70
     1
102
RTVSPost2010Prop51ColorIndex
 90
      256
102
RTVSPost2010Prop51ColorRGB
 90
-16777216
102
RTVSPost2010PropOp51
 70
     0
102
RTVSPost2010Prop52
140
1.0
102
RTVSPost2010PropOp52
 70
     0
102
RTVSPost2010Prop53
 90
        2
102
RTVSPost2010PropOp53
 70
     1
102
RTVSPost2010Prop54
  1
strokes_ogs.tif
102
RTVSPost2010PropOp54
 70
     1
102
RTVSPost2010Prop55
280
     0
102
RTVSPost2010PropOp55
 70
     1
102
RTVSPost2010Prop56
140
1.0
102
RTVSPost2010PropOp56
 70
     1
102
RTVSPost2010Prop57
140
1.0
102
RTVSPost2010PropOp57
 70
     1
102
RTVSPropertyOp0
 70
     1
102
RTVSPropertyOp1
 70
     1
102
RTVSPropertyOp2
 70
     1
102
RTVSPropertyOp3
 70
     1
102
RTVSPropertyOp4
 70
     1
102
RTVSPropertyOp5
 70
     1
102
RTVSPropertyOp6
 70
     1
102
RTVSPropertyOp7
 70
     1
102
RTVSPropertyOp8
 70
     1
102
RTVSPropertyOp9
 70
     1
102
RTVSPropertyOp10
 70
     1
102
RTVSPropertyOp11
 70
     1
102
RTVSPropertyOp12
 70
     1
102
RTVSPropertyOp13
 70
     1
102
RTVSPropertyOp14
 70
     1
102
RTVSPropertyOp15
 70
     1
102
RTVSPropertyOp16
 70
     1
102
RTVSPropertyOp17
 70
     1
102
RTVSPropertyOp18
 70
     1
102
RTVSPropertyOp19
 70
     1
102
RTVSPropertyOp20
 70
     1
102
RTVSPropertyOp21
 70
     1
102
RTVSPropertyOp22
 70
     1
102
RTVSPropertyOp23
 70
     1
102
RTVSPropertyOp24
 70
     1
102
RTVSPropertyOp25
 70
     1
102
RTVSPropertyOp26
 70
     1
102
RTVSPropertyOp27
 70
     1
102
RTVSPropertyOp28
 70
     1
102
RTVSPropertyOp29
 70
     1
102
RTVSPropertyOp30
 70
     1
102
RTVSPropertyOp31
 70
     1
102
RTVSPropertyOp32
 70
     1
102
RTVSPropertyOp33
 70
     1
102
RTVSPropertyOp34
 70
     1
102
RTVSPropertyOp35
 70
     1
102
RTVSPropertyOp36
 70
     1
102
RTVSPropertyOp37
 70
     1
102
RTVSPropertyOp38
 70
     1
102
RTVSPropertyOp39
 70
     1
102
RTVSPropertyOp40
 70
     1
102
RTVSPropertyOp41
 70
     1
102
RTVSPropertyOp42
 70
     1
102
RTVSPropertyOp43
 70
     1
102
RTVSPropertyOp44
 70
     1
102
RTVSPropertyOp45
 70
     1
102
RTVSPropertyOp46
 70
     1
102
RTVSPropertyOp47
 70
     1
102
RTVSPropertyOp48
 70
     1
102
RTVSPropertyOp49
 70
     1
102
RTVSPropertyOp50
 70
     1
102
RTVSPropertyOp51
 70
     0
102
RTVSPropertyOp52
 70
     0
102
RTVSPropertyOp53
 70
     1
102
RTVSPropertyOp54
 70
     1
102
RTVSPropertyOp55
 70
     1
102
RTVSPropertyOp56
 70
     1
102
RTVSPropertyOp57
 70
     1
102
RTVSPropertyOp58
 70
     1
102
RTVSPropertyOp59
 70
     1
102
RTVSPropertyOp60
 70
     1
102
RTVSPropertyOp61
 70
     1
102
RTVSPropertyOp62
 70
     1
  0
XRECORD
  5
FADC8
102
{ACAD_REACTORS
330
FADC7
102
}
330
FADC7
100
AcDbXrecord
280
     1
102
RTVSPost2010Prop28
280
     0
102
RTVSPost2010PropOp28
 70
     1
102
RTVSPost2010Prop29
280
     1
102
RTVSPost2010PropOp29
 70
     1
102
RTVSPost2010Prop30
280
     1
102
RTVSPost2010PropOp30
 70
     1
102
RTVSPost2010Prop31
280
     0
102
RTVSPost2010PropOp31
 70
     1
102
RTVSPost2010Prop32
280
     0
102
RTVSPost2010PropOp32
 70
     1
102
RTVSPost2010Prop33
280
     0
102
RTVSPost2010PropOp33
 70
     1
102
RTVSPost2010Prop34
280
     0
102
RTVSPost2010PropOp34
 70
     1
102
RTVSPost2010Prop35
280
     0
102
RTVSPost2010PropOp35
 70
     1
102
RTVSPost2010Prop36
280
     0
102
RTVSPost2010PropOp36
 70
     1
102
RTVSPost2010Prop37
 90
       50
102
RTVSPost2010PropOp37
 70
     1
102
RTVSPost2010Prop38
140
0.0
102
RTVSPost2010PropOp38
 70
     1
102
RTVSPost2010Prop39
140
1.0
102
RTVSPost2010PropOp39
 70
     1
102
RTVSPost2010Prop40
 90
        0
102
RTVSPost2010PropOp40
 70
     1
102
RTVSPost2010Prop41ColorIndex
 90
       18
102
RTVSPost2010Prop41ColorRGB
 90
        0
102
RTVSPost2010PropOp41
 70
     1
102
RTVSPost2010Prop42
 90
       50
102
RTVSPost2010PropOp42
 70
     1
102
RTVSPost2010Prop43
 90
        3
102
RTVSPost2010PropOp43
 70
     1
102
RTVSPost2010Prop44ColorIndex
 90
        5
102
RTVSPost2010Prop44ColorRGB
 90
      255
102
RTVSPost2010PropOp44
 70
     1
102
RTVSPost2010Prop45
280
     0
102
RTVSPost2010PropOp45
 70
     1
102
RTVSPost2010Prop46
 90
       50
102
RTVSPost2010PropOp46
 70
     1
102
RTVSPost2010Prop47
 90
       50
102
RTVSPost2010PropOp47
 70
     1
102
RTVSPost2010Prop48
 90
       50
102
RTVSPost2010PropOp48
 70
     1
102
RTVSPost2010Prop49
280
     0
102
RTVSPost2010PropOp49
 70
     1
102
RTVSPost2010Prop50
 90
       50
102
RTVSPost2010PropOp50
 70
     1
102
RTVSPost2010Prop51ColorIndex
 90
      256
102
RTVSPost2010Prop51ColorRGB
 90
-16777216
102
RTVSPost2010PropOp51
 70
     0
102
RTVSPost2010Prop52
140
1.0
102
RTVSPost2010PropOp52
 70
     0
102
RTVSPost2010Prop53
 90
        2
102
RTVSPost2010PropOp53
 70
     1
102
RTVSPost2010Prop54
  1
strokes_ogs.tif
102
RTVSPost2010PropOp54
 70
     1
102
RTVSPost2010Prop55
280
     0
102
RTVSPost2010PropOp55
 70
     1
102
RTVSPost2010Prop56
140
1.0
102
RTVSPost2010PropOp56
 70
     1
102
RTVSPost2010Prop57
140
1.0
102
RTVSPost2010PropOp57
 70
     1
102
RTVSPropertyOp0
 70
     1
102
RTVSPropertyOp1
 70
     1
102
RTVSPropertyOp2
 70
     1
102
RTVSPropertyOp3
 70
     1
102
RTVSPropertyOp4
 70
     1
102
RTVSPropertyOp5
 70
     1
102
RTVSPropertyOp6
 70
     1
102
RTVSPropertyOp7
 70
     1
102
RTVSPropertyOp8
 70
     1
102
RTVSPropertyOp9
 70
     1
102
RTVSPropertyOp10
 70
     1
102
RTVSPropertyOp11
 70
     1
102
RTVSPropertyOp12
 70
     1
102
RTVSPropertyOp13
 70
     1
102
RTVSPropertyOp14
 70
     1
102
RTVSPropertyOp15
 70
     1
102
RTVSPropertyOp16
 70
     1
102
RTVSPropertyOp17
 70
     1
102
RTVSPropertyOp18
 70
     1
102
RTVSPropertyOp19
 70
     1
102
RTVSPropertyOp20
 70
     1
102
RTVSPropertyOp21
 70
     1
102
RTVSPropertyOp22
 70
     1
102
RTVSPropertyOp23
 70
     1
102
RTVSPropertyOp24
 70
     1
102
RTVSPropertyOp25
 70
     1
102
RTVSPropertyOp26
 70
     1
102
RTVSPropertyOp27
 70
     1
102
RTVSPropertyOp28
 70
     1
102
RTVSPropertyOp29
 70
     1
102
RTVSPropertyOp30
 70
     1
102
RTVSPropertyOp31
 70
     1
102
RTVSPropertyOp32
 70
     1
102
RTVSPropertyOp33
 70
     1
102
RTVSPropertyOp34
 70
     1
102
RTVSPropertyOp35
 70
     1
102
RTVSPropertyOp36
 70
     1
102
RTVSPropertyOp37
 70
     1
102
RTVSPropertyOp38
 70
     1
102
RTVSPropertyOp39
 70
     1
102
RTVSPropertyOp40
 70
     1
102
RTVSPropertyOp41
 70
     1
102
RTVSPropertyOp42
 70
     1
102
RTVSPropertyOp43
 70
     1
102
RTVSPropertyOp44
 70
     1
102
RTVSPropertyOp45
 70
     1
102
RTVSPropertyOp46
 70
     1
102
RTVSPropertyOp47
 70
     1
102
RTVSPropertyOp48
 70
     1
102
RTVSPropertyOp49
 70
     1
102
RTVSPropertyOp50
 70
     1
102
RTVSPropertyOp51
 70
     0
102
RTVSPropertyOp52
 70
     0
102
RTVSPropertyOp53
 70
     1
102
RTVSPropertyOp54
 70
     1
102
RTVSPropertyOp55
 70
     1
102
RTVSPropertyOp56
 70
     1
102
RTVSPropertyOp57
 70
     1
102
RTVSPropertyOp58
 70
     1
102
RTVSPropertyOp59
 70
     1
102
RTVSPropertyOp60
 70
     1
102
RTVSPropertyOp61
 70
     1
102
RTVSPropertyOp62
 70
     1
  0
XRECORD
  5
FADE2
102
{ACAD_REACTORS
330
FADE1
102
}
330
FADE1
100
AcDbXrecord
280
     1
102
RTVSPost2010Prop28
280
     0
102
RTVSPost2010PropOp28
 70
     0
102
RTVSPost2010Prop29
280
     1
102
RTVSPost2010PropOp29
 70
     0
102
RTVSPost2010Prop30
280
     1
102
RTVSPost2010PropOp30
 70
     0
102
RTVSPost2010Prop31
280
     0
102
RTVSPost2010PropOp31
 70
     0
102
RTVSPost2010Prop32
280
     0
102
RTVSPost2010PropOp32
 70
     0
102
RTVSPost2010Prop33
280
     0
102
RTVSPost2010PropOp33
 70
     0
102
RTVSPost2010Prop34
280
     0
102
RTVSPost2010PropOp34
 70
     0
102
RTVSPost2010Prop35
280
     0
102
RTVSPost2010PropOp35
 70
     0
102
RTVSPost2010Prop36
280
     0
102
RTVSPost2010PropOp36
 70
     0
102
RTVSPost2010Prop37
 90
       50
102
RTVSPost2010PropOp37
 70
     0
102
RTVSPost2010Prop38
140
0.0
102
RTVSPost2010PropOp38
 70
     0
102
RTVSPost2010Prop39
140
1.0
102
RTVSPost2010PropOp39
 70
     0
102
RTVSPost2010Prop40
 90
        0
102
RTVSPost2010PropOp40
 70
     0
102
RTVSPost2010Prop41ColorIndex
 90
       18
102
RTVSPost2010Prop41ColorRGB
 90
        0
102
RTVSPost2010PropOp41
 70
     0
102
RTVSPost2010Prop42
 90
       50
102
RTVSPost2010PropOp42
 70
     0
102
RTVSPost2010Prop43
 90
        3
102
RTVSPost2010PropOp43
 70
     0
102
RTVSPost2010Prop44ColorIndex
 90
        5
102
RTVSPost2010Prop44ColorRGB
 90
      255
102
RTVSPost2010PropOp44
 70
     0
102
RTVSPost2010Prop45
280
     0
102
RTVSPost2010PropOp45
 70
     0
102
RTVSPost2010Prop46
 90
       50
102
RTVSPost2010PropOp46
 70
     0
102
RTVSPost2010Prop47
 90
       50
102
RTVSPost2010PropOp47
 70
     0
102
RTVSPost2010Prop48
 90
       50
102
RTVSPost2010PropOp48
 70
     0
102
RTVSPost2010Prop49
280
     0
102
RTVSPost2010PropOp49
 70
     0
102
RTVSPost2010Prop50
 90
       50
102
RTVSPost2010PropOp50
 70
     0
102
RTVSPost2010Prop51ColorIndex
 90
      256
102
RTVSPost2010Prop51ColorRGB
 90
-16777216
102
RTVSPost2010PropOp51
 70
     0
102
RTVSPost2010Prop52
140
1.0
102
RTVSPost2010PropOp52
 70
     0
102
RTVSPost2010Prop53
 90
        2
102
RTVSPost2010PropOp53
 70
     0
102
RTVSPost2010Prop54
  1
strokes_ogs.tif
102
RTVSPost2010PropOp54
 70
     0
102
RTVSPost2010Prop55
280
     0
102
RTVSPost2010PropOp55
 70
     0
102
RTVSPost2010Prop56
140
1.0
102
RTVSPost2010PropOp56
 70
     0
102
RTVSPost2010Prop57
140
1.0
102
RTVSPost2010PropOp57
 70
     0
102
RTVSPropertyOp0
 70
     0
102
RTVSPropertyOp1
 70
     0
102
RTVSPropertyOp2
 70
     0
102
RTVSPropertyOp3
 70
     0
102
RTVSPropertyOp4
 70
     0
102
RTVSPropertyOp5
 70
     0
102
RTVSPropertyOp6
 70
     0
102
RTVSPropertyOp7
 70
     0
102
RTVSPropertyOp8
 70
     0
102
RTVSPropertyOp9
 70
     0
102
RTVSPropertyOp10
 70
     0
102
RTVSPropertyOp11
 70
     0
102
RTVSPropertyOp12
 70
     0
102
RTVSPropertyOp13
 70
     0
102
RTVSPropertyOp14
 70
     2
102
RTVSPropertyOp15
 70
     0
102
RTVSPropertyOp16
 70
     0
102
RTVSPropertyOp17
 70
     0
102
RTVSPropertyOp18
 70
     0
102
RTVSPropertyOp19
 70
     0
102
RTVSPropertyOp20
 70
     0
102
RTVSPropertyOp21
 70
     0
102
RTVSPropertyOp22
 70
     0
102
RTVSPropertyOp23
 70
     0
102
RTVSPropertyOp24
 70
     0
102
RTVSPropertyOp25
 70
     0
102
RTVSPropertyOp26
 70
     0
102
RTVSPropertyOp27
 70
     0
102
RTVSPropertyOp28
 70
     0
102
RTVSPropertyOp29
 70
     0
102
RTVSPropertyOp30
 70
     0
102
RTVSPropertyOp31
 70
     0
102
RTVSPropertyOp32
 70
     0
102
RTVSPropertyOp33
 70
     0
102
RTVSPropertyOp34
 70
     0
102
RTVSPropertyOp35
 70
     0
102
RTVSPropertyOp36
 70
     0
102
RTVSPropertyOp37
 70
     0
102
RTVSPropertyOp38
 70
     0
102
RTVSPropertyOp39
 70
     0
102
RTVSPropertyOp40
 70
     0
102
RTVSPropertyOp41
 70
     0
102
RTVSPropertyOp42
 70
     0
102
RTVSPropertyOp43
 70
     0
102
RTVSPropertyOp44
 70
     0
102
RTVSPropertyOp45
 70
     0
102
RTVSPropertyOp46
 70
     0
102
RTVSPropertyOp47
 70
     0
102
RTVSPropertyOp48
 70
     0
102
RTVSPropertyOp49
 70
     0
102
RTVSPropertyOp50
 70
     0
102
RTVSPropertyOp51
 70
     0
102
RTVSPropertyOp52
 70
     0
102
RTVSPropertyOp53
 70
     0
102
RTVSPropertyOp54
 70
     0
102
RTVSPropertyOp55
 70
     0
102
RTVSPropertyOp56
 70
     0
102
RTVSPropertyOp57
 70
     0
102
RTVSPropertyOp58
 70
     1
102
RTVSPropertyOp59
 70
     1
102
RTVSPropertyOp60
 70
     1
102
RTVSPropertyOp61
 70
     1
102
RTVSPropertyOp62
 70
     1
  0
XRECORD
  5
FADD0
102
{ACAD_REACTORS
330
FADCF
102
}
330
FADCF
100
AcDbXrecord
280
     1
102
RTVSPost2010Prop28
280
     0
102
RTVSPost2010PropOp28
 70
     1
102
RTVSPost2010Prop29
280
     1
102
RTVSPost2010PropOp29
 70
     1
102
RTVSPost2010Prop30
280
     1
102
RTVSPost2010PropOp30
 70
     1
102
RTVSPost2010Prop31
280
     0
102
RTVSPost2010PropOp31
 70
     1
102
RTVSPost2010Prop32
280
     0
102
RTVSPost2010PropOp32
 70
     1
102
RTVSPost2010Prop33
280
     0
102
RTVSPost2010PropOp33
 70
     1
102
RTVSPost2010Prop34
280
     0
102
RTVSPost2010PropOp34
 70
     1
102
RTVSPost2010Prop35
280
     0
102
RTVSPost2010PropOp35
 70
     1
102
RTVSPost2010Prop36
280
     0
102
RTVSPost2010PropOp36
 70
     1
102
RTVSPost2010Prop37
 90
       50
102
RTVSPost2010PropOp37
 70
     1
102
RTVSPost2010Prop38
140
0.0
102
RTVSPost2010PropOp38
 70
     1
102
RTVSPost2010Prop39
140
1.0
102
RTVSPost2010PropOp39
 70
     1
102
RTVSPost2010Prop40
 90
        0
102
RTVSPost2010PropOp40
 70
     1
102
RTVSPost2010Prop41ColorIndex
 90
       18
102
RTVSPost2010Prop41ColorRGB
 90
        0
102
RTVSPost2010PropOp41
 70
     1
102
RTVSPost2010Prop42
 90
       50
102
RTVSPost2010PropOp42
 70
     1
102
RTVSPost2010Prop43
 90
        3
102
RTVSPost2010PropOp43
 70
     1
102
RTVSPost2010Prop44ColorIndex
 90
        5
102
RTVSPost2010Prop44ColorRGB
 90
      255
102
RTVSPost2010PropOp44
 70
     1
102
RTVSPost2010Prop45
280
     0
102
RTVSPost2010PropOp45
 70
     1
102
RTVSPost2010Prop46
 90
       50
102
RTVSPost2010PropOp46
 70
     1
102
RTVSPost2010Prop47
 90
       50
102
RTVSPost2010PropOp47
 70
     1
102
RTVSPost2010Prop48
 90
       50
102
RTVSPost2010PropOp48
 70
     1
102
RTVSPost2010Prop49
280
     0
102
RTVSPost2010PropOp49
 70
     1
102
RTVSPost2010Prop50
 90
       50
102
RTVSPost2010PropOp50
 70
     1
102
RTVSPost2010Prop51ColorIndex
 90
      256
102
RTVSPost2010Prop51ColorRGB
 90
-16777216
102
RTVSPost2010PropOp51
 70
     0
102
RTVSPost2010Prop52
140
1.0
102
RTVSPost2010PropOp52
 70
     0
102
RTVSPost2010Prop53
 90
        2
102
RTVSPost2010PropOp53
 70
     1
102
RTVSPost2010Prop54
  1
strokes_ogs.tif
102
RTVSPost2010PropOp54
 70
     1
102
RTVSPost2010Prop55
280
     0
102
RTVSPost2010PropOp55
 70
     1
102
RTVSPost2010Prop56
140
1.0
102
RTVSPost2010PropOp56
 70
     1
102
RTVSPost2010Prop57
140
1.0
102
RTVSPost2010PropOp57
 70
     1
102
RTVSPropertyOp0
 70
     1
102
RTVSPropertyOp1
 70
     1
102
RTVSPropertyOp2
 70
     1
102
RTVSPropertyOp3
 70
     1
102
RTVSPropertyOp4
 70
     1
102
RTVSPropertyOp5
 70
     1
102
RTVSPropertyOp6
 70
     1
102
RTVSPropertyOp7
 70
     1
102
RTVSPropertyOp8
 70
     1
102
RTVSPropertyOp9
 70
     1
102
RTVSPropertyOp10
 70
     1
102
RTVSPropertyOp11
 70
     1
102
RTVSPropertyOp12
 70
     1
102
RTVSPropertyOp13
 70
     1
102
RTVSPropertyOp14
 70
     1
102
RTVSPropertyOp15
 70
     1
102
RTVSPropertyOp16
 70
     1
102
RTVSPropertyOp17
 70
     1
102
RTVSPropertyOp18
 70
     1
102
RTVSPropertyOp19
 70
     1
102
RTVSPropertyOp20
 70
     1
102
RTVSPropertyOp21
 70
     1
102
RTVSPropertyOp22
 70
     1
102
RTVSPropertyOp23
 70
     1
102
RTVSPropertyOp24
 70
     1
102
RTVSPropertyOp25
 70
     1
102
RTVSPropertyOp26
 70
     1
102
RTVSPropertyOp27
 70
     1
102
RTVSPropertyOp28
 70
     1
102
RTVSPropertyOp29
 70
     1
102
RTVSPropertyOp30
 70
     1
102
RTVSPropertyOp31
 70
     1
102
RTVSPropertyOp32
 70
     1
102
RTVSPropertyOp33
 70
     1
102
RTVSPropertyOp34
 70
     1
102
RTVSPropertyOp35
 70
     1
102
RTVSPropertyOp36
 70
     1
102
RTVSPropertyOp37
 70
     1
102
RTVSPropertyOp38
 70
     1
102
RTVSPropertyOp39
 70
     1
102
RTVSPropertyOp40
 70
     1
102
RTVSPropertyOp41
 70
     1
102
RTVSPropertyOp42
 70
     1
102
RTVSPropertyOp43
 70
     1
102
RTVSPropertyOp44
 70
     1
102
RTVSPropertyOp45
 70
     1
102
RTVSPropertyOp46
 70
     1
102
RTVSPropertyOp47
 70
     1
102
RTVSPropertyOp48
 70
     1
102
RTVSPropertyOp49
 70
     1
102
RTVSPropertyOp50
 70
     1
102
RTVSPropertyOp51
 70
     0
102
RTVSPropertyOp52
 70
     0
102
RTVSPropertyOp53
 70
     1
102
RTVSPropertyOp54
 70
     1
102
RTVSPropertyOp55
 70
     1
102
RTVSPropertyOp56
 70
     1
102
RTVSPropertyOp57
 70
     1
102
RTVSPropertyOp58
 70
     1
102
RTVSPropertyOp59
 70
     1
102
RTVSPropertyOp60
 70
     1
102
RTVSPropertyOp61
 70
     1
102
RTVSPropertyOp62
 70
     1
  0
XRECORD
  5
FADB4
102
{ACAD_REACTORS
330
FADB3
102
}
330
FADB3
100
AcDbXrecord
280
     1
102
RTVSPost2010Prop28
280
     0
102
RTVSPost2010PropOp28
 70
     1
102
RTVSPost2010Prop29
280
     1
102
RTVSPost2010PropOp29
 70
     1
102
RTVSPost2010Prop30
280
     1
102
RTVSPost2010PropOp30
 70
     1
102
RTVSPost2010Prop31
280
     0
102
RTVSPost2010PropOp31
 70
     1
102
RTVSPost2010Prop32
280
     0
102
RTVSPost2010PropOp32
 70
     1
102
RTVSPost2010Prop33
280
     0
102
RTVSPost2010PropOp33
 70
     1
102
RTVSPost2010Prop34
280
     0
102
RTVSPost2010PropOp34
 70
     1
102
RTVSPost2010Prop35
280
     0
102
RTVSPost2010PropOp35
 70
     1
102
RTVSPost2010Prop36
280
     0
102
RTVSPost2010PropOp36
 70
     1
102
RTVSPost2010Prop37
 90
       50
102
RTVSPost2010PropOp37
 70
     1
102
RTVSPost2010Prop38
140
0.0
102
RTVSPost2010PropOp38
 70
     1
102
RTVSPost2010Prop39
140
1.0
102
RTVSPost2010PropOp39
 70
     1
102
RTVSPost2010Prop40
 90
        0
102
RTVSPost2010PropOp40
 70
     1
102
RTVSPost2010Prop41ColorIndex
 90
       18
102
RTVSPost2010Prop41ColorRGB
 90
        0
102
RTVSPost2010PropOp41
 70
     1
102
RTVSPost2010Prop42
 90
       50
102
RTVSPost2010PropOp42
 70
     1
102
RTVSPost2010Prop43
 90
        3
102
RTVSPost2010PropOp43
 70
     1
102
RTVSPost2010Prop44ColorIndex
 90
        5
102
RTVSPost2010Prop44ColorRGB
 90
      255
102
RTVSPost2010PropOp44
 70
     1
102
RTVSPost2010Prop45
280
     0
102
RTVSPost2010PropOp45
 70
     1
102
RTVSPost2010Prop46
 90
       50
102
RTVSPost2010PropOp46
 70
     1
102
RTVSPost2010Prop47
 90
       50
102
RTVSPost2010PropOp47
 70
     1
102
RTVSPost2010Prop48
 90
       50
102
RTVSPost2010PropOp48
 70
     1
102
RTVSPost2010Prop49
280
     0
102
RTVSPost2010PropOp49
 70
     1
102
RTVSPost2010Prop50
 90
       50
102
RTVSPost2010PropOp50
 70
     1
102
RTVSPost2010Prop51ColorIndex
 90
      256
102
RTVSPost2010Prop51ColorRGB
 90
-16777216
102
RTVSPost2010PropOp51
 70
     0
102
RTVSPost2010Prop52
140
1.0
102
RTVSPost2010PropOp52
 70
     0
102
RTVSPost2010Prop53
 90
        2
102
RTVSPost2010PropOp53
 70
     1
102
RTVSPost2010Prop54
  1
strokes_ogs.tif
102
RTVSPost2010PropOp54
 70
     1
102
RTVSPost2010Prop55
280
     0
102
RTVSPost2010PropOp55
 70
     1
102
RTVSPost2010Prop56
140
1.0
102
RTVSPost2010PropOp56
 70
     1
102
RTVSPost2010Prop57
140
1.0
102
RTVSPost2010PropOp57
 70
     1
102
RTVSPropertyOp0
 70
     1
102
RTVSPropertyOp1
 70
     1
102
RTVSPropertyOp2
 70
     1
102
RTVSPropertyOp3
 70
     1
102
RTVSPropertyOp4
 70
     1
102
RTVSPropertyOp5
 70
     1
102
RTVSPropertyOp6
 70
     1
102
RTVSPropertyOp7
 70
     1
102
RTVSPropertyOp8
 70
     1
102
RTVSPropertyOp9
 70
     1
102
RTVSPropertyOp10
 70
     1
102
RTVSPropertyOp11
 70
     1
102
RTVSPropertyOp12
 70
     1
102
RTVSPropertyOp13
 70
     1
102
RTVSPropertyOp14
 70
     1
102
RTVSPropertyOp15
 70
     1
102
RTVSPropertyOp16
 70
     1
102
RTVSPropertyOp17
 70
     1
102
RTVSPropertyOp18
 70
     1
102
RTVSPropertyOp19
 70
     1
102
RTVSPropertyOp20
 70
     1
102
RTVSPropertyOp21
 70
     1
102
RTVSPropertyOp22
 70
     1
102
RTVSPropertyOp23
 70
     1
102
RTVSPropertyOp24
 70
     1
102
RTVSPropertyOp25
 70
     1
102
RTVSPropertyOp26
 70
     1
102
RTVSPropertyOp27
 70
     1
102
RTVSPropertyOp28
 70
     1
102
RTVSPropertyOp29
 70
     1
102
RTVSPropertyOp30
 70
     1
102
RTVSPropertyOp31
 70
     1
102
RTVSPropertyOp32
 70
     1
102
RTVSPropertyOp33
 70
     1
102
RTVSPropertyOp34
 70
     1
102
RTVSPropertyOp35
 70
     1
102
RTVSPropertyOp36
 70
     1
102
RTVSPropertyOp37
 70
     1
102
RTVSPropertyOp38
 70
     1
102
RTVSPropertyOp39
 70
     1
102
RTVSPropertyOp40
 70
     1
102
RTVSPropertyOp41
 70
     1
102
RTVSPropertyOp42
 70
     1
102
RTVSPropertyOp43
 70
     1
102
RTVSPropertyOp44
 70
     1
102
RTVSPropertyOp45
 70
     1
102
RTVSPropertyOp46
 70
     1
102
RTVSPropertyOp47
 70
     1
102
RTVSPropertyOp48
 70
     1
102
RTVSPropertyOp49
 70
     1
102
RTVSPropertyOp50
 70
     1
102
RTVSPropertyOp51
 70
     0
102
RTVSPropertyOp52
 70
     0
102
RTVSPropertyOp53
 70
     1
102
RTVSPropertyOp54
 70
     1
102
RTVSPropertyOp55
 70
     1
102
RTVSPropertyOp56
 70
     1
102
RTVSPropertyOp57
 70
     1
102
RTVSPropertyOp58
 70
     1
102
RTVSPropertyOp59
 70
     1
102
RTVSPropertyOp60
 70
     1
102
RTVSPropertyOp61
 70
     1
102
RTVSPropertyOp62
 70
     1
  0
XRECORD
  5
FADB6
102
{ACAD_REACTORS
330
FADB5
102
}
330
FADB5
100
AcDbXrecord
280
     1
102
RTVSPost2010Prop28
280
     0
102
RTVSPost2010PropOp28
 70
     1
102
RTVSPost2010Prop29
280
     1
102
RTVSPost2010PropOp29
 70
     1
102
RTVSPost2010Prop30
280
     1
102
RTVSPost2010PropOp30
 70
     1
102
RTVSPost2010Prop31
280
     0
102
RTVSPost2010PropOp31
 70
     1
102
RTVSPost2010Prop32
280
     0
102
RTVSPost2010PropOp32
 70
     1
102
RTVSPost2010Prop33
280
     0
102
RTVSPost2010PropOp33
 70
     1
102
RTVSPost2010Prop34
280
     0
102
RTVSPost2010PropOp34
 70
     1
102
RTVSPost2010Prop35
280
     0
102
RTVSPost2010PropOp35
 70
     1
102
RTVSPost2010Prop36
280
     0
102
RTVSPost2010PropOp36
 70
     1
102
RTVSPost2010Prop37
 90
       50
102
RTVSPost2010PropOp37
 70
     1
102
RTVSPost2010Prop38
140
0.0
102
RTVSPost2010PropOp38
 70
     1
102
RTVSPost2010Prop39
140
1.0
102
RTVSPost2010PropOp39
 70
     1
102
RTVSPost2010Prop40
 90
        0
102
RTVSPost2010PropOp40
 70
     1
102
RTVSPost2010Prop41ColorIndex
 90
       18
102
RTVSPost2010Prop41ColorRGB
 90
        0
102
RTVSPost2010PropOp41
 70
     1
102
RTVSPost2010Prop42
 90
       50
102
RTVSPost2010PropOp42
 70
     1
102
RTVSPost2010Prop43
 90
        3
102
RTVSPost2010PropOp43
 70
     1
102
RTVSPost2010Prop44ColorIndex
 90
        5
102
RTVSPost2010Prop44ColorRGB
 90
      255
102
RTVSPost2010PropOp44
 70
     1
102
RTVSPost2010Prop45
280
     0
102
RTVSPost2010PropOp45
 70
     1
102
RTVSPost2010Prop46
 90
       50
102
RTVSPost2010PropOp46
 70
     1
102
RTVSPost2010Prop47
 90
       50
102
RTVSPost2010PropOp47
 70
     1
102
RTVSPost2010Prop48
 90
       50
102
RTVSPost2010PropOp48
 70
     1
102
RTVSPost2010Prop49
280
     0
102
RTVSPost2010PropOp49
 70
     1
102
RTVSPost2010Prop50
 90
       50
102
RTVSPost2010PropOp50
 70
     1
102
RTVSPost2010Prop51ColorIndex
 90
      256
102
RTVSPost2010Prop51ColorRGB
 90
-16777216
102
RTVSPost2010PropOp51
 70
     0
102
RTVSPost2010Prop52
140
1.0
102
RTVSPost2010PropOp52
 70
     0
102
RTVSPost2010Prop53
 90
        2
102
RTVSPost2010PropOp53
 70
     1
102
RTVSPost2010Prop54
  1
strokes_ogs.tif
102
RTVSPost2010PropOp54
 70
     1
102
RTVSPost2010Prop55
280
     0
102
RTVSPost2010PropOp55
 70
     1
102
RTVSPost2010Prop56
140
1.0
102
RTVSPost2010PropOp56
 70
     1
102
RTVSPost2010Prop57
140
1.0
102
RTVSPost2010PropOp57
 70
     1
102
RTVSPropertyOp0
 70
     1
102
RTVSPropertyOp1
 70
     1
102
RTVSPropertyOp2
 70
     1
102
RTVSPropertyOp3
 70
     1
102
RTVSPropertyOp4
 70
     1
102
RTVSPropertyOp5
 70
     1
102
RTVSPropertyOp6
 70
     1
102
RTVSPropertyOp7
 70
     1
102
RTVSPropertyOp8
 70
     1
102
RTVSPropertyOp9
 70
     1
102
RTVSPropertyOp10
 70
     1
102
RTVSPropertyOp11
 70
     1
102
RTVSPropertyOp12
 70
     1
102
RTVSPropertyOp13
 70
     1
102
RTVSPropertyOp14
 70
     1
102
RTVSPropertyOp15
 70
     1
102
RTVSPropertyOp16
 70
     1
102
RTVSPropertyOp17
 70
     1
102
RTVSPropertyOp18
 70
     1
102
RTVSPropertyOp19
 70
     1
102
RTVSPropertyOp20
 70
     1
102
RTVSPropertyOp21
 70
     1
102
RTVSPropertyOp22
 70
     1
102
RTVSPropertyOp23
 70
     1
102
RTVSPropertyOp24
 70
     1
102
RTVSPropertyOp25
 70
     1
102
RTVSPropertyOp26
 70
     1
102
RTVSPropertyOp27
 70
     1
102
RTVSPropertyOp28
 70
     1
102
RTVSPropertyOp29
 70
     1
102
RTVSPropertyOp30
 70
     1
102
RTVSPropertyOp31
 70
     1
102
RTVSPropertyOp32
 70
     1
102
RTVSPropertyOp33
 70
     1
102
RTVSPropertyOp34
 70
     1
102
RTVSPropertyOp35
 70
     1
102
RTVSPropertyOp36
 70
     1
102
RTVSPropertyOp37
 70
     1
102
RTVSPropertyOp38
 70
     1
102
RTVSPropertyOp39
 70
     1
102
RTVSPropertyOp40
 70
     1
102
RTVSPropertyOp41
 70
     1
102
RTVSPropertyOp42
 70
     1
102
RTVSPropertyOp43
 70
     1
102
RTVSPropertyOp44
 70
     1
102
RTVSPropertyOp45
 70
     1
102
RTVSPropertyOp46
 70
     1
102
RTVSPropertyOp47
 70
     1
102
RTVSPropertyOp48
 70
     1
102
RTVSPropertyOp49
 70
     1
102
RTVSPropertyOp50
 70
     1
102
RTVSPropertyOp51
 70
     0
102
RTVSPropertyOp52
 70
     0
102
RTVSPropertyOp53
 70
     1
102
RTVSPropertyOp54
 70
     1
102
RTVSPropertyOp55
 70
     1
102
RTVSPropertyOp56
 70
     1
102
RTVSPropertyOp57
 70
     1
102
RTVSPropertyOp58
 70
     1
102
RTVSPropertyOp59
 70
     1
102
RTVSPropertyOp60
 70
     1
102
RTVSPropertyOp61
 70
     1
102
RTVSPropertyOp62
 70
     1
  0
XRECORD
  5
FADB8
102
{ACAD_REACTORS
330
FADB7
102
}
330
FADB7
100
AcDbXrecord
280
     1
102
RTVSPost2010Prop28
280
     0
102
RTVSPost2010PropOp28
 70
     1
102
RTVSPost2010Prop29
280
     1
102
RTVSPost2010PropOp29
 70
     1
102
RTVSPost2010Prop30
280
     1
102
RTVSPost2010PropOp30
 70
     1
102
RTVSPost2010Prop31
280
     0
102
RTVSPost2010PropOp31
 70
     1
102
RTVSPost2010Prop32
280
     0
102
RTVSPost2010PropOp32
 70
     1
102
RTVSPost2010Prop33
280
     0
102
RTVSPost2010PropOp33
 70
     1
102
RTVSPost2010Prop34
280
     0
102
RTVSPost2010PropOp34
 70
     1
102
RTVSPost2010Prop35
280
     0
102
RTVSPost2010PropOp35
 70
     1
102
RTVSPost2010Prop36
280
     0
102
RTVSPost2010PropOp36
 70
     1
102
RTVSPost2010Prop37
 90
       50
102
RTVSPost2010PropOp37
 70
     1
102
RTVSPost2010Prop38
140
0.0
102
RTVSPost2010PropOp38
 70
     1
102
RTVSPost2010Prop39
140
1.0
102
RTVSPost2010PropOp39
 70
     1
102
RTVSPost2010Prop40
 90
        0
102
RTVSPost2010PropOp40
 70
     1
102
RTVSPost2010Prop41ColorIndex
 90
       18
102
RTVSPost2010Prop41ColorRGB
 90
        0
102
RTVSPost2010PropOp41
 70
     1
102
RTVSPost2010Prop42
 90
       50
102
RTVSPost2010PropOp42
 70
     1
102
RTVSPost2010Prop43
 90
        3
102
RTVSPost2010PropOp43
 70
     1
102
RTVSPost2010Prop44ColorIndex
 90
        5
102
RTVSPost2010Prop44ColorRGB
 90
      255
102
RTVSPost2010PropOp44
 70
     1
102
RTVSPost2010Prop45
280
     0
102
RTVSPost2010PropOp45
 70
     1
102
RTVSPost2010Prop46
 90
       50
102
RTVSPost2010PropOp46
 70
     1
102
RTVSPost2010Prop47
 90
       50
102
RTVSPost2010PropOp47
 70
     1
102
RTVSPost2010Prop48
 90
       50
102
RTVSPost2010PropOp48
 70
     1
102
RTVSPost2010Prop49
280
     0
102
RTVSPost2010PropOp49
 70
     1
102
RTVSPost2010Prop50
 90
       50
102
RTVSPost2010PropOp50
 70
     1
102
RTVSPost2010Prop51ColorIndex
 90
      256
102
RTVSPost2010Prop51ColorRGB
 90
-16777216
102
RTVSPost2010PropOp51
 70
     0
102
RTVSPost2010Prop52
140
1.0
102
RTVSPost2010PropOp52
 70
     0
102
RTVSPost2010Prop53
 90
        2
102
RTVSPost2010PropOp53
 70
     1
102
RTVSPost2010Prop54
  1
strokes_ogs.tif
102
RTVSPost2010PropOp54
 70
     1
102
RTVSPost2010Prop55
280
     0
102
RTVSPost2010PropOp55
 70
     1
102
RTVSPost2010Prop56
140
1.0
102
RTVSPost2010PropOp56
 70
     1
102
RTVSPost2010Prop57
140
1.0
102
RTVSPost2010PropOp57
 70
     1
102
RTVSPropertyOp0
 70
     1
102
RTVSPropertyOp1
 70
     1
102
RTVSPropertyOp2
 70
     1
102
RTVSPropertyOp3
 70
     1
102
RTVSPropertyOp4
 70
     1
102
RTVSPropertyOp5
 70
     1
102
RTVSPropertyOp6
 70
     1
102
RTVSPropertyOp7
 70
     1
102
RTVSPropertyOp8
 70
     1
102
RTVSPropertyOp9
 70
     1
102
RTVSPropertyOp10
 70
     1
102
RTVSPropertyOp11
 70
     1
102
RTVSPropertyOp12
 70
     1
102
RTVSPropertyOp13
 70
     1
102
RTVSPropertyOp14
 70
     1
102
RTVSPropertyOp15
 70
     1
102
RTVSPropertyOp16
 70
     1
102
RTVSPropertyOp17
 70
     1
102
RTVSPropertyOp18
 70
     1
102
RTVSPropertyOp19
 70
     1
102
RTVSPropertyOp20
 70
     1
102
RTVSPropertyOp21
 70
     1
102
RTVSPropertyOp22
 70
     1
102
RTVSPropertyOp23
 70
     1
102
RTVSPropertyOp24
 70
     1
102
RTVSPropertyOp25
 70
     1
102
RTVSPropertyOp26
 70
     1
102
RTVSPropertyOp27
 70
     1
102
RTVSPropertyOp28
 70
     1
102
RTVSPropertyOp29
 70
     1
102
RTVSPropertyOp30
 70
     1
102
RTVSPropertyOp31
 70
     1
102
RTVSPropertyOp32
 70
     1
102
RTVSPropertyOp33
 70
     1
102
RTVSPropertyOp34
 70
     1
102
RTVSPropertyOp35
 70
     1
102
RTVSPropertyOp36
 70
     1
102
RTVSPropertyOp37
 70
     1
102
RTVSPropertyOp38
 70
     1
102
RTVSPropertyOp39
 70
     1
102
RTVSPropertyOp40
 70
     1
102
RTVSPropertyOp41
 70
     1
102
RTVSPropertyOp42
 70
     1
102
RTVSPropertyOp43
 70
     1
102
RTVSPropertyOp44
 70
     1
102
RTVSPropertyOp45
 70
     1
102
RTVSPropertyOp46
 70
     1
102
RTVSPropertyOp47
 70
     1
102
RTVSPropertyOp48
 70
     1
102
RTVSPropertyOp49
 70
     1
102
RTVSPropertyOp50
 70
     1
102
RTVSPropertyOp51
 70
     0
102
RTVSPropertyOp52
 70
     0
102
RTVSPropertyOp53
 70
     1
102
RTVSPropertyOp54
 70
     1
102
RTVSPropertyOp55
 70
     1
102
RTVSPropertyOp56
 70
     1
102
RTVSPropertyOp57
 70
     1
102
RTVSPropertyOp58
 70
     1
102
RTVSPropertyOp59
 70
     1
102
RTVSPropertyOp60
 70
     1
102
RTVSPropertyOp61
 70
     1
102
RTVSPropertyOp62
 70
     1
  0
XRECORD
  5
FADBA
102
{ACAD_REACTORS
330
FADB9
102
}
330
FADB9
100
AcDbXrecord
280
     1
102
RTVSPost2010Prop28
280
     0
102
RTVSPost2010PropOp28
 70
     1
102
RTVSPost2010Prop29
280
     1
102
RTVSPost2010PropOp29
 70
     1
102
RTVSPost2010Prop30
280
     1
102
RTVSPost2010PropOp30
 70
     1
102
RTVSPost2010Prop31
280
     0
102
RTVSPost2010PropOp31
 70
     1
102
RTVSPost2010Prop32
280
     0
102
RTVSPost2010PropOp32
 70
     1
102
RTVSPost2010Prop33
280
     0
102
RTVSPost2010PropOp33
 70
     1
102
RTVSPost2010Prop34
280
     0
102
RTVSPost2010PropOp34
 70
     1
102
RTVSPost2010Prop35
280
     0
102
RTVSPost2010PropOp35
 70
     1
102
RTVSPost2010Prop36
280
     0
102
RTVSPost2010PropOp36
 70
     1
102
RTVSPost2010Prop37
 90
       50
102
RTVSPost2010PropOp37
 70
     1
102
RTVSPost2010Prop38
140
0.0
102
RTVSPost2010PropOp38
 70
     1
102
RTVSPost2010Prop39
140
1.0
102
RTVSPost2010PropOp39
 70
     1
102
RTVSPost2010Prop40
 90
        0
102
RTVSPost2010PropOp40
 70
     1
102
RTVSPost2010Prop41ColorIndex
 90
       18
102
RTVSPost2010Prop41ColorRGB
 90
        0
102
RTVSPost2010PropOp41
 70
     1
102
RTVSPost2010Prop42
 90
       50
102
RTVSPost2010PropOp42
 70
     1
102
RTVSPost2010Prop43
 90
        3
102
RTVSPost2010PropOp43
 70
     1
102
RTVSPost2010Prop44ColorIndex
 90
        5
102
RTVSPost2010Prop44ColorRGB
 90
      255
102
RTVSPost2010PropOp44
 70
     1
102
RTVSPost2010Prop45
280
     0
102
RTVSPost2010PropOp45
 70
     1
102
RTVSPost2010Prop46
 90
       50
102
RTVSPost2010PropOp46
 70
     1
102
RTVSPost2010Prop47
 90
       50
102
RTVSPost2010PropOp47
 70
     1
102
RTVSPost2010Prop48
 90
       50
102
RTVSPost2010PropOp48
 70
     1
102
RTVSPost2010Prop49
280
     0
102
RTVSPost2010PropOp49
 70
     1
102
RTVSPost2010Prop50
 90
       50
102
RTVSPost2010PropOp50
 70
     1
102
RTVSPost2010Prop51ColorIndex
 90
      256
102
RTVSPost2010Prop51ColorRGB
 90
-16777216
102
RTVSPost2010PropOp51
 70
     0
102
RTVSPost2010Prop52
140
1.0
102
RTVSPost2010PropOp52
 70
     0
102
RTVSPost2010Prop53
 90
        2
102
RTVSPost2010PropOp53
 70
     1
102
RTVSPost2010Prop54
  1
strokes_ogs.tif
102
RTVSPost2010PropOp54
 70
     1
102
RTVSPost2010Prop55
280
     0
102
RTVSPost2010PropOp55
 70
     1
102
RTVSPost2010Prop56
140
1.0
102
RTVSPost2010PropOp56
 70
     1
102
RTVSPost2010Prop57
140
1.0
102
RTVSPost2010PropOp57
 70
     1
102
RTVSPropertyOp0
 70
     1
102
RTVSPropertyOp1
 70
     1
102
RTVSPropertyOp2
 70
     1
102
RTVSPropertyOp3
 70
     1
102
RTVSPropertyOp4
 70
     1
102
RTVSPropertyOp5
 70
     1
102
RTVSPropertyOp6
 70
     1
102
RTVSPropertyOp7
 70
     1
102
RTVSPropertyOp8
 70
     1
102
RTVSPropertyOp9
 70
     1
102
RTVSPropertyOp10
 70
     1
102
RTVSPropertyOp11
 70
     1
102
RTVSPropertyOp12
 70
     1
102
RTVSPropertyOp13
 70
     1
102
RTVSPropertyOp14
 70
     1
102
RTVSPropertyOp15
 70
     1
102
RTVSPropertyOp16
 70
     1
102
RTVSPropertyOp17
 70
     1
102
RTVSPropertyOp18
 70
     1
102
RTVSPropertyOp19
 70
     1
102
RTVSPropertyOp20
 70
     1
102
RTVSPropertyOp21
 70
     1
102
RTVSPropertyOp22
 70
     1
102
RTVSPropertyOp23
 70
     1
102
RTVSPropertyOp24
 70
     1
102
RTVSPropertyOp25
 70
     1
102
RTVSPropertyOp26
 70
     1
102
RTVSPropertyOp27
 70
     1
102
RTVSPropertyOp28
 70
     1
102
RTVSPropertyOp29
 70
     1
102
RTVSPropertyOp30
 70
     1
102
RTVSPropertyOp31
 70
     1
102
RTVSPropertyOp32
 70
     1
102
RTVSPropertyOp33
 70
     1
102
RTVSPropertyOp34
 70
     1
102
RTVSPropertyOp35
 70
     1
102
RTVSPropertyOp36
 70
     1
102
RTVSPropertyOp37
 70
     1
102
RTVSPropertyOp38
 70
     1
102
RTVSPropertyOp39
 70
     1
102
RTVSPropertyOp40
 70
     1
102
RTVSPropertyOp41
 70
     1
102
RTVSPropertyOp42
 70
     1
102
RTVSPropertyOp43
 70
     1
102
RTVSPropertyOp44
 70
     1
102
RTVSPropertyOp45
 70
     1
102
RTVSPropertyOp46
 70
     1
102
RTVSPropertyOp47
 70
     1
102
RTVSPropertyOp48
 70
     1
102
RTVSPropertyOp49
 70
     1
102
RTVSPropertyOp50
 70
     1
102
RTVSPropertyOp51
 70
     0
102
RTVSPropertyOp52
 70
     0
102
RTVSPropertyOp53
 70
     1
102
RTVSPropertyOp54
 70
     1
102
RTVSPropertyOp55
 70
     1
102
RTVSPropertyOp56
 70
     1
102
RTVSPropertyOp57
 70
     1
102
RTVSPropertyOp58
 70
     1
102
RTVSPropertyOp59
 70
     1
102
RTVSPropertyOp60
 70
     1
102
RTVSPropertyOp61
 70
     1
102
RTVSPropertyOp62
 70
     1
  0
XRECORD
  5
FADC2
102
{ACAD_REACTORS
330
FADC1
102
}
330
FADC1
100
AcDbXrecord
280
     1
102
RTVSPost2010Prop28
280
     0
102
RTVSPost2010PropOp28
 70
     1
102
RTVSPost2010Prop29
280
     1
102
RTVSPost2010PropOp29
 70
     1
102
RTVSPost2010Prop30
280
     1
102
RTVSPost2010PropOp30
 70
     1
102
RTVSPost2010Prop31
280
     0
102
RTVSPost2010PropOp31
 70
     1
102
RTVSPost2010Prop32
280
     0
102
RTVSPost2010PropOp32
 70
     1
102
RTVSPost2010Prop33
280
     0
102
RTVSPost2010PropOp33
 70
     1
102
RTVSPost2010Prop34
280
     0
102
RTVSPost2010PropOp34
 70
     1
102
RTVSPost2010Prop35
280
     0
102
RTVSPost2010PropOp35
 70
     1
102
RTVSPost2010Prop36
280
     0
102
RTVSPost2010PropOp36
 70
     1
102
RTVSPost2010Prop37
 90
       50
102
RTVSPost2010PropOp37
 70
     1
102
RTVSPost2010Prop38
140
0.0
102
RTVSPost2010PropOp38
 70
     1
102
RTVSPost2010Prop39
140
1.0
102
RTVSPost2010PropOp39
 70
     1
102
RTVSPost2010Prop40
 90
        0
102
RTVSPost2010PropOp40
 70
     1
102
RTVSPost2010Prop41ColorIndex
 90
       18
102
RTVSPost2010Prop41ColorRGB
 90
        0
102
RTVSPost2010PropOp41
 70
     1
102
RTVSPost2010Prop42
 90
       50
102
RTVSPost2010PropOp42
 70
     1
102
RTVSPost2010Prop43
 90
        3
102
RTVSPost2010PropOp43
 70
     1
102
RTVSPost2010Prop44ColorIndex
 90
        5
102
RTVSPost2010Prop44ColorRGB
 90
      255
102
RTVSPost2010PropOp44
 70
     1
102
RTVSPost2010Prop45
280
     0
102
RTVSPost2010PropOp45
 70
     1
102
RTVSPost2010Prop46
 90
       50
102
RTVSPost2010PropOp46
 70
     1
102
RTVSPost2010Prop47
 90
       50
102
RTVSPost2010PropOp47
 70
     1
102
RTVSPost2010Prop48
 90
       50
102
RTVSPost2010PropOp48
 70
     1
102
RTVSPost2010Prop49
280
     0
102
RTVSPost2010PropOp49
 70
     1
102
RTVSPost2010Prop50
 90
       50
102
RTVSPost2010PropOp50
 70
     1
102
RTVSPost2010Prop51ColorIndex
 90
      256
102
RTVSPost2010Prop51ColorRGB
 90
-16777216
102
RTVSPost2010PropOp51
 70
     0
102
RTVSPost2010Prop52
140
1.0
102
RTVSPost2010PropOp52
 70
     0
102
RTVSPost2010Prop53
 90
        2
102
RTVSPost2010PropOp53
 70
     1
102
RTVSPost2010Prop54
  1
strokes_ogs.tif
102
RTVSPost2010PropOp54
 70
     1
102
RTVSPost2010Prop55
280
     0
102
RTVSPost2010PropOp55
 70
     1
102
RTVSPost2010Prop56
140
1.0
102
RTVSPost2010PropOp56
 70
     1
102
RTVSPost2010Prop57
140
1.0
102
RTVSPost2010PropOp57
 70
     1
102
RTVSPropertyOp0
 70
     1
102
RTVSPropertyOp1
 70
     1
102
RTVSPropertyOp2
 70
     1
102
RTVSPropertyOp3
 70
     1
102
RTVSPropertyOp4
 70
     1
102
RTVSPropertyOp5
 70
     1
102
RTVSPropertyOp6
 70
     1
102
RTVSPropertyOp7
 70
     1
102
RTVSPropertyOp8
 70
     1
102
RTVSPropertyOp9
 70
     1
102
RTVSPropertyOp10
 70
     1
102
RTVSPropertyOp11
 70
     1
102
RTVSPropertyOp12
 70
     1
102
RTVSPropertyOp13
 70
     1
102
RTVSPropertyOp14
 70
     1
102
RTVSPropertyOp15
 70
     1
102
RTVSPropertyOp16
 70
     1
102
RTVSPropertyOp17
 70
     1
102
RTVSPropertyOp18
 70
     1
102
RTVSPropertyOp19
 70
     1
102
RTVSPropertyOp20
 70
     1
102
RTVSPropertyOp21
 70
     1
102
RTVSPropertyOp22
 70
     1
102
RTVSPropertyOp23
 70
     1
102
RTVSPropertyOp24
 70
     1
102
RTVSPropertyOp25
 70
     1
102
RTVSPropertyOp26
 70
     1
102
RTVSPropertyOp27
 70
     1
102
RTVSPropertyOp28
 70
     1
102
RTVSPropertyOp29
 70
     1
102
RTVSPropertyOp30
 70
     1
102
RTVSPropertyOp31
 70
     1
102
RTVSPropertyOp32
 70
     1
102
RTVSPropertyOp33
 70
     1
102
RTVSPropertyOp34
 70
     1
102
RTVSPropertyOp35
 70
     1
102
RTVSPropertyOp36
 70
     1
102
RTVSPropertyOp37
 70
     1
102
RTVSPropertyOp38
 70
     1
102
RTVSPropertyOp39
 70
     1
102
RTVSPropertyOp40
 70
     1
102
RTVSPropertyOp41
 70
     1
102
RTVSPropertyOp42
 70
     1
102
RTVSPropertyOp43
 70
     1
102
RTVSPropertyOp44
 70
     1
102
RTVSPropertyOp45
 70
     1
102
RTVSPropertyOp46
 70
     1
102
RTVSPropertyOp47
 70
     1
102
RTVSPropertyOp48
 70
     1
102
RTVSPropertyOp49
 70
     1
102
RTVSPropertyOp50
 70
     1
102
RTVSPropertyOp51
 70
     0
102
RTVSPropertyOp52
 70
     0
102
RTVSPropertyOp53
 70
     1
102
RTVSPropertyOp54
 70
     1
102
RTVSPropertyOp55
 70
     1
102
RTVSPropertyOp56
 70
     1
102
RTVSPropertyOp57
 70
     1
102
RTVSPropertyOp58
 70
     1
102
RTVSPropertyOp59
 70
     1
102
RTVSPropertyOp60
 70
     1
102
RTVSPropertyOp61
 70
     1
102
RTVSPropertyOp62
 70
     1
  0
XRECORD
  5
FADDE
102
{ACAD_REACTORS
330
FADDD
102
}
330
FADDD
100
AcDbXrecord
280
     1
102
RTVSPost2010Prop28
280
     0
102
RTVSPost2010PropOp28
 70
     0
102
RTVSPost2010Prop29
280
     1
102
RTVSPost2010PropOp29
 70
     0
102
RTVSPost2010Prop30
280
     1
102
RTVSPost2010PropOp30
 70
     0
102
RTVSPost2010Prop31
280
     0
102
RTVSPost2010PropOp31
 70
     0
102
RTVSPost2010Prop32
280
     0
102
RTVSPost2010PropOp32
 70
     0
102
RTVSPost2010Prop33
280
     0
102
RTVSPost2010PropOp33
 70
     0
102
RTVSPost2010Prop34
280
     0
102
RTVSPost2010PropOp34
 70
     0
102
RTVSPost2010Prop35
280
     0
102
RTVSPost2010PropOp35
 70
     0
102
RTVSPost2010Prop36
280
     0
102
RTVSPost2010PropOp36
 70
     0
102
RTVSPost2010Prop37
 90
       50
102
RTVSPost2010PropOp37
 70
     0
102
RTVSPost2010Prop38
140
0.0
102
RTVSPost2010PropOp38
 70
     0
102
RTVSPost2010Prop39
140
1.0
102
RTVSPost2010PropOp39
 70
     0
102
RTVSPost2010Prop40
 90
        0
102
RTVSPost2010PropOp40
 70
     0
102
RTVSPost2010Prop41ColorIndex
 90
       18
102
RTVSPost2010Prop41ColorRGB
 90
        0
102
RTVSPost2010PropOp41
 70
     0
102
RTVSPost2010Prop42
 90
       50
102
RTVSPost2010PropOp42
 70
     0
102
RTVSPost2010Prop43
 90
        3
102
RTVSPost2010PropOp43
 70
     0
102
RTVSPost2010Prop44ColorIndex
 90
        5
102
RTVSPost2010Prop44ColorRGB
 90
      255
102
RTVSPost2010PropOp44
 70
     0
102
RTVSPost2010Prop45
280
     0
102
RTVSPost2010PropOp45
 70
     0
102
RTVSPost2010Prop46
 90
       50
102
RTVSPost2010PropOp46
 70
     0
102
RTVSPost2010Prop47
 90
       50
102
RTVSPost2010PropOp47
 70
     0
102
RTVSPost2010Prop48
 90
       50
102
RTVSPost2010PropOp48
 70
     0
102
RTVSPost2010Prop49
280
     0
102
RTVSPost2010PropOp49
 70
     0
102
RTVSPost2010Prop50
 90
       50
102
RTVSPost2010PropOp50
 70
     0
102
RTVSPost2010Prop51ColorIndex
 90
      256
102
RTVSPost2010Prop51ColorRGB
 90
-16777216
102
RTVSPost2010PropOp51
 70
     0
102
RTVSPost2010Prop52
140
1.0
102
RTVSPost2010PropOp52
 70
     0
102
RTVSPost2010Prop53
 90
        2
102
RTVSPost2010PropOp53
 70
     0
102
RTVSPost2010Prop54
  1
strokes_ogs.tif
102
RTVSPost2010PropOp54
 70
     0
102
RTVSPost2010Prop55
280
     0
102
RTVSPost2010PropOp55
 70
     0
102
RTVSPost2010Prop56
140
1.0
102
RTVSPost2010PropOp56
 70
     0
102
RTVSPost2010Prop57
140
1.0
102
RTVSPost2010PropOp57
 70
     0
102
RTVSPropertyOp0
 70
     0
102
RTVSPropertyOp1
 70
     0
102
RTVSPropertyOp2
 70
     0
102
RTVSPropertyOp3
 70
     0
102
RTVSPropertyOp4
 70
     0
102
RTVSPropertyOp5
 70
     0
102
RTVSPropertyOp6
 70
     0
102
RTVSPropertyOp7
 70
     0
102
RTVSPropertyOp8
 70
     0
102
RTVSPropertyOp9
 70
     0
102
RTVSPropertyOp10
 70
     0
102
RTVSPropertyOp11
 70
     0
102
RTVSPropertyOp12
 70
     0
102
RTVSPropertyOp13
 70
     0
102
RTVSPropertyOp14
 70
     2
102
RTVSPropertyOp15
 70
     0
102
RTVSPropertyOp16
 70
     0
102
RTVSPropertyOp17
 70
     0
102
RTVSPropertyOp18
 70
     0
102
RTVSPropertyOp19
 70
     0
102
RTVSPropertyOp20
 70
     0
102
RTVSPropertyOp21
 70
     0
102
RTVSPropertyOp22
 70
     0
102
RTVSPropertyOp23
 70
     0
102
RTVSPropertyOp24
 70
     0
102
RTVSPropertyOp25
 70
     0
102
RTVSPropertyOp26
 70
     0
102
RTVSPropertyOp27
 70
     0
102
RTVSPropertyOp28
 70
     0
102
RTVSPropertyOp29
 70
     0
102
RTVSPropertyOp30
 70
     0
102
RTVSPropertyOp31
 70
     0
102
RTVSPropertyOp32
 70
     0
102
RTVSPropertyOp33
 70
     0
102
RTVSPropertyOp34
 70
     0
102
RTVSPropertyOp35
 70
     0
102
RTVSPropertyOp36
 70
     0
102
RTVSPropertyOp37
 70
     0
102
RTVSPropertyOp38
 70
     0
102
RTVSPropertyOp39
 70
     0
102
RTVSPropertyOp40
 70
     0
102
RTVSPropertyOp41
 70
     0
102
RTVSPropertyOp42
 70
     0
102
RTVSPropertyOp43
 70
     0
102
RTVSPropertyOp44
 70
     0
102
RTVSPropertyOp45
 70
     0
102
RTVSPropertyOp46
 70
     0
102
RTVSPropertyOp47
 70
     0
102
RTVSPropertyOp48
 70
     0
102
RTVSPropertyOp49
 70
     0
102
RTVSPropertyOp50
 70
     0
102
RTVSPropertyOp51
 70
     0
102
RTVSPropertyOp52
 70
     0
102
RTVSPropertyOp53
 70
     0
102
RTVSPropertyOp54
 70
     0
102
RTVSPropertyOp55
 70
     0
102
RTVSPropertyOp56
 70
     0
102
RTVSPropertyOp57
 70
     0
102
RTVSPropertyOp58
 70
     1
102
RTVSPropertyOp59
 70
     1
102
RTVSPropertyOp60
 70
     1
102
RTVSPropertyOp61
 70
     1
102
RTVSPropertyOp62
 70
     1
  0
XRECORD
  5
FADCE
102
{ACAD_REACTORS
330
FADCD
102
}
330
FADCD
100
AcDbXrecord
280
     1
102
RTVSPost2010Prop28
280
     0
102
RTVSPost2010PropOp28
 70
     1
102
RTVSPost2010Prop29
280
     1
102
RTVSPost2010PropOp29
 70
     1
102
RTVSPost2010Prop30
280
     1
102
RTVSPost2010PropOp30
 70
     1
102
RTVSPost2010Prop31
280
     0
102
RTVSPost2010PropOp31
 70
     1
102
RTVSPost2010Prop32
280
     0
102
RTVSPost2010PropOp32
 70
     1
102
RTVSPost2010Prop33
280
     0
102
RTVSPost2010PropOp33
 70
     1
102
RTVSPost2010Prop34
280
     0
102
RTVSPost2010PropOp34
 70
     1
102
RTVSPost2010Prop35
280
     0
102
RTVSPost2010PropOp35
 70
     1
102
RTVSPost2010Prop36
280
     0
102
RTVSPost2010PropOp36
 70
     1
102
RTVSPost2010Prop37
 90
       50
102
RTVSPost2010PropOp37
 70
     1
102
RTVSPost2010Prop38
140
0.0
102
RTVSPost2010PropOp38
 70
     1
102
RTVSPost2010Prop39
140
1.0
102
RTVSPost2010PropOp39
 70
     1
102
RTVSPost2010Prop40
 90
        0
102
RTVSPost2010PropOp40
 70
     1
102
RTVSPost2010Prop41ColorIndex
 90
       18
102
RTVSPost2010Prop41ColorRGB
 90
        0
102
RTVSPost2010PropOp41
 70
     1
102
RTVSPost2010Prop42
 90
       50
102
RTVSPost2010PropOp42
 70
     1
102
RTVSPost2010Prop43
 90
        3
102
RTVSPost2010PropOp43
 70
     1
102
RTVSPost2010Prop44ColorIndex
 90
        5
102
RTVSPost2010Prop44ColorRGB
 90
      255
102
RTVSPost2010PropOp44
 70
     1
102
RTVSPost2010Prop45
280
     0
102
RTVSPost2010PropOp45
 70
     1
102
RTVSPost2010Prop46
 90
       50
102
RTVSPost2010PropOp46
 70
     1
102
RTVSPost2010Prop47
 90
       50
102
RTVSPost2010PropOp47
 70
     1
102
RTVSPost2010Prop48
 90
       50
102
RTVSPost2010PropOp48
 70
     1
102
RTVSPost2010Prop49
280
     0
102
RTVSPost2010PropOp49
 70
     1
102
RTVSPost2010Prop50
 90
       50
102
RTVSPost2010PropOp50
 70
     1
102
RTVSPost2010Prop51ColorIndex
 90
      256
102
RTVSPost2010Prop51ColorRGB
 90
-16777216
102
RTVSPost2010PropOp51
 70
     0
102
RTVSPost2010Prop52
140
1.0
102
RTVSPost2010PropOp52
 70
     0
102
RTVSPost2010Prop53
 90
        2
102
RTVSPost2010PropOp53
 70
     1
102
RTVSPost2010Prop54
  1
strokes_ogs.tif
102
RTVSPost2010PropOp54
 70
     1
102
RTVSPost2010Prop55
280
     0
102
RTVSPost2010PropOp55
 70
     1
102
RTVSPost2010Prop56
140
1.0
102
RTVSPost2010PropOp56
 70
     1
102
RTVSPost2010Prop57
140
1.0
102
RTVSPost2010PropOp57
 70
     1
102
RTVSPropertyOp0
 70
     1
102
RTVSPropertyOp1
 70
     1
102
RTVSPropertyOp2
 70
     1
102
RTVSPropertyOp3
 70
     1
102
RTVSPropertyOp4
 70
     1
102
RTVSPropertyOp5
 70
     1
102
RTVSPropertyOp6
 70
     1
102
RTVSPropertyOp7
 70
     1
102
RTVSPropertyOp8
 70
     1
102
RTVSPropertyOp9
 70
     1
102
RTVSPropertyOp10
 70
     1
102
RTVSPropertyOp11
 70
     1
102
RTVSPropertyOp12
 70
     1
102
RTVSPropertyOp13
 70
     1
102
RTVSPropertyOp14
 70
     1
102
RTVSPropertyOp15
 70
     1
102
RTVSPropertyOp16
 70
     1
102
RTVSPropertyOp17
 70
     1
102
RTVSPropertyOp18
 70
     1
102
RTVSPropertyOp19
 70
     1
102
RTVSPropertyOp20
 70
     1
102
RTVSPropertyOp21
 70
     1
102
RTVSPropertyOp22
 70
     1
102
RTVSPropertyOp23
 70
     1
102
RTVSPropertyOp24
 70
     1
102
RTVSPropertyOp25
 70
     1
102
RTVSPropertyOp26
 70
     1
102
RTVSPropertyOp27
 70
     1
102
RTVSPropertyOp28
 70
     1
102
RTVSPropertyOp29
 70
     1
102
RTVSPropertyOp30
 70
     1
102
RTVSPropertyOp31
 70
     1
102
RTVSPropertyOp32
 70
     1
102
RTVSPropertyOp33
 70
     1
102
RTVSPropertyOp34
 70
     1
102
RTVSPropertyOp35
 70
     1
102
RTVSPropertyOp36
 70
     1
102
RTVSPropertyOp37
 70
     1
102
RTVSPropertyOp38
 70
     1
102
RTVSPropertyOp39
 70
     1
102
RTVSPropertyOp40
 70
     1
102
RTVSPropertyOp41
 70
     1
102
RTVSPropertyOp42
 70
     1
102
RTVSPropertyOp43
 70
     1
102
RTVSPropertyOp44
 70
     1
102
RTVSPropertyOp45
 70
     1
102
RTVSPropertyOp46
 70
     1
102
RTVSPropertyOp47
 70
     1
102
RTVSPropertyOp48
 70
     1
102
RTVSPropertyOp49
 70
     1
102
RTVSPropertyOp50
 70
     1
102
RTVSPropertyOp51
 70
     0
102
RTVSPropertyOp52
 70
     0
102
RTVSPropertyOp53
 70
     1
102
RTVSPropertyOp54
 70
     1
102
RTVSPropertyOp55
 70
     1
102
RTVSPropertyOp56
 70
     1
102
RTVSPropertyOp57
 70
     1
102
RTVSPropertyOp58
 70
     1
102
RTVSPropertyOp59
 70
     1
102
RTVSPropertyOp60
 70
     1
102
RTVSPropertyOp61
 70
     1
102
RTVSPropertyOp62
 70
     1
  0
XRECORD
  5
FADE0
102
{ACAD_REACTORS
330
FADDF
102
}
330
FADDF
100
AcDbXrecord
280
     1
102
RTVSPost2010Prop28
280
     0
102
RTVSPost2010PropOp28
 70
     0
102
RTVSPost2010Prop29
280
     1
102
RTVSPost2010PropOp29
 70
     0
102
RTVSPost2010Prop30
280
     1
102
RTVSPost2010PropOp30
 70
     0
102
RTVSPost2010Prop31
280
     0
102
RTVSPost2010PropOp31
 70
     0
102
RTVSPost2010Prop32
280
     0
102
RTVSPost2010PropOp32
 70
     0
102
RTVSPost2010Prop33
280
     0
102
RTVSPost2010PropOp33
 70
     0
102
RTVSPost2010Prop34
280
     0
102
RTVSPost2010PropOp34
 70
     0
102
RTVSPost2010Prop35
280
     0
102
RTVSPost2010PropOp35
 70
     0
102
RTVSPost2010Prop36
280
     0
102
RTVSPost2010PropOp36
 70
     0
102
RTVSPost2010Prop37
 90
       50
102
RTVSPost2010PropOp37
 70
     0
102
RTVSPost2010Prop38
140
0.0
102
RTVSPost2010PropOp38
 70
     0
102
RTVSPost2010Prop39
140
1.0
102
RTVSPost2010PropOp39
 70
     0
102
RTVSPost2010Prop40
 90
        0
102
RTVSPost2010PropOp40
 70
     0
102
RTVSPost2010Prop41ColorIndex
 90
       18
102
RTVSPost2010Prop41ColorRGB
 90
        0
102
RTVSPost2010PropOp41
 70
     0
102
RTVSPost2010Prop42
 90
       50
102
RTVSPost2010PropOp42
 70
     0
102
RTVSPost2010Prop43
 90
        3
102
RTVSPost2010PropOp43
 70
     0
102
RTVSPost2010Prop44ColorIndex
 90
        5
102
RTVSPost2010Prop44ColorRGB
 90
      255
102
RTVSPost2010PropOp44
 70
     0
102
RTVSPost2010Prop45
280
     0
102
RTVSPost2010PropOp45
 70
     0
102
RTVSPost2010Prop46
 90
       50
102
RTVSPost2010PropOp46
 70
     0
102
RTVSPost2010Prop47
 90
       50
102
RTVSPost2010PropOp47
 70
     0
102
RTVSPost2010Prop48
 90
       50
102
RTVSPost2010PropOp48
 70
     0
102
RTVSPost2010Prop49
280
     0
102
RTVSPost2010PropOp49
 70
     0
102
RTVSPost2010Prop50
 90
       50
102
RTVSPost2010PropOp50
 70
     0
102
RTVSPost2010Prop51ColorIndex
 90
      256
102
RTVSPost2010Prop51ColorRGB
 90
-16777216
102
RTVSPost2010PropOp51
 70
     0
102
RTVSPost2010Prop52
140
1.0
102
RTVSPost2010PropOp52
 70
     0
102
RTVSPost2010Prop53
 90
        2
102
RTVSPost2010PropOp53
 70
     0
102
RTVSPost2010Prop54
  1
strokes_ogs.tif
102
RTVSPost2010PropOp54
 70
     0
102
RTVSPost2010Prop55
280
     0
102
RTVSPost2010PropOp55
 70
     0
102
RTVSPost2010Prop56
140
1.0
102
RTVSPost2010PropOp56
 70
     0
102
RTVSPost2010Prop57
140
1.0
102
RTVSPost2010PropOp57
 70
     0
102
RTVSPropertyOp0
 70
     0
102
RTVSPropertyOp1
 70
     0
102
RTVSPropertyOp2
 70
     0
102
RTVSPropertyOp3
 70
     0
102
RTVSPropertyOp4
 70
     0
102
RTVSPropertyOp5
 70
     0
102
RTVSPropertyOp6
 70
     0
102
RTVSPropertyOp7
 70
     0
102
RTVSPropertyOp8
 70
     0
102
RTVSPropertyOp9
 70
     0
102
RTVSPropertyOp10
 70
     0
102
RTVSPropertyOp11
 70
     0
102
RTVSPropertyOp12
 70
     0
102
RTVSPropertyOp13
 70
     0
102
RTVSPropertyOp14
 70
     2
102
RTVSPropertyOp15
 70
     0
102
RTVSPropertyOp16
 70
     0
102
RTVSPropertyOp17
 70
     0
102
RTVSPropertyOp18
 70
     0
102
RTVSPropertyOp19
 70
     0
102
RTVSPropertyOp20
 70
     0
102
RTVSPropertyOp21
 70
     0
102
RTVSPropertyOp22
 70
     0
102
RTVSPropertyOp23
 70
     0
102
RTVSPropertyOp24
 70
     0
102
RTVSPropertyOp25
 70
     0
102
RTVSPropertyOp26
 70
     0
102
RTVSPropertyOp27
 70
     0
102
RTVSPropertyOp28
 70
     0
102
RTVSPropertyOp29
 70
     0
102
RTVSPropertyOp30
 70
     0
102
RTVSPropertyOp31
 70
     0
102
RTVSPropertyOp32
 70
     0
102
RTVSPropertyOp33
 70
     0
102
RTVSPropertyOp34
 70
     0
102
RTVSPropertyOp35
 70
     0
102
RTVSPropertyOp36
 70
     0
102
RTVSPropertyOp37
 70
     0
102
RTVSPropertyOp38
 70
     0
102
RTVSPropertyOp39
 70
     0
102
RTVSPropertyOp40
 70
     0
102
RTVSPropertyOp41
 70
     0
102
RTVSPropertyOp42
 70
     0
102
RTVSPropertyOp43
 70
     0
102
RTVSPropertyOp44
 70
     0
102
RTVSPropertyOp45
 70
     0
102
RTVSPropertyOp46
 70
     0
102
RTVSPropertyOp47
 70
     0
102
RTVSPropertyOp48
 70
     0
102
RTVSPropertyOp49
 70
     0
102
RTVSPropertyOp50
 70
     0
102
RTVSPropertyOp51
 70
     0
102
RTVSPropertyOp52
 70
     0
102
RTVSPropertyOp53
 70
     0
102
RTVSPropertyOp54
 70
     0
102
RTVSPropertyOp55
 70
     0
102
RTVSPropertyOp56
 70
     0
102
RTVSPropertyOp57
 70
     0
102
RTVSPropertyOp58
 70
     1
102
RTVSPropertyOp59
 70
     1
102
RTVSPropertyOp60
 70
     1
102
RTVSPropertyOp61
 70
     1
102
RTVSPropertyOp62
 70
     1
  0
XRECORD
  5
FADC6
102
{ACAD_REACTORS
330
FADC5
102
}
330
FADC5
100
AcDbXrecord
280
     1
102
RTVSPost2010Prop28
280
     0
102
RTVSPost2010PropOp28
 70
     1
102
RTVSPost2010Prop29
280
     1
102
RTVSPost2010PropOp29
 70
     1
102
RTVSPost2010Prop30
280
     1
102
RTVSPost2010PropOp30
 70
     1
102
RTVSPost2010Prop31
280
     0
102
RTVSPost2010PropOp31
 70
     1
102
RTVSPost2010Prop32
280
     0
102
RTVSPost2010PropOp32
 70
     1
102
RTVSPost2010Prop33
280
     0
102
RTVSPost2010PropOp33
 70
     1
102
RTVSPost2010Prop34
280
     0
102
RTVSPost2010PropOp34
 70
     1
102
RTVSPost2010Prop35
280
     0
102
RTVSPost2010PropOp35
 70
     1
102
RTVSPost2010Prop36
280
     0
102
RTVSPost2010PropOp36
 70
     1
102
RTVSPost2010Prop37
 90
       50
102
RTVSPost2010PropOp37
 70
     1
102
RTVSPost2010Prop38
140
0.0
102
RTVSPost2010PropOp38
 70
     1
102
RTVSPost2010Prop39
140
1.0
102
RTVSPost2010PropOp39
 70
     1
102
RTVSPost2010Prop40
 90
        0
102
RTVSPost2010PropOp40
 70
     1
102
RTVSPost2010Prop41ColorIndex
 90
       18
102
RTVSPost2010Prop41ColorRGB
 90
        0
102
RTVSPost2010PropOp41
 70
     1
102
RTVSPost2010Prop42
 90
       50
102
RTVSPost2010PropOp42
 70
     1
102
RTVSPost2010Prop43
 90
        3
102
RTVSPost2010PropOp43
 70
     1
102
RTVSPost2010Prop44ColorIndex
 90
        5
102
RTVSPost2010Prop44ColorRGB
 90
      255
102
RTVSPost2010PropOp44
 70
     1
102
RTVSPost2010Prop45
280
     0
102
RTVSPost2010PropOp45
 70
     1
102
RTVSPost2010Prop46
 90
       50
102
RTVSPost2010PropOp46
 70
     1
102
RTVSPost2010Prop47
 90
       50
102
RTVSPost2010PropOp47
 70
     1
102
RTVSPost2010Prop48
 90
       50
102
RTVSPost2010PropOp48
 70
     1
102
RTVSPost2010Prop49
280
     0
102
RTVSPost2010PropOp49
 70
     1
102
RTVSPost2010Prop50
 90
       50
102
RTVSPost2010PropOp50
 70
     1
102
RTVSPost2010Prop51ColorIndex
 90
      256
102
RTVSPost2010Prop51ColorRGB
 90
-16777216
102
RTVSPost2010PropOp51
 70
     0
102
RTVSPost2010Prop52
140
1.0
102
RTVSPost2010PropOp52
 70
     0
102
RTVSPost2010Prop53
 90
        2
102
RTVSPost2010PropOp53
 70
     1
102
RTVSPost2010Prop54
  1
strokes_ogs.tif
102
RTVSPost2010PropOp54
 70
     1
102
RTVSPost2010Prop55
280
     0
102
RTVSPost2010PropOp55
 70
     1
102
RTVSPost2010Prop56
140
1.0
102
RTVSPost2010PropOp56
 70
     1
102
RTVSPost2010Prop57
140
1.0
102
RTVSPost2010PropOp57
 70
     1
102
RTVSPropertyOp0
 70
     1
102
RTVSPropertyOp1
 70
     1
102
RTVSPropertyOp2
 70
     1
102
RTVSPropertyOp3
 70
     1
102
RTVSPropertyOp4
 70
     1
102
RTVSPropertyOp5
 70
     1
102
RTVSPropertyOp6
 70
     1
102
RTVSPropertyOp7
 70
     1
102
RTVSPropertyOp8
 70
     1
102
RTVSPropertyOp9
 70
     1
102
RTVSPropertyOp10
 70
     1
102
RTVSPropertyOp11
 70
     1
102
RTVSPropertyOp12
 70
     1
102
RTVSPropertyOp13
 70
     1
102
RTVSPropertyOp14
 70
     1
102
RTVSPropertyOp15
 70
     1
102
RTVSPropertyOp16
 70
     1
102
RTVSPropertyOp17
 70
     1
102
RTVSPropertyOp18
 70
     1
102
RTVSPropertyOp19
 70
     1
102
RTVSPropertyOp20
 70
     1
102
RTVSPropertyOp21
 70
     1
102
RTVSPropertyOp22
 70
     1
102
RTVSPropertyOp23
 70
     1
102
RTVSPropertyOp24
 70
     1
102
RTVSPropertyOp25
 70
     1
102
RTVSPropertyOp26
 70
     1
102
RTVSPropertyOp27
 70
     1
102
RTVSPropertyOp28
 70
     1
102
RTVSPropertyOp29
 70
     1
102
RTVSPropertyOp30
 70
     1
102
RTVSPropertyOp31
 70
     1
102
RTVSPropertyOp32
 70
     1
102
RTVSPropertyOp33
 70
     1
102
RTVSPropertyOp34
 70
     1
102
RTVSPropertyOp35
 70
     1
102
RTVSPropertyOp36
 70
     1
102
RTVSPropertyOp37
 70
     1
102
RTVSPropertyOp38
 70
     1
102
RTVSPropertyOp39
 70
     1
102
RTVSPropertyOp40
 70
     1
102
RTVSPropertyOp41
 70
     1
102
RTVSPropertyOp42
 70
     1
102
RTVSPropertyOp43
 70
     1
102
RTVSPropertyOp44
 70
     1
102
RTVSPropertyOp45
 70
     1
102
RTVSPropertyOp46
 70
     1
102
RTVSPropertyOp47
 70
     1
102
RTVSPropertyOp48
 70
     1
102
RTVSPropertyOp49
 70
     1
102
RTVSPropertyOp50
 70
     1
102
RTVSPropertyOp51
 70
     0
102
RTVSPropertyOp52
 70
     0
102
RTVSPropertyOp53
 70
     1
102
RTVSPropertyOp54
 70
     1
102
RTVSPropertyOp55
 70
     1
102
RTVSPropertyOp56
 70
     1
102
RTVSPropertyOp57
 70
     1
102
RTVSPropertyOp58
 70
     1
102
RTVSPropertyOp59
 70
     1
102
RTVSPropertyOp60
 70
     1
102
RTVSPropertyOp61
 70
     1
102
RTVSPropertyOp62
 70
     1
  0
XRECORD
  5
FADDC
102
{ACAD_REACTORS
330
FADDB
102
}
330
FADDB
100
AcDbXrecord
280
     1
102
RTVSPost2010Prop28
280
     0
102
RTVSPost2010PropOp28
 70
     1
102
RTVSPost2010Prop29
280
     1
102
RTVSPost2010PropOp29
 70
     1
102
RTVSPost2010Prop30
280
     1
102
RTVSPost2010PropOp30
 70
     1
102
RTVSPost2010Prop31
280
     0
102
RTVSPost2010PropOp31
 70
     1
102
RTVSPost2010Prop32
280
     0
102
RTVSPost2010PropOp32
 70
     1
102
RTVSPost2010Prop33
280
     0
102
RTVSPost2010PropOp33
 70
     1
102
RTVSPost2010Prop34
280
     0
102
RTVSPost2010PropOp34
 70
     1
102
RTVSPost2010Prop35
280
     0
102
RTVSPost2010PropOp35
 70
     1
102
RTVSPost2010Prop36
280
     0
102
RTVSPost2010PropOp36
 70
     1
102
RTVSPost2010Prop37
 90
       50
102
RTVSPost2010PropOp37
 70
     1
102
RTVSPost2010Prop38
140
0.0
102
RTVSPost2010PropOp38
 70
     1
102
RTVSPost2010Prop39
140
1.0
102
RTVSPost2010PropOp39
 70
     1
102
RTVSPost2010Prop40
 90
        0
102
RTVSPost2010PropOp40
 70
     1
102
RTVSPost2010Prop41ColorIndex
 90
       18
102
RTVSPost2010Prop41ColorRGB
 90
        0
102
RTVSPost2010PropOp41
 70
     1
102
RTVSPost2010Prop42
 90
       50
102
RTVSPost2010PropOp42
 70
     1
102
RTVSPost2010Prop43
 90
        3
102
RTVSPost2010PropOp43
 70
     1
102
RTVSPost2010Prop44ColorIndex
 90
        5
102
RTVSPost2010Prop44ColorRGB
 90
      255
102
RTVSPost2010PropOp44
 70
     1
102
RTVSPost2010Prop45
280
     0
102
RTVSPost2010PropOp45
 70
     1
102
RTVSPost2010Prop46
 90
       50
102
RTVSPost2010PropOp46
 70
     1
102
RTVSPost2010Prop47
 90
       50
102
RTVSPost2010PropOp47
 70
     1
102
RTVSPost2010Prop48
 90
       50
102
RTVSPost2010PropOp48
 70
     1
102
RTVSPost2010Prop49
280
     0
102
RTVSPost2010PropOp49
 70
     1
102
RTVSPost2010Prop50
 90
       50
102
RTVSPost2010PropOp50
 70
     1
102
RTVSPost2010Prop51ColorIndex
 90
      256
102
RTVSPost2010Prop51ColorRGB
 90
-16777216
102
RTVSPost2010PropOp51
 70
     0
102
RTVSPost2010Prop52
140
1.0
102
RTVSPost2010PropOp52
 70
     0
102
RTVSPost2010Prop53
 90
        2
102
RTVSPost2010PropOp53
 70
     1
102
RTVSPost2010Prop54
  1
strokes_ogs.tif
102
RTVSPost2010PropOp54
 70
     1
102
RTVSPost2010Prop55
280
     0
102
RTVSPost2010PropOp55
 70
     1
102
RTVSPost2010Prop56
140
1.0
102
RTVSPost2010PropOp56
 70
     1
102
RTVSPost2010Prop57
140
1.0
102
RTVSPost2010PropOp57
 70
     1
102
RTVSPropertyOp0
 70
     1
102
RTVSPropertyOp1
 70
     1
102
RTVSPropertyOp2
 70
     1
102
RTVSPropertyOp3
 70
     1
102
RTVSPropertyOp4
 70
     1
102
RTVSPropertyOp5
 70
     1
102
RTVSPropertyOp6
 70
     1
102
RTVSPropertyOp7
 70
     1
102
RTVSPropertyOp8
 70
     1
102
RTVSPropertyOp9
 70
     1
102
RTVSPropertyOp10
 70
     1
102
RTVSPropertyOp11
 70
     1
102
RTVSPropertyOp12
 70
     1
102
RTVSPropertyOp13
 70
     1
102
RTVSPropertyOp14
 70
     1
102
RTVSPropertyOp15
 70
     1
102
RTVSPropertyOp16
 70
     1
102
RTVSPropertyOp17
 70
     1
102
RTVSPropertyOp18
 70
     1
102
RTVSPropertyOp19
 70
     1
102
RTVSPropertyOp20
 70
     1
102
RTVSPropertyOp21
 70
     1
102
RTVSPropertyOp22
 70
     1
102
RTVSPropertyOp23
 70
     1
102
RTVSPropertyOp24
 70
     1
102
RTVSPropertyOp25
 70
     1
102
RTVSPropertyOp26
 70
     1
102
RTVSPropertyOp27
 70
     1
102
RTVSPropertyOp28
 70
     1
102
RTVSPropertyOp29
 70
     1
102
RTVSPropertyOp30
 70
     1
102
RTVSPropertyOp31
 70
     1
102
RTVSPropertyOp32
 70
     1
102
RTVSPropertyOp33
 70
     1
102
RTVSPropertyOp34
 70
     1
102
RTVSPropertyOp35
 70
     1
102
RTVSPropertyOp36
 70
     1
102
RTVSPropertyOp37
 70
     1
102
RTVSPropertyOp38
 70
     1
102
RTVSPropertyOp39
 70
     1
102
RTVSPropertyOp40
 70
     1
102
RTVSPropertyOp41
 70
     1
102
RTVSPropertyOp42
 70
     1
102
RTVSPropertyOp43
 70
     1
102
RTVSPropertyOp44
 70
     1
102
RTVSPropertyOp45
 70
     1
102
RTVSPropertyOp46
 70
     1
102
RTVSPropertyOp47
 70
     1
102
RTVSPropertyOp48
 70
     1
102
RTVSPropertyOp49
 70
     1
102
RTVSPropertyOp50
 70
     1
102
RTVSPropertyOp51
 70
     0
102
RTVSPropertyOp52
 70
     0
102
RTVSPropertyOp53
 70
     1
102
RTVSPropertyOp54
 70
     1
102
RTVSPropertyOp55
 70
     1
102
RTVSPropertyOp56
 70
     1
102
RTVSPropertyOp57
 70
     1
102
RTVSPropertyOp58
 70
     1
102
RTVSPropertyOp59
 70
     1
102
RTVSPropertyOp60
 70
     1
102
RTVSPropertyOp61
 70
     1
102
RTVSPropertyOp62
 70
     1
  0
XRECORD
  5
FADDA
102
{ACAD_REACTORS
330
FADD9
102
}
330
FADD9
100
AcDbXrecord
280
     1
102
RTVSPost2010Prop28
280
     0
102
RTVSPost2010PropOp28
 70
     1
102
RTVSPost2010Prop29
280
     1
102
RTVSPost2010PropOp29
 70
     1
102
RTVSPost2010Prop30
280
     1
102
RTVSPost2010PropOp30
 70
     1
102
RTVSPost2010Prop31
280
     0
102
RTVSPost2010PropOp31
 70
     1
102
RTVSPost2010Prop32
280
     0
102
RTVSPost2010PropOp32
 70
     1
102
RTVSPost2010Prop33
280
     0
102
RTVSPost2010PropOp33
 70
     1
102
RTVSPost2010Prop34
280
     0
102
RTVSPost2010PropOp34
 70
     1
102
RTVSPost2010Prop35
280
     0
102
RTVSPost2010PropOp35
 70
     1
102
RTVSPost2010Prop36
280
     0
102
RTVSPost2010PropOp36
 70
     1
102
RTVSPost2010Prop37
 90
       50
102
RTVSPost2010PropOp37
 70
     1
102
RTVSPost2010Prop38
140
0.0
102
RTVSPost2010PropOp38
 70
     1
102
RTVSPost2010Prop39
140
1.0
102
RTVSPost2010PropOp39
 70
     1
102
RTVSPost2010Prop40
 90
        0
102
RTVSPost2010PropOp40
 70
     1
102
RTVSPost2010Prop41ColorIndex
 90
       18
102
RTVSPost2010Prop41ColorRGB
 90
        0
102
RTVSPost2010PropOp41
 70
     1
102
RTVSPost2010Prop42
 90
       50
102
RTVSPost2010PropOp42
 70
     1
102
RTVSPost2010Prop43
 90
        3
102
RTVSPost2010PropOp43
 70
     1
102
RTVSPost2010Prop44ColorIndex
 90
        5
102
RTVSPost2010Prop44ColorRGB
 90
      255
102
RTVSPost2010PropOp44
 70
     1
102
RTVSPost2010Prop45
280
     0
102
RTVSPost2010PropOp45
 70
     1
102
RTVSPost2010Prop46
 90
       50
102
RTVSPost2010PropOp46
 70
     1
102
RTVSPost2010Prop47
 90
       50
102
RTVSPost2010PropOp47
 70
     1
102
RTVSPost2010Prop48
 90
       50
102
RTVSPost2010PropOp48
 70
     1
102
RTVSPost2010Prop49
280
     0
102
RTVSPost2010PropOp49
 70
     1
102
RTVSPost2010Prop50
 90
       50
102
RTVSPost2010PropOp50
 70
     1
102
RTVSPost2010Prop51ColorIndex
 90
      256
102
RTVSPost2010Prop51ColorRGB
 90
-16777216
102
RTVSPost2010PropOp51
 70
     0
102
RTVSPost2010Prop52
140
1.0
102
RTVSPost2010PropOp52
 70
     0
102
RTVSPost2010Prop53
 90
        2
102
RTVSPost2010PropOp53
 70
     1
102
RTVSPost2010Prop54
  1
strokes_ogs.tif
102
RTVSPost2010PropOp54
 70
     1
102
RTVSPost2010Prop55
280
     0
102
RTVSPost2010PropOp55
 70
     1
102
RTVSPost2010Prop56
140
1.0
102
RTVSPost2010PropOp56
 70
     1
102
RTVSPost2010Prop57
140
1.0
102
RTVSPost2010PropOp57
 70
     1
102
RTVSPropertyOp0
 70
     1
102
RTVSPropertyOp1
 70
     1
102
RTVSPropertyOp2
 70
     1
102
RTVSPropertyOp3
 70
     1
102
RTVSPropertyOp4
 70
     1
102
RTVSPropertyOp5
 70
     1
102
RTVSPropertyOp6
 70
     1
102
RTVSPropertyOp7
 70
     1
102
RTVSPropertyOp8
 70
     1
102
RTVSPropertyOp9
 70
     1
102
RTVSPropertyOp10
 70
     1
102
RTVSPropertyOp11
 70
     1
102
RTVSPropertyOp12
 70
     1
102
RTVSPropertyOp13
 70
     1
102
RTVSPropertyOp14
 70
     1
102
RTVSPropertyOp15
 70
     1
102
RTVSPropertyOp16
 70
     1
102
RTVSPropertyOp17
 70
     1
102
RTVSPropertyOp18
 70
     1
102
RTVSPropertyOp19
 70
     1
102
RTVSPropertyOp20
 70
     1
102
RTVSPropertyOp21
 70
     1
102
RTVSPropertyOp22
 70
     1
102
RTVSPropertyOp23
 70
     1
102
RTVSPropertyOp24
 70
     1
102
RTVSPropertyOp25
 70
     1
102
RTVSPropertyOp26
 70
     1
102
RTVSPropertyOp27
 70
     1
102
RTVSPropertyOp28
 70
     1
102
RTVSPropertyOp29
 70
     1
102
RTVSPropertyOp30
 70
     1
102
RTVSPropertyOp31
 70
     1
102
RTVSPropertyOp32
 70
     1
102
RTVSPropertyOp33
 70
     1
102
RTVSPropertyOp34
 70
     1
102
RTVSPropertyOp35
 70
     1
102
RTVSPropertyOp36
 70
     1
102
RTVSPropertyOp37
 70
     1
102
RTVSPropertyOp38
 70
     1
102
RTVSPropertyOp39
 70
     1
102
RTVSPropertyOp40
 70
     1
102
RTVSPropertyOp41
 70
     1
102
RTVSPropertyOp42
 70
     1
102
RTVSPropertyOp43
 70
     1
102
RTVSPropertyOp44
 70
     1
102
RTVSPropertyOp45
 70
     1
102
RTVSPropertyOp46
 70
     1
102
RTVSPropertyOp47
 70
     1
102
RTVSPropertyOp48
 70
     1
102
RTVSPropertyOp49
 70
     1
102
RTVSPropertyOp50
 70
     1
102
RTVSPropertyOp51
 70
     0
102
RTVSPropertyOp52
 70
     0
102
RTVSPropertyOp53
 70
     1
102
RTVSPropertyOp54
 70
     1
102
RTVSPropertyOp55
 70
     1
102
RTVSPropertyOp56
 70
     1
102
RTVSPropertyOp57
 70
     1
102
RTVSPropertyOp58
 70
     1
102
RTVSPropertyOp59
 70
     1
102
RTVSPropertyOp60
 70
     1
102
RTVSPropertyOp61
 70
     1
102
RTVSPropertyOp62
 70
     1
  0
XRECORD
  5
FADD4
102
{ACAD_REACTORS
330
FADD3
102
}
330
FADD3
100
AcDbXrecord
280
     1
102
RTVSPost2010Prop28
280
     0
102
RTVSPost2010PropOp28
 70
     1
102
RTVSPost2010Prop29
280
     1
102
RTVSPost2010PropOp29
 70
     1
102
RTVSPost2010Prop30
280
     1
102
RTVSPost2010PropOp30
 70
     1
102
RTVSPost2010Prop31
280
     0
102
RTVSPost2010PropOp31
 70
     1
102
RTVSPost2010Prop32
280
     0
102
RTVSPost2010PropOp32
 70
     1
102
RTVSPost2010Prop33
280
     0
102
RTVSPost2010PropOp33
 70
     1
102
RTVSPost2010Prop34
280
     0
102
RTVSPost2010PropOp34
 70
     1
102
RTVSPost2010Prop35
280
     0
102
RTVSPost2010PropOp35
 70
     1
102
RTVSPost2010Prop36
280
     0
102
RTVSPost2010PropOp36
 70
     1
102
RTVSPost2010Prop37
 90
       50
102
RTVSPost2010PropOp37
 70
     1
102
RTVSPost2010Prop38
140
0.0
102
RTVSPost2010PropOp38
 70
     1
102
RTVSPost2010Prop39
140
1.0
102
RTVSPost2010PropOp39
 70
     1
102
RTVSPost2010Prop40
 90
        0
102
RTVSPost2010PropOp40
 70
     1
102
RTVSPost2010Prop41ColorIndex
 90
       18
102
RTVSPost2010Prop41ColorRGB
 90
        0
102
RTVSPost2010PropOp41
 70
     1
102
RTVSPost2010Prop42
 90
       50
102
RTVSPost2010PropOp42
 70
     1
102
RTVSPost2010Prop43
 90
        3
102
RTVSPost2010PropOp43
 70
     1
102
RTVSPost2010Prop44ColorIndex
 90
        5
102
RTVSPost2010Prop44ColorRGB
 90
      255
102
RTVSPost2010PropOp44
 70
     1
102
RTVSPost2010Prop45
280
     0
102
RTVSPost2010PropOp45
 70
     1
102
RTVSPost2010Prop46
 90
       50
102
RTVSPost2010PropOp46
 70
     1
102
RTVSPost2010Prop47
 90
       50
102
RTVSPost2010PropOp47
 70
     1
102
RTVSPost2010Prop48
 90
       50
102
RTVSPost2010PropOp48
 70
     1
102
RTVSPost2010Prop49
280
     0
102
RTVSPost2010PropOp49
 70
     1
102
RTVSPost2010Prop50
 90
       50
102
RTVSPost2010PropOp50
 70
     1
102
RTVSPost2010Prop51ColorIndex
 90
      256
102
RTVSPost2010Prop51ColorRGB
 90
-16777216
102
RTVSPost2010PropOp51
 70
     0
102
RTVSPost2010Prop52
140
1.0
102
RTVSPost2010PropOp52
 70
     0
102
RTVSPost2010Prop53
 90
        2
102
RTVSPost2010PropOp53
 70
     1
102
RTVSPost2010Prop54
  1
strokes_ogs.tif
102
RTVSPost2010PropOp54
 70
     1
102
RTVSPost2010Prop55
280
     0
102
RTVSPost2010PropOp55
 70
     1
102
RTVSPost2010Prop56
140
1.0
102
RTVSPost2010PropOp56
 70
     1
102
RTVSPost2010Prop57
140
1.0
102
RTVSPost2010PropOp57
 70
     1
102
RTVSPropertyOp0
 70
     1
102
RTVSPropertyOp1
 70
     1
102
RTVSPropertyOp2
 70
     1
102
RTVSPropertyOp3
 70
     1
102
RTVSPropertyOp4
 70
     1
102
RTVSPropertyOp5
 70
     1
102
RTVSPropertyOp6
 70
     1
102
RTVSPropertyOp7
 70
     1
102
RTVSPropertyOp8
 70
     1
102
RTVSPropertyOp9
 70
     1
102
RTVSPropertyOp10
 70
     1
102
RTVSPropertyOp11
 70
     1
102
RTVSPropertyOp12
 70
     1
102
RTVSPropertyOp13
 70
     1
102
RTVSPropertyOp14
 70
     1
102
RTVSPropertyOp15
 70
     1
102
RTVSPropertyOp16
 70
     1
102
RTVSPropertyOp17
 70
     1
102
RTVSPropertyOp18
 70
     1
102
RTVSPropertyOp19
 70
     1
102
RTVSPropertyOp20
 70
     1
102
RTVSPropertyOp21
 70
     1
102
RTVSPropertyOp22
 70
     1
102
RTVSPropertyOp23
 70
     1
102
RTVSPropertyOp24
 70
     1
102
RTVSPropertyOp25
 70
     1
102
RTVSPropertyOp26
 70
     1
102
RTVSPropertyOp27
 70
     1
102
RTVSPropertyOp28
 70
     1
102
RTVSPropertyOp29
 70
     1
102
RTVSPropertyOp30
 70
     1
102
RTVSPropertyOp31
 70
     1
102
RTVSPropertyOp32
 70
     1
102
RTVSPropertyOp33
 70
     1
102
RTVSPropertyOp34
 70
     1
102
RTVSPropertyOp35
 70
     1
102
RTVSPropertyOp36
 70
     1
102
RTVSPropertyOp37
 70
     1
102
RTVSPropertyOp38
 70
     1
102
RTVSPropertyOp39
 70
     1
102
RTVSPropertyOp40
 70
     1
102
RTVSPropertyOp41
 70
     1
102
RTVSPropertyOp42
 70
     1
102
RTVSPropertyOp43
 70
     1
102
RTVSPropertyOp44
 70
     1
102
RTVSPropertyOp45
 70
     1
102
RTVSPropertyOp46
 70
     1
102
RTVSPropertyOp47
 70
     1
102
RTVSPropertyOp48
 70
     1
102
RTVSPropertyOp49
 70
     1
102
RTVSPropertyOp50
 70
     1
102
RTVSPropertyOp51
 70
     0
102
RTVSPropertyOp52
 70
     0
102
RTVSPropertyOp53
 70
     1
102
RTVSPropertyOp54
 70
     1
102
RTVSPropertyOp55
 70
     1
102
RTVSPropertyOp56
 70
     1
102
RTVSPropertyOp57
 70
     1
102
RTVSPropertyOp58
 70
     1
102
RTVSPropertyOp59
 70
     1
102
RTVSPropertyOp60
 70
     1
102
RTVSPropertyOp61
 70
     1
102
RTVSPropertyOp62
 70
     1
  0
XRECORD
  5
FADD6
102
{ACAD_REACTORS
330
FADD5
102
}
330
FADD5
100
AcDbXrecord
280
     1
102
RTVSPost2010Prop28
280
     0
102
RTVSPost2010PropOp28
 70
     1
102
RTVSPost2010Prop29
280
     1
102
RTVSPost2010PropOp29
 70
     1
102
RTVSPost2010Prop30
280
     1
102
RTVSPost2010PropOp30
 70
     1
102
RTVSPost2010Prop31
280
     0
102
RTVSPost2010PropOp31
 70
     1
102
RTVSPost2010Prop32
280
     0
102
RTVSPost2010PropOp32
 70
     1
102
RTVSPost2010Prop33
280
     0
102
RTVSPost2010PropOp33
 70
     1
102
RTVSPost2010Prop34
280
     0
102
RTVSPost2010PropOp34
 70
     1
102
RTVSPost2010Prop35
280
     0
102
RTVSPost2010PropOp35
 70
     1
102
RTVSPost2010Prop36
280
     0
102
RTVSPost2010PropOp36
 70
     1
102
RTVSPost2010Prop37
 90
       50
102
RTVSPost2010PropOp37
 70
     1
102
RTVSPost2010Prop38
140
0.0
102
RTVSPost2010PropOp38
 70
     1
102
RTVSPost2010Prop39
140
1.0
102
RTVSPost2010PropOp39
 70
     1
102
RTVSPost2010Prop40
 90
        0
102
RTVSPost2010PropOp40
 70
     1
102
RTVSPost2010Prop41ColorIndex
 90
       18
102
RTVSPost2010Prop41ColorRGB
 90
        0
102
RTVSPost2010PropOp41
 70
     1
102
RTVSPost2010Prop42
 90
       50
102
RTVSPost2010PropOp42
 70
     1
102
RTVSPost2010Prop43
 90
        3
102
RTVSPost2010PropOp43
 70
     1
102
RTVSPost2010Prop44ColorIndex
 90
        5
102
RTVSPost2010Prop44ColorRGB
 90
      255
102
RTVSPost2010PropOp44
 70
     1
102
RTVSPost2010Prop45
280
     0
102
RTVSPost2010PropOp45
 70
     1
102
RTVSPost2010Prop46
 90
       50
102
RTVSPost2010PropOp46
 70
     1
102
RTVSPost2010Prop47
 90
       50
102
RTVSPost2010PropOp47
 70
     1
102
RTVSPost2010Prop48
 90
       50
102
RTVSPost2010PropOp48
 70
     1
102
RTVSPost2010Prop49
280
     0
102
RTVSPost2010PropOp49
 70
     1
102
RTVSPost2010Prop50
 90
       50
102
RTVSPost2010PropOp50
 70
     1
102
RTVSPost2010Prop51ColorIndex
 90
      256
102
RTVSPost2010Prop51ColorRGB
 90
-16777216
102
RTVSPost2010PropOp51
 70
     0
102
RTVSPost2010Prop52
140
1.0
102
RTVSPost2010PropOp52
 70
     0
102
RTVSPost2010Prop53
 90
        2
102
RTVSPost2010PropOp53
 70
     1
102
RTVSPost2010Prop54
  1
strokes_ogs.tif
102
RTVSPost2010PropOp54
 70
     1
102
RTVSPost2010Prop55
280
     0
102
RTVSPost2010PropOp55
 70
     1
102
RTVSPost2010Prop56
140
1.0
102
RTVSPost2010PropOp56
 70
     1
102
RTVSPost2010Prop57
140
1.0
102
RTVSPost2010PropOp57
 70
     1
102
RTVSPropertyOp0
 70
     1
102
RTVSPropertyOp1
 70
     1
102
RTVSPropertyOp2
 70
     1
102
RTVSPropertyOp3
 70
     1
102
RTVSPropertyOp4
 70
     1
102
RTVSPropertyOp5
 70
     1
102
RTVSPropertyOp6
 70
     1
102
RTVSPropertyOp7
 70
     1
102
RTVSPropertyOp8
 70
     1
102
RTVSPropertyOp9
 70
     1
102
RTVSPropertyOp10
 70
     1
102
RTVSPropertyOp11
 70
     1
102
RTVSPropertyOp12
 70
     1
102
RTVSPropertyOp13
 70
     1
102
RTVSPropertyOp14
 70
     1
102
RTVSPropertyOp15
 70
     1
102
RTVSPropertyOp16
 70
     1
102
RTVSPropertyOp17
 70
     1
102
RTVSPropertyOp18
 70
     1
102
RTVSPropertyOp19
 70
     1
102
RTVSPropertyOp20
 70
     1
102
RTVSPropertyOp21
 70
     1
102
RTVSPropertyOp22
 70
     1
102
RTVSPropertyOp23
 70
     1
102
RTVSPropertyOp24
 70
     1
102
RTVSPropertyOp25
 70
     1
102
RTVSPropertyOp26
 70
     1
102
RTVSPropertyOp27
 70
     1
102
RTVSPropertyOp28
 70
     1
102
RTVSPropertyOp29
 70
     1
102
RTVSPropertyOp30
 70
     1
102
RTVSPropertyOp31
 70
     1
102
RTVSPropertyOp32
 70
     1
102
RTVSPropertyOp33
 70
     1
102
RTVSPropertyOp34
 70
     1
102
RTVSPropertyOp35
 70
     1
102
RTVSPropertyOp36
 70
     1
102
RTVSPropertyOp37
 70
     1
102
RTVSPropertyOp38
 70
     1
102
RTVSPropertyOp39
 70
     1
102
RTVSPropertyOp40
 70
     1
102
RTVSPropertyOp41
 70
     1
102
RTVSPropertyOp42
 70
     1
102
RTVSPropertyOp43
 70
     1
102
RTVSPropertyOp44
 70
     1
102
RTVSPropertyOp45
 70
     1
102
RTVSPropertyOp46
 70
     1
102
RTVSPropertyOp47
 70
     1
102
RTVSPropertyOp48
 70
     1
102
RTVSPropertyOp49
 70
     1
102
RTVSPropertyOp50
 70
     1
102
RTVSPropertyOp51
 70
     0
102
RTVSPropertyOp52
 70
     0
102
RTVSPropertyOp53
 70
     1
102
RTVSPropertyOp54
 70
     1
102
RTVSPropertyOp55
 70
     1
102
RTVSPropertyOp56
 70
     1
102
RTVSPropertyOp57
 70
     1
102
RTVSPropertyOp58
 70
     1
102
RTVSPropertyOp59
 70
     1
102
RTVSPropertyOp60
 70
     1
102
RTVSPropertyOp61
 70
     1
102
RTVSPropertyOp62
 70
     1
  0
XRECORD
  5
FADCC
102
{ACAD_REACTORS
330
FADCB
102
}
330
FADCB
100
AcDbXrecord
280
     1
102
RTVSPost2010Prop28
280
     0
102
RTVSPost2010PropOp28
 70
     1
102
RTVSPost2010Prop29
280
     1
102
RTVSPost2010PropOp29
 70
     1
102
RTVSPost2010Prop30
280
     1
102
RTVSPost2010PropOp30
 70
     1
102
RTVSPost2010Prop31
280
     0
102
RTVSPost2010PropOp31
 70
     1
102
RTVSPost2010Prop32
280
     0
102
RTVSPost2010PropOp32
 70
     1
102
RTVSPost2010Prop33
280
     0
102
RTVSPost2010PropOp33
 70
     1
102
RTVSPost2010Prop34
280
     0
102
RTVSPost2010PropOp34
 70
     1
102
RTVSPost2010Prop35
280
     0
102
RTVSPost2010PropOp35
 70
     1
102
RTVSPost2010Prop36
280
     0
102
RTVSPost2010PropOp36
 70
     1
102
RTVSPost2010Prop37
 90
       50
102
RTVSPost2010PropOp37
 70
     1
102
RTVSPost2010Prop38
140
0.0
102
RTVSPost2010PropOp38
 70
     1
102
RTVSPost2010Prop39
140
1.0
102
RTVSPost2010PropOp39
 70
     1
102
RTVSPost2010Prop40
 90
        0
102
RTVSPost2010PropOp40
 70
     1
102
RTVSPost2010Prop41ColorIndex
 90
       18
102
RTVSPost2010Prop41ColorRGB
 90
        0
102
RTVSPost2010PropOp41
 70
     1
102
RTVSPost2010Prop42
 90
       50
102
RTVSPost2010PropOp42
 70
     1
102
RTVSPost2010Prop43
 90
        3
102
RTVSPost2010PropOp43
 70
     1
102
RTVSPost2010Prop44ColorIndex
 90
        5
102
RTVSPost2010Prop44ColorRGB
 90
      255
102
RTVSPost2010PropOp44
 70
     1
102
RTVSPost2010Prop45
280
     0
102
RTVSPost2010PropOp45
 70
     1
102
RTVSPost2010Prop46
 90
       50
102
RTVSPost2010PropOp46
 70
     1
102
RTVSPost2010Prop47
 90
       50
102
RTVSPost2010PropOp47
 70
     1
102
RTVSPost2010Prop48
 90
       50
102
RTVSPost2010PropOp48
 70
     1
102
RTVSPost2010Prop49
280
     0
102
RTVSPost2010PropOp49
 70
     1
102
RTVSPost2010Prop50
 90
       50
102
RTVSPost2010PropOp50
 70
     1
102
RTVSPost2010Prop51ColorIndex
 90
      256
102
RTVSPost2010Prop51ColorRGB
 90
-16777216
102
RTVSPost2010PropOp51
 70
     0
102
RTVSPost2010Prop52
140
1.0
102
RTVSPost2010PropOp52
 70
     0
102
RTVSPost2010Prop53
 90
        2
102
RTVSPost2010PropOp53
 70
     1
102
RTVSPost2010Prop54
  1
strokes_ogs.tif
102
RTVSPost2010PropOp54
 70
     1
102
RTVSPost2010Prop55
280
     0
102
RTVSPost2010PropOp55
 70
     1
102
RTVSPost2010Prop56
140
1.0
102
RTVSPost2010PropOp56
 70
     1
102
RTVSPost2010Prop57
140
1.0
102
RTVSPost2010PropOp57
 70
     1
102
RTVSPropertyOp0
 70
     1
102
RTVSPropertyOp1
 70
     1
102
RTVSPropertyOp2
 70
     1
102
RTVSPropertyOp3
 70
     1
102
RTVSPropertyOp4
 70
     1
102
RTVSPropertyOp5
 70
     1
102
RTVSPropertyOp6
 70
     1
102
RTVSPropertyOp7
 70
     1
102
RTVSPropertyOp8
 70
     1
102
RTVSPropertyOp9
 70
     1
102
RTVSPropertyOp10
 70
     1
102
RTVSPropertyOp11
 70
     1
102
RTVSPropertyOp12
 70
     1
102
RTVSPropertyOp13
 70
     1
102
RTVSPropertyOp14
 70
     1
102
RTVSPropertyOp15
 70
     1
102
RTVSPropertyOp16
 70
     1
102
RTVSPropertyOp17
 70
     1
102
RTVSPropertyOp18
 70
     1
102
RTVSPropertyOp19
 70
     1
102
RTVSPropertyOp20
 70
     1
102
RTVSPropertyOp21
 70
     1
102
RTVSPropertyOp22
 70
     1
102
RTVSPropertyOp23
 70
     1
102
RTVSPropertyOp24
 70
     1
102
RTVSPropertyOp25
 70
     1
102
RTVSPropertyOp26
 70
     1
102
RTVSPropertyOp27
 70
     1
102
RTVSPropertyOp28
 70
     1
102
RTVSPropertyOp29
 70
     1
102
RTVSPropertyOp30
 70
     1
102
RTVSPropertyOp31
 70
     1
102
RTVSPropertyOp32
 70
     1
102
RTVSPropertyOp33
 70
     1
102
RTVSPropertyOp34
 70
     1
102
RTVSPropertyOp35
 70
     1
102
RTVSPropertyOp36
 70
     1
102
RTVSPropertyOp37
 70
     1
102
RTVSPropertyOp38
 70
     1
102
RTVSPropertyOp39
 70
     1
102
RTVSPropertyOp40
 70
     1
102
RTVSPropertyOp41
 70
     1
102
RTVSPropertyOp42
 70
     1
102
RTVSPropertyOp43
 70
     1
102
RTVSPropertyOp44
 70
     1
102
RTVSPropertyOp45
 70
     1
102
RTVSPropertyOp46
 70
     1
102
RTVSPropertyOp47
 70
     1
102
RTVSPropertyOp48
 70
     1
102
RTVSPropertyOp49
 70
     1
102
RTVSPropertyOp50
 70
     1
102
RTVSPropertyOp51
 70
     0
102
RTVSPropertyOp52
 70
     0
102
RTVSPropertyOp53
 70
     1
102
RTVSPropertyOp54
 70
     1
102
RTVSPropertyOp55
 70
     1
102
RTVSPropertyOp56
 70
     1
102
RTVSPropertyOp57
 70
     1
102
RTVSPropertyOp58
 70
     1
102
RTVSPropertyOp59
 70
     1
102
RTVSPropertyOp60
 70
     1
102
RTVSPropertyOp61
 70
     1
102
RTVSPropertyOp62
 70
     1
  0
XRECORD
  5
FADC0
102
{ACAD_REACTORS
330
FADBF
102
}
330
FADBF
100
AcDbXrecord
280
     1
102
RTVSPost2010Prop28
280
     0
102
RTVSPost2010PropOp28
 70
     1
102
RTVSPost2010Prop29
280
     1
102
RTVSPost2010PropOp29
 70
     1
102
RTVSPost2010Prop30
280
     1
102
RTVSPost2010PropOp30
 70
     1
102
RTVSPost2010Prop31
280
     0
102
RTVSPost2010PropOp31
 70
     1
102
RTVSPost2010Prop32
280
     0
102
RTVSPost2010PropOp32
 70
     1
102
RTVSPost2010Prop33
280
     0
102
RTVSPost2010PropOp33
 70
     1
102
RTVSPost2010Prop34
280
     0
102
RTVSPost2010PropOp34
 70
     1
102
RTVSPost2010Prop35
280
     0
102
RTVSPost2010PropOp35
 70
     1
102
RTVSPost2010Prop36
280
     0
102
RTVSPost2010PropOp36
 70
     1
102
RTVSPost2010Prop37
 90
       50
102
RTVSPost2010PropOp37
 70
     1
102
RTVSPost2010Prop38
140
0.0
102
RTVSPost2010PropOp38
 70
     1
102
RTVSPost2010Prop39
140
1.0
102
RTVSPost2010PropOp39
 70
     1
102
RTVSPost2010Prop40
 90
        0
102
RTVSPost2010PropOp40
 70
     1
102
RTVSPost2010Prop41ColorIndex
 90
       18
102
RTVSPost2010Prop41ColorRGB
 90
        0
102
RTVSPost2010PropOp41
 70
     1
102
RTVSPost2010Prop42
 90
       50
102
RTVSPost2010PropOp42
 70
     1
102
RTVSPost2010Prop43
 90
        3
102
RTVSPost2010PropOp43
 70
     1
102
RTVSPost2010Prop44ColorIndex
 90
        5
102
RTVSPost2010Prop44ColorRGB
 90
      255
102
RTVSPost2010PropOp44
 70
     1
102
RTVSPost2010Prop45
280
     0
102
RTVSPost2010PropOp45
 70
     1
102
RTVSPost2010Prop46
 90
       50
102
RTVSPost2010PropOp46
 70
     1
102
RTVSPost2010Prop47
 90
       50
102
RTVSPost2010PropOp47
 70
     1
102
RTVSPost2010Prop48
 90
       50
102
RTVSPost2010PropOp48
 70
     1
102
RTVSPost2010Prop49
280
     0
102
RTVSPost2010PropOp49
 70
     1
102
RTVSPost2010Prop50
 90
       50
102
RTVSPost2010PropOp50
 70
     1
102
RTVSPost2010Prop51ColorIndex
 90
      256
102
RTVSPost2010Prop51ColorRGB
 90
-16777216
102
RTVSPost2010PropOp51
 70
     0
102
RTVSPost2010Prop52
140
1.0
102
RTVSPost2010PropOp52
 70
     0
102
RTVSPost2010Prop53
 90
        2
102
RTVSPost2010PropOp53
 70
     1
102
RTVSPost2010Prop54
  1
strokes_ogs.tif
102
RTVSPost2010PropOp54
 70
     1
102
RTVSPost2010Prop55
280
     0
102
RTVSPost2010PropOp55
 70
     1
102
RTVSPost2010Prop56
140
1.0
102
RTVSPost2010PropOp56
 70
     1
102
RTVSPost2010Prop57
140
1.0
102
RTVSPost2010PropOp57
 70
     1
102
RTVSPropertyOp0
 70
     1
102
RTVSPropertyOp1
 70
     1
102
RTVSPropertyOp2
 70
     1
102
RTVSPropertyOp3
 70
     1
102
RTVSPropertyOp4
 70
     1
102
RTVSPropertyOp5
 70
     1
102
RTVSPropertyOp6
 70
     1
102
RTVSPropertyOp7
 70
     1
102
RTVSPropertyOp8
 70
     1
102
RTVSPropertyOp9
 70
     1
102
RTVSPropertyOp10
 70
     1
102
RTVSPropertyOp11
 70
     1
102
RTVSPropertyOp12
 70
     1
102
RTVSPropertyOp13
 70
     1
102
RTVSPropertyOp14
 70
     1
102
RTVSPropertyOp15
 70
     1
102
RTVSPropertyOp16
 70
     1
102
RTVSPropertyOp17
 70
     1
102
RTVSPropertyOp18
 70
     1
102
RTVSPropertyOp19
 70
     1
102
RTVSPropertyOp20
 70
     1
102
RTVSPropertyOp21
 70
     1
102
RTVSPropertyOp22
 70
     1
102
RTVSPropertyOp23
 70
     1
102
RTVSPropertyOp24
 70
     1
102
RTVSPropertyOp25
 70
     1
102
RTVSPropertyOp26
 70
     1
102
RTVSPropertyOp27
 70
     1
102
RTVSPropertyOp28
 70
     1
102
RTVSPropertyOp29
 70
     1
102
RTVSPropertyOp30
 70
     1
102
RTVSPropertyOp31
 70
     1
102
RTVSPropertyOp32
 70
     1
102
RTVSPropertyOp33
 70
     1
102
RTVSPropertyOp34
 70
     1
102
RTVSPropertyOp35
 70
     1
102
RTVSPropertyOp36
 70
     1
102
RTVSPropertyOp37
 70
     1
102
RTVSPropertyOp38
 70
     1
102
RTVSPropertyOp39
 70
     1
102
RTVSPropertyOp40
 70
     1
102
RTVSPropertyOp41
 70
     1
102
RTVSPropertyOp42
 70
     1
102
RTVSPropertyOp43
 70
     1
102
RTVSPropertyOp44
 70
     1
102
RTVSPropertyOp45
 70
     1
102
RTVSPropertyOp46
 70
     1
102
RTVSPropertyOp47
 70
     1
102
RTVSPropertyOp48
 70
     1
102
RTVSPropertyOp49
 70
     1
102
RTVSPropertyOp50
 70
     1
102
RTVSPropertyOp51
 70
     0
102
RTVSPropertyOp52
 70
     0
102
RTVSPropertyOp53
 70
     1
102
RTVSPropertyOp54
 70
     1
102
RTVSPropertyOp55
 70
     1
102
RTVSPropertyOp56
 70
     1
102
RTVSPropertyOp57
 70
     1
102
RTVSPropertyOp58
 70
     1
102
RTVSPropertyOp59
 70
     1
102
RTVSPropertyOp60
 70
     1
102
RTVSPropertyOp61
 70
     1
102
RTVSPropertyOp62
 70
     1
  0
XRECORD
  5
FADD8
102
{ACAD_REACTORS
330
FADD7
102
}
330
FADD7
100
AcDbXrecord
280
     1
102
RTVSPost2010Prop28
280
     0
102
RTVSPost2010PropOp28
 70
     1
102
RTVSPost2010Prop29
280
     1
102
RTVSPost2010PropOp29
 70
     1
102
RTVSPost2010Prop30
280
     1
102
RTVSPost2010PropOp30
 70
     1
102
RTVSPost2010Prop31
280
     0
102
RTVSPost2010PropOp31
 70
     1
102
RTVSPost2010Prop32
280
     0
102
RTVSPost2010PropOp32
 70
     1
102
RTVSPost2010Prop33
280
     0
102
RTVSPost2010PropOp33
 70
     1
102
RTVSPost2010Prop34
280
     0
102
RTVSPost2010PropOp34
 70
     1
102
RTVSPost2010Prop35
280
     0
102
RTVSPost2010PropOp35
 70
     1
102
RTVSPost2010Prop36
280
     0
102
RTVSPost2010PropOp36
 70
     1
102
RTVSPost2010Prop37
 90
       50
102
RTVSPost2010PropOp37
 70
     1
102
RTVSPost2010Prop38
140
0.0
102
RTVSPost2010PropOp38
 70
     1
102
RTVSPost2010Prop39
140
1.0
102
RTVSPost2010PropOp39
 70
     1
102
RTVSPost2010Prop40
 90
        0
102
RTVSPost2010PropOp40
 70
     1
102
RTVSPost2010Prop41ColorIndex
 90
       18
102
RTVSPost2010Prop41ColorRGB
 90
        0
102
RTVSPost2010PropOp41
 70
     1
102
RTVSPost2010Prop42
 90
       50
102
RTVSPost2010PropOp42
 70
     1
102
RTVSPost2010Prop43
 90
        3
102
RTVSPost2010PropOp43
 70
     1
102
RTVSPost2010Prop44ColorIndex
 90
        5
102
RTVSPost2010Prop44ColorRGB
 90
      255
102
RTVSPost2010PropOp44
 70
     1
102
RTVSPost2010Prop45
280
     0
102
RTVSPost2010PropOp45
 70
     1
102
RTVSPost2010Prop46
 90
       50
102
RTVSPost2010PropOp46
 70
     1
102
RTVSPost2010Prop47
 90
       50
102
RTVSPost2010PropOp47
 70
     1
102
RTVSPost2010Prop48
 90
       50
102
RTVSPost2010PropOp48
 70
     1
102
RTVSPost2010Prop49
280
     0
102
RTVSPost2010PropOp49
 70
     1
102
RTVSPost2010Prop50
 90
       50
102
RTVSPost2010PropOp50
 70
     1
102
RTVSPost2010Prop51ColorIndex
 90
      256
102
RTVSPost2010Prop51ColorRGB
 90
-16777216
102
RTVSPost2010PropOp51
 70
     0
102
RTVSPost2010Prop52
140
1.0
102
RTVSPost2010PropOp52
 70
     0
102
RTVSPost2010Prop53
 90
        2
102
RTVSPost2010PropOp53
 70
     1
102
RTVSPost2010Prop54
  1
strokes_ogs.tif
102
RTVSPost2010PropOp54
 70
     1
102
RTVSPost2010Prop55
280
     0
102
RTVSPost2010PropOp55
 70
     1
102
RTVSPost2010Prop56
140
1.0
102
RTVSPost2010PropOp56
 70
     1
102
RTVSPost2010Prop57
140
1.0
102
RTVSPost2010PropOp57
 70
     1
102
RTVSPropertyOp0
 70
     1
102
RTVSPropertyOp1
 70
     1
102
RTVSPropertyOp2
 70
     1
102
RTVSPropertyOp3
 70
     1
102
RTVSPropertyOp4
 70
     1
102
RTVSPropertyOp5
 70
     1
102
RTVSPropertyOp6
 70
     1
102
RTVSPropertyOp7
 70
     1
102
RTVSPropertyOp8
 70
     1
102
RTVSPropertyOp9
 70
     1
102
RTVSPropertyOp10
 70
     1
102
RTVSPropertyOp11
 70
     1
102
RTVSPropertyOp12
 70
     1
102
RTVSPropertyOp13
 70
     1
102
RTVSPropertyOp14
 70
     1
102
RTVSPropertyOp15
 70
     1
102
RTVSPropertyOp16
 70
     1
102
RTVSPropertyOp17
 70
     1
102
RTVSPropertyOp18
 70
     1
102
RTVSPropertyOp19
 70
     1
102
RTVSPropertyOp20
 70
     1
102
RTVSPropertyOp21
 70
     1
102
RTVSPropertyOp22
 70
     1
102
RTVSPropertyOp23
 70
     1
102
RTVSPropertyOp24
 70
     1
102
RTVSPropertyOp25
 70
     1
102
RTVSPropertyOp26
 70
     1
102
RTVSPropertyOp27
 70
     1
102
RTVSPropertyOp28
 70
     1
102
RTVSPropertyOp29
 70
     1
102
RTVSPropertyOp30
 70
     1
102
RTVSPropertyOp31
 70
     1
102
RTVSPropertyOp32
 70
     1
102
RTVSPropertyOp33
 70
     1
102
RTVSPropertyOp34
 70
     1
102
RTVSPropertyOp35
 70
     1
102
RTVSPropertyOp36
 70
     1
102
RTVSPropertyOp37
 70
     1
102
RTVSPropertyOp38
 70
     1
102
RTVSPropertyOp39
 70
     1
102
RTVSPropertyOp40
 70
     1
102
RTVSPropertyOp41
 70
     1
102
RTVSPropertyOp42
 70
     1
102
RTVSPropertyOp43
 70
     1
102
RTVSPropertyOp44
 70
     1
102
RTVSPropertyOp45
 70
     1
102
RTVSPropertyOp46
 70
     1
102
RTVSPropertyOp47
 70
     1
102
RTVSPropertyOp48
 70
     1
102
RTVSPropertyOp49
 70
     1
102
RTVSPropertyOp50
 70
     1
102
RTVSPropertyOp51
 70
     0
102
RTVSPropertyOp52
 70
     0
102
RTVSPropertyOp53
 70
     1
102
RTVSPropertyOp54
 70
     1
102
RTVSPropertyOp55
 70
     1
102
RTVSPropertyOp56
 70
     1
102
RTVSPropertyOp57
 70
     1
102
RTVSPropertyOp58
 70
     1
102
RTVSPropertyOp59
 70
     1
102
RTVSPropertyOp60
 70
     1
102
RTVSPropertyOp61
 70
     1
102
RTVSPropertyOp62
 70
     1
  0
ENDSEC
  0
EOF
