  0
SECTION
  2
HEADER
  9
$ACADVER
  1
AC1018
  9
$ACADMAINTVER
 70
   104
  9
$DWGCODEPAGE
  3
ANSI_932
  9
$LASTSAVEDBY
  1
開発
  9
$INSBASE
 10
0.0
 20
0.0
 30
0.0
  9
$EXTMIN
 10
93.87522500614
 20
-9.183948786326141
 30
-0.0015258207003583
  9
$EXTMAX
 10
674.3828127493002
 20
374.9902515763787
 30
0.0000000349246037
  9
$LIMMIN
 10
0.0
 20
0.0
  9
$LIMMAX
 10
420.0
 20
297.0
  9
$ORTHOMODE
 70
     0
  9
$REGENMODE
 70
     1
  9
$FILLMODE
 70
     1
  9
$QTEXTMODE
 70
     0
  9
$MIRRTEXT
 70
     0
  9
$LTSCALE
 40
0.25
  9
$ATTMODE
 70
     1
  9
$TEXTSIZE
 40
2.5
  9
$TRACEWID
 40
1.0
  9
$TEXTSTYLE
  7
2014++
  9
$CLAYER
  8
04_ele1_0.15
  9
$CELTYPE
  6
ByLayer
  9
$CECOLOR
 62
   256
  9
$CELTSCALE
 40
1.0
  9
$DISPSILH
 70
     0
  9
$DIMSCALE
 40
1.0
  9
$DIMASZ
 40
2.5
  9
$DIMEXO
 40
1.0
  9
$DIMDLI
 40
10.0
  9
$DIMRND
 40
0.0
  9
$DIMDLE
 40
0.0
  9
$DIMEXE
 40
1.0
  9
$DIMTP
 40
0.1
  9
$DIMTM
 40
0.1
  9
$DIMTXT
 40
3.5
  9
$DIMCEN
 40
0.0
  9
$DIMTSZ
 40
0.0
  9
$DIMTOL
 70
     0
  9
$DIMLIM
 70
     0
  9
$DIMTIH
 70
     0
  9
$DIMTOH
 70
     0
  9
$DIMSE1
 70
     0
  9
$DIMSE2
 70
     0
  9
$DIMTAD
 70
     1
  9
$DIMZIN
 70
     8
  9
$DIMBLK
  1

  9
$DIMASO
 70
     1
  9
$DIMSHO
 70
     1
  9
$DIMPOST
  1

  9
$DIMAPOST
  1
"
  9
$DIMALT
 70
     0
  9
$DIMALTD
 70
     2
  9
$DIMALTF
 40
0.0393701
  9
$DIMLFAC
 40
1.0
  9
$DIMTOFL
 70
     1
  9
$DIMTVP
 40
0.0
  9
$DIMTIX
 70
     0
  9
$DIMSOXD
 70
     0
  9
$DIMSAH
 70
     0
  9
$DIMBLK1
  1

  9
$DIMBLK2
  1

  9
$DIMSTYLE
  2
AM_ISO
  9
$DIMCLRD
 70
   256
  9
$DIMCLRE
 70
   256
  9
$DIMCLRT
 70
     2
  9
$DIMTFAC
 40
0.71
  9
$DIMGAP
 40
1.5
  9
$DIMJUST
 70
     0
  9
$DIMSD1
 70
     0
  9
$DIMSD2
 70
     0
  9
$DIMTOLJ
 70
     0
  9
$DIMTZIN
 70
     8
  9
$DIMALTZ
 70
     0
  9
$DIMALTTZ
 70
     0
  9
$DIMUPT
 70
     0
  9
$DIMDEC
 70
     2
  9
$DIMTDEC
 70
     3
  9
$DIMALTU
 70
     2
  9
$DIMALTTD
 70
     4
  9
$DIMTXSTY
  7
STANDARD
  9
$DIMAUNIT
 70
     0
  9
$DIMADEC
 70
     0
  9
$DIMALTRND
 40
0.0
  9
$DIMAZIN
 70
     2
  9
$DIMDSEP
 70
    46
  9
$DIMATFIT
 70
     3
  9
$DIMFRAC
 70
     0
  9
$DIMLDRBLK
  1

  9
$DIMLUNIT
 70
     2
  9
$DIMLWD
 70
    -1
  9
$DIMLWE
 70
    -1
  9
$DIMTMOVE
 70
     0
  9
$LUNITS
 70
     2
  9
$LUPREC
 70
     2
  9
$SKETCHINC
 40
1.0
  9
$FILLETRAD
 40
2.5
  9
$AUNITS
 70
     0
  9
$AUPREC
 70
     0
  9
$MENU
  1
.
  9
$ELEVATION
 40
0.0
  9
$PELEVATION
 40
0.0
  9
$THICKNESS
 40
0.0
  9
$LIMCHECK
 70
     0
  9
$CHAMFERA
 40
2.5
  9
$CHAMFERB
 40
2.5
  9
$CHAMFERC
 40
20.0
  9
$CHAMFERD
 40
0.0
  9
$SKPOLY
 70
     0
  9
$TDCREATE
 40
2457121.445380671
  9
$TDUCREATE
 40
2457121.070380672
  9
$TDUPDATE
 40
2458416.576129699
  9
$TDUUPDATE
 40
2458416.201129699
  9
$TDINDWG
 40
0.0423377778
  9
$TDUSRTIMER
 40
0.0423374421
  9
$USRTIMER
 70
     1
  9
$ANGBASE
 50
0.0
  9
$ANGDIR
 70
     0
  9
$PDMODE
 70
     0
  9
$PDSIZE
 40
0.0
  9
$PLINEWID
 40
0.0
  9
$SPLFRAME
 70
     0
  9
$SPLINETYPE
 70
     6
  9
$SPLINESEGS
 70
     8
  9
$HANDSEED
  5
102EAA
  9
$SURFTAB1
 70
     6
  9
$SURFTAB2
 70
     6
  9
$SURFTYPE
 70
     6
  9
$SURFU
 70
     6
  9
$SURFV
 70
     6
  9
$UCSBASE
  2

  9
$UCSNAME
  2

  9
$UCSORG
 10
0.0
 20
0.0
 30
0.0
  9
$UCSXDIR
 10
1.0
 20
0.0
 30
0.0
  9
$UCSYDIR
 10
0.0
 20
1.0
 30
0.0
  9
$UCSORTHOREF
  2

  9
$UCSORTHOVIEW
 70
     0
  9
$UCSORGTOP
 10
0.0
 20
0.0
 30
0.0
  9
$UCSORGBOTTOM
 10
0.0
 20
0.0
 30
0.0
  9
$UCSORGLEFT
 10
0.0
 20
0.0
 30
0.0
  9
$UCSORGRIGHT
 10
0.0
 20
0.0
 30
0.0
  9
$UCSORGFRONT
 10
0.0
 20
0.0
 30
0.0
  9
$UCSORGBACK
 10
0.0
 20
0.0
 30
0.0
  9
$PUCSBASE
  2

  9
$PUCSNAME
  2

  9
$PUCSORG
 10
0.0
 20
0.0
 30
0.0
  9
$PUCSXDIR
 10
1.0
 20
0.0
 30
0.0
  9
$PUCSYDIR
 10
0.0
 20
1.0
 30
0.0
  9
$PUCSORTHOREF
  2

  9
$PUCSORTHOVIEW
 70
     0
  9
$PUCSORGTOP
 10
0.0
 20
0.0
 30
0.0
  9
$PUCSORGBOTTOM
 10
0.0
 20
0.0
 30
0.0
  9
$PUCSORGLEFT
 10
0.0
 20
0.0
 30
0.0
  9
$PUCSORGRIGHT
 10
0.0
 20
0.0
 30
0.0
  9
$PUCSORGFRONT
 10
0.0
 20
0.0
 30
0.0
  9
$PUCSORGBACK
 10
0.0
 20
0.0
 30
0.0
  9
$USERI1
 70
     0
  9
$USERI2
 70
     0
  9
$USERI3
 70
     0
  9
$USERI4
 70
     0
  9
$USERI5
 70
     0
  9
$USERR1
 40
0.0
  9
$USERR2
 40
0.0
  9
$USERR3
 40
0.0
  9
$USERR4
 40
0.0
  9
$USERR5
 40
0.0
  9
$WORLDVIEW
 70
     1
  9
$SHADEDGE
 70
     3
  9
$SHADEDIF
 70
    70
  9
$TILEMODE
 70
     1
  9
$MAXACTVP
 70
    64
  9
$PINSBASE
 10
0.0
 20
0.0
 30
0.0
  9
$PLIMCHECK
 70
     0
  9
$PEXTMIN
 10
1.000000000000000E+20
 20
1.000000000000000E+20
 30
1.000000000000000E+20
  9
$PEXTMAX
 10
-1.000000000000000E+20
 20
-1.000000000000000E+20
 30
-1.000000000000000E+20
  9
$PLIMMIN
 10
-5.873748779296875
 20
-5.873749732971191
  9
$PLIMMAX
 10
291.05224609375
 20
204.0995779037475
  9
$UNITMODE
 70
     0
  9
$VISRETAIN
 70
     1
  9
$PLINEGEN
 70
     0
  9
$PSLTSCALE
 70
     1
  9
$TREEDEPTH
 70
  3020
  9
$CMLSTYLE
  2
Standard
  9
$CMLJUST
 70
     0
  9
$CMLSCALE
 40
20.0
  9
$PROXYGRAPHICS
 70
     1
  9
$MEASUREMENT
 70
     1
  9
$CELWEIGHT
370
    -1
  9
$ENDCAPS
280
     0
  9
$JOINSTYLE
280
     0
  9
$LWDISPLAY
290
     0
  9
$INSUNITS
 70
     4
  9
$HYPERLINKBASE
  1

  9
$STYLESHEET
  1
MONOCHROME.CTB
  9
$XEDIT
290
     1
  9
$CEPSNTYPE
380
     0
  9
$PSTYLEMODE
290
     1
  9
$FINGERPRINTGUID
  2
{50BE1C40-7876-4AFD-8770-B7778E71A178}
  9
$VERSIONGUID
  2
{974951C2-38EE-4929-BB28-E7799FF8714E}
  9
$EXTNAMES
290
     1
  9
$PSVPSCALE
 40
0.0
  9
$OLESTARTUP
290
     0
  9
$SORTENTS
280
    96
  9
$INDEXCTL
280
     0
  9
$HIDETEXT
280
     0
  9
$XCLIPFRAME
290
     0
  9
$HALOGAP
280
     0
  9
$OBSCOLOR
 70
   257
  9
$OBSLTYPE
280
     0
  9
$INTERSECTIONDISPLAY
280
     0
  9
$INTERSECTIONCOLOR
 70
   257
  9
$DIMASSOC
280
     1
  9
$PROJECTNAME
  1

  0
ENDSEC
  0
SECTION
  2
CLASSES
  0
CLASS
  1
ACDBDICTIONARYWDFLT
  2
AcDbDictionaryWithDefault
  3
ObjectDBX Classes
 90
        0
 91
        1
280
     0
281
     0
  0
CLASS
  1
DICTIONARYVAR
  2
AcDbDictionaryVar
  3
ObjectDBX Classes
 90
        0
 91
       11
280
     0
281
     0
  0
CLASS
  1
ACME_DOCUMENT
  2
AcMeDbDoc
  3
AcMeServices
 90
     1024
 91
        1
280
     0
281
     0
  0
CLASS
  1
ACMESCOPE
  2
AcMeScope
  3
AcMeServices
 90
     1024
 91
        1
280
     0
281
     0
  0
CLASS
  1
ACMECOMMANDHISTORY
  2
AcMeCommandHistory
  3
AcMeServices
 90
     1024
 91
        1
280
     0
281
     0
  0
CLASS
  1
ACIMSYSVARMAN
  2
AcImSysVarManager
  3
AcMeServices
 90
     1024
 91
        3
280
     0
281
     0
  0
CLASS
  1
ACIMINTSYSVAR
  2
AcImIntSysVar
  3
AcMeServices
 90
     1024
 91
        2
280
     0
281
     0
  0
CLASS
  1
ACMEDRAWINGMAN
  2
AcMeDrawingMan
  3
AcMeServices
 90
     1024
 91
        0
280
     0
281
     0
  0
CLASS
  1
ACMEVIEW
  2
AcMeView
  3
AcMeServices
 90
     1024
 91
        0
280
     0
281
     0
  0
CLASS
  1
ACDBENTITYCACHE
  2
AcMeEntityCache
  3
AcMeServices
 90
     1024
 91
        1
280
     0
281
     0
  0
CLASS
  1
GSMANAGER
  2
AcMeGSManager
  3
AcMeServices
 90
        0
 91
        0
280
     0
281
     0
  0
CLASS
  1
AMDTINTERNALREACTOR
  2
AmdtInternalReactor
  3
AcMeServices
 90
     1024
 91
        0
280
     0
281
     0
  0
CLASS
  1
ACMESTATEMGR
  2
AcMeStateMgr
  3
AcMeServices
 90
     1024
 91
        1
280
     0
281
     0
  0
CLASS
  1
ACGREFMASTER
  2
AcGrefMaster
  3
AcAttribServices
 90
     1024
 91
        1
280
     0
281
     0
  0
CLASS
  1
AM_DRAWING_MGR
  2
AcDmDwgMgr
  3
AcMechDwgViewMgmt
 90
     1024
 91
        0
280
     0
281
     0
  0
CLASS
  1
AM_DWG_DOCUMENT
  2
AcDmDwgDocument
  3
AcMechDwgViewMgmt
 90
     1024
 91
        0
280
     0
281
     0
  0
CLASS
  1
AM_DWG_SHEET
  2
AcDmSheet
  3
AcMechDwgViewMgmt
 90
     1024
 91
        0
280
     0
281
     0
  0
CLASS
  1
AM_VIEWDIMPARMAP
  2
AcDmViewDimParMap
  3
AcMechDwgViewMgmt
 90
     1024
 91
        0
280
     0
281
     0
  0
CLASS
  1
ACIMREALSYSVAR
  2
AcImRealSysVar
  3
AcMeServices
 90
     1024
 91
        0
280
     0
281
     0
  0
CLASS
  1
AM_DWGMGR_NAME
  2
AcDmDwgMgrName
  3
AcMechDwgViewMgmt
 90
     1024
 91
        0
280
     0
281
     0
  0
CLASS
  1
ACME_DATABASE
  2
AcMeDbDatabase
  3
AcMeServices
 90
     1024
 91
        1
280
     0
281
     0
  0
CLASS
  1
ACRFINSADJUSTERMGR
  2
AcRfInsAdjusterMgr
  3
AcMeServices
 90
     1024
 91
        1
280
     0
281
     0
  0
CLASS
  1
ACGREFACADMASTER
  2
AcGrefacadMaster
  3
AcGrefServices
 90
     1024
 91
        1
280
     0
281
     0
  0
CLASS
  1
AMDTMENUSTATEMGR
  2
AmdtMenuStateMgr
  3
McadcomServices
 90
     1024
 91
        1
280
     0
281
     0
  0
CLASS
  1
AMDTMCOMMENUSTATE
  2
AmdtMcomMenuState
  3
McadcomServices
 90
     1024
 91
        1
280
     0
281
     0
  0
CLASS
  1
AMIMASTER
  2
AmiMaster
  3
AmiServices
 90
     1024
 91
        1
280
     0
281
     0
  0
CLASS
  1
AMGSETTINGSOBJ
  2
AmgSettingsObj
  3
"AcadM|Product Description: AutoCAD Mechanical|Company: Autodesk, Inc."
 90
     1024
 91
        2
280
     0
281
     0
  0
CLASS
  1
MAPIAMMOUDLE
  2
MApiAmModule
  3
MApiAmServices
 90
     1024
 91
        1
280
     0
281
     0
  0
CLASS
  1
AMDTADMENUSTATE
  2
AmdtAdMenuState
  3
DesignerServices
 90
        0
 91
        0
280
     0
281
     0
  0
CLASS
  1
ADAPPL
  2
AcAdAppl
  3
DesignerAssemblies
 90
     1024
 91
        0
280
     0
281
     0
  0
CLASS
  1
DEPMGR
  2
AcAdDepMgr
  3
DesignerAssemblies
 90
     1024
 91
        0
280
     0
281
     0
  0
CLASS
  1
PARAMMGR
  2
AcAdParamMgr
  3
DesignerAssemblies
 90
     1024
 91
        0
280
     0
281
     0
  0
CLASS
  1
PARAMSCOPE
  2
AcAdParamScope
  3
DesignerAssemblies
 90
     1024
 91
        0
280
     0
281
     0
  0
CLASS
  1
NAMEDAPPL
  2
AcAdNamedAppl
  3
DesignerAssemblies
 90
     1024
 91
        0
280
     0
281
     0
  0
CLASS
  1
AMDTDMMENUSTATE
  2
AmdtDmMenuState
  3
AcMechDwgViewMgmt
 90
        0
 91
        0
280
     0
281
     0
  0
CLASS
  1
AMDTAMMENUSTATE
  2
AmdtAmMenuState
  3
DesignerAssemblies
 90
     1024
 91
        1
280
     0
281
     0
  0
CLASS
  1
ACIMSTRSYSVAR
  2
AcImStrSysVar
  3
AcMeServices
 90
     1024
 91
        5
280
     0
281
     0
  0
CLASS
  1
ACAMPROJECT
  2
AcAmProject
  3
DesignerAssemblies
 90
     1024
 91
        1
280
     0
281
     0
  0
CLASS
  1
ACAMGRCOMPDEF
  2
AcAmGrCompDef
  3
DesignerAssemblies
 90
     1024
 91
        1
280
     0
281
     0
  0
CLASS
  1
ACCMCONTEXT
  2
AcCmContext
  3
DesignerAssemblies
 90
     1024
 91
        0
280
     0
281
     0
  0
CLASS
  1
ACAMCOMPDEF
  2
AcAmCompDef
  3
DesignerAssemblies
 90
     1024
 91
        1
280
     0
281
     0
  0
CLASS
  1
ACAMCOMPDEFMGR
  2
AcAmCompDefMgr
  3
DesignerAssemblies
 90
     1024
 91
        1
280
     0
281
     0
  0
CLASS
  1
AMCONTEXTMGR
  2
AcAmContextMgr
  3
DesignerAssemblies
 90
     1024
 91
        1
280
     0
281
     0
  0
CLASS
  1
ACAMCONTEXTMODELER
  2
AcAmContextModeler
  3
DesignerAssemblies
 90
     1024
 91
        1
280
     0
281
     0
  0
CLASS
  1
ACMDATADICTIONARY
  2
AcmDataDictionary
  3
"AcmSymBB|Product Description: AutoCAD Mechanical|Company: Autodesk, Inc."
 90
     1024
 91
        1
280
     0
281
     0
  0
CLASS
  1
CATALOGSTATE
  2
AcAmCatalogState
  3
DesignerAssemblies
 90
     1024
 91
        0
280
     0
281
     0
  0
CLASS
  1
ACAMGRCOMPDEFSET
  2
AcAmGrCompDefSet
  3
DesignerAssemblies
 90
     1024
 91
        1
280
     0
281
     0
  0
CLASS
  1
AMDTBROWSERDBTAB
  2
AmdtBrowserDbTab
  3
McadcomServices
 90
     1024
 91
        1
280
     0
281
     0
  0
CLASS
  1
CBROWSERAPPOBJECT
  2
CBrowserAppObject
  3
McadcomServices
 90
     1024
 91
        2
280
     0
281
     0
  0
CLASS
  1
DM_PLACEHOLDER
  2
AcDmSelsetPlaceholder
  3
McadcomServices
 90
     1024
 91
        1
280
     0
281
     0
  0
CLASS
  1
ACMSTANDARDISO
  2
AcmStandardISO
  3
"Amdt_StdImp|Product Description: AutoCAD Mechanical|Company: Autodesk, Inc."
 90
     1024
 91
        1
280
     0
281
     0
  0
CLASS
  1
AMGOBJPROPCFG
  2
AmgObjPropCfg
  3
"AmgLay|Product Description: AutoCAD Mechanical|Company: Autodesk, Inc."
 90
     1024
 91
        1
280
     0
281
     0
  0
CLASS
  1
AMDTEDGESTANDARDISO
  2
AmdtEdgeStdISO
  3
"Amdt_StdImp|Product Description: AutoCAD Mechanical|Company: Autodesk, Inc."
 90
     1024
 91
        0
280
     0
281
     0
  0
CLASS
  1
ACMSURFSTANDARDISO
  2
AcmSurfTextStdISO
  3
"Amdt_StdImp|Product Description: AutoCAD Mechanical|Company: Autodesk, Inc."
 90
     1024
 91
        0
280
     0
281
     0
  0
CLASS
  1
ACMFCFSTANDARDISO
  2
AcmFCFStdISO
  3
"Amdt_StdImp|Product Description: AutoCAD Mechanical|Company: Autodesk, Inc."
 90
     1024
 91
        0
280
     0
281
     0
  0
CLASS
  1
ACMWELDSTANDARDISO
  2
AcmWeldingStdISO
  3
"Amdt_StdImp|Product Description: AutoCAD Mechanical|Company: Autodesk, Inc."
 90
     1024
 91
        1
280
     0
281
     0
  0
CLASS
  1
ACMIDSTANDARDISO
  2
AcmIdStdISO
  3
"Amdt_StdImp|Product Description: AutoCAD Mechanical|Company: Autodesk, Inc."
 90
     1024
 91
        0
280
     0
281
     0
  0
CLASS
  1
ACMDATUMSTANDARDISO
  2
AcmDatumStdISO
  3
"Amdt_StdImp|Product Description: AutoCAD Mechanical|Company: Autodesk, Inc."
 90
     1024
 91
        0
280
     0
281
     0
  0
CLASS
  1
ACMBOMSTANDARDISO
  2
AcmBOMStdISO
  3
"Amdt_StdImp|Product Description: AutoCAD Mechanical|Company: Autodesk, Inc."
 90
     1024
 91
        1
280
     0
281
     0
  0
CLASS
  1
ACMDETAILSTANDARDISO
  2
AmdtDetailSymStdISO
  3
"Amdt_StdImp|Product Description: AutoCAD Mechanical|Company: Autodesk, Inc."
 90
     1024
 91
        1
280
     0
281
     0
  0
CLASS
  1
ACMSECTIONSTANDARDISO
  2
AmdtSectionSymStdISO
  3
"Amdt_StdImp|Product Description: AutoCAD Mechanical|Company: Autodesk, Inc."
 90
     1024
 91
        0
280
     0
281
     0
  0
CLASS
  1
ACMCENTERLINESTANDARDISO
  2
AmdtCenterLineStdISO
  3
"Amdt_StdImp|Product Description: AutoCAD Mechanical|Company: Autodesk, Inc."
 90
     1024
 91
        1
280
     0
281
     0
  0
CLASS
  1
ACMTHREADLINESTANDARDISO
  2
AmdtThreadLineStdISO
  3
"Amdt_StdImp|Product Description: AutoCAD Mechanical|Company: Autodesk, Inc."
 90
     1024
 91
        1
280
     0
281
     0
  0
CLASS
  1
ACMNOTESTANDARDISO
  2
AmdtNoteStdISO
  3
"Amdt_StdImp|Product Description: AutoCAD Mechanical|Company: Autodesk, Inc."
 90
     1024
 91
        1
280
     0
281
     0
  0
CLASS
  1
AMDTNOTETEMPLATEDB
  2
AmdtNoteTemplateDB
  3
AcmSymBB|Product Description: AutoCAD Mechanical|Company: Autodesk, Inc.
 90
     1024
 91
        7
280
     0
281
     0
  0
CLASS
  1
ACAMGLAYSTD
  2
AcAmgLayStd
  3
"AmgLay|Product Description: AutoCAD Mechanical|Company: Autodesk, Inc."
 90
     1024
 91
        1
280
     0
281
     0
  0
CLASS
  1
ACAMGDIMSTD
  2
AcAmgDimStd
  3
"AmgDim|Product Description: AutoCAD Mechanical|Company: Autodesk, Inc."
 90
     1024
 91
        1
280
     0
281
     0
  0
CLASS
  1
ACAMGHOLECHARTSTDISO
  2
AcAmgHoleChartStdISO
  3
AmgDim|Product Description: AutoCAD Mechanical|Company: Autodesk, Inc.
 90
     1024
 91
        1
280
     0
281
     0
  0
CLASS
  1
ACAMGTITLESTD
  2
AcAmgTitleStd
  3
"AmgTitle|Product Description: AutoCAD Mechanical|Company: Autodesk, Inc."
 90
     1024
 91
        1
280
     0
281
     0
  0
CLASS
  1
LAYER_INDEX
  2
AcDbLayerIndex
  3
ObjectDBX Classes
 90
        0
 91
        0
280
     0
281
     0
  0
CLASS
  1
IDBUFFER
  2
AcDbIdBuffer
  3
ObjectDBX Classes
 90
        0
 91
        0
280
     0
281
     0
  0
CLASS
  1
ACMSTANDARDANSI
  2
AcmStandardANSI
  3
"Amdt_StdImp|Product Description: AutoCAD Mechanical|Company: Autodesk, Inc."
 90
     1024
 91
        0
280
     0
281
     0
  0
CLASS
  1
ACMSURFSTANDARDANSI
  2
AcmSurfTextStdANSI
  3
"Amdt_StdImp|Product Description: AutoCAD Mechanical|Company: Autodesk, Inc."
 90
     1024
 91
        0
280
     0
281
     0
  0
CLASS
  1
ACMFCFSTANDARDANSI
  2
AcmFCFStdANSI
  3
"Amdt_StdImp|Product Description: AutoCAD Mechanical|Company: Autodesk, Inc."
 90
     1024
 91
        0
280
     0
281
     0
  0
CLASS
  1
ACMWELDSTANDARDANSI
  2
AcmWeldingStdANSI
  3
"Amdt_StdImp|Product Description: AutoCAD Mechanical|Company: Autodesk, Inc."
 90
     1024
 91
        0
280
     0
281
     0
  0
CLASS
  1
ACMIDSTANDARDANSI
  2
AcmIdStdANSI
  3
"Amdt_StdImp|Product Description: AutoCAD Mechanical|Company: Autodesk, Inc."
 90
     1024
 91
        0
280
     0
281
     0
  0
CLASS
  1
ACMDATUMSTANDARDANSI
  2
AcmDatumStdANSI
  3
"Amdt_StdImp|Product Description: AutoCAD Mechanical|Company: Autodesk, Inc."
 90
     1024
 91
        0
280
     0
281
     0
  0
CLASS
  1
ACMBOMSTANDARDANSI
  2
AcmBOMStdANSI
  3
"Amdt_StdImp|Product Description: AutoCAD Mechanical|Company: Autodesk, Inc."
 90
     1024
 91
        0
280
     0
281
     0
  0
CLASS
  1
ACMDETAILSTANDARDANSI
  2
AmdtDetailSymStdANSI
  3
"Amdt_StdImp|Product Description: AutoCAD Mechanical|Company: Autodesk, Inc."
 90
     1024
 91
        0
280
     0
281
     0
  0
CLASS
  1
ACMSECTIONSTANDARDANSI
  2
AmdtSectionSymStdANSI
  3
"Amdt_StdImp|Product Description: AutoCAD Mechanical|Company: Autodesk, Inc."
 90
     1024
 91
        0
280
     0
281
     0
  0
CLASS
  1
ACMCENTERLINESTANDARDANSI
  2
AmdtCenterLineStdANSI
  3
"Amdt_StdImp|Product Description: AutoCAD Mechanical|Company: Autodesk, Inc."
 90
     1024
 91
        0
280
     0
281
     0
  0
CLASS
  1
ACMTHREADLINESTANDARDANSI
  2
AmdtThreadLineStdANSI
  3
"Amdt_StdImp|Product Description: AutoCAD Mechanical|Company: Autodesk, Inc."
 90
     1024
 91
        0
280
     0
281
     0
  0
CLASS
  1
ACMNOTESTANDARDANSI
  2
AmdtNoteStdANSI
  3
"Amdt_StdImp|Product Description: AutoCAD Mechanical|Company: Autodesk, Inc."
 90
     1024
 91
        0
280
     0
281
     0
  0
CLASS
  1
ACAMGHOLECHARTSTDANSI
  2
AcAmgHoleChartStdANSI
  3
AmgDim|Product Description: AutoCAD Mechanical|Company: Autodesk, Inc.
 90
     1024
 91
        0
280
     0
281
     0
  0
CLASS
  1
ACAMGFILTERDAT
  2
AcAmgFilterDat
  3
"AcadM|Product Description: AutoCAD Mechanical|Company: Autodesk, Inc."
 90
     1024
 91
        0
280
     0
281
     0
  0
CLASS
  1
ACRFATTGENMGR
  2
AcRfAttGeneralMgr
  3
AcAttribServices
 90
     1024
 91
        0
280
     0
281
     0
  0
CLASS
  1
MATERIAL
  2
AcDbMaterial
  3
ObjectDBX Classes
 90
     1153
 91
        3
280
     0
281
     0
  0
CLASS
  1
VISUALSTYLE
  2
AcDbVisualStyle
  3
ObjectDBX Classes
 90
     4095
 91
       24
280
     0
281
     0
  0
CLASS
  1
TABLESTYLE
  2
AcDbTableStyle
  3
ObjectDBX Classes
 90
     4095
 91
        1
280
     0
281
     0
  0
CLASS
  1
SCALE
  2
AcDbScale
  3
ObjectDBX Classes
 90
     1153
 91
       17
280
     0
281
     0
  0
CLASS
  1
MLEADERSTYLE
  2
AcDbMLeaderStyle
  3
ACDB_MLEADERSTYLE_CLASS
 90
     4095
 91
        1
280
     0
281
     0
  0
CLASS
  1
ACDBSECTIONVIEWSTYLE
  2
AcDbSectionViewStyle
  3
ObjectDBX Classes
 90
     1025
 91
        2
280
     0
281
     0
  0
CLASS
  1
ACDBDETAILVIEWSTYLE
  2
AcDbDetailViewStyle
  3
ObjectDBX Classes
 90
     1025
 91
        2
280
     0
281
     0
  0
CLASS
  1
ACMTAPERSTANDARDANSI
  2
AcmTaperStdANSI
  3
"Amdt_StdImp|Product Description: AutoCAD Mechanical|Company: Autodesk, Inc."
 90
     1024
 91
        0
280
     0
281
     0
  0
CLASS
  1
ACMANOOTATIONVIEWSTANDARDANSI
  2
AmdtAnViewStdANSI
  3
"Amdt_StdImp|Product Description: AutoCAD Mechanical|Company: Autodesk, Inc."
 90
     1024
 91
        0
280
     0
281
     0
  0
CLASS
  1
ACMSECTIONSTANDARDCUSTOM
  2
AmdtSectionSymStdCustom
  3
"Amdt_StdImp|Product Description: AutoCAD Mechanical|Company: Autodesk, Inc."
 90
     1024
 91
        1
280
     0
281
     0
  0
CLASS
  1
ACMDETAILTANDARDCUSTOM
  2
AmdtDetailSymStdCustom
  3
"Amdt_StdImp|Product Description: AutoCAD Mechanical|Company: Autodesk, Inc."
 90
     1024
 91
        1
280
     0
281
     0
  0
CLASS
  1
ACMTAPERSTANDARDISO
  2
AcmTaperStdISO
  3
"Amdt_StdImp|Product Description: AutoCAD Mechanical|Company: Autodesk, Inc."
 90
     1024
 91
        1
280
     0
281
     0
  0
CLASS
  1
ACMANOOTATIONVIEWSTANDARDISO
  2
AmdtAnViewStdISO
  3
"Amdt_StdImp|Product Description: AutoCAD Mechanical|Company: Autodesk, Inc."
 90
     1024
 91
        1
280
     0
281
     0
  0
CLASS
  1
FIELD
  2
AcDbField
  3
ObjectDBX Classes
 90
     1152
 91
        3
280
     0
281
     0
  0
CLASS
  1
FIELDLIST
  2
AcDbFieldList
  3
ObjectDBX Classes
 90
     1152
 91
        1
280
     0
281
     0
  0
CLASS
  1
CELLSTYLEMAP
  2
AcDbCellStyleMap
  3
ObjectDBX Classes
 90
     1152
 91
        2
280
     0
281
     0
  0
CLASS
  1
AMDTEDGESTANDARDISO13715
  2
AmdtEdgeStdISO13715
  3
"Amdt_StdImp|Product Description: AutoCAD Mechanical|Company: Autodesk, Inc."
 90
     1024
 91
        1
280
     0
281
     0
  0
CLASS
  1
ACMSURFSTANDARDISO2002
  2
AcmSurfTextStdISO2002
  3
"Amdt_StdImp|Product Description: AutoCAD Mechanical|Company: Autodesk, Inc."
 90
     1024
 91
        1
280
     0
281
     0
  0
CLASS
  1
ACMFCFSTANDARDISO2012
  2
AcmFCFStdISO2012
  3
"Amdt_StdImp|Product Description: AutoCAD Mechanical|Company: Autodesk, Inc."
 90
     1024
 91
        1
280
     0
281
     0
  0
CLASS
  1
ACMIDSTANDARDISO2012
  2
AcmIdStdISO2012
  3
"Amdt_StdImp|Product Description: AutoCAD Mechanical|Company: Autodesk, Inc."
 90
     1024
 91
        1
280
     0
281
     0
  0
CLASS
  1
ACMDATUMSTANDARDISO2012
  2
AcmDatumStdISO2012
  3
"Amdt_StdImp|Product Description: AutoCAD Mechanical|Company: Autodesk, Inc."
 90
     1024
 91
        1
280
     0
281
     0
  0
CLASS
  1
ACMSECTIONSTANDARDISO2001
  2
AmdtSectionSymStdISO2001
  3
"Amdt_StdImp|Product Description: AutoCAD Mechanical|Company: Autodesk, Inc."
 90
     1024
 91
        1
280
     0
281
     0
  0
ENDSEC
  0
SECTION
  2
TABLES
  0
TABLE
  2
VPORT
  5
8
330
0
100
AcDbSymbolTable
 70
     1
  0
VPORT
  5
10230C
330
8
100
AcDbSymbolTableRecord
100
AcDbViewportTableRecord
  2
*Active
 70
     0
 10
0.0
 20
0.0
 11
1.0
 21
1.0
 12
384.1290188777201
 22
182.9031513950263
 13
0.0
 23
0.0
 14
2.5
 24
2.5
 15
10.0
 25
10.0
 16
0.0
 26
0.0
 36
1.0
 17
0.0
 27
0.0
 37
0.0
 40
387.4025549876015
 41
2.520336605890602
 42
50.0
 43
0.0
 44
0.0
 50
0.0
 51
0.0
 71
     0
 72
   100
 73
     1
 74
     3
 75
     0
 76
     0
 77
     0
 78
     0
281
     0
 65
     0
110
0.0
120
0.0
130
0.0
111
1.0
121
0.0
131
0.0
112
0.0
122
1.0
132
0.0
 79
     0
146
0.0
1001
ACAD_NAV_VCDISPLAY
1070
     3
  0
ENDTAB
  0
TABLE
  2
LTYPE
  5
5
330
0
100
AcDbSymbolTable
 70
    15
  0
LTYPE
  5
14
330
5
100
AcDbSymbolTableRecord
100
AcDbLinetypeTableRecord
  2
ByBlock
 70
     0
  3

 72
    65
 73
     0
 40
0.0
  0
LTYPE
  5
15
330
5
100
AcDbSymbolTableRecord
100
AcDbLinetypeTableRecord
  2
ByLayer
 70
     0
  3

 72
    65
 73
     0
 40
0.0
  0
LTYPE
  5
16
330
5
100
AcDbSymbolTableRecord
100
AcDbLinetypeTableRecord
  2
Continuous
 70
     0
  3
Solid line
 72
    65
 73
     0
 40
0.0
  0
LTYPE
  5
16D41
330
5
100
AcDbSymbolTableRecord
100
AcDbLinetypeTableRecord
  2
AM_ISO02W050
 70
     0
  3
__ __ __ __ __ __ __ __ __ __ __ __ __ __ __
 72
    65
 73
     2
 40
7.5
 49
6.0
 74
     0
 49
-1.5
 74
     0
  0
LTYPE
  5
16D42
330
5
100
AcDbSymbolTableRecord
100
AcDbLinetypeTableRecord
  2
AM_ISO08W050
 70
     0
  3
____ . ____ . ____ . ____ . ____ . ____ . ____
 72
    65
 73
     4
 40
18.0
 49
12.0
 74
     0
 49
-1.5
 74
     0
 49
3.0
 74
     0
 49
-1.5
 74
     0
  0
LTYPE
  5
16D43
330
5
100
AcDbSymbolTableRecord
100
AcDbLinetypeTableRecord
  2
AM_ISO09W050
 70
     0
  3
_____ . . _____ . . _____ . . ____ .. ____
 72
    65
 73
     6
 40
22.5
 49
12.0
 74
     0
 49
-1.5
 74
     0
 49
3.0
 74
     0
 49
-1.5
 74
     0
 49
3.0
 74
     0
 49
-1.5
 74
     0
  0
LTYPE
  5
16D44
330
5
100
AcDbSymbolTableRecord
100
AcDbLinetypeTableRecord
  2
Amconstr
 70
     0
  3
_______________________
 72
    65
 73
     2
 40
9999.0
 49
9999.0
 74
     0
 49
0.0
 74
     0
  0
LTYPE
  5
16D45
330
5
100
AcDbSymbolTableRecord
100
AcDbLinetypeTableRecord
  2
AM_ISO08W050x2
 70
     0
  3
__ . __ . __ . __ . __ . __
 72
    65
 73
     4
 40
9.0
 49
6.0
 74
     0
 49
-0.75
 74
     0
 49
1.5
 74
     0
 49
-0.75
 74
     0
  0
LTYPE
  5
16D46
330
5
100
AcDbSymbolTableRecord
100
AcDbLinetypeTableRecord
  2
AM_ISO02W050x2
 70
     0
  3
 _ _ _ _ _ _ _ _ _ _ _ _
 72
    65
 73
     2
 40
3.75
 49
3.0
 74
     0
 49
-0.75
 74
     0
  0
LTYPE
  5
16D47
330
5
100
AcDbSymbolTableRecord
100
AcDbLinetypeTableRecord
  2
Amzigzag
 70
     0
  3
/\/-/\/-/\/-/\/-/\/-/\/
 72
    65
 73
     2
 40
11.0001
 49
0.0001
 74
     4
 75
   135
340
3AE2
 46
0.04
 50
0.0
 44
0.0
 45
0.0
 49
-11.0
 74
     0
  0
LTYPE
  5
16D56
330
5
100
AcDbSymbolTableRecord
100
AcDbLinetypeTableRecord
  2
ACISOWELD
 70
     0
  3
_ _ _ _ _
 72
    65
 73
     2
 40
2.0
 49
2.0
 74
     0
 49
-1.0
 74
     0
  0
LTYPE
  5
16D57
330
5
100
AcDbSymbolTableRecord
100
AcDbLinetypeTableRecord
  2
ACISOTGB
 70
     0
  3
__ . . __ . .
 72
    65
 73
     6
 40
9.0
 49
4.0
 74
     0
 49
-1.0
 74
     0
 49
1.0
 74
     0
 49
-1.0
 74
     0
 49
1.0
 74
     0
 49
-1.0
 74
     0
  0
LTYPE
  5
16D58
330
5
100
AcDbSymbolTableRecord
100
AcDbLinetypeTableRecord
  2
ACISOTGL
 70
     0
  3
_ _ _ _ _
 72
    65
 73
     2
 40
3.0
 49
2.0
 74
     0
 49
-1.0
 74
     0
  0
ENDTAB
  0
TABLE
  2
LAYER
  5
2
102
{ACAD_XDICTIONARY
360
F82BD
102
}
330
0
100
AcDbSymbolTable
 70
     4
  0
LAYER
  5
10
102
{ACAD_XDICTIONARY
360
1027B3
102
}
330
2
100
AcDbSymbolTableRecord
100
AcDbLayerTableRecord
  2
0
 70
     0
 62
     7
  6
Continuous
370
    20
390
F
  0
LAYER
  5
54
330
2
100
AcDbSymbolTableRecord
100
AcDbLayerTableRecord
  2
Defpoints
 70
     0
 62
     7
  6
Continuous
290
     0
370
    -3
390
F
  0
LAYER
  5
86C9
102
{ACAD_XDICTIONARY
360
1027B5
102
}
330
2
100
AcDbSymbolTableRecord
100
AcDbLayerTableRecord
  2
04_ele1_0.15
 70
     0
 62
     4
  6
Continuous
370
    15
390
F
  0
LAYER
  5
10258E
102
{ACAD_XDICTIONARY
360
1027B7
102
}
330
2
100
AcDbSymbolTableRecord
100
AcDbLayerTableRecord
  2
AM_5
 70
     0
 62
     3
  6
Continuous
370
    25
390
F
1001
AcAecLayerStandard
1000

1000

  0
ENDTAB
  0
TABLE
  2
STYLE
  5
3
330
0
100
AcDbSymbolTable
 70
     5
  0
STYLE
  5
11
330
3
100
AcDbSymbolTableRecord
100
AcDbTextStyleTableRecord
  2
STANDARD
 70
     0
 40
0.0
 41
1.0
 50
0.0
 71
     0
 42
2.5
  3
ISOCP.SHX
  4
EXTFONT.SHX
  0
STYLE
  5
3AE2
330
3
100
AcDbSymbolTableRecord
100
AcDbTextStyleTableRecord
  2

 70
     1
 40
0.0
 41
1.0
 50
0.0
 71
     0
 42
2.5
  3
ltypeshp.shx
  4

  0
STYLE
  5
16D55
330
3
100
AcDbSymbolTableRecord
100
AcDbTextStyleTableRecord
  2
ACISOGDT
 70
     0
 40
0.0
 41
1.0
 50
0.0
 71
     0
 42
2.5
  3
amgdt.shx
  4

  0
STYLE
  5
F61F9
330
3
100
AcDbSymbolTableRecord
100
AcDbTextStyleTableRecord
  2
2014++
 70
     0
 40
0.0
 41
0.8
 50
0.0
 71
     0
 42
2.5
  3
simplex.shx
  4
bigfont.shx
  0
ENDTAB
  0
TABLE
  2
VIEW
  5
6
330
0
100
AcDbSymbolTable
 70
     0
  0
ENDTAB
  0
TABLE
  2
UCS
  5
7
330
0
100
AcDbSymbolTable
 70
     0
  0
ENDTAB
  0
TABLE
  2
APPID
  5
9
330
0
100
AcDbSymbolTable
 70
    23
  0
APPID
  5
12
330
9
100
AcDbSymbolTableRecord
100
AcDbRegAppTableRecord
  2
ACAD
 70
     0
  0
APPID
  5
16CD8
330
9
100
AcDbSymbolTableRecord
100
AcDbRegAppTableRecord
  2
MCAD_NO_VIS
 70
     0
  0
APPID
  5
16CD9
330
9
100
AcDbSymbolTableRecord
100
AcDbRegAppTableRecord
  2
ACAD_TEMP_GRAPHIC
 70
     0
  0
APPID
  5
16D0B
330
9
100
AcDbSymbolTableRecord
100
AcDbRegAppTableRecord
  2
AD_DRAW
 70
     0
  0
APPID
  5
16D0E
330
9
100
AcDbSymbolTableRecord
100
AcDbRegAppTableRecord
  2
ACATTRIBSERVICES
 70
     0
  0
APPID
  5
16D30
330
9
100
AcDbSymbolTableRecord
100
AcDbRegAppTableRecord
  2
DESIGNERASSEMBLIES
 70
     0
  0
APPID
  5
16D36
330
9
100
AcDbSymbolTableRecord
100
AcDbRegAppTableRecord
  2
ACADM_DIM_EDIT
 70
     0
  0
APPID
  5
16D37
330
9
100
AcDbSymbolTableRecord
100
AcDbRegAppTableRecord
  2
AMDT_DM_ADJ
 70
     0
  0
APPID
  5
16D6D
330
9
100
AcDbSymbolTableRecord
100
AcDbRegAppTableRecord
  2
GENIUS_GENSCREG_15
 70
     0
  0
APPID
  5
16D6E
330
9
100
AcDbSymbolTableRecord
100
AcDbRegAppTableRecord
  2
GENIUS_GENOBJ-N-SDF_13
 70
     0
  0
APPID
  5
16D6F
330
9
100
AcDbSymbolTableRecord
100
AcDbRegAppTableRecord
  2
GENIUS_GENODEF_13
 70
     0
  0
APPID
  5
ADC12
330
9
100
AcDbSymbolTableRecord
100
AcDbRegAppTableRecord
  2
GENIUS_GENDTOL_13
 70
     0
  0
APPID
  5
BA934
330
9
100
AcDbSymbolTableRecord
100
AcDbRegAppTableRecord
  2
GENIUS_GENOBJ-N-FIL_13
 70
     0
  0
APPID
  5
F4A76
330
9
100
AcDbSymbolTableRecord
100
AcDbRegAppTableRecord
  2
DCO15
 70
     0
  0
APPID
  5
1023DA
330
9
100
AcDbSymbolTableRecord
100
AcDbRegAppTableRecord
  2
ACAD_PSEXT
 70
     0
  0
APPID
  5
1023E2
330
9
100
AcDbSymbolTableRecord
100
AcDbRegAppTableRecord
  2
ACAD_NAV_VCDISPLAY
 70
     0
  0
APPID
  5
1023E3
330
9
100
AcDbSymbolTableRecord
100
AcDbRegAppTableRecord
  2
ACAD_DSTYLE_DIMINSPECT
 70
     0
  0
APPID
  5
10258F
330
9
100
AcDbSymbolTableRecord
100
AcDbRegAppTableRecord
  2
AcAecLayerStandard
 70
     0
  0
APPID
  5
102593
330
9
100
AcDbSymbolTableRecord
100
AcDbRegAppTableRecord
  2
ACAD_DSTYLE_DIMBREAK
 70
     0
  0
APPID
  5
102594
330
9
100
AcDbSymbolTableRecord
100
AcDbRegAppTableRecord
  2
ACAD_DSTYLE_DIMJAG
 70
     0
  0
APPID
  5
102807
330
9
100
AcDbSymbolTableRecord
100
AcDbRegAppTableRecord
  2
ACAD_MLEADERVER
 70
     0
  0
APPID
  5
10287C
330
9
100
AcDbSymbolTableRecord
100
AcDbRegAppTableRecord
  2
AcadAnnoMonitorAlertIconDisabled
 70
     0
  0
APPID
  5
10287D
330
9
100
AcDbSymbolTableRecord
100
AcDbRegAppTableRecord
  2
ACAD_EXEMPT_FROM_CAD_STANDARDS
 70
     0
  0
ENDTAB
  0
TABLE
  2
DIMSTYLE
  5
A
330
0
100
AcDbSymbolTable
 70
     8
100
AcDbDimStyleTable
 71
     3
340
16D60
340
16D6A
340
16D65
  0
DIMSTYLE
105
16D60
102
{ACAD_REACTORS
330
102DCB
102
}
330
A
100
AcDbSymbolTableRecord
100
AcDbDimStyleTableRecord
  2
AM_ISO
 70
     0
  4
"
 41
2.5
 42
1.0
 43
10.0
 44
1.0
 47
0.1
 48
0.1
 73
     0
 74
     0
 77
     1
 78
     8
 79
     2
140
3.5
141
0.0
143
0.0393701
146
0.71
147
1.5
172
     1
176
   256
177
   256
178
     2
271
     2
272
     3
274
     4
283
     0
284
     8
340
11
371
    -1
372
    -1
  0
DIMSTYLE
105
16D61
102
{ACAD_REACTORS
330
101DFE
330
101DF2
330
101E0F
102
}
330
A
100
AcDbSymbolTableRecord
100
AcDbDimStyleTableRecord
  2
AM_ISO$3
 70
     0
  4
"
 41
2.5
 42
1.0
 43
10.0
 44
1.0
 47
0.1
 48
0.1
 73
     0
 77
     1
 78
     8
 79
     2
140
3.5
141
0.0
143
0.0393701
146
0.71
147
1.5
176
   256
177
   256
178
     2
271
     2
272
     3
274
     4
283
     0
284
     8
288
     1
289
     0
340
11
371
    -1
372
    -1
  0
DIMSTYLE
105
16D62
330
A
100
AcDbSymbolTableRecord
100
AcDbDimStyleTableRecord
  2
AM_ISO$4
 70
     0
  4
"
 41
2.5
 42
1.0
 43
10.0
 44
1.0
 47
0.1
 48
0.1
 73
     0
 77
     1
 78
     8
 79
     2
140
3.5
141
0.0
143
0.0393701
146
0.71
147
1.5
176
   256
177
   256
178
     2
271
     2
272
     3
274
     4
283
     0
284
     8
288
     1
289
     0
340
11
371
    -1
372
    -1
  0
DIMSTYLE
105
16D63
330
A
100
AcDbSymbolTableRecord
100
AcDbDimStyleTableRecord
  2
AM_ISO$6
 70
     0
  4
"
 41
2.5
 42
1.0
 43
10.0
 44
1.0
 47
0.1
 48
0.1
 73
     0
 74
     0
 78
     8
 79
     2
140
3.5
141
0.0
143
0.0393701
146
0.71
147
1.5
172
     1
176
   256
177
   256
178
     2
271
     2
272
     3
274
     4
283
     0
284
     8
340
11
371
    -1
372
    -1
  0
DIMSTYLE
105
16D64
330
A
100
AcDbSymbolTableRecord
100
AcDbDimStyleTableRecord
  2
AM_ISO$7
 70
     0
  4
"
 41
2.5
 42
1.0
 43
10.0
 44
1.0
 47
0.1
 48
0.1
 73
     0
 74
     0
 77
     1
 78
     8
 79
     2
140
5.0
141
0.0
143
0.0393701
146
0.71
147
1.5
172
     1
176
   256
177
   256
178
     2
271
     2
272
     3
274
     4
283
     0
284
     8
340
11
371
    -1
372
    -1
  0
DIMSTYLE
105
16D65
330
A
100
AcDbSymbolTableRecord
100
AcDbDimStyleTableRecord
  2
AM_ISO$SF
 70
     0
  4
"
 41
2.5
 42
1.0
 43
10.0
 44
1.0
 47
0.1
 48
0.1
 73
     0
 74
     0
 75
     1
 76
     1
 77
     1
 78
     8
 79
     2
140
3.5
141
0.0
143
0.0393701
146
0.71
147
1.5
172
     1
176
   256
177
   256
178
     2
271
     2
272
     3
274
     4
283
     0
284
     8
340
11
371
    -1
372
    -1
  0
DIMSTYLE
105
16D6A
330
A
100
AcDbSymbolTableRecord
100
AcDbDimStyleTableRecord
  2
AM_ISO$SH
 70
     0
  4
"
 41
2.5
 42
1.0
 43
10.0
 44
1.0
 47
0.1
 48
0.1
 73
     0
 74
     0
 75
     1
 76
     1
 77
     1
 78
     8
 79
     2
140
3.5
141
0.0
143
0.0393701
144
2.0
146
0.71
147
1.5
172
     1
173
     1
176
   256
177
   256
178
     2
271
     2
272
     3
274
     4
283
     0
284
     8
340
11
343
16D66
371
    -1
372
    -1
  0
DIMSTYLE
105
102595
102
{ACAD_REACTORS
330
101E26
330
101E31
330
101E30
330
101E04
330
101DF6
330
101DF9
330
101E56
330
102A56
330
102C03
330
102C06
330
102B8F
330
102B9F
102
}
330
A
100
AcDbSymbolTableRecord
100
AcDbDimStyleTableRecord
  2
AM_ISO$0
 70
     0
  4
"
 41
2.5
 42
1.0
 43
10.0
 44
1.0
 47
0.1
 48
0.1
 73
     0
 74
     0
 77
     1
 78
     8
 79
     2
140
3.5
141
0.0
143
0.0393701
146
0.71
147
1.5
172
     1
176
   256
177
   256
178
     2
271
     2
272
     3
274
     4
283
     0
284
     8
340
11
371
    -1
372
    -1
1001
ACAD_DSTYLE_DIMBREAK
1070
   391
1040
3.75
1001
ACAD_DSTYLE_DIMJAG
1070
   388
1040
1.5
  0
ENDTAB
  0
TABLE
  2
BLOCK_RECORD
  5
1
330
0
100
AcDbSymbolTable
 70
    17
  0
BLOCK_RECORD
  5
1F
102
{ACAD_XDICTIONARY
360
16D78
102
}
330
1
100
AcDbSymbolTableRecord
100
AcDbBlockTableRecord
  2
*Model_Space
340
22
  0
BLOCK_RECORD
  5
1023CE
330
1
100
AcDbSymbolTableRecord
100
AcDbBlockTableRecord
  2
*Paper_Space
340
1023CF
  0
BLOCK_RECORD
  5
16D66
330
1
100
AcDbSymbolTableRecord
100
AcDbBlockTableRecord
  2
GENAXEH
340
0
  0
BLOCK_RECORD
  5
101EA0
330
1
100
AcDbSymbolTableRecord
100
AcDbBlockTableRecord
  2
*D1
340
0
  0
BLOCK_RECORD
  5
101EAC
330
1
100
AcDbSymbolTableRecord
100
AcDbBlockTableRecord
  2
*D2
340
0
  0
BLOCK_RECORD
  5
101ED0
330
1
100
AcDbSymbolTableRecord
100
AcDbBlockTableRecord
  2
*D3
340
0
  0
BLOCK_RECORD
  5
101EE8
330
1
100
AcDbSymbolTableRecord
100
AcDbBlockTableRecord
  2
*D4
340
0
  0
BLOCK_RECORD
  5
101F24
330
1
100
AcDbSymbolTableRecord
100
AcDbBlockTableRecord
  2
*D5
340
0
  0
BLOCK_RECORD
  5
101F30
330
1
100
AcDbSymbolTableRecord
100
AcDbBlockTableRecord
  2
*D6
340
0
  0
BLOCK_RECORD
  5
101F89
330
1
100
AcDbSymbolTableRecord
100
AcDbBlockTableRecord
  2
*D7
340
0
  0
BLOCK_RECORD
  5
101FEB
330
1
100
AcDbSymbolTableRecord
100
AcDbBlockTableRecord
  2
*D8
340
0
  0
BLOCK_RECORD
  5
101FF7
330
1
100
AcDbSymbolTableRecord
100
AcDbBlockTableRecord
  2
*D9
340
0
  0
BLOCK_RECORD
  5
1020A6
330
1
100
AcDbSymbolTableRecord
100
AcDbBlockTableRecord
  2
*D10
340
0
  0
BLOCK_RECORD
  5
102A57
330
1
100
AcDbSymbolTableRecord
100
AcDbBlockTableRecord
  2
*D11
340
0
  0
BLOCK_RECORD
  5
102C07
330
1
100
AcDbSymbolTableRecord
100
AcDbBlockTableRecord
  2
*D12
340
0
  0
BLOCK_RECORD
  5
102C13
330
1
100
AcDbSymbolTableRecord
100
AcDbBlockTableRecord
  2
*D13
340
0
  0
BLOCK_RECORD
  5
102C21
330
1
100
AcDbSymbolTableRecord
100
AcDbBlockTableRecord
  2
*D14
340
0
  0
BLOCK_RECORD
  5
102C2D
330
1
100
AcDbSymbolTableRecord
100
AcDbBlockTableRecord
  2
*D15
340
0
  0
ENDTAB
  0
ENDSEC
  0
SECTION
  2
BLOCKS
  0
BLOCK
  5
20
330
1F
100
AcDbEntity
  8
0
100
AcDbBlockBegin
  2
*Model_Space
 70
     0
 10
0.0
 20
0.0
 30
0.0
  3
*Model_Space
  1

  0
ENDBLK
  5
21
330
1F
100
AcDbEntity
  8
0
100
AcDbBlockEnd
  0
BLOCK
  5
1023D0
330
1023CE
100
AcDbEntity
 67
     1
  8
0
100
AcDbBlockBegin
  2
*Paper_Space
 70
     0
 10
0.0
 20
0.0
 30
0.0
  3
*Paper_Space
  1

  0
ENDBLK
  5
1023D1
330
1023CE
100
AcDbEntity
 67
     1
  8
0
100
AcDbBlockEnd
  0
BLOCK
  5
16D68
330
16D66
100
AcDbEntity
  8
0
100
AcDbBlockBegin
  2
GENAXEH
 70
     0
 10
0.0
 20
0.0
 30
0.0
  3
GENAXEH
  1

  0
LINE
  5
16D67
330
16D66
100
AcDbEntity
  8
0
100
AcDbLine
 10
-1.0
 20
0.0
 30
0.0
 11
1.0
 21
0.0
 31
0.0
  0
ENDBLK
  5
16D69
330
16D66
100
AcDbEntity
  8
0
100
AcDbBlockEnd
  0
BLOCK
  5
101EAA
330
101EA0
100
AcDbEntity
  8
0
100
AcDbBlockBegin
  2
*D1
 70
     1
 10
0.0
 20
0.0
 30
0.0
  3
*D1
  1

  0
LINE
  5
10295F
330
101EA0
100
AcDbEntity
  8
AM_5
440
 16777216
100
AcDbLine
 10
390.1951956624778
 20
-9.172226330096606
 30
0.0
 11
356.2073671005486
 21
107.1789105988838
 31
0.0
  0
LINE
  5
102960
330
101EA0
100
AcDbEntity
  8
AM_5
440
 16777216
100
AcDbLine
 10
353.2071304578825
 20
117.4496739633081
 30
0.0
 11
352.5061405881007
 21
119.8493850297624
 31
0.0
  0
MTEXT
  5
102961
102
{ACAD_XDICTIONARY
360
1029AD
102
}
330
101EA0
100
AcDbEntity
  8
AM_5
 62
     2
440
 16777216
100
AcDbMText
 10
391.0295930733797
 20
-0.4378814227392527
 30
0.0
 40
3.5
 41
0.0
 71
     5
 72
     1
  1
4-\U+22055.7
 11
0.2803959479127298
 21
-0.9598844265817222
 31
0.0
 73
     1
 44
1.0
  0
LINE
  5
102962
330
101EA0
100
AcDbEntity
  8
AM_5
440
 16777216
100
AcDbLine
 10
353.9081203276643
 20
115.0499628968538
 30
0.0
 11
355.5063772307668
 21
109.578621665338
 31
0.0
  0
SOLID
  5
102963
330
101EA0
100
AcDbEntity
  8
AM_5
440
 16777216
100
AcDbTrace
 10
353.6070823022915
 20
117.5665056082717
 30
0.0
 11
352.8071786134733
 21
117.3328423183445
 31
0.0
 12
353.9081203276643
 22
115.0499628968538
 32
0.0
 13
353.9081203276643
 23
115.0499628968538
 33
0.0
  0
SOLID
  5
102964
330
101EA0
100
AcDbEntity
  8
AM_5
440
 16777216
100
AcDbTrace
 10
356.6073189449577
 20
107.2957422438474
 30
0.0
 11
355.8074152561395
 21
107.0620789539201
 31
0.0
 12
355.5063772307668
 22
109.578621665338
 32
0.0
 13
355.5063772307668
 23
109.578621665338
 33
0.0
  0
POINT
  5
102965
330
101EA0
100
AcDbEntity
  8
Defpoints
 62
     0
440
 16777216
100
AcDbPoint
 10
355.5063772307668
 20
109.578621665338
 30
0.0
  0
POINT
  5
102966
330
101EA0
100
AcDbEntity
  8
Defpoints
 62
     0
440
 16777216
100
AcDbPoint
 10
353.9081203276643
 20
115.0499628968538
 30
0.0
  0
ENDBLK
  5
101EAB
330
101EA0
100
AcDbEntity
  8
0
100
AcDbBlockEnd
  0
BLOCK
  5
101EB6
330
101EAC
100
AcDbEntity
  8
0
100
AcDbBlockBegin
  2
*D2
 70
     1
 10
0.0
 20
0.0
 30
0.0
  3
*D2
  1

  0
LINE
  5
102626
330
101EAC
100
AcDbEntity
  8
AM_5
440
 16777216
100
AcDbLine
 10
117.7509361898051
 20
165.3142922810958
 30
0.0
 11
97.75093618980498
 21
165.3142922810958
 31
0.0
  0
LINE
  5
102627
330
101EAC
100
AcDbEntity
  8
AM_5
440
 16777216
100
AcDbLine
 10
117.7509361898051
 20
100.3142922810958
 30
0.0
 11
97.75093618980498
 21
100.3142922810958
 31
0.0
  0
LINE
  5
102628
330
101EAC
100
AcDbEntity
  8
AM_5
440
 16777216
100
AcDbLine
 10
98.750936189805
 20
162.8142922810958
 30
0.0
 11
98.750936189805
 21
102.8142922810958
 31
0.0
  0
SOLID
  5
102629
330
101EAC
100
AcDbEntity
  8
AM_5
440
 16777216
100
AcDbTrace
 10
98.33426952313832
 20
162.8142922810958
 30
0.0
 11
99.16760285647164
 21
162.8142922810958
 31
0.0
 12
98.750936189805
 22
165.3142922810958
 32
0.0
 13
98.750936189805
 23
165.3142922810958
 33
0.0
  0
SOLID
  5
10262A
330
101EAC
100
AcDbEntity
  8
AM_5
440
 16777216
100
AcDbTrace
 10
98.33426952313828
 20
102.8142922810958
 30
0.0
 11
99.16760285647164
 21
102.8142922810958
 31
0.0
 12
98.750936189805
 22
100.3142922810958
 32
0.0
 13
98.750936189805
 23
100.3142922810958
 33
0.0
  0
MTEXT
  5
10262B
330
101EAC
100
AcDbEntity
  8
AM_5
 62
     2
440
 16777216
100
AcDbMText
 10
95.50093618980495
 20
132.8142922810958
 30
0.0
 40
3.5
 41
0.0
 71
     5
 72
     1
  1
65
 11
0.0000000000000001
 21
1.0
 31
0.0
 73
     1
 44
1.0
1001
ACAD
1000
MTEXTBEGIN
1070
    73
1070
     1
1070
    44
1040
1.0
1070
    74
1070
     0
1000
MTEXTEND
  0
POINT
  5
10262C
330
101EAC
100
AcDbEntity
  8
Defpoints
 62
     0
440
 16777216
100
AcDbPoint
 10
118.7509361898051
 20
165.3142922810958
 30
0.0
  0
POINT
  5
10262D
330
101EAC
100
AcDbEntity
  8
Defpoints
 62
     0
440
 16777216
100
AcDbPoint
 10
118.7509361898051
 20
100.3142922810958
 30
0.0
  0
POINT
  5
10262E
330
101EAC
100
AcDbEntity
  8
Defpoints
 62
     0
440
 16777216
100
AcDbPoint
 10
98.750936189805
 20
100.3142922810958
 30
0.0
  0
ENDBLK
  5
101EB7
330
101EAC
100
AcDbEntity
  8
0
100
AcDbBlockEnd
  0
BLOCK
  5
101EDA
330
101ED0
100
AcDbEntity
  8
0
100
AcDbBlockBegin
  2
*D3
 70
     1
 10
0.0
 20
0.0
 30
0.0
  3
*D3
  1

  0
LINE
  5
102649
330
101ED0
100
AcDbEntity
  8
AM_5
440
 16777216
100
AcDbLine
 10
263.7072487792159
 20
165.3142922810958
 30
0.0
 11
229.1530776864522
 21
165.3142922810958
 31
0.0
  0
LINE
  5
10264A
330
101ED0
100
AcDbEntity
  8
AM_5
440
 16777216
100
AcDbLine
 10
263.7072487792159
 20
60.31429228109584
 30
0.0
 11
229.1530776864522
 21
60.31429228109584
 31
0.0
  0
LINE
  5
10264B
330
101ED0
100
AcDbEntity
  8
AM_5
440
 16777216
100
AcDbLine
 10
230.1530776864523
 20
162.8142922810958
 30
0.0
 11
230.1530776864522
 21
62.81429228109584
 31
0.0
  0
SOLID
  5
10264C
330
101ED0
100
AcDbEntity
  8
AM_5
440
 16777216
100
AcDbTrace
 10
229.7364110197856
 20
162.8142922810958
 30
0.0
 11
230.5697443531189
 21
162.8142922810958
 31
0.0
 12
230.1530776864523
 22
165.3142922810958
 32
0.0
 13
230.1530776864523
 23
165.3142922810958
 33
0.0
  0
SOLID
  5
10264D
330
101ED0
100
AcDbEntity
  8
AM_5
440
 16777216
100
AcDbTrace
 10
229.7364110197856
 20
62.81429228109584
 30
0.0
 11
230.5697443531188
 21
62.81429228109584
 31
0.0
 12
230.1530776864522
 22
60.31429228109584
 32
0.0
 13
230.1530776864522
 23
60.31429228109584
 33
0.0
  0
MTEXT
  5
10264E
330
101ED0
100
AcDbEntity
  8
AM_5
 62
     2
440
 16777216
100
AcDbMText
 10
226.9030776864522
 20
112.8142922810959
 30
0.0
 40
3.5
 41
0.0
 71
     5
 72
     1
  1
105
 11
0.0000000000000001
 21
1.0
 31
0.0
 73
     1
 44
1.0
1001
ACAD
1000
MTEXTBEGIN
1070
    73
1070
     1
1070
    44
1040
1.0
1070
    74
1070
     0
1000
MTEXTEND
  0
POINT
  5
10264F
330
101ED0
100
AcDbEntity
  8
Defpoints
 62
     0
440
 16777216
100
AcDbPoint
 10
264.7072487792159
 20
165.3142922810958
 30
0.0
  0
POINT
  5
102650
330
101ED0
100
AcDbEntity
  8
Defpoints
 62
     0
440
 16777216
100
AcDbPoint
 10
264.7072487792159
 20
60.31429228109584
 30
0.0
  0
POINT
  5
102651
330
101ED0
100
AcDbEntity
  8
Defpoints
 62
     0
440
 16777216
100
AcDbPoint
 10
230.1530776864522
 20
60.31429228109584
 30
0.0
  0
ENDBLK
  5
101EDB
330
101ED0
100
AcDbEntity
  8
0
100
AcDbBlockEnd
  0
BLOCK
  5
101EF2
330
101EE8
100
AcDbEntity
  8
0
100
AcDbBlockBegin
  2
*D4
 70
     1
 10
0.0
 20
0.0
 30
0.0
  3
*D4
  1

  0
LINE
  5
1028E7
330
101EE8
100
AcDbEntity
  8
AM_5
440
 16777216
100
AcDbLine
 10
129.9150665423205
 20
-4.842733516051815
 30
0.0
 11
161.8711114674717
 21
80.30542424397372
 31
0.0
  0
LINE
  5
1028E8
330
101EE8
100
AcDbEntity
  8
AM_5
440
 16777216
100
AcDbLine
 10
165.6307609121384
 20
90.32316031821837
 30
0.0
 11
166.5091836795838
 21
92.66375285892969
 31
0.0
  0
MTEXT
  5
1028E9
102
{ACAD_XDICTIONARY
360
1029AB
102
}
330
101EE8
100
AcDbEntity
  8
AM_5
 62
     2
440
 16777216
100
AcDbMText
 10
129.6897568283976
 20
3.807432743654521
 30
0.0
 40
3.5
 41
0.0
 71
     5
 72
     1
  1
2-\U+22055.7
 11
0.3513691069781853
 21
0.9362370162845266
 31
0.0
 73
     1
 44
1.0
  0
LINE
  5
1028EA
330
101EE8
100
AcDbEntity
  8
AM_5
440
 16777216
100
AcDbLine
 10
164.7523381446928
 20
87.98256777750706
 30
0.0
 11
162.7495342349171
 21
82.64601678468507
 31
0.0
  0
SOLID
  5
1028EB
330
101EE8
100
AcDbEntity
  8
AM_5
440
 16777216
100
AcDbTrace
 10
165.2406621553531
 20
90.46956411279259
 30
0.0
 11
166.0208596689235
 21
90.17675652364413
 31
0.0
 12
164.7523381446928
 22
87.98256777750706
 32
0.0
 13
164.7523381446928
 23
87.98256777750706
 33
0.0
  0
SOLID
  5
1028EC
330
101EE8
100
AcDbEntity
  8
AM_5
440
 16777216
100
AcDbTrace
 10
161.4810127106865
 20
80.45182803854798
 30
0.0
 11
162.2612102242569
 21
80.15902044939947
 31
0.0
 12
162.7495342349171
 22
82.64601678468507
 32
0.0
 13
162.7495342349171
 23
82.64601678468507
 33
0.0
  0
POINT
  5
1028ED
330
101EE8
100
AcDbEntity
  8
Defpoints
 62
     0
440
 16777216
100
AcDbPoint
 10
162.7495342349171
 20
82.64601678468507
 30
0.0
  0
POINT
  5
1028EE
330
101EE8
100
AcDbEntity
  8
Defpoints
 62
     0
440
 16777216
100
AcDbPoint
 10
164.7523381446928
 20
87.98256777750706
 30
0.0
  0
ENDBLK
  5
101EF3
330
101EE8
100
AcDbEntity
  8
0
100
AcDbBlockEnd
  0
BLOCK
  5
101F2E
330
101F24
100
AcDbEntity
  8
0
100
AcDbBlockBegin
  2
*D5
 70
     1
 10
0.0
 20
0.0
 30
0.0
  3
*D5
  1

  0
LINE
  5
10261D
330
101F24
100
AcDbEntity
  8
AM_5
440
 16777216
100
AcDbLine
 10
117.7509361898051
 20
100.3142922810958
 30
0.0
 11
97.75093618980498
 21
100.3142922810958
 31
0.0
  0
LINE
  5
10261E
330
101F24
100
AcDbEntity
  8
AM_5
440
 16777216
100
AcDbLine
 10
137.7509361898051
 20
60.31429228109584
 30
0.0
 11
97.75093618980498
 21
60.31429228109584
 31
0.0
  0
LINE
  5
10261F
330
101F24
100
AcDbEntity
  8
AM_5
440
 16777216
100
AcDbLine
 10
98.750936189805
 20
97.81429228109585
 30
0.0
 11
98.750936189805
 21
62.81429228109584
 31
0.0
  0
SOLID
  5
102620
330
101F24
100
AcDbEntity
  8
AM_5
440
 16777216
100
AcDbTrace
 10
98.33426952313832
 20
97.81429228109585
 30
0.0
 11
99.16760285647164
 21
97.81429228109585
 31
0.0
 12
98.750936189805
 22
100.3142922810958
 32
0.0
 13
98.750936189805
 23
100.3142922810958
 33
0.0
  0
SOLID
  5
102621
330
101F24
100
AcDbEntity
  8
AM_5
440
 16777216
100
AcDbTrace
 10
98.33426952313828
 20
62.81429228109584
 30
0.0
 11
99.16760285647164
 21
62.81429228109584
 31
0.0
 12
98.750936189805
 22
60.31429228109584
 32
0.0
 13
98.750936189805
 23
60.31429228109584
 33
0.0
  0
MTEXT
  5
102622
330
101F24
100
AcDbEntity
  8
AM_5
 62
     2
440
 16777216
100
AcDbMText
 10
95.50093618980495
 20
80.31429228109587
 30
0.0
 40
3.5
 41
0.0
 71
     5
 72
     1
  1
40
 11
0.0000000000000001
 21
1.0
 31
0.0
 73
     1
 44
1.0
1001
ACAD
1000
MTEXTBEGIN
1070
    73
1070
     1
1070
    44
1040
1.0
1070
    74
1070
     0
1000
MTEXTEND
  0
POINT
  5
102623
330
101F24
100
AcDbEntity
  8
Defpoints
 62
     0
440
 16777216
100
AcDbPoint
 10
118.7509361898051
 20
100.3142922810958
 30
0.0
  0
POINT
  5
102624
330
101F24
100
AcDbEntity
  8
Defpoints
 62
     0
440
 16777216
100
AcDbPoint
 10
138.7509361898051
 20
60.31429228109584
 30
0.0
  0
POINT
  5
102625
330
101F24
100
AcDbEntity
  8
Defpoints
 62
     0
440
 16777216
100
AcDbPoint
 10
98.750936189805
 20
60.31429228109584
 30
0.0
  0
ENDBLK
  5
101F2F
330
101F24
100
AcDbEntity
  8
0
100
AcDbBlockEnd
  0
BLOCK
  5
101F3A
330
101F30
100
AcDbEntity
  8
0
100
AcDbBlockBegin
  2
*D6
 70
     1
 10
0.0
 20
0.0
 30
0.0
  3
*D6
  1

  0
LINE
  5
102E64
330
101F30
100
AcDbEntity
  8
AM_5
440
 16777216
100
AcDbLine
 10
515.0879736969862
 20
12.39388197946388
 30
0.0
 11
484.9224537064176
 21
90.32502335414038
 31
0.0
  0
LINE
  5
102E65
330
101F30
100
AcDbEntity
  8
AM_5
440
 16777216
100
AcDbLine
 10
481.0599697520047
 20
100.3035612080502
 30
0.0
 11
480.1575202299457
 21
102.6349952860664
 31
0.0
  0
MTEXT
  5
102E66
102
{ACAD_XDICTIONARY
360
102EA8
102
}
330
101F30
100
AcDbEntity
  8
AM_5
 62
     2
440
 16777216
100
AcDbMText
 10
515.2243037104432
 20
21.04590803786093
 30
0.0
 40
3.5
 41
0.0
 71
     5
 72
     1
  1
2-\U+22055.7
 11
0.3609798088236134
 21
-0.9325736312064949
 31
0.0
 73
     1
 44
1.0
  0
LINE
  5
102E67
330
101F30
100
AcDbEntity
  8
AM_5
440
 16777216
100
AcDbLine
 10
481.9624192740638
 20
97.97212713003398
 30
0.0
 11
484.0200041843585
 21
92.65645743215662
 31
0.0
  0
SOLID
  5
102E68
330
101F30
100
AcDbEntity
  8
AM_5
440
 16777216
100
AcDbTrace
 10
481.4485420983408
 20
100.4539694617267
 30
0.0
 11
480.6713974056687
 21
100.1531529543737
 31
0.0
 12
481.9624192740638
 22
97.97212713003398
 32
0.0
 13
481.9624192740638
 23
97.97212713003398
 33
0.0
  0
SOLID
  5
102E69
330
101F30
100
AcDbEntity
  8
AM_5
440
 16777216
100
AcDbTrace
 10
485.3110260527536
 20
90.47543160781691
 30
0.0
 11
484.5338813600815
 21
90.17461510046386
 31
0.0
 12
484.0200041843585
 22
92.65645743215662
 32
0.0
 13
484.0200041843585
 23
92.65645743215662
 33
0.0
  0
POINT
  5
102E6A
330
101F30
100
AcDbEntity
  8
Defpoints
 62
     0
440
 16777216
100
AcDbPoint
 10
484.0200041843585
 20
92.65645743215662
 30
0.0
  0
POINT
  5
102E6B
330
101F30
100
AcDbEntity
  8
Defpoints
 62
     0
440
 16777216
100
AcDbPoint
 10
481.9624192740638
 20
97.97212713003398
 30
0.0
  0
ENDBLK
  5
101F3B
330
101F30
100
AcDbEntity
  8
0
100
AcDbBlockEnd
  0
BLOCK
  5
101F93
330
101F89
100
AcDbEntity
  8
0
100
AcDbBlockBegin
  2
*D7
 70
     1
 10
0.0
 20
0.0
 30
0.0
  3
*D7
  1

  0
LINE
  5
1025DA
330
101F89
100
AcDbEntity
  8
AM_5
440
 16777216
100
AcDbLine
 10
264.7072487792159
 20
166.3142922810958
 30
0.0
 11
264.7072487792159
 21
202.1475936855182
 31
0.0
  0
LINE
  5
1025DB
330
101F89
100
AcDbEntity
  8
AM_5
440
 16777216
100
AcDbLine
 10
369.7072487792159
 20
166.3142922810958
 30
0.0
 11
369.7072487792159
 21
202.1475936855182
 31
0.0
  0
LINE
  5
1025DC
330
101F89
100
AcDbEntity
  8
AM_5
440
 16777216
100
AcDbLine
 10
267.2072487792159
 20
201.1475936855181
 30
0.0
 11
367.2072487792158
 21
201.1475936855181
 31
0.0
  0
SOLID
  5
1025DD
330
101F89
100
AcDbEntity
  8
AM_5
440
 16777216
100
AcDbTrace
 10
267.2072487792159
 20
201.5642603521848
 30
0.0
 11
267.2072487792159
 21
200.7309270188515
 31
0.0
 12
264.7072487792159
 22
201.1475936855181
 32
0.0
 13
264.7072487792159
 23
201.1475936855181
 33
0.0
  0
SOLID
  5
1025DE
330
101F89
100
AcDbEntity
  8
AM_5
440
 16777216
100
AcDbTrace
 10
367.2072487792158
 20
201.5642603521848
 30
0.0
 11
367.2072487792158
 21
200.7309270188515
 31
0.0
 12
369.7072487792159
 22
201.1475936855181
 32
0.0
 13
369.7072487792159
 23
201.1475936855181
 33
0.0
  0
MTEXT
  5
1025DF
330
101F89
100
AcDbEntity
  8
AM_5
 62
     2
440
 16777216
100
AcDbMText
 10
317.2072487792159
 20
204.3975936855181
 30
0.0
 40
3.5
 41
0.0
 71
     5
 72
     1
  1
105
 73
     1
 44
1.0
1001
ACAD
1000
MTEXTBEGIN
1070
    73
1070
     1
1070
    44
1040
1.0
1070
    74
1070
     0
1000
MTEXTEND
  0
POINT
  5
1025E0
330
101F89
100
AcDbEntity
  8
Defpoints
 62
     0
440
 16777216
100
AcDbPoint
 10
264.7072487792159
 20
165.3142922810958
 30
0.0
  0
POINT
  5
1025E1
330
101F89
100
AcDbEntity
  8
Defpoints
 62
     0
440
 16777216
100
AcDbPoint
 10
369.7072487792159
 20
165.3142922810958
 30
0.0
  0
POINT
  5
1025E2
330
101F89
100
AcDbEntity
  8
Defpoints
 62
     0
440
 16777216
100
AcDbPoint
 10
369.7072487792159
 20
201.1475936855181
 30
0.0
  0
ENDBLK
  5
101F94
330
101F89
100
AcDbEntity
  8
0
100
AcDbBlockEnd
  0
BLOCK
  5
101FF5
330
101FEB
100
AcDbEntity
  8
0
100
AcDbBlockBegin
  2
*D8
 70
     1
 10
0.0
 20
0.0
 30
0.0
  3
*D8
  1

  0
LINE
  5
102609
330
101FEB
100
AcDbEntity
  8
AM_5
440
 16777216
100
AcDbLine
 10
118.7509361898051
 20
166.3142922810958
 30
0.0
 11
118.7509361898051
 21
202.1475936855182
 31
0.0
  0
LINE
  5
10260A
330
101FEB
100
AcDbEntity
  8
AM_5
440
 16777216
100
AcDbLine
 10
178.7509361898051
 20
151.3142922810958
 30
0.0
 11
178.7509361898051
 21
202.1475936855182
 31
0.0
  0
LINE
  5
10260B
330
101FEB
100
AcDbEntity
  8
AM_5
440
 16777216
100
AcDbLine
 10
121.2509361898051
 20
201.1475936855181
 30
0.0
 11
176.2509361898051
 21
201.1475936855181
 31
0.0
  0
SOLID
  5
10260C
330
101FEB
100
AcDbEntity
  8
AM_5
440
 16777216
100
AcDbTrace
 10
121.2509361898051
 20
201.5642603521848
 30
0.0
 11
121.2509361898051
 21
200.7309270188515
 31
0.0
 12
118.7509361898051
 22
201.1475936855181
 32
0.0
 13
118.7509361898051
 23
201.1475936855181
 33
0.0
  0
SOLID
  5
10260D
330
101FEB
100
AcDbEntity
  8
AM_5
440
 16777216
100
AcDbTrace
 10
176.2509361898051
 20
201.5642603521848
 30
0.0
 11
176.2509361898051
 21
200.7309270188515
 31
0.0
 12
178.7509361898051
 22
201.1475936855181
 32
0.0
 13
178.7509361898051
 23
201.1475936855181
 33
0.0
  0
MTEXT
  5
10260E
330
101FEB
100
AcDbEntity
  8
AM_5
 62
     2
440
 16777216
100
AcDbMText
 10
148.7509361898051
 20
204.3975936855181
 30
0.0
 40
3.5
 41
0.0
 71
     5
 72
     1
  1
60
 73
     1
 44
1.0
1001
ACAD
1000
MTEXTBEGIN
1070
    73
1070
     1
1070
    44
1040
1.0
1070
    74
1070
     0
1000
MTEXTEND
  0
POINT
  5
10260F
330
101FEB
100
AcDbEntity
  8
Defpoints
 62
     0
440
 16777216
100
AcDbPoint
 10
118.7509361898051
 20
165.3142922810958
 30
0.0
  0
POINT
  5
102610
330
101FEB
100
AcDbEntity
  8
Defpoints
 62
     0
440
 16777216
100
AcDbPoint
 10
178.7509361898051
 20
150.3142922810958
 30
0.0
  0
POINT
  5
102611
330
101FEB
100
AcDbEntity
  8
Defpoints
 62
     0
440
 16777216
100
AcDbPoint
 10
178.7509361898051
 20
201.1475936855181
 30
0.0
  0
ENDBLK
  5
101FF6
330
101FEB
100
AcDbEntity
  8
0
100
AcDbBlockEnd
  0
BLOCK
  5
102003
330
101FF7
100
AcDbEntity
  8
0
100
AcDbBlockBegin
  2
*D9
 70
     1
 10
0.0
 20
0.0
 30
0.0
  3
*D9
  1

  0
LINE
  5
102A17
330
101FF7
100
AcDbEntity
  8
AM_5
440
 16777216
100
AcDbLine
 10
264.7072487792159
 20
166.3142922810958
 30
0.0
 11
264.7072487792159
 21
202.1475936855181
 31
0.0
  0
LINE
  5
102A18
330
101FF7
100
AcDbEntity
  8
AM_5
440
 16777216
100
AcDbLine
 10
262.4072487792159
 20
151.3142922810958
 30
0.0
 11
262.4072487792159
 21
202.1475936855181
 31
0.0
  0
LINE
  5
102A19
330
101FF7
100
AcDbEntity
  8
AM_5
440
 16777216
100
AcDbLine
 10
267.2072487792159
 20
201.1475936855181
 30
0.0
 11
269.7072487792159
 21
201.1475936855181
 31
0.0
  0
LINE
  5
102A1A
330
101FF7
100
AcDbEntity
  8
AM_5
440
 16777216
100
AcDbLine
 10
259.9072487792159
 20
201.1475936855181
 30
0.0
 11
244.8122740323853
 21
201.1475936855181
 31
0.0
  0
LINE
  5
102A1B
330
101FF7
100
AcDbEntity
  8
AM_5
440
 16777216
100
AcDbLine
 10
264.7072487792159
 20
201.1475936855181
 30
0.0
 11
262.4072487792159
 21
201.1475936855181
 31
0.0
  0
SOLID
  5
102A1C
330
101FF7
100
AcDbEntity
  8
AM_5
440
 16777216
100
AcDbTrace
 10
267.2072487792159
 20
201.5642603521848
 30
0.0
 11
267.2072487792159
 21
200.7309270188514
 31
0.0
 12
264.7072487792159
 22
201.1475936855181
 32
0.0
 13
264.7072487792159
 23
201.1475936855181
 33
0.0
  0
SOLID
  5
102A1D
330
101FF7
100
AcDbEntity
  8
AM_5
440
 16777216
100
AcDbTrace
 10
259.9072487792159
 20
201.5642603521848
 30
0.0
 11
259.9072487792159
 21
200.7309270188514
 31
0.0
 12
262.4072487792159
 22
201.1475936855181
 32
0.0
 13
262.4072487792159
 23
201.1475936855181
 33
0.0
  0
MTEXT
  5
102A1E
330
101FF7
100
AcDbEntity
  8
AM_5
 62
     2
440
 16777216
100
AcDbMText
 10
251.1097614058006
 20
204.3979381737071
 30
0.0
 40
3.5
 41
0.0
 71
     5
 72
     1
  1
t=2.3
 73
     1
 44
1.0
  0
POINT
  5
102A1F
330
101FF7
100
AcDbEntity
  8
Defpoints
 62
     0
440
 16777216
100
AcDbPoint
 10
264.7072487792159
 20
165.3142922810958
 30
0.0
  0
POINT
  5
102A20
330
101FF7
100
AcDbEntity
  8
Defpoints
 62
     0
440
 16777216
100
AcDbPoint
 10
262.4072487792159
 20
150.3142922810958
 30
0.0
  0
POINT
  5
102A21
330
101FF7
100
AcDbEntity
  8
Defpoints
 62
     0
440
 16777216
100
AcDbPoint
 10
262.4072487792159
 20
201.1475936855181
 30
0.0
  0
ENDBLK
  5
102004
330
101FF7
100
AcDbEntity
  8
0
100
AcDbBlockEnd
  0
BLOCK
  5
1020B2
330
1020A6
100
AcDbEntity
  8
0
100
AcDbBlockBegin
  2
*D10
 70
     1
 10
0.0
 20
0.0
 30
0.0
  3
*D10
  1

  0
LINE
  5
102A0C
330
1020A6
100
AcDbEntity
  8
AM_5
440
 16777216
100
AcDbLine
 10
369.7072487792159
 20
166.3142922810958
 30
0.0
 11
369.7072487792159
 21
202.1475936855181
 31
0.0
  0
LINE
  5
102A0D
330
1020A6
100
AcDbEntity
  8
AM_5
440
 16777216
100
AcDbLine
 10
372.0072487792159
 20
151.3142922810958
 30
0.0
 11
372.0072487792159
 21
202.1475936855181
 31
0.0
  0
LINE
  5
102A0E
330
1020A6
100
AcDbEntity
  8
AM_5
440
 16777216
100
AcDbLine
 10
367.2072487792158
 20
201.1475936855181
 30
0.0
 11
364.7072487792158
 21
201.1475936855181
 31
0.0
  0
LINE
  5
102A0F
330
1020A6
100
AcDbEntity
  8
AM_5
440
 16777216
100
AcDbLine
 10
374.5072487792159
 20
201.1475936855181
 30
0.0
 11
389.6022235260464
 21
201.1475936855181
 31
0.0
  0
LINE
  5
102A10
330
1020A6
100
AcDbEntity
  8
AM_5
440
 16777216
100
AcDbLine
 10
369.7072487792159
 20
201.1475936855181
 30
0.0
 11
372.0072487792159
 21
201.1475936855181
 31
0.0
  0
SOLID
  5
102A11
330
1020A6
100
AcDbEntity
  8
AM_5
440
 16777216
100
AcDbTrace
 10
367.2072487792158
 20
201.5642603521848
 30
0.0
 11
367.2072487792158
 21
200.7309270188514
 31
0.0
 12
369.7072487792159
 22
201.1475936855181
 32
0.0
 13
369.7072487792159
 23
201.1475936855181
 33
0.0
  0
SOLID
  5
102A12
330
1020A6
100
AcDbEntity
  8
AM_5
440
 16777216
100
AcDbTrace
 10
374.5072487792159
 20
201.5642603521848
 30
0.0
 11
374.5072487792159
 21
200.7309270188514
 31
0.0
 12
372.0072487792159
 22
201.1475936855181
 32
0.0
 13
372.0072487792159
 23
201.1475936855181
 33
0.0
  0
MTEXT
  5
102A13
330
1020A6
100
AcDbEntity
  8
AM_5
 62
     2
440
 16777216
100
AcDbMText
 10
383.3047361526312
 20
204.3979381737071
 30
0.0
 40
3.5
 41
0.0
 71
     5
 72
     1
  1
t=2.3
 73
     1
 44
1.0
  0
POINT
  5
102A14
330
1020A6
100
AcDbEntity
  8
Defpoints
 62
     0
440
 16777216
100
AcDbPoint
 10
369.7072487792159
 20
165.3142922810958
 30
0.0
  0
POINT
  5
102A15
330
1020A6
100
AcDbEntity
  8
Defpoints
 62
     0
440
 16777216
100
AcDbPoint
 10
372.0072487792159
 20
150.3142922810958
 30
0.0
  0
POINT
  5
102A16
330
1020A6
100
AcDbEntity
  8
Defpoints
 62
     0
440
 16777216
100
AcDbPoint
 10
372.0072487792159
 20
201.1475936855181
 30
0.0
  0
ENDBLK
  5
1020B3
330
1020A6
100
AcDbEntity
  8
0
100
AcDbBlockEnd
  0
BLOCK
  5
102A58
330
102A57
100
AcDbEntity
  8
0
100
AcDbBlockBegin
  2
*D11
 70
     1
 10
0.0
 20
0.0
 30
0.0
  3
*D11
  1

  0
LINE
  5
102A91
330
102A57
100
AcDbEntity
  8
AM_5
440
 16777216
100
AcDbLine
 10
118.7509361898051
 20
99.31429228109578
 30
0.0
 11
118.7509361898051
 21
38.69388330438847
 31
0.0
  0
LINE
  5
102A92
330
102A57
100
AcDbEntity
  8
AM_5
440
 16777216
100
AcDbLine
 10
138.7509361898051
 20
57.01429228109589
 30
0.0
 11
138.7509361898051
 21
38.69388330438847
 31
0.0
  0
LINE
  5
102A93
330
102A57
100
AcDbEntity
  8
AM_5
440
 16777216
100
AcDbLine
 10
121.2509361898051
 20
39.69388330438846
 30
0.0
 11
136.2509361898051
 21
39.69388330438846
 31
0.0
  0
SOLID
  5
102A94
330
102A57
100
AcDbEntity
  8
AM_5
440
 16777216
100
AcDbTrace
 10
121.2509361898051
 20
40.11054997105513
 30
0.0
 11
121.2509361898051
 21
39.27721663772179
 31
0.0
 12
118.7509361898051
 22
39.69388330438846
 32
0.0
 13
118.7509361898051
 23
39.69388330438846
 33
0.0
  0
SOLID
  5
102A95
330
102A57
100
AcDbEntity
  8
AM_5
440
 16777216
100
AcDbTrace
 10
136.2509361898051
 20
40.11054997105513
 30
0.0
 11
136.2509361898051
 21
39.27721663772179
 31
0.0
 12
138.7509361898051
 22
39.69388330438846
 32
0.0
 13
138.7509361898051
 23
39.69388330438846
 33
0.0
  0
MTEXT
  5
102A96
330
102A57
100
AcDbEntity
  8
AM_5
 62
     2
440
 16777216
100
AcDbMText
 10
128.7509361898051
 20
42.94422779257743
 30
0.0
 40
3.5
 41
0.0
 71
     5
 72
     1
  1
20
 73
     1
 44
1.0
  0
POINT
  5
102A97
330
102A57
100
AcDbEntity
  8
Defpoints
 62
     0
440
 16777216
100
AcDbPoint
 10
118.7509361898051
 20
100.3142922810958
 30
0.0
  0
POINT
  5
102A98
330
102A57
100
AcDbEntity
  8
Defpoints
 62
     0
440
 16777216
100
AcDbPoint
 10
138.7509361898051
 20
58.01429228109588
 30
0.0
  0
POINT
  5
102A99
330
102A57
100
AcDbEntity
  8
Defpoints
 62
     0
440
 16777216
100
AcDbPoint
 10
138.7509361898051
 20
39.69388330438846
 30
0.0
  0
ENDBLK
  5
102A59
330
102A57
100
AcDbEntity
  8
0
100
AcDbBlockEnd
  0
BLOCK
  5
102C08
330
102C07
100
AcDbEntity
  8
0
100
AcDbBlockBegin
  2
*D12
 70
     1
 10
0.0
 20
0.0
 30
0.0
  3
*D12
  1

  0
LINE
  5
102C3B
330
102C07
100
AcDbEntity
  8
AM_5
440
 16777216
100
AcDbLine
 10
641.7748403205862
 20
338.9788623559314
 30
0.0
 11
641.7748403205862
 21
348.3030140348397
 31
0.0
  0
LINE
  5
102C3C
330
102C07
100
AcDbEntity
  8
AM_5
440
 16777216
100
AcDbLine
 10
649.7748403205862
 20
338.9788623559314
 30
0.0
 11
649.7748403205862
 21
348.3030140348397
 31
0.0
  0
LINE
  5
102C3D
330
102C07
100
AcDbEntity
  8
AM_5
440
 16777216
100
AcDbLine
 10
644.2748403205862
 20
347.3030140348397
 30
0.0
 11
647.2748403205862
 21
347.3030140348397
 31
0.0
  0
SOLID
  5
102C3E
330
102C07
100
AcDbEntity
  8
AM_5
440
 16777216
100
AcDbTrace
 10
644.2748403205862
 20
347.7196807015063
 30
0.0
 11
644.2748403205862
 21
346.886347368173
 31
0.0
 12
641.7748403205862
 22
347.3030140348397
 32
0.0
 13
641.7748403205862
 23
347.3030140348397
 33
0.0
  0
SOLID
  5
102C3F
330
102C07
100
AcDbEntity
  8
AM_5
440
 16777216
100
AcDbTrace
 10
647.2748403205862
 20
347.7196807015063
 30
0.0
 11
647.2748403205862
 21
346.886347368173
 31
0.0
 12
649.7748403205862
 22
347.3030140348397
 32
0.0
 13
649.7748403205862
 23
347.3030140348397
 33
0.0
  0
MTEXT
  5
102C40
330
102C07
100
AcDbEntity
  8
AM_5
 62
     2
440
 16777216
100
AcDbMText
 10
645.7748403205862
 20
350.5530140348397
 30
0.0
 40
3.5
 41
0.0
 71
     5
 72
     1
  1
%%c8
 73
     1
 44
1.0
  0
POINT
  5
102C41
330
102C07
100
AcDbEntity
  8
Defpoints
 62
     0
440
 16777216
100
AcDbPoint
 10
641.7748403205862
 20
337.9788623559314
 30
0.0
  0
POINT
  5
102C42
330
102C07
100
AcDbEntity
  8
Defpoints
 62
     0
440
 16777216
100
AcDbPoint
 10
649.7748403205862
 20
337.9788623559314
 30
0.0
  0
POINT
  5
102C43
330
102C07
100
AcDbEntity
  8
Defpoints
 62
     0
440
 16777216
100
AcDbPoint
 10
649.7748403205862
 20
347.3030140348397
 30
0.0
  0
ENDBLK
  5
102C09
330
102C07
100
AcDbEntity
  8
0
100
AcDbBlockEnd
  0
BLOCK
  5
102C14
330
102C13
100
AcDbEntity
  8
0
100
AcDbBlockBegin
  2
*D13
 70
     1
 10
0.0
 20
0.0
 30
0.0
  3
*D13
  1

  0
LINE
  5
102C44
330
102C13
100
AcDbEntity
  8
AM_5
440
 16777216
100
AcDbLine
 10
648.7748403205862
 20
301.5421157933786
 30
0.0
 11
662.8748403205862
 21
301.5421157933786
 31
0.0
  0
LINE
  5
102C45
330
102C13
100
AcDbEntity
  8
AM_5
440
 16777216
100
AcDbLine
 10
650.8748403205863
 20
307.0421157933787
 30
0.0
 11
662.8748403205862
 21
307.0421157933787
 31
0.0
  0
LINE
  5
102C46
330
102C13
100
AcDbEntity
  8
AM_5
440
 16777216
100
AcDbLine
 10
661.8748403205862
 20
299.0421157933786
 30
0.0
 11
661.8748403205862
 21
296.5421157933786
 31
0.0
  0
LINE
  5
102C47
330
102C13
100
AcDbEntity
  8
AM_5
440
 16777216
100
AcDbLine
 10
661.8748403205862
 20
309.5421157933786
 30
0.0
 11
661.8748403205862
 21
320.0870905402092
 31
0.0
  0
LINE
  5
102C48
330
102C13
100
AcDbEntity
  8
AM_5
440
 16777216
100
AcDbLine
 10
661.8748403205862
 20
301.5421157933786
 30
0.0
 11
661.8748403205862
 21
307.0421157933787
 31
0.0
  0
SOLID
  5
102C49
330
102C13
100
AcDbEntity
  8
AM_5
440
 16777216
100
AcDbTrace
 10
661.4581736539196
 20
299.0421157933786
 30
0.0
 11
662.2915069872528
 21
299.0421157933786
 31
0.0
 12
661.8748403205862
 22
301.5421157933786
 32
0.0
 13
661.8748403205862
 23
301.5421157933786
 33
0.0
  0
SOLID
  5
102C4A
330
102C13
100
AcDbEntity
  8
AM_5
440
 16777216
100
AcDbTrace
 10
661.4581736539196
 20
309.5421157933786
 30
0.0
 11
662.2915069872528
 21
309.5421157933786
 31
0.0
 12
661.8748403205862
 22
307.0421157933787
 32
0.0
 13
661.8748403205862
 23
307.0421157933787
 33
0.0
  0
MTEXT
  5
102C4B
330
102C13
100
AcDbEntity
  8
AM_5
 62
     2
440
 16777216
100
AcDbMText
 10
658.6248403205861
 20
316.0646031667941
 30
0.0
 40
3.5
 41
0.0
 71
     5
 72
     1
  1
5.5
 11
0.0000000000000001
 21
1.0
 31
0.0
 73
     1
 44
1.0
  0
POINT
  5
102C4C
330
102C13
100
AcDbEntity
  8
Defpoints
 62
     0
440
 16777216
100
AcDbPoint
 10
647.7748403205862
 20
301.5421157933786
 30
0.0
  0
POINT
  5
102C4D
330
102C13
100
AcDbEntity
  8
Defpoints
 62
     0
440
 16777216
100
AcDbPoint
 10
649.8748403205862
 20
307.0421157933787
 30
0.0
  0
POINT
  5
102C4E
330
102C13
100
AcDbEntity
  8
Defpoints
 62
     0
440
 16777216
100
AcDbPoint
 10
661.8748403205862
 20
307.0421157933787
 30
0.0
  0
ENDBLK
  5
102C15
330
102C13
100
AcDbEntity
  8
0
100
AcDbBlockEnd
  0
BLOCK
  5
102C22
330
102C21
100
AcDbEntity
  8
0
100
AcDbBlockBegin
  2
*D14
 70
     1
 10
0.0
 20
0.0
 30
0.0
  3
*D14
  1

  0
LINE
  5
102C4F
330
102C21
100
AcDbEntity
  8
AM_5
440
 16777216
100
AcDbLine
 10
640.6748403205864
 20
307.0421157933787
 30
0.0
 11
626.6009738306228
 21
307.0421157933787
 31
0.0
  0
LINE
  5
102C50
330
102C21
100
AcDbEntity
  8
AM_5
440
 16777216
100
AcDbLine
 10
644.7748403205864
 20
262.0421157933786
 30
0.0
 11
626.6009738306228
 21
262.0421157933786
 31
0.0
  0
LINE
  5
102C51
330
102C21
100
AcDbEntity
  8
AM_5
440
 16777216
100
AcDbLine
 10
627.6009738306228
 20
304.5421157933786
 30
0.0
 11
627.6009738306228
 21
264.5421157933786
 31
0.0
  0
SOLID
  5
102C52
330
102C21
100
AcDbEntity
  8
AM_5
440
 16777216
100
AcDbTrace
 10
627.1843071639562
 20
304.5421157933786
 30
0.0
 11
628.0176404972896
 21
304.5421157933786
 31
0.0
 12
627.6009738306228
 22
307.0421157933787
 32
0.0
 13
627.6009738306228
 23
307.0421157933787
 33
0.0
  0
SOLID
  5
102C53
330
102C21
100
AcDbEntity
  8
AM_5
440
 16777216
100
AcDbTrace
 10
627.1843071639562
 20
264.5421157933786
 30
0.0
 11
628.0176404972896
 21
264.5421157933786
 31
0.0
 12
627.6009738306228
 22
262.0421157933786
 32
0.0
 13
627.6009738306228
 23
262.0421157933786
 33
0.0
  0
MTEXT
  5
102C54
330
102C21
100
AcDbEntity
  8
AM_5
 62
     2
440
 16777216
100
AcDbMText
 10
624.3509738306228
 20
284.5421157933787
 30
0.0
 40
3.5
 41
0.0
 71
     5
 72
     1
  1
45
 11
0.0000000000000001
 21
1.0
 31
0.0
 73
     1
 44
1.0
  0
POINT
  5
102C55
330
102C21
100
AcDbEntity
  8
Defpoints
 62
     0
440
 16777216
100
AcDbPoint
 10
641.6748403205864
 20
307.0421157933787
 30
0.0
  0
POINT
  5
102C56
330
102C21
100
AcDbEntity
  8
Defpoints
 62
     0
440
 16777216
100
AcDbPoint
 10
645.7748403205862
 20
262.0421157933786
 30
0.0
  0
POINT
  5
102C57
330
102C21
100
AcDbEntity
  8
Defpoints
 62
     0
440
 16777216
100
AcDbPoint
 10
627.6009738306228
 20
262.0421157933786
 30
0.0
  0
ENDBLK
  5
102C23
330
102C21
100
AcDbEntity
  8
0
100
AcDbBlockEnd
  0
BLOCK
  5
102C2E
330
102C2D
100
AcDbEntity
  8
0
100
AcDbBlockBegin
  2
*D15
 70
     1
 10
0.0
 20
0.0
 30
0.0
  3
*D15
  1

  0
LINE
  5
102C58
330
102C2D
100
AcDbEntity
  8
AM_5
440
 16777216
100
AcDbLine
 10
643.024840320586
 20
283.9080528081334
 30
0.0
 11
643.024840320586
 21
279.9363790951812
 31
0.0
  0
LINE
  5
102C59
330
102C2D
100
AcDbEntity
  8
AM_5
440
 16777216
100
AcDbLine
 10
648.524840320586
 20
284.3461280092103
 30
0.0
 11
648.524840320586
 21
279.9363790951812
 31
0.0
  0
LINE
  5
102C5A
330
102C2D
100
AcDbEntity
  8
AM_5
440
 16777216
100
AcDbLine
 10
640.524840320586
 20
280.9363790951812
 30
0.0
 11
638.024840320586
 21
280.9363790951812
 31
0.0
  0
LINE
  5
102C5B
330
102C2D
100
AcDbEntity
  8
AM_5
440
 16777216
100
AcDbLine
 10
651.024840320586
 20
280.9363790951812
 30
0.0
 11
664.7198150674165
 21
280.9363790951812
 31
0.0
  0
LINE
  5
102C5C
330
102C2D
100
AcDbEntity
  8
AM_5
440
 16777216
100
AcDbLine
 10
643.024840320586
 20
280.9363790951812
 30
0.0
 11
648.524840320586
 21
280.9363790951812
 31
0.0
  0
SOLID
  5
102C5D
330
102C2D
100
AcDbEntity
  8
AM_5
440
 16777216
100
AcDbTrace
 10
640.524840320586
 20
281.3530457618479
 30
0.0
 11
640.524840320586
 21
280.5197124285145
 31
0.0
 12
643.024840320586
 22
280.9363790951812
 32
0.0
 13
643.024840320586
 23
280.9363790951812
 33
0.0
  0
SOLID
  5
102C5E
330
102C2D
100
AcDbEntity
  8
AM_5
440
 16777216
100
AcDbTrace
 10
651.024840320586
 20
281.3530457618479
 30
0.0
 11
651.024840320586
 21
280.5197124285145
 31
0.0
 12
648.524840320586
 22
280.9363790951812
 32
0.0
 13
648.524840320586
 23
280.9363790951812
 33
0.0
  0
MTEXT
  5
102C5F
330
102C2D
100
AcDbEntity
  8
AM_5
 62
     2
440
 16777216
100
AcDbMText
 10
659.1223276940012
 20
284.1863790951812
 30
0.0
 40
3.5
 41
0.0
 71
     5
 72
     1
  1
%%c5.5
 73
     1
 44
1.0
  0
POINT
  5
102C60
330
102C2D
100
AcDbEntity
  8
Defpoints
 62
     0
440
 16777216
100
AcDbPoint
 10
643.024840320586
 20
284.9080528081334
 30
0.0
  0
POINT
  5
102C61
330
102C2D
100
AcDbEntity
  8
Defpoints
 62
     0
440
 16777216
100
AcDbPoint
 10
648.524840320586
 20
285.3461280092103
 30
0.0
  0
POINT
  5
102C62
330
102C2D
100
AcDbEntity
  8
Defpoints
 62
     0
440
 16777216
100
AcDbPoint
 10
648.524840320586
 20
280.9363790951812
 30
0.0
  0
ENDBLK
  5
102C2F
330
102C2D
100
AcDbEntity
  8
0
100
AcDbBlockEnd
  0
ENDSEC
  0
SECTION
  2
ENTITIES
  0
LINE
  5
101DE2
330
1F
100
AcDbEntity
  8
AM_5
100
AcDbLine
 10
372.0072487792159
 20
150.3142922810958
 30
0.0
 11
372.0072487792159
 21
58.01429228109588
 31
0.0
  0
LINE
  5
101DE3
330
1F
100
AcDbEntity
  8
AM_5
100
AcDbLine
 10
262.4072487792159
 20
58.01429228109588
 30
0.0
 11
262.4072487792159
 21
150.3142922810958
 31
0.0
  0
LINE
  5
101DE4
330
1F
100
AcDbEntity
  8
AM_5
100
AcDbLine
 10
369.7072487792159
 20
165.3142922810958
 30
0.0
 11
369.7072487792159
 21
60.31429228109584
 31
0.0
  0
LINE
  5
101DE5
330
1F
100
AcDbEntity
  8
AM_5
100
AcDbLine
 10
264.7072487792159
 20
60.31429228109584
 30
0.0
 11
264.7072487792159
 21
165.3142922810958
 31
0.0
  0
LINE
  5
101DE6
330
1F
100
AcDbEntity
  8
AM_5
100
AcDbLine
 10
317.2072487792159
 20
165.3142922810958
 30
0.0
 11
317.2072487792159
 21
100.3142922810958
 31
0.0
  0
CIRCLE
  5
101DE7
330
1F
100
AcDbEntity
  8
AM_5
100
AcDbCircle
 10
279.7072487792159
 20
112.3142922810958
 30
0.0
 40
2.85
  0
CIRCLE
  5
101DE8
330
1F
100
AcDbEntity
  8
AM_5
100
AcDbCircle
 10
279.7072487792159
 20
112.3142922810958
 30
0.0
 40
3.911764705882353
  0
CIRCLE
  5
101DE9
330
1F
100
AcDbEntity
  8
AM_5
100
AcDbCircle
 10
354.7072487792158
 20
112.3142922810958
 30
0.0
 40
2.85
  0
CIRCLE
  5
101DEA
330
1F
100
AcDbEntity
  8
AM_5
100
AcDbCircle
 10
354.7072487792158
 20
112.3142922810958
 30
0.0
 40
3.911764705882353
  0
LINE
  5
101DEB
330
1F
100
AcDbEntity
  8
AM_5
100
AcDbLine
 10
467.9912117292123
 20
150.3142922810958
 30
0.0
 11
467.9912117292123
 21
58.01429228109588
 31
0.0
  0
LINE
  5
101DEC
330
1F
100
AcDbEntity
  8
AM_5
100
AcDbLine
 10
527.9912117292123
 20
100.3142922810958
 30
0.0
 11
527.9912117292123
 21
165.3142922810958
 31
0.0
  0
LINE
  5
101DED
330
1F
100
AcDbEntity
  8
AM_5
100
AcDbLine
 10
525.6912117292123
 20
100.3142922810958
 30
0.0
 11
525.6912117292123
 21
140.1142922810961
 31
0.0
  0
LINE
  5
101DF0
330
1F
100
AcDbEntity
  8
AM_5
100
AcDbLine
 10
279.7072487792159
 20
119.8142922810958
 30
0.0
 11
279.7072487792159
 21
104.8142922810958
 31
0.0
  0
LINE
  5
101DF1
330
1F
100
AcDbEntity
  8
AM_5
100
AcDbLine
 10
354.7072487792158
 20
119.8142922810958
 30
0.0
 11
354.7072487792158
 21
104.8142922810958
 31
0.0
  0
DIMENSION
  5
101DF2
330
1F
100
AcDbEntity
  8
AM_5
100
AcDbDimension
  2
*D1
 10
353.9081203276643
 20
115.0499628968538
 30
0.0
 11
387.9099686869892
 21
-1.349168253455629
 31
0.0
 70
   163
  1
4-<>
 71
     5
 42
5.699999999999917
  3
AM_ISO$3
100
AcDbDiametricDimension
 15
355.5063772307668
 25
109.578621665338
 35
0.0
 40
0.0
1001
ACAD_DSTYLE_DIMINSPECT
1070
   396
1000
100%
1070
   395
1000

1070
   394
1070
    33
1070
   393
1070
     0
1001
ACAD
1000
DSTYLE
1002
{
1070
     3
1000

1070
    74
1070
     0
1070
   172
1070
     1
1070
   288
1070
     0
1070
   289
1070
     3
1002
}
  0
LINE
  5
101DF3
330
1F
100
AcDbEntity
  8
AM_5
100
AcDbLine
 10
178.7509361898051
 20
150.3142922810958
 30
0.0
 11
178.7509361898051
 21
58.01429228109588
 31
0.0
  0
LINE
  5
101DF4
330
1F
100
AcDbEntity
  8
AM_5
100
AcDbLine
 10
121.050936189805
 20
100.3142922810958
 30
0.0
 11
121.050936189805
 21
140.1142922810961
 31
0.0
  0
LINE
  5
101DF5
330
1F
100
AcDbEntity
  8
AM_5
100
AcDbLine
 10
118.7509361898051
 20
100.3142922810958
 30
0.0
 11
118.7509361898051
 21
165.3142922810958
 31
0.0
  0
DIMENSION
  5
101DF6
330
1F
100
AcDbEntity
  8
AM_5
100
AcDbDimension
  2
*D2
 10
98.750936189805
 20
100.3142922810958
 30
0.0
 11
95.50093618980495
 21
132.8142922810958
 31
0.0
 70
    32
 71
     5
 42
65.0
  3
AM_ISO$0
100
AcDbAlignedDimension
 13
118.7509361898051
 23
165.3142922810958
 33
0.0
 14
118.7509361898051
 24
100.3142922810958
 34
0.0
 50
90.0
100
AcDbRotatedDimension
1001
ACAD_DSTYLE_DIMINSPECT
1070
   396
1000
100%
1070
   395
1000

1070
   394
1070
    33
1070
   393
1070
     0
  0
DIMENSION
  5
101DF9
330
1F
100
AcDbEntity
  8
AM_5
100
AcDbDimension
  2
*D3
 10
230.1530776864522
 20
60.31429228109584
 30
0.0
 11
226.9030776864522
 21
112.8142922810959
 31
0.0
 70
    32
 71
     5
 42
105.0
  3
AM_ISO$0
100
AcDbAlignedDimension
 13
264.7072487792159
 23
165.3142922810958
 33
0.0
 14
264.7072487792159
 24
60.31429228109584
 34
0.0
 50
90.0
100
AcDbRotatedDimension
1001
ACAD_DSTYLE_DIMINSPECT
1070
   396
1000
100%
1070
   395
1000

1070
   394
1070
    33
1070
   393
1070
     0
  0
LINE
  5
101DFA
330
1F
100
AcDbEntity
  8
AM_5
100
AcDbLine
 10
372.0072487792159
 20
58.01429228109588
 30
0.0
 11
262.4072487792159
 21
58.01429228109588
 31
0.0
  0
LINE
  5
101DFB
330
1F
100
AcDbEntity
  8
AM_5
100
AcDbLine
 10
369.7072487792159
 20
60.31429228109584
 30
0.0
 11
264.7072487792159
 21
60.31429228109584
 31
0.0
  0
LINE
  5
101DFC
330
1F
100
AcDbEntity
  8
AM_5
100
AcDbLine
 10
264.7072487792159
 20
100.3142922810958
 30
0.0
 11
369.7072487792159
 21
100.3142922810958
 31
0.0
  0
DIMENSION
  5
101DFE
330
1F
100
AcDbEntity
  8
AM_5
100
AcDbDimension
  2
*D4
 10
164.7523381446928
 20
87.98256777750706
 30
0.0
 11
132.7328496539165
 21
2.665362103468098
 31
0.0
 70
   163
  1
2-<>
 71
     5
 42
5.700000000000216
  3
AM_ISO$3
100
AcDbDiametricDimension
 15
162.7495342349171
 25
82.64601678468507
 35
0.0
 40
0.0
1001
ACAD_DSTYLE_DIMINSPECT
1070
   396
1000
100%
1070
   395
1000

1070
   394
1070
    33
1070
   393
1070
     0
1001
ACAD
1000
DSTYLE
1002
{
1070
     3
1000

1070
    74
1070
     0
1070
   172
1070
     1
1070
   288
1070
     0
1070
   289
1070
     3
1002
}
  0
LINE
  5
101E03
330
1F
100
AcDbEntity
  8
AM_5
100
AcDbLine
 10
138.7509361898051
 20
100.3142922810958
 30
0.0
 11
138.7509361898051
 21
58.01429228109588
 31
0.0
  0
DIMENSION
  5
101E04
330
1F
100
AcDbEntity
  8
AM_5
100
AcDbDimension
  2
*D5
 10
98.750936189805
 20
60.31429228109584
 30
0.0
 11
95.50093618980495
 21
80.31429228109587
 31
0.0
 70
    32
 71
     5
 42
40.0
  3
AM_ISO$0
100
AcDbAlignedDimension
 13
118.7509361898051
 23
100.3142922810958
 33
0.0
 14
138.7509361898051
 24
60.31429228109584
 34
0.0
 50
90.0
100
AcDbRotatedDimension
1001
ACAD_DSTYLE_DIMINSPECT
1070
   396
1000
100%
1070
   395
1000

1070
   394
1070
    33
1070
   393
1070
     0
  0
LINE
  5
101E05
330
1F
100
AcDbEntity
  8
AM_5
100
AcDbLine
 10
138.7509361898051
 20
60.31429228109584
 30
0.0
 11
178.7509361898051
 21
60.31429228109584
 31
0.0
  0
LINE
  5
101E06
330
1F
100
AcDbEntity
  8
AM_5
100
AcDbLine
 10
138.7509361898051
 20
58.01429228109588
 30
0.0
 11
178.7509361898051
 21
58.01429228109588
 31
0.0
  0
LINE
  5
101E07
330
1F
100
AcDbEntity
  8
AM_5
100
AcDbLine
 10
138.7509361898051
 20
100.3142922810958
 30
0.0
 11
118.7509361898051
 21
100.3142922810958
 31
0.0
  0
LINE
  5
101E08
330
1F
100
AcDbEntity
  8
AM_5
100
AcDbLine
 10
118.7509361898051
 20
109.7642922810958
 30
0.0
 11
121.050936189805
 21
108.8142922810958
 31
0.0
  0
LINE
  5
101E09
330
1F
100
AcDbEntity
  8
AM_5
100
AcDbLine
 10
114.7509361898051
 20
112.3142922810958
 30
0.0
 11
125.050936189805
 21
112.3142922810958
 31
0.0
  0
CIRCLE
  5
101E0A
330
1F
100
AcDbEntity
  8
AM_5
100
AcDbCircle
 10
163.7509361898051
 20
85.31429228109596
 30
0.0
 40
2.85
  0
CIRCLE
  5
101E0B
330
1F
100
AcDbEntity
  8
AM_5
100
AcDbCircle
 10
163.7509361898051
 20
85.31429228109596
 30
0.0
 40
3.911764705882353
  0
LINE
  5
101E0C
330
1F
100
AcDbEntity
  8
AM_5
100
AcDbLine
 10
156.2509361898051
 20
85.31429228109596
 30
0.0
 11
171.2509361898051
 21
85.31429228109596
 31
0.0
  0
LINE
  5
101E0D
330
1F
100
AcDbEntity
  8
AM_5
100
AcDbLine
 10
163.7509361898051
 20
92.81429228109596
 30
0.0
 11
163.7509361898051
 21
77.81429228109596
 31
0.0
  0
LINE
  5
101E0E
330
1F
100
AcDbEntity
  8
AM_5
100
AcDbLine
 10
272.2072487792159
 20
112.3142922810958
 30
0.0
 11
287.2072487792159
 21
112.3142922810958
 31
0.0
  0
DIMENSION
  5
101E0F
330
1F
100
AcDbEntity
  8
AM_5
100
AcDbDimension
  2
*D6
 10
481.9624192740638
 20
97.97212713003398
 30
0.0
 11
512.1931181484207
 21
19.87259930590358
 31
0.0
 70
   163
  1
2-<>
 71
     5
 42
5.700000000000372
  3
AM_ISO$3
100
AcDbDiametricDimension
 15
484.0200041843585
 25
92.65645743215662
 35
0.0
 40
0.0
1001
ACAD_DSTYLE_DIMINSPECT
1070
   396
1000
100%
1070
   395
1000

1070
   394
1070
    33
1070
   393
1070
     0
1001
ACAD
1000
DSTYLE
1002
{
1070
     3
1000

1070
    74
1070
     0
1070
   172
1070
     1
1070
   288
1070
     0
1070
   289
1070
     3
1002
}
  0
LINE
  5
101E12
330
1F
100
AcDbEntity
  8
AM_5
100
AcDbLine
 10
347.2072487792158
 20
112.3142922810958
 30
0.0
 11
362.2072487792158
 21
112.3142922810958
 31
0.0
  0
LINE
  5
101E13
330
1F
100
AcDbEntity
  8
AM_5
100
AcDbLine
 10
507.9912117292123
 20
100.3142922810958
 30
0.0
 11
507.9912117292123
 21
58.01429228109588
 31
0.0
  0
LINE
  5
101E15
330
1F
100
AcDbEntity
  8
AM_5
100
AcDbLine
 10
507.9912117292123
 20
58.01429228109588
 30
0.0
 11
467.9912117292123
 21
58.01429228109588
 31
0.0
  0
LINE
  5
101E16
330
1F
100
AcDbEntity
  8
AM_5
100
AcDbLine
 10
507.9912117292123
 20
60.31429228109584
 30
0.0
 11
467.9912117292123
 21
60.31429228109584
 31
0.0
  0
LINE
  5
101E17
330
1F
100
AcDbEntity
  8
AM_5
100
AcDbLine
 10
475.4912117292123
 20
95.31429228109585
 30
0.0
 11
490.4912117292123
 21
95.31429228109585
 31
0.0
  0
LINE
  5
101E18
330
1F
100
AcDbEntity
  8
AM_5
100
AcDbLine
 10
482.9912117292123
 20
102.8142922810958
 30
0.0
 11
482.9912117292123
 21
87.81429228109585
 31
0.0
  0
CIRCLE
  5
101E19
330
1F
100
AcDbEntity
  8
AM_5
100
AcDbCircle
 10
482.9912117292123
 20
95.31429228109592
 30
0.0
 40
3.911764705882353
  0
CIRCLE
  5
101E1A
330
1F
100
AcDbEntity
  8
AM_5
100
AcDbCircle
 10
482.9912117292123
 20
95.31429228109592
 30
0.0
 40
2.85
  0
LINE
  5
101E1B
330
1F
100
AcDbEntity
  8
AM_5
100
AcDbLine
 10
507.9912117292123
 20
100.3142922810958
 30
0.0
 11
527.9912117292123
 21
100.3142922810958
 31
0.0
  0
LINE
  5
101E1C
330
1F
100
AcDbEntity
  8
AM_5
100
AcDbLine
 10
531.9912117292123
 20
112.3142922810958
 30
0.0
 11
521.6912117292126
 21
112.3142922810958
 31
0.0
  0
LINE
  5
101E1D
330
1F
100
AcDbEntity
  8
AM_5
100
AcDbLine
 10
525.6912117292126
 20
109.7642922810958
 30
0.0
 11
527.9912117292123
 21
108.8142922810958
 31
0.0
  0
LINE
  5
101E1F
330
1F
100
AcDbEntity
  8
AM_5
100
AcDbLine
 10
372.0072487792159
 20
325.1060849661619
 30
0.0
 11
262.4072487792159
 21
325.106084966162
 31
0.0
  0
LINE
  5
101E20
330
1F
100
AcDbEntity
  8
AM_5
100
AcDbLine
 10
369.7072487792159
 20
305.1060849661618
 30
0.0
 11
264.7072487792159
 21
305.106084966162
 31
0.0
  0
LINE
  5
101E21
330
1F
100
AcDbEntity
  8
AM_5
100
AcDbLine
 10
369.7072487792159
 20
322.806084966162
 30
0.0
 11
264.7072487792159
 21
322.806084966162
 31
0.0
  0
LINE
  5
101E24
330
1F
100
AcDbEntity
  8
AM_5
100
AcDbLine
 10
264.7072487792159
 20
165.3142922810958
 30
0.0
 11
369.7072487792159
 21
165.3142922810958
 31
0.0
  0
LINE
  5
101E25
330
1F
100
AcDbEntity
  8
AM_5
100
AcDbLine
 10
372.0072487792159
 20
265.1060849661619
 30
0.0
 11
262.4072487792159
 21
265.106084966162
 31
0.0
  0
DIMENSION
  5
101E26
330
1F
100
AcDbEntity
  8
AM_5
100
AcDbDimension
  2
*D7
 10
369.7072487792159
 20
201.1475936855181
 30
0.0
 11
317.2072487792159
 21
201.1475936855181
 31
0.0
 70
   160
  1
<>
 71
     5
 42
105.0
  3
AM_ISO$0
100
AcDbAlignedDimension
 13
264.7072487792159
 23
165.3142922810958
 33
0.0
 14
369.7072487792159
 24
165.3142922810958
 34
0.0
100
AcDbRotatedDimension
1001
ACAD_DSTYLE_DIMINSPECT
1070
   396
1000
100%
1070
   395
1000

1070
   394
1070
    33
1070
   393
1070
     0
  0
LINE
  5
101E28
330
1F
100
AcDbEntity
  8
AM_5
100
AcDbLine
 10
262.4072487792159
 20
265.106084966162
 30
0.0
 11
262.4072487792159
 21
325.106084966162
 31
0.0
  0
LINE
  5
101E29
330
1F
100
AcDbEntity
  8
AM_5
100
AcDbLine
 10
264.7072487792159
 20
265.106084966162
 30
0.0
 11
264.7072487792159
 21
322.806084966162
 31
0.0
  0
DIMENSION
  5
101E30
330
1F
100
AcDbEntity
  8
AM_5
100
AcDbDimension
  2
*D8
 10
178.7509361898051
 20
201.1475936855181
 30
0.0
 11
148.7509361898051
 21
201.1475936855181
 31
0.0
 70
   160
  1
<>
 71
     5
 42
60.0
  3
AM_ISO$0
100
AcDbAlignedDimension
 13
118.7509361898051
 23
165.3142922810958
 33
0.0
 14
178.7509361898051
 24
150.3142922810958
 34
0.0
100
AcDbRotatedDimension
1001
ACAD_DSTYLE_DIMINSPECT
1070
   396
1000
100%
1070
   395
1000

1070
   394
1070
    33
1070
   393
1070
     0
  0
DIMENSION
  5
101E31
330
1F
100
AcDbEntity
  8
AM_5
100
AcDbDimension
  2
*D9
 10
262.4072487792159
 20
201.1475936855181
 30
0.0
 11
251.1097614058006
 21
204.3979381737071
 31
0.0
 70
    32
  1
t=<>
 71
     5
 42
2.30000000000001
  3
AM_ISO$0
100
AcDbAlignedDimension
 13
264.7072487792159
 23
165.3142922810958
 33
0.0
 14
262.4072487792159
 24
150.3142922810958
 34
0.0
100
AcDbRotatedDimension
1001
ACAD_DSTYLE_DIMINSPECT
1070
   396
1000
100%
1070
   395
1000

1070
   394
1070
    33
1070
   393
1070
     0
  0
LINE
  5
101E34
330
1F
100
AcDbEntity
  8
AM_5
100
AcDbLine
 10
121.050936189805
 20
150.3142922810958
 30
0.0
 11
121.050936189805
 21
165.3142922810958
 31
0.0
  0
LINE
  5
101E35
330
1F
100
AcDbEntity
  8
AM_5
100
AcDbLine
 10
178.7509361898051
 20
150.3142922810958
 30
0.0
 11
121.050936189805
 21
150.3142922810958
 31
0.0
  0
LWPOLYLINE
  5
101E36
330
1F
100
AcDbEntity
  8
AM_5
100
AcDbPolyline
 90
        6
 70
     0
 43
0.0
 10
121.050936189805
 20
150.314292281096
 10
121.050936189805
 20
140.1142922810962
 42
0.1231056256176608
 10
121.1685832486284
 20
139.6437040458021
 10
128.5976782270504
 20
125.714150961261
 42
-0.4032683806705899
 10
128.2186746140078
 20
124.3794797126705
 10
121.050936189805
 20
120.2040981063388
  0
LWPOLYLINE
  5
101E37
330
1F
100
AcDbEntity
  8
AM_5
100
AcDbPolyline
 90
        4
 70
     0
 43
0.0
 10
121.050936189805
 20
134.976792281096
 10
125.5257731480089
 20
126.5864729844637
 42
-0.4032683806705883
 10
125.1467695349663
 20
125.2518017358733
 10
121.050936189805
 20
122.865879398886
  0
LINE
  5
101E38
330
1F
100
AcDbEntity
  8
AM_5
100
AcDbLine
 10
118.7509361898051
 20
114.8642922810958
 30
0.0
 11
121.050936189805
 21
115.8142922810958
 31
0.0
  0
LINE
  5
101E39
330
1F
100
AcDbEntity
  8
AM_5
100
AcDbLine
 10
118.7509361898051
 20
149.7642922810958
 30
0.0
 11
121.050936189805
 21
148.8142922810958
 31
0.0
  0
LINE
  5
101E3A
330
1F
100
AcDbEntity
  8
AM_5
100
AcDbLine
 10
163.7509361898051
 20
132.8142922810958
 30
0.0
 11
163.7509361898051
 21
117.8142922810958
 31
0.0
  0
CIRCLE
  5
101E3B
330
1F
100
AcDbEntity
  8
AM_5
100
AcDbCircle
 10
163.7509361898051
 20
125.3142922810958
 30
0.0
 40
2.85
  0
CIRCLE
  5
101E3C
330
1F
100
AcDbEntity
  8
AM_5
100
AcDbCircle
 10
163.7509361898051
 20
125.3142922810958
 30
0.0
 40
3.911764705882353
  0
LINE
  5
101E3D
330
1F
100
AcDbEntity
  8
AM_5
100
AcDbLine
 10
156.2509361898051
 20
125.3142922810958
 30
0.0
 11
171.2509361898051
 21
125.3142922810958
 31
0.0
  0
LINE
  5
101E3E
330
1F
100
AcDbEntity
  8
AM_5
100
AcDbLine
 10
118.7509361898051
 20
154.8642922810958
 30
0.0
 11
121.050936189805
 21
155.8142922810958
 31
0.0
  0
LINE
  5
101E3F
330
1F
100
AcDbEntity
  8
AM_5
100
AcDbLine
 10
114.7509361898051
 20
152.3142922810958
 30
0.0
 11
125.050936189805
 21
152.3142922810958
 31
0.0
  0
LINE
  5
101E40
330
1F
100
AcDbEntity
  8
AM_5
100
AcDbLine
 10
121.050936189805
 20
165.3142922810958
 30
0.0
 11
118.7509361898051
 21
165.3142922810958
 31
0.0
  0
CIRCLE
  5
101E41
330
1F
100
AcDbEntity
  8
AM_5
100
AcDbCircle
 10
279.7072487792159
 20
152.3142922810958
 30
0.0
 40
2.85
  0
CIRCLE
  5
101E42
330
1F
100
AcDbEntity
  8
AM_5
100
AcDbCircle
 10
279.7072487792159
 20
152.3142922810958
 30
0.0
 40
3.911764705882353
  0
LINE
  5
101E43
330
1F
100
AcDbEntity
  8
AM_5
100
AcDbLine
 10
279.7072487792159
 20
159.8142922810958
 30
0.0
 11
279.7072487792159
 21
144.8142922810958
 31
0.0
  0
LINE
  5
101E45
330
1F
100
AcDbEntity
  8
AM_5
100
AcDbLine
 10
262.4072487792159
 20
150.3142922810958
 30
0.0
 11
264.7072487792159
 21
150.3142922810958
 31
0.0
  0
LINE
  5
101E46
330
1F
100
AcDbEntity
  8
AM_5
100
AcDbLine
 10
272.2072487792159
 20
152.3142922810958
 30
0.0
 11
287.2072487792159
 21
152.3142922810958
 31
0.0
  0
LINE
  5
101E4A
330
1F
100
AcDbEntity
  8
AM_5
100
AcDbLine
 10
284.7072487792159
 20
318.806084966162
 30
0.0
 11
284.7072487792159
 21
329.106084966162
 31
0.0
  0
LINE
  5
101E4B
330
1F
100
AcDbEntity
  8
AM_5
100
AcDbLine
 10
281.2072487792159
 20
322.806084966162
 30
0.0
 11
282.1572487792159
 21
325.106084966162
 31
0.0
  0
LINE
  5
101E4C
330
1F
100
AcDbEntity
  8
AM_5
100
AcDbLine
 10
287.2572487792158
 20
325.106084966162
 30
0.0
 11
288.2072487792159
 21
322.806084966162
 31
0.0
  0
LINE
  5
101E4D
330
1F
100
AcDbEntity
  8
AM_5
100
AcDbLine
 10
369.7072487792159
 20
265.1060849661619
 30
0.0
 11
369.7072487792159
 21
322.806084966162
 31
0.0
  0
LINE
  5
101E4E
330
1F
100
AcDbEntity
  8
AM_5
100
AcDbLine
 10
372.0072487792159
 20
265.1060849661619
 30
0.0
 11
372.0072487792159
 21
325.1060849661619
 31
0.0
  0
DIMENSION
  5
101E56
330
1F
100
AcDbEntity
  8
AM_5
100
AcDbDimension
  2
*D10
 10
372.0072487792159
 20
201.1475936855181
 30
0.0
 11
383.3047361526312
 21
204.3979381737071
 31
0.0
 70
    32
  1
t=<>
 71
     5
 42
2.30000000000001
  3
AM_ISO$0
100
AcDbAlignedDimension
 13
369.7072487792159
 23
165.3142922810958
 33
0.0
 14
372.0072487792159
 24
150.3142922810958
 34
0.0
100
AcDbRotatedDimension
1001
ACAD_DSTYLE_DIMINSPECT
1070
   396
1000
100%
1070
   395
1000

1070
   394
1070
    33
1070
   393
1070
     0
  0
CIRCLE
  5
101E5A
330
1F
100
AcDbEntity
  8
AM_5
100
AcDbCircle
 10
354.7072487792158
 20
152.3142922810958
 30
0.0
 40
2.85
  0
CIRCLE
  5
101E5B
330
1F
100
AcDbEntity
  8
AM_5
100
AcDbCircle
 10
354.7072487792158
 20
152.3142922810958
 30
0.0
 40
3.911764705882353
  0
LINE
  5
101E5C
330
1F
100
AcDbEntity
  8
AM_5
100
AcDbLine
 10
354.7072487792158
 20
159.8142922810958
 30
0.0
 11
354.7072487792158
 21
144.8142922810958
 31
0.0
  0
LINE
  5
101E5E
330
1F
100
AcDbEntity
  8
AM_5
100
AcDbLine
 10
369.7072487792159
 20
150.3142922810958
 30
0.0
 11
372.0072487792159
 21
150.3142922810958
 31
0.0
  0
LINE
  5
101E5F
330
1F
100
AcDbEntity
  8
AM_5
100
AcDbLine
 10
328.7072487792159
 20
140.1142922810962
 30
0.0
 11
328.7072487792159
 21
119.8748649283897
 31
0.0
  0
LINE
  5
101E60
330
1F
100
AcDbEntity
  8
AM_5
100
AcDbLine
 10
324.7072487792159
 20
140.1142922810962
 30
0.0
 11
324.7072487792159
 21
119.8748649283897
 31
0.0
  0
LINE
  5
101E61
330
1F
100
AcDbEntity
  8
AM_5
100
AcDbLine
 10
326.7072487792159
 20
115.1142922810962
 30
0.0
 11
324.7072487792159
 21
119.8748649283897
 31
0.0
  0
LINE
  5
101E62
330
1F
100
AcDbEntity
  8
AM_5
100
AcDbLine
 10
326.7072487792159
 20
115.1142922810962
 30
0.0
 11
328.7072487792159
 21
119.8748649283897
 31
0.0
  0
LINE
  5
101E63
330
1F
100
AcDbEntity
  8
AM_5
100
AcDbLine
 10
324.7072487792159
 20
140.1142922810962
 30
0.0
 11
328.7072487792159
 21
140.1142922810962
 31
0.0
  0
LINE
  5
101E64
330
1F
100
AcDbEntity
  8
AM_5
100
AcDbLine
 10
347.2072487792158
 20
152.3142922810958
 30
0.0
 11
362.2072487792158
 21
152.3142922810958
 31
0.0
  0
LINE
  5
101E65
330
1F
100
AcDbEntity
  8
AM_5
100
AcDbLine
 10
525.6912117292126
 20
150.3142922810958
 30
0.0
 11
525.6912117292126
 21
165.3142922810958
 31
0.0
  0
LINE
  5
101E67
330
1F
100
AcDbEntity
  8
AM_5
100
AcDbLine
 10
475.4912117292123
 20
135.3142922810958
 30
0.0
 11
490.4912117292123
 21
135.3142922810958
 31
0.0
  0
LINE
  5
101E68
330
1F
100
AcDbEntity
  8
AM_5
100
AcDbLine
 10
467.9912117292123
 20
150.3142922810958
 30
0.0
 11
525.6912117292126
 21
150.3142922810958
 31
0.0
  0
LINE
  5
101E69
330
1F
100
AcDbEntity
  8
AM_5
100
AcDbLine
 10
482.9912117292123
 20
142.8142922810958
 30
0.0
 11
482.9912117292123
 21
127.8142922810958
 31
0.0
  0
CIRCLE
  5
101E6A
330
1F
100
AcDbEntity
  8
AM_5
100
AcDbCircle
 10
482.9912117292123
 20
135.3142922810958
 30
0.0
 40
3.911764705882353
  0
CIRCLE
  5
101E6B
330
1F
100
AcDbEntity
  8
AM_5
100
AcDbCircle
 10
482.9912117292123
 20
135.3142922810958
 30
0.0
 40
2.85
  0
LWPOLYLINE
  5
101E6D
330
1F
100
AcDbEntity
  8
AM_5
100
AcDbPolyline
 90
        4
 70
     0
 43
0.0
 10
525.6912117292123
 20
134.976792281096
 10
521.2163747710085
 20
126.5864729844637
 42
0.4032683806705883
 10
521.5953783840511
 20
125.2518017358733
 10
525.6912117292123
 20
122.865879398886
  0
LWPOLYLINE
  5
101E6E
330
1F
100
AcDbEntity
  8
AM_5
100
AcDbPolyline
 90
        6
 70
     0
 43
0.0
 10
525.6912117292123
 20
150.314292281096
 10
525.6912117292123
 20
140.1142922810962
 42
-0.1231056256176608
 10
525.573564670389
 20
139.6437040458021
 10
518.144469691967
 20
125.714150961261
 42
0.4032683806705899
 10
518.5234733050097
 20
124.3794797126705
 10
525.6912117292123
 20
120.2040981063388
  0
LINE
  5
101E6F
330
1F
100
AcDbEntity
  8
AM_5
100
AcDbLine
 10
525.6912117292126
 20
114.8642922810958
 30
0.0
 11
527.9912117292123
 21
115.8142922810958
 31
0.0
  0
LINE
  5
101E70
330
1F
100
AcDbEntity
  8
AM_5
100
AcDbLine
 10
525.6912117292126
 20
149.7642922810958
 30
0.0
 11
527.9912117292123
 21
148.8142922810958
 31
0.0
  0
LINE
  5
101E71
330
1F
100
AcDbEntity
  8
AM_5
100
AcDbLine
 10
531.9912117292123
 20
152.3142922810958
 30
0.0
 11
521.6912117292126
 21
152.3142922810958
 31
0.0
  0
LINE
  5
101E72
330
1F
100
AcDbEntity
  8
AM_5
100
AcDbLine
 10
525.6912117292126
 20
154.8642922810958
 30
0.0
 11
527.9912117292123
 21
155.8142922810958
 31
0.0
  0
LINE
  5
101E73
330
1F
100
AcDbEntity
  8
AM_5
100
AcDbLine
 10
525.6912117292123
 20
165.3142922810958
 30
0.0
 11
527.9912117292123
 21
165.3142922810958
 31
0.0
  0
LINE
  5
101E75
330
1F
100
AcDbEntity
  8
AM_5
100
AcDbLine
 10
328.7072487792159
 20
315.1797293788645
 30
0.0
 11
328.7072487792159
 21
322.806084966162
 31
0.0
  0
LINE
  5
101E76
330
1F
100
AcDbEntity
  8
AM_5
100
AcDbLine
 10
349.7072487792158
 20
318.8060849661619
 30
0.0
 11
349.7072487792158
 21
329.1060849661619
 31
0.0
  0
LINE
  5
101E77
330
1F
100
AcDbEntity
  8
AM_5
100
AcDbLine
 10
324.7072487792159
 20
315.1797293788645
 30
0.0
 11
324.7072487792159
 21
322.806084966162
 31
0.0
  0
LINE
  5
101E78
330
1F
100
AcDbEntity
  8
AM_5
100
AcDbLine
 10
328.7072487792159
 20
315.1797293788645
 30
0.0
 11
324.7072487792159
 21
315.1797293788645
 31
0.0
  0
LINE
  5
101E79
330
1F
100
AcDbEntity
  8
AM_5
100
AcDbLine
 10
317.2072487792159
 20
325.1060849661619
 30
0.0
 11
317.2072487792159
 21
322.806084966162
 31
0.0
  0
LINE
  5
101E7A
330
1F
100
AcDbEntity
  8
AM_5
100
AcDbLine
 10
352.2572487792158
 20
325.1060849661619
 30
0.0
 11
353.2072487792158
 21
322.8060849661619
 31
0.0
  0
LINE
  5
101E7B
330
1F
100
AcDbEntity
  8
AM_5
100
AcDbLine
 10
346.2072487792158
 20
322.8060849661619
 30
0.0
 11
347.1572487792159
 21
325.1060849661619
 31
0.0
  0
DIMENSION
  5
102A56
330
1F
100
AcDbEntity
  8
AM_5
100
AcDbDimension
  2
*D11
 10
138.7509361898051
 20
39.69388330438846
 30
0.0
 11
128.7509361898051
 21
42.94422779257743
 31
0.0
 70
    32
  1
<>
 71
     5
 42
20.0
  3
AM_ISO$0
100
AcDbAlignedDimension
 13
118.7509361898051
 23
100.3142922810958
 33
0.0
 14
138.7509361898051
 24
58.01429228109588
 34
0.0
 50
0.0000000000000114
100
AcDbRotatedDimension
1001
ACAD_DSTYLE_DIMINSPECT
1070
   396
1000
100%
1070
   395
1000

1070
   394
1070
    33
1070
   393
1070
     0
1001
ACAD
1000
DSTYLE
1002
{
1070
     3
1000

1002
}
  0
LINE
  5
102B8D
330
1F
100
AcDbEntity
  8
AM_5
100
AcDbLine
 10
647.0772947560301
 20
267.2659752098573
 30
0.0
 11
647.6248403205861
 21
269.4620605204208
 31
0.0
  0
LINE
  5
102B8E
330
1F
100
AcDbEntity
  8
AM_5
100
AcDbLine
 10
644.6813746250419
 20
266.4277671565434
 30
0.0
 11
644.1240819550795
 21
268.6629459716282
 31
0.0
  0
DIMENSION
  5
102B8F
330
1F
100
AcDbEntity
  8
AM_5
100
AcDbDimension
  2
*D14
 10
627.6009738306228
 20
262.0421157933786
 30
0.0
 11
624.3509738306228
 21
284.5421157933787
 31
0.0
 70
    32
  1
<>
 71
     5
 42
45.0
  3
AM_ISO$0
100
AcDbAlignedDimension
 13
641.6748403205864
 23
307.0421157933787
 33
0.0
 14
645.7748403205862
 24
262.0421157933786
 34
0.0
 50
270.0
100
AcDbRotatedDimension
1001
ACAD_DSTYLE_DIMINSPECT
1070
   396
1000
100%
1070
   395
1000

1070
   394
1070
    33
1070
   393
1070
     0
  0
LINE
  5
102B90
330
1F
100
AcDbEntity
  8
AM_5
100
AcDbLine
 10
645.7748403205862
 20
314.2009341002175
 30
0.0
 11
645.774840320586
 21
260.0421179744283
 31
0.0
  0
LINE
  5
102B91
330
1F
100
AcDbEntity
  8
AM_5
100
AcDbLine
 10
645.4048745016747
 20
263.525967645929
 30
0.0
 11
644.8498403205863
 21
265.7520881568995
 31
0.0
  0
LINE
  5
102B92
330
1F
100
AcDbEntity
  8
AM_5
100
AcDbLine
 10
646.2171385756932
 20
263.8160772018994
 30
0.0
 11
644.6532163357089
 21
263.2575041945159
 31
0.0
  0
LINE
  5
102B93
330
1F
100
AcDbEntity
  8
AM_5
100
AcDbLine
 10
645.5750875473502
 20
262.8432804076947
 30
0.0
 11
644.6532163357089
 21
263.2575041945159
 31
0.0
  0
LINE
  5
102B94
330
1F
100
AcDbEntity
  8
AM_5
100
AcDbLine
 10
647.0853088954517
 20
263.4112427332132
 30
0.0
 11
644.6532163357089
 21
263.2575041945159
 31
0.0
  0
LINE
  5
102B95
330
1F
100
AcDbEntity
  8
AM_5
100
AcDbLine
 10
647.8835645463067
 20
266.8900054321123
 30
0.0
 11
643.8511251977598
 21
266.1373059899935
 31
0.0
  0
LINE
  5
102B96
330
1F
100
AcDbEntity
  8
AM_5
100
AcDbLine
 10
647.0772947560301
 20
267.2659752098574
 30
0.0
 11
643.8511251977598
 21
266.1373059899935
 31
0.0
  0
LINE
  5
102B97
330
1F
100
AcDbEntity
  8
AM_5
100
AcDbLine
 10
647.8835645463067
 20
266.8900054321123
 30
0.0
 11
644.8498403205863
 21
265.7520881568995
 31
0.0
  0
LINE
  5
102B98
330
1F
100
AcDbEntity
  8
AM_5
100
AcDbLine
 10
644.8498403205863
 20
265.7520881568995
 30
0.0
 11
643.8511251977606
 21
266.1373059899933
 31
0.0
  0
LINE
  5
102B99
330
1F
100
AcDbEntity
  8
AM_5
100
AcDbLine
 10
647.0853088954517
 20
263.4112427332132
 30
0.0
 11
645.5750875473502
 21
262.8432804076947
 31
0.0
  0
LINE
  5
102B9A
330
1F
100
AcDbEntity
  8
AM_5
100
AcDbLine
 10
646.2171385756932
 20
263.8160772018994
 30
0.0
 11
647.0853088954528
 21
263.4112427332126
 31
0.0
  0
LINE
  5
102B9B
330
1F
100
AcDbEntity
  8
AM_5
100
AcDbLine
 10
645.7748403205862
 20
262.0421157933786
 30
0.0
 11
645.5750875473502
 21
262.8432804076947
 31
0.0
  0
LINE
  5
102B9C
330
1F
100
AcDbEntity
  8
AM_5
100
AcDbLine
 10
645.774840320586
 20
262.0421157933786
 30
0.0
 11
646.0159295192547
 21
263.0090717546809
 31
0.0
  0
LINE
  5
102B9D
330
1F
100
AcDbEntity
  8
AM_5
100
AcDbLine
 10
647.0772947560301
 20
267.2659752098574
 30
0.0
 11
647.8835645463067
 21
266.8900054321123
 31
0.0
  0
LINE
  5
102B9E
330
1F
100
AcDbEntity
  8
AM_5
100
AcDbLine
 10
646.2171385756932
 20
263.8160772018994
 30
0.0
 11
646.8907022325047
 21
266.5175934741616
 31
0.0
  0
DIMENSION
  5
102B9F
330
1F
100
AcDbEntity
  8
AM_5
100
AcDbDimension
  2
*D15
 10
648.524840320586
 20
280.9363790951812
 30
0.0
 11
659.1223276940012
 21
280.9363790951812
 31
0.0
 70
   160
  1
%%c<>
 71
     5
 42
5.5
  3
AM_ISO$0
100
AcDbAlignedDimension
 13
643.024840320586
 23
284.9080528081334
 33
0.0
 14
648.524840320586
 24
285.3461280092103
 34
0.0
100
AcDbRotatedDimension
1001
ACAD_DSTYLE_DIMINSPECT
1070
   396
1000
100%
1070
   395
1000

1070
   394
1070
    33
1070
   393
1070
     0
  0
LINE
  5
102BA0
330
1F
100
AcDbEntity
  8
AM_5
100
AcDbLine
 10
647.6248403205862
 20
292.233172859911
 30
0.0
 11
647.6248403205862
 21
289.8096922521743
 31
0.0
  0
LINE
  5
102BA1
330
1F
100
AcDbEntity
  8
AM_5
100
AcDbLine
 10
643.9248403205859
 20
290.8483759157939
 30
0.0
 11
643.024840320586
 21
291.2680528081335
 31
0.0
  0
LINE
  5
102BA2
330
1F
100
AcDbEntity
  8
AM_5
100
AcDbLine
 10
648.524840320586
 20
292.5700153598313
 30
0.0
 11
643.9248403205859
 21
290.8483759157939
 31
0.0
  0
LINE
  5
102BA3
330
1F
100
AcDbEntity
  8
AM_5
100
AcDbLine
 10
647.6248403205862
 20
279.513172859911
 30
0.0
 11
647.6248403205862
 21
277.0896922521743
 31
0.0
  0
LINE
  5
102BA4
330
1F
100
AcDbEntity
  8
AM_5
100
AcDbLine
 10
643.9248403205859
 20
281.3083759157939
 30
0.0
 11
643.9248403205859
 21
278.8848953080544
 31
0.0
  0
LINE
  5
102BA5
330
1F
100
AcDbEntity
  8
AM_5
100
AcDbLine
 10
647.6248403205819
 20
280.2696922521727
 30
0.0
 11
643.024840320586
 21
278.5480528081334
 31
0.0
  0
LINE
  5
102BA6
330
1F
100
AcDbEntity
  8
AM_5
100
AcDbLine
 10
648.524840320586
 20
279.8500153598313
 30
0.0
 11
643.9248403205859
 21
278.1283759157938
 31
0.0
  0
LINE
  5
102BA7
330
1F
100
AcDbEntity
  8
AM_5
100
AcDbLine
 10
648.524840320586
 20
279.8500153598313
 30
0.0
 11
643.024840320586
 21
278.5480528081334
 31
0.0
  0
LINE
  5
102BA8
330
1F
100
AcDbEntity
  8
AM_5
100
AcDbLine
 10
647.6248403205819
 20
270.7296922521727
 30
0.0
 11
643.024840320586
 21
269.0080528081334
 31
0.0
  0
LINE
  5
102BA9
330
1F
100
AcDbEntity
  8
AM_5
100
AcDbLine
 10
648.524840320586
 20
270.3100153598313
 30
0.0
 11
643.024840320586
 21
269.0080528081334
 31
0.0
  0
LINE
  5
102BAA
330
1F
100
AcDbEntity
  8
AM_5
100
AcDbLine
 10
648.524840320586
 20
270.3100153598313
 30
0.0
 11
644.1240819550795
 21
268.6629459716282
 31
0.0
  0
LINE
  5
102BAB
330
1F
100
AcDbEntity
  8
AM_5
100
AcDbLine
 10
648.524840320586
 20
273.4900153598313
 30
0.0
 11
643.9248403205859
 21
271.7683759157939
 31
0.0
  0
LINE
  5
102BAC
330
1F
100
AcDbEntity
  8
AM_5
100
AcDbLine
 10
648.524840320586
 20
273.4900153598313
 30
0.0
 11
643.024840320586
 21
272.1880528081334
 31
0.0
  0
LINE
  5
102BAD
330
1F
100
AcDbEntity
  8
AM_5
100
AcDbLine
 10
647.6248403205819
 20
273.9096922521727
 30
0.0
 11
643.024840320586
 21
272.1880528081334
 31
0.0
  0
LINE
  5
102BAE
330
1F
100
AcDbEntity
  8
AM_5
100
AcDbLine
 10
647.6248403205819
 20
277.0896922521727
 30
0.0
 11
643.024840320586
 21
275.3680528081334
 31
0.0
  0
LINE
  5
102BAF
330
1F
100
AcDbEntity
  8
AM_5
100
AcDbLine
 10
648.524840320586
 20
276.6700153598313
 30
0.0
 11
643.024840320586
 21
275.3680528081334
 31
0.0
  0
LINE
  5
102BB0
330
1F
100
AcDbEntity
  8
AM_5
100
AcDbLine
 10
648.524840320586
 20
276.6700153598313
 30
0.0
 11
643.9248403205859
 21
274.9483759157938
 31
0.0
  0
LINE
  5
102BB1
330
1F
100
AcDbEntity
  8
AM_5
100
AcDbLine
 10
643.9248403205859
 20
274.9483759157938
 30
0.0
 11
643.9248403205859
 21
272.5248953080544
 31
0.0
  0
LINE
  5
102BB2
330
1F
100
AcDbEntity
  8
AM_5
100
AcDbLine
 10
644.1240819550795
 20
268.6629459716282
 30
0.0
 11
643.024840320586
 21
269.0080528081334
 31
0.0
  0
LINE
  5
102BB3
330
1F
100
AcDbEntity
  8
AM_5
100
AcDbLine
 10
643.9515595603368
 20
269.3548955030696
 30
0.0
 11
643.9248403205859
 21
269.4620605204205
 31
0.0
  0
LINE
  5
102BB4
330
1F
100
AcDbEntity
  8
AM_5
100
AcDbLine
 10
643.9248403205859
 20
271.7683759157939
 30
0.0
 11
643.024840320586
 21
272.1880528081334
 31
0.0
  0
LINE
  5
102BB5
330
1F
100
AcDbEntity
  8
AM_5
100
AcDbLine
 10
643.9248403205859
 20
271.7683759157939
 30
0.0
 11
643.9248403205859
 21
269.4620605204204
 31
0.0
  0
LINE
  5
102BB6
330
1F
100
AcDbEntity
  8
AM_5
100
AcDbLine
 10
643.9248403205859
 20
274.9483759157938
 30
0.0
 11
643.024840320586
 21
275.3680528081334
 31
0.0
  0
LINE
  5
102BB7
330
1F
100
AcDbEntity
  8
AM_5
100
AcDbLine
 10
643.9248403205859
 20
278.1283759157938
 30
0.0
 11
643.024840320586
 21
278.5480528081334
 31
0.0
  0
LINE
  5
102BB8
330
1F
100
AcDbEntity
  8
AM_5
100
AcDbLine
 10
643.9248403205859
 20
278.1283759157938
 30
0.0
 11
643.9248403205859
 21
275.7048953080544
 31
0.0
  0
LINE
  5
102BB9
330
1F
100
AcDbEntity
  8
AM_5
100
AcDbLine
 10
647.6248403205819
 20
270.7296922521727
 30
0.0
 11
648.524840320586
 21
270.3100153598313
 31
0.0
  0
LINE
  5
102BBA
330
1F
100
AcDbEntity
  8
AM_5
100
AcDbLine
 10
647.6248403205861
 20
269.973172859911
 30
0.0
 11
647.6248403205862
 21
269.4620605204209
 31
0.0
  0
LINE
  5
102BBB
330
1F
100
AcDbEntity
  8
AM_5
100
AcDbLine
 10
647.6248403205862
 20
273.1531728599109
 30
0.0
 11
647.6248403205862
 21
270.7296922521742
 31
0.0
  0
LINE
  5
102BBC
330
1F
100
AcDbEntity
  8
AM_5
100
AcDbLine
 10
647.6248403205819
 20
273.9096922521727
 30
0.0
 11
648.524840320586
 21
273.4900153598313
 31
0.0
  0
LINE
  5
102BBD
330
1F
100
AcDbEntity
  8
AM_5
100
AcDbLine
 10
647.6248403205819
 20
277.0896922521727
 30
0.0
 11
648.524840320586
 21
276.6700153598313
 31
0.0
  0
LINE
  5
102BBE
330
1F
100
AcDbEntity
  8
AM_5
100
AcDbLine
 10
647.6248403205862
 20
276.333172859911
 30
0.0
 11
647.6248403205862
 21
273.9096922521743
 31
0.0
  0
LINE
  5
102BBF
330
1F
100
AcDbEntity
  8
AM_5
100
AcDbLine
 10
647.6248403205819
 20
283.4496922521727
 30
0.0
 11
643.024840320586
 21
281.7280528081334
 31
0.0
  0
LINE
  5
102BC0
330
1F
100
AcDbEntity
  8
AM_5
100
AcDbLine
 10
648.524840320586
 20
283.0300153598313
 30
0.0
 11
643.024840320586
 21
281.7280528081334
 31
0.0
  0
LINE
  5
102BC1
330
1F
100
AcDbEntity
  8
AM_5
100
AcDbLine
 10
648.524840320586
 20
283.0300153598313
 30
0.0
 11
643.9248403205859
 21
281.3083759157938
 31
0.0
  0
LINE
  5
102BC2
330
1F
100
AcDbEntity
  8
AM_5
100
AcDbLine
 10
648.524840320586
 20
286.2100153598314
 30
0.0
 11
643.9248403205859
 21
284.4883759157938
 31
0.0
  0
LINE
  5
102BC3
330
1F
100
AcDbEntity
  8
AM_5
100
AcDbLine
 10
648.524840320586
 20
286.2100153598314
 30
0.0
 11
643.024840320586
 21
284.9080528081334
 31
0.0
  0
LINE
  5
102BC4
330
1F
100
AcDbEntity
  8
AM_5
100
AcDbLine
 10
647.6248403205819
 20
289.8096922521727
 30
0.0
 11
643.024840320586
 21
288.0880528081334
 31
0.0
  0
LINE
  5
102BC5
330
1F
100
AcDbEntity
  8
AM_5
100
AcDbLine
 10
648.524840320586
 20
289.3900153598313
 30
0.0
 11
643.024840320586
 21
288.0880528081334
 31
0.0
  0
LINE
  5
102BC6
330
1F
100
AcDbEntity
  8
AM_5
100
AcDbLine
 10
648.524840320586
 20
289.3900153598313
 30
0.0
 11
643.9248403205859
 21
287.6683759157938
 31
0.0
  0
LINE
  5
102BC7
330
1F
100
AcDbEntity
  8
AM_5
100
AcDbLine
 10
647.6248403205819
 20
286.6296922521727
 30
0.0
 11
643.024840320586
 21
284.9080528081334
 31
0.0
  0
LINE
  5
102BC8
330
1F
100
AcDbEntity
  8
AM_5
100
AcDbLine
 10
643.9248403205859
 20
284.4883759157939
 30
0.0
 11
643.9248403205859
 21
282.0648953080544
 31
0.0
  0
LINE
  5
102BC9
330
1F
100
AcDbEntity
  8
AM_5
100
AcDbLine
 10
643.9248403205859
 20
284.4883759157938
 30
0.0
 11
643.024840320586
 21
284.9080528081334
 31
0.0
  0
LINE
  5
102BCA
330
1F
100
AcDbEntity
  8
AM_5
100
AcDbLine
 10
643.9248403205859
 20
281.3083759157938
 30
0.0
 11
643.024840320586
 21
281.7280528081334
 31
0.0
  0
LINE
  5
102BCB
330
1F
100
AcDbEntity
  8
AM_5
100
AcDbLine
 10
643.9248403205859
 20
290.8483759157939
 30
0.0
 11
643.9248403205859
 21
288.4248953080545
 31
0.0
  0
LINE
  5
102BCC
330
1F
100
AcDbEntity
  8
AM_5
100
AcDbLine
 10
643.9248403205859
 20
287.6683759157938
 30
0.0
 11
643.024840320586
 21
288.0880528081334
 31
0.0
  0
LINE
  5
102BCD
330
1F
100
AcDbEntity
  8
AM_5
100
AcDbLine
 10
643.9248403205859
 20
287.6683759157939
 30
0.0
 11
643.9248403205859
 21
285.2448953080544
 31
0.0
  0
LINE
  5
102BCE
330
1F
100
AcDbEntity
  8
AM_5
100
AcDbLine
 10
647.6248403205862
 20
285.873172859911
 30
0.0
 11
647.6248403205862
 21
283.4496922521743
 31
0.0
  0
LINE
  5
102BCF
330
1F
100
AcDbEntity
  8
AM_5
100
AcDbLine
 10
647.6248403205819
 20
280.2696922521727
 30
0.0
 11
648.524840320586
 21
279.8500153598313
 31
0.0
  0
LINE
  5
102BD0
330
1F
100
AcDbEntity
  8
AM_5
100
AcDbLine
 10
647.6248403205819
 20
283.4496922521727
 30
0.0
 11
648.524840320586
 21
283.0300153598313
 31
0.0
  0
LINE
  5
102BD1
330
1F
100
AcDbEntity
  8
AM_5
100
AcDbLine
 10
647.6248403205862
 20
282.693172859911
 30
0.0
 11
647.6248403205862
 21
280.2696922521743
 31
0.0
  0
LINE
  5
102BD2
330
1F
100
AcDbEntity
  8
AM_5
100
AcDbLine
 10
647.6248403205862
 20
289.053172859911
 30
0.0
 11
647.6248403205862
 21
286.6296922521742
 31
0.0
  0
LINE
  5
102BD3
330
1F
100
AcDbEntity
  8
AM_5
100
AcDbLine
 10
647.6248403205819
 20
289.8096922521727
 30
0.0
 11
648.524840320586
 21
289.3900153598313
 31
0.0
  0
LINE
  5
102BD4
330
1F
100
AcDbEntity
  8
AM_5
100
AcDbLine
 10
647.6248403205819
 20
286.6296922521727
 30
0.0
 11
648.524840320586
 21
286.2100153598314
 31
0.0
  0
LINE
  5
102BD5
330
1F
100
AcDbEntity
  8
AM_5
100
AcDbLine
 10
647.7748403205862
 20
301.5421157933786
 30
0.0
 11
648.524840320586
 21
302.5421157933786
 31
0.0
  0
LINE
  5
102BD6
330
1F
100
AcDbEntity
  8
AM_5
100
AcDbLine
 10
643.024840320586
 20
302.5421157933786
 30
0.0
 11
643.7748403205862
 21
301.5421157933786
 31
0.0
  0
LINE
  5
102BD7
330
1F
100
AcDbEntity
  8
AM_5
100
AcDbLine
 10
647.0074854442619
 20
301.5421157933786
 30
0.0
 11
643.9248403205859
 21
300.3883759157939
 31
0.0
  0
LINE
  5
102BD8
330
1F
100
AcDbEntity
  8
AM_5
100
AcDbLine
 10
646.1258100171287
 20
301.5421157933786
 30
0.0
 11
643.024840320586
 21
300.8080528081334
 31
0.0
  0
LINE
  5
102BD9
330
1F
100
AcDbEntity
  8
AM_5
100
AcDbLine
 10
644.9861625613232
 20
301.5421157933786
 30
0.0
 11
643.024840320586
 21
300.8080528081334
 31
0.0
  0
LINE
  5
102BDA
330
1F
100
AcDbEntity
  8
AM_5
100
AcDbLine
 10
647.6248403205819
 20
292.9896922521727
 30
0.0
 11
643.024840320586
 21
291.2680528081335
 31
0.0
  0
LINE
  5
102BDB
330
1F
100
AcDbEntity
  8
AM_5
100
AcDbLine
 10
648.524840320586
 20
292.5700153598313
 30
0.0
 11
643.024840320586
 21
291.2680528081335
 31
0.0
  0
LINE
  5
102BDC
330
1F
100
AcDbEntity
  8
AM_5
100
AcDbLine
 10
647.6248403205819
 20
296.1696922521727
 30
0.0
 11
643.024840320586
 21
294.4480528081334
 31
0.0
  0
LINE
  5
102BDD
330
1F
100
AcDbEntity
  8
AM_5
100
AcDbLine
 10
648.524840320586
 20
295.7500153598313
 30
0.0
 11
643.9248403205859
 21
294.0283759157939
 31
0.0
  0
LINE
  5
102BDE
330
1F
100
AcDbEntity
  8
AM_5
100
AcDbLine
 10
648.524840320586
 20
295.7500153598313
 30
0.0
 11
643.024840320586
 21
294.4480528081334
 31
0.0
  0
LINE
  5
102BDF
330
1F
100
AcDbEntity
  8
AM_5
100
AcDbLine
 10
647.6248403205819
 20
299.3496922521728
 30
0.0
 11
643.024840320586
 21
297.6280528081334
 31
0.0
  0
LINE
  5
102BE0
330
1F
100
AcDbEntity
  8
AM_5
100
AcDbLine
 10
648.524840320586
 20
298.9300153598313
 30
0.0
 11
643.024840320586
 21
297.6280528081334
 31
0.0
  0
LINE
  5
102BE1
330
1F
100
AcDbEntity
  8
AM_5
100
AcDbLine
 10
648.524840320586
 20
298.9300153598313
 30
0.0
 11
643.9248403205859
 21
297.2083759157939
 31
0.0
  0
LINE
  5
102BE2
330
1F
100
AcDbEntity
  8
AM_5
100
AcDbLine
 10
643.7748403205862
 20
301.5421157933786
 30
0.0
 11
647.7748403205862
 21
301.5421157933786
 31
0.0
  0
LINE
  5
102BE3
330
1F
100
AcDbEntity
  8
AM_5
100
AcDbLine
 10
643.9248403205859
 20
297.2083759157939
 30
0.0
 11
643.9248403205859
 21
294.7848953080545
 31
0.0
  0
LINE
  5
102BE4
330
1F
100
AcDbEntity
  8
AM_5
100
AcDbLine
 10
643.9248403205859
 20
294.0283759157939
 30
0.0
 11
643.024840320586
 21
294.4480528081334
 31
0.0
  0
LINE
  5
102BE5
330
1F
100
AcDbEntity
  8
AM_5
100
AcDbLine
 10
643.9248403205859
 20
294.0283759157939
 30
0.0
 11
643.9248403205859
 21
291.6048953080544
 31
0.0
  0
LINE
  5
102BE6
330
1F
100
AcDbEntity
  8
AM_5
100
AcDbLine
 10
643.9248403205862
 20
301.5421157933786
 30
0.0
 11
643.9248403205859
 21
301.1448953080544
 31
0.0
  0
LINE
  5
102BE7
330
1F
100
AcDbEntity
  8
AM_5
100
AcDbLine
 10
643.9248403205859
 20
300.3883759157939
 30
0.0
 11
643.024840320586
 21
300.8080528081334
 31
0.0
  0
LINE
  5
102BE8
330
1F
100
AcDbEntity
  8
AM_5
100
AcDbLine
 10
643.9248403205859
 20
300.3883759157939
 30
0.0
 11
643.9248403205859
 21
297.9648953080545
 31
0.0
  0
LINE
  5
102BE9
330
1F
100
AcDbEntity
  8
AM_5
100
AcDbLine
 10
643.9248403205859
 20
297.2083759157939
 30
0.0
 11
643.024840320586
 21
297.6280528081334
 31
0.0
  0
LINE
  5
102BEA
330
1F
100
AcDbEntity
  8
AM_5
100
AcDbLine
 10
647.6248403205862
 20
298.593172859911
 30
0.0
 11
647.6248403205862
 21
296.1696922521743
 31
0.0
  0
LINE
  5
102BEB
330
1F
100
AcDbEntity
  8
AM_5
100
AcDbLine
 10
647.6248403205862
 20
295.413172859911
 30
0.0
 11
647.6248403205862
 21
292.9896922521743
 31
0.0
  0
LINE
  5
102BEC
330
1F
100
AcDbEntity
  8
AM_5
100
AcDbLine
 10
647.6248403205819
 20
292.9896922521727
 30
0.0
 11
648.524840320586
 21
292.5700153598313
 31
0.0
  0
LINE
  5
102BED
330
1F
100
AcDbEntity
  8
AM_5
100
AcDbLine
 10
647.6248403205819
 20
296.1696922521727
 30
0.0
 11
648.524840320586
 21
295.7500153598313
 31
0.0
  0
LINE
  5
102BEE
330
1F
100
AcDbEntity
  8
AM_5
100
AcDbLine
 10
647.6248403205862
 20
301.5421157933786
 30
0.0
 11
647.6248403205862
 21
299.3496922521743
 31
0.0
  0
LINE
  5
102BEF
330
1F
100
AcDbEntity
  8
AM_5
100
AcDbLine
 10
647.6248403205819
 20
299.3496922521728
 30
0.0
 11
648.524840320586
 21
298.9300153598313
 31
0.0
  0
LINE
  5
102BF0
330
1F
100
AcDbEntity
  8
AM_5
100
AcDbLine
 10
645.7748403205862
 20
304.3647870756175
 30
0.0
 11
644.1048403205862
 21
304.7421157933786
 31
0.0
  0
LINE
  5
102BF1
330
1F
100
AcDbEntity
  8
AM_5
100
AcDbLine
 10
648.5248403205862
 20
305.5374349478077
 30
0.0
 11
643.0248403205862
 21
305.5374349478077
 31
0.0
  0
LINE
  5
102BF2
330
1F
100
AcDbEntity
  8
AM_5
100
AcDbLine
 10
649.8748403205862
 20
306.7874349478077
 30
0.0
 11
641.6748403205864
 21
306.7874349478077
 31
0.0
  0
LINE
  5
102BF3
330
1F
100
AcDbEntity
  8
AM_5
100
AcDbLine
 10
641.6748403205864
 20
307.0421157933787
 30
0.0
 11
649.8748403205862
 21
307.0421157933787
 31
0.0
  0
LINE
  5
102BF4
330
1F
100
AcDbEntity
  8
AM_5
100
AcDbLine
 10
648.524840320586
 20
302.5421157933786
 30
0.0
 11
643.024840320586
 21
302.5421157933786
 31
0.0
  0
LINE
  5
102BF5
330
1F
100
AcDbEntity
  8
AM_5
100
AcDbLine
 10
644.1048403205862
 20
304.7421157933786
 30
0.0
 11
644.1048403205862
 21
307.0421157933787
 31
0.0
  0
LINE
  5
102BF6
330
1F
100
AcDbEntity
  8
AM_5
100
AcDbLine
 10
641.6748403205864
 20
307.0421157933787
 30
0.0
 11
641.6748403205864
 21
306.7874349478077
 31
0.0
  0
LINE
  5
102BF7
330
1F
100
AcDbEntity
  8
AM_5
100
AcDbLine
 10
641.6748403205864
 20
306.7874349478077
 30
0.0
 11
643.0248403205862
 21
305.5374349478077
 31
0.0
  0
LINE
  5
102BF8
330
1F
100
AcDbEntity
  8
AM_5
100
AcDbLine
 10
643.0248403205862
 20
305.5374349478077
 30
0.0
 11
643.024840320586
 21
302.5421157933786
 31
0.0
  0
LINE
  5
102BF9
330
1F
100
AcDbEntity
  8
AM_5
100
AcDbLine
 10
649.8748403205862
 20
306.7874349478077
 30
0.0
 11
648.5248403205862
 21
305.5374349478077
 31
0.0
  0
LINE
  5
102BFA
330
1F
100
AcDbEntity
  8
AM_5
100
AcDbLine
 10
645.7748403205862
 20
304.3647870756175
 30
0.0
 11
647.4448403205862
 21
304.7421157933786
 31
0.0
  0
LINE
  5
102BFB
330
1F
100
AcDbEntity
  8
AM_5
100
AcDbLine
 10
647.4448403205862
 20
304.7421157933786
 30
0.0
 11
647.4448403205862
 21
307.0421157933787
 31
0.0
  0
LINE
  5
102BFC
330
1F
100
AcDbEntity
  8
AM_5
100
AcDbLine
 10
648.5248403205862
 20
305.5374349478077
 30
0.0
 11
648.524840320586
 21
302.5421157933786
 31
0.0
  0
LINE
  5
102BFD
330
1F
100
AcDbEntity
  8
AM_5
100
AcDbLine
 10
649.8748403205862
 20
307.0421157933787
 30
0.0
 11
649.8748403205862
 21
306.7874349478077
 31
0.0
  0
LEADER
  5
102BFE
330
1F
100
AcDbEntity
  8
AM_5
100
AcDbLeader
  3
AM_ISO$7
 76
     3
 10
646.9063597044248
 20
337.0226828252488
 30
0.0
 10
652.155000847682
 20
329.4277706110591
 30
0.0
 10
662.5816447359296
 20
329.4277706110591
 30
0.0
211
1.0
221
-0.0000000000000002
231
0.0
1001
ACAD
1000
DSTYLE
1002
{
1070
   140
1040
3.5
1002
}
  0
MTEXT
  5
102BFF
330
1F
100
AcDbEntity
  8
AM_5
100
AcDbMText
 10
657.2922579060206
 20
331.8193662515197
 30
0.0
 40
2.0
 41
16.24518138417357
 71
     5
 72
     5
  1
3# 四角孔
  7
2014++
 73
     1
 44
1.0
  0
LWPOLYLINE
  5
102C00
330
1F
100
AcDbEntity
  8
AM_5
100
AcDbPolyline
 90
        4
 70
     1
 43
0.0
 10
644.1048403205862
 20
339.6488623559315
 10
644.1048403205862
 20
336.3088623559318
 10
647.4448403205864
 20
336.3088623559318
 10
647.4448403205864
 20
339.6488623559315
  0
LINE
  5
102C01
330
1F
100
AcDbEntity
  8
AM_5
100
AcDbLine
 10
645.7748403205862
 20
331.9788623559314
 30
0.0
 11
645.7748403205862
 21
343.9788623559315
 31
0.0
  0
CIRCLE
  5
102C02
330
1F
100
AcDbEntity
  8
AM_5
100
AcDbCircle
 10
645.7748403205862
 20
337.9788623559314
 30
0.0
 40
4.0
  0
DIMENSION
  5
102C03
330
1F
100
AcDbEntity
  8
AM_5
100
AcDbDimension
  2
*D12
 10
649.7748403205862
 20
347.3030140348397
 30
0.0
 11
645.7748403205862
 21
347.3030140348397
 31
0.0
 70
   160
  1
%%c<>
 71
     5
 42
8.0
  3
AM_ISO$0
100
AcDbAlignedDimension
 13
641.7748403205862
 23
337.9788623559314
 33
0.0
 14
649.7748403205862
 24
337.9788623559314
 34
0.0
100
AcDbRotatedDimension
1001
ACAD_DSTYLE_DIMINSPECT
1070
   396
1000
100%
1070
   395
1000

1070
   394
1070
    33
1070
   393
1070
     0
  0
LINE
  5
102C04
330
1F
100
AcDbEntity
  8
AM_5
100
AcDbLine
 10
651.7748403205862
 20
337.9788623559314
 30
0.0
 11
639.7748403205862
 21
337.9788623559314
 31
0.0
  0
MTEXT
  5
102C05
330
1F
100
AcDbEntity
  8
AM_5
100
AcDbMText
 10
627.8860408008862
 20
374.9785273313077
 30
0.0
 40
10.0
 41
16.80016178190794
 71
     1
 72
     5
  1
YA-S45
  7
2014++
 73
     1
 44
1.0
1001
ACAD
1000
ACAD_MTEXT_COLUMN_INFO_BEGIN
1070
    75
1070
     2
1070
    79
1070
     0
1070
    76
1070
     1
1070
    78
1070
     0
1070
    48
1040
16.80016178190794
1070
    49
1040
12.5
1070
    50
1070
     1
1040
0.0
1000
ACAD_MTEXT_COLUMN_INFO_END
  0
DIMENSION
  5
102C06
330
1F
100
AcDbEntity
  8
AM_5
100
AcDbDimension
  2
*D13
 10
661.8748403205862
 20
307.0421157933787
 30
0.0
 11
658.6248403205861
 21
316.0646031667941
 31
0.0
 70
    32
 71
     5
 42
5.5
  3
AM_ISO$0
100
AcDbAlignedDimension
 13
647.7748403205862
 23
301.5421157933786
 33
0.0
 14
649.8748403205862
 24
307.0421157933787
 34
0.0
 50
90.0
100
AcDbRotatedDimension
1001
ACAD_DSTYLE_DIMINSPECT
1070
   396
1000
100%
1070
   395
1000

1070
   394
1070
    33
1070
   393
1070
     0
  0
MTEXT
  5
102C6A
330
1F
100
AcDbEntity
  8
AM_5
100
AcDbMText
 10
99.236937803159
 20
374.9785273171222
 30
0.0
 40
10.0
 41
200.2044561156597
 71
     1
 72
     5
  1
大引受け金物（105G）
  7
2014++
 73
     1
 44
1.0
1001
ACAD
1000
ACAD_MTEXT_COLUMN_INFO_BEGIN
1070
    75
1070
     2
1070
    79
1070
     0
1070
    76
1070
     1
1070
    78
1070
     0
1070
    48
1040
200.2044561156597
1070
    49
1040
12.5
1070
    50
1070
     1
1040
0.0
1000
ACAD_MTEXT_COLUMN_INFO_END
  0
VIEWPORT
  5
1023D7
102
{ACAD_XDICTIONARY
360
1023D8
102
}
330
1023CE
100
AcDbEntity
 67
     1
  8
0
100
AcDbViewport
 10
142.5892486572266
 20
99.1129140853882
 30
0.0
 40
430.4720018747953
 41
222.1517806396485
 68
     1
 69
     1
 12
142.5892486572266
 22
99.1129140853882
 13
0.0
 23
0.0
 14
10.0
 24
10.0
 15
10.0
 25
10.0
 16
0.0
 26
0.0
 36
1.0
 17
0.0
 27
0.0
 37
0.0
 42
50.0
 43
0.0
 44
0.0
 45
222.1517806396485
 50
0.0
 51
0.0
 72
   100
 90
   819232
  1

281
     0
 71
     1
 74
     0
110
0.0
120
0.0
130
0.0
111
1.0
121
0.0
131
0.0
112
0.0
122
1.0
132
0.0
 79
     0
146
0.0
170
     0
1001
GENIUS_GENOBJ-N-SDF_13
1002
{
1000
OWNER
1000
GEN
1002
}
1001
GENIUS_GENODEF_13
1002
{
1000
HIER
1070
     0
1002
}
1002
{
1000
MANEDIT
1070
     0
1002
}
1002
{
1000
NOSEL
1070
     0
1002
}
1002
{
1000
BEHIND
1070
     0
1002
}
1002
{
1000
OTHER
1070
     0
1002
}
1002
{
1000
REACTOR
1002
}
1001
GENIUS_GENSCREG_15
1000
PF
1040
1.0
1000
DF
1040
1.0
1000
MIN
1011
-72.64675228017108
1021
-11.96297623443604
1031
0.0
1000
MAX
1011
357.8252495946242
1021
210.1888044052125
1031
0.0
1000
FLAGS
1070
     4
  0
ENDSEC
  0
SECTION
  2
OBJECTS
  0
DICTIONARY
  5
C
330
0
100
AcDbDictionary
281
     1
  3
ACAD_CIP_PREVIOUS_PRODUCT_INFO
350
102392
  3
ACAD_COLOR
350
8712
  3
ACAD_DETAILVIEWSTYLE
350
10237B
  3
ACAD_FIELDLIST
350
1023B2
  3
ACAD_GROUP
350
D
  3
ACAD_LAYOUT
350
1A
  3
ACAD_MATERIAL
350
8711
  3
ACAD_MLEADERSTYLE
350
102377
  3
ACAD_MLINESTYLE
350
17
  3
ACAD_PLOTSETTINGS
350
19
  3
ACAD_PLOTSTYLENAME
350
E
  3
ACAD_SCALELIST
350
102365
  3
ACAD_SECTIONVIEWSTYLE
350
102379
  3
ACAD_TABLESTYLE
350
102363
  3
ACAD_VISUALSTYLE
350
10234A
  3
AcadDim
350
CCA4E
  3
ACDB_RECOMPOSE_DATA
350
102E6E
  3
AcDbVariableDictionary
350
6B9
  3
AcmDictionary
350
16D31
  3
AMG
350
16D13
  3
AMGSNAPSETTINGS
350
17AE6
  3
ASE_INDEX_DICTIONARY
350
F4A75
  0
DICTIONARY
  5
F82BD
330
2
100
AcDbDictionary
280
     1
281
     1
  3
ACAD_LAYERFILTERS
360
F82C0
  3
ACAD_LAYERSTATES
360
F82BE
  0
DICTIONARY
  5
1027B3
330
10
100
AcDbDictionary
280
     1
281
     1
  3
ADSK_XREC_LAYER_RECONCILED
360
1027B4
  0
DICTIONARY
  5
1027B5
330
86C9
100
AcDbDictionary
280
     1
281
     1
  3
ADSK_XREC_LAYER_RECONCILED
360
1027B6
  0
DICTIONARY
  5
1027B7
330
10258E
100
AcDbDictionary
280
     1
281
     1
  3
ADSK_XREC_LAYER_RECONCILED
360
1027B8
  0
DICTIONARY
  5
16D78
330
1F
100
AcDbDictionary
280
     1
281
     1
  0
DICTIONARY
  5
1029AD
330
102961
100
AcDbDictionary
280
     1
281
     1
  3
ACAD_MTEXT_2008_RT
360
102EA7
  0
DICTIONARY
  5
1029AB
330
1028E9
100
AcDbDictionary
280
     1
281
     1
  3
ACAD_MTEXT_2008_RT
360
102EA6
  0
DICTIONARY
  5
102EA8
330
102E66
100
AcDbDictionary
280
     1
281
     1
  3
ACAD_MTEXT_2008_RT
360
102EA9
  0
DICTIONARY
  5
1023D8
330
1023D7
100
AcDbDictionary
280
     1
281
     1
  3
ASDK_XREC_ANNOTATION_SCALE_INFO
360
1023D9
  0
XRECORD
  5
102392
102
{ACAD_REACTORS
330
C
102
}
330
C
100
AcDbXrecord
280
     1
300
AMECH_PP
300
2016
300
AMECH_PP_F_S
  0
DICTIONARY
  5
8712
102
{ACAD_REACTORS
330
C
102
}
330
C
100
AcDbDictionary
281
     1
  0
DICTIONARY
  5
10237B
102
{ACAD_REACTORS
330
C
102
}
330
C
100
AcDbDictionary
281
     1
  3
Metric50
350
10237C
  0
FIELDLIST
  5
1023B2
102
{ACAD_REACTORS
330
C
102
}
330
C
100
AcDbIdSet
 90
        3
330
102DE6
330
102DE7
330
102DE8
100
AcDbFieldList
  0
DICTIONARY
  5
D
102
{ACAD_REACTORS
330
C
102
}
330
C
100
AcDbDictionary
281
     1
  0
DICTIONARY
  5
1A
102
{ACAD_REACTORS
330
C
102
}
330
C
100
AcDbDictionary
281
     1
  3
Model
350
22
  3
レイアウト1
350
1023CF
  0
DICTIONARY
  5
8711
102
{ACAD_REACTORS
330
C
102
}
330
C
100
AcDbDictionary
281
     1
  3
ByBlock
350
10233A
  3
ByLayer
350
102332
  3
Global
350
102342
  0
DICTIONARY
  5
102377
102
{ACAD_REACTORS
330
C
102
}
330
C
100
AcDbDictionary
281
     1
  3
Standard
350
102378
  0
DICTIONARY
  5
17
102
{ACAD_REACTORS
330
C
102
}
330
C
100
AcDbDictionary
281
     1
  3
Standard
350
18
  0
DICTIONARY
  5
19
102
{ACAD_REACTORS
330
C
102
}
330
C
100
AcDbDictionary
281
     1
  0
ACDBDICTIONARYWDFLT
  5
E
102
{ACAD_REACTORS
330
C
102
}
330
C
100
AcDbDictionary
281
     1
  3
Normal
350
F
100
AcDbDictionaryWithDefault
340
F
  0
DICTIONARY
  5
102365
102
{ACAD_REACTORS
330
C
102
}
330
C
100
AcDbDictionary
281
     1
  3
A0
350
102366
  3
A1
350
102367
  3
A2
350
102368
  3
A3
350
102369
  3
A4
350
10236A
  3
A5
350
10236B
  3
A6
350
10236C
  3
A7
350
10236D
  3
A8
350
10236E
  3
A9
350
10236F
  3
B0
350
102370
  3
B1
350
102371
  3
B2
350
102372
  3
B3
350
102373
  3
B4
350
102374
  3
B5
350
102375
  3
B6
350
102376
  0
DICTIONARY
  5
102379
102
{ACAD_REACTORS
330
C
102
}
330
C
100
AcDbDictionary
281
     1
  3
Metric50
350
10237A
  0
DICTIONARY
  5
102363
102
{ACAD_REACTORS
330
C
102
}
330
C
100
AcDbDictionary
281
     1
  3
Standard
350
102364
  0
DICTIONARY
  5
10234A
102
{ACAD_REACTORS
330
C
102
}
330
C
100
AcDbDictionary
281
     1
  3
2dWireframe
350
102350
  3
Basic
350
10234F
  3
Brighten
350
102356
  3
ColorChange
350
10235A
  3
Conceptual
350
102353
  3
Dim
350
102355
  3
EdgeColorOff
350
102362
  3
Facepattern
350
102359
  3
Flat
350
10234B
  3
FlatWithEdges
350
10234C
  3
Gouraud
350
10234D
  3
GouraudWithEdges
350
10234E
  3
Hidden
350
102352
  3
JitterOff
350
102360
  3
Linepattern
350
102358
  3
OverhangOff
350
102361
  3
Realistic
350
102354
  3
Shaded
350
10235F
  3
Shaded with edges
350
10235E
  3
Shades of Gray
350
10235B
  3
Sketchy
350
10235C
  3
Thicken
350
102357
  3
Wireframe
350
102351
  3
X-Ray
350
10235D
  0
XRECORD
  5
CCA4E
102
{ACAD_REACTORS
330
C
102
}
330
C
100
AcDbXrecord
280
     1
 90
   990106
  3

 60
     0
 61
     0
 62
     1
 63
     3
 64
     0
 65
     0
 66
     0
 67
     3
 68
     1
 69
     0
 70
     0
 71
     0
 72
     0
 40
17.73254125325911
170
     0
  0
XRECORD
  5
102E6E
102
{ACAD_REACTORS
330
C
102
}
330
C
100
AcDbXrecord
280
     1
 90
        1
330
102364
330
102C05
330
102C6A
  0
DICTIONARY
  5
6B9
102
{ACAD_REACTORS
330
C
102
}
330
C
100
AcDbDictionary
281
     1
  3
CANNOSCALE
350
1027BD
  3
CMLEADERSTYLE
350
1027BA
  3
CTABLESTYLE
350
1027B9
  3
CVIEWDETAILSTYLE
350
1027BB
  3
CVIEWSECTIONSTYLE
350
1027BC
  3
DIMASSOC
350
F4248
  3
INDEXCTL
350
F4247
  3
PROJECTNAME
350
F4249
  3
SORTENTS
350
6BA
  3
XCLIPFRAME
350
102E6C
  0
DICTIONARY
  5
16D31
102
{ACAD_REACTORS
330
C
102
}
330
C
100
AcDbDictionary
281
     1
  3
AcmStdDictionary
350
16D3E
  3
AMDTSECTSYM_ARROWCOLOR
350
16DB5
  0
DICTIONARY
  5
16D13
102
{ACAD_REACTORS
330
C
102
}
330
C
100
AcDbDictionary
281
     1
  0
DICTIONARY
  5
17AE6
102
{ACAD_REACTORS
330
C
102
}
330
C
100
AcDbDictionary
281
     1
  0
DICTIONARY
  5
F4A75
102
{ACAD_REACTORS
330
C
102
}
330
C
100
AcDbDictionary
281
     1
  3
ASEBlockHierarchyIndexRecord
350
F4A77
1001
DCO15
1040
1654516794.149
  0
DICTIONARY
  5
F82C0
102
{ACAD_REACTORS
330
F82BD
102
}
330
F82BD
100
AcDbDictionary
281
     1
  0
DICTIONARY
  5
F82BE
102
{ACAD_REACTORS
330
F82BD
102
}
330
F82BD
100
AcDbDictionary
281
     1
  3
2014++
350
F82D2
  3
2014+++
350
F82BF
  0
XRECORD
  5
1027B4
102
{ACAD_REACTORS
330
1027B3
102
}
330
1027B3
100
AcDbXrecord
280
     1
290
     1
  0
XRECORD
  5
1027B6
102
{ACAD_REACTORS
330
1027B5
102
}
330
1027B5
100
AcDbXrecord
280
     1
290
     1
  0
XRECORD
  5
1027B8
102
{ACAD_REACTORS
330
1027B7
102
}
330
1027B7
100
AcDbXrecord
280
     1
290
     1
  0
XRECORD
  5
102EA7
102
{ACAD_REACTORS
330
1029AD
102
}
330
1029AD
100
AcDbXrecord
280
     1
 40
4180.0
  1
4-\U+22055.7
  0
XRECORD
  5
102EA6
102
{ACAD_REACTORS
330
1029AB
102
}
330
1029AB
100
AcDbXrecord
280
     1
 40
4178.0
  1
2-\U+22055.7
  0
XRECORD
  5
102EA9
102
{ACAD_REACTORS
330
102EA8
102
}
330
102EA8
100
AcDbXrecord
280
     1
 40
4178.0
  1
2-\U+22055.7
  0
XRECORD
  5
1023D9
102
{ACAD_REACTORS
330
1023D8
102
}
330
1023D8
100
AcDbXrecord
280
     1
 90
        1
340
102366
  0
ACDBDETAILVIEWSTYLE
  5
10237C
102
{ACAD_XDICTIONARY
360
102EA4
102
}
102
{ACAD_REACTORS
330
10237B
330
102DE0
102
}
330
10237B
100
AcDbModelDocViewStyle
 70
     0
  3
Metric50
290
     0
100
AcDbDetailViewStyle
 70
     0
 71
     0
 90
        3
 71
     1
340
11
 62
   256
 40
5.0
340
0
 62
   256
 40
5.0
300

 40
0.0
280
     1
 71
     2
340
16
 90
       25
 62
   256
 71
     3
340
11
 62
   256
 40
5.0
 90
        0
 40
15.0
 90
        1
300
%<\AcVar ViewDetailId>% (%<\AcVar ViewScale \f "%sn">%)
 71
     4
340
16
 90
       25
 62
   256
340
16
 90
       25
 62
   256
280
     0
  0
LAYOUT
  5
22
102
{ACAD_REACTORS
330
1A
102
}
330
1A
100
AcDbPlotSettings
  1

  2
FUJITSU FAX Print Driver
  4
User261
  6

 40
3.174999952316281
 41
3.174999952316281
 42
3.17498779296875
 43
3.17498779296875
 44
297.0244750976562
 45
419.8775329589842
 46
0.0
 47
0.0
 48
0.0
 49
0.0
140
0.0
141
0.0
142
1.0
143
1.197207273994177
 70
 11952
 72
     1
 73
     1
 74
     0
  7
monochrome.ctb
 75
     0
147
0.8352772504160906
 76
     0
 77
     2
 78
   300
148
-6.027674911478015
149
-7.671586470139232
100
AcDbLayout
  1
Model
 70
     1
 71
     0
 10
0.0
 20
0.0
 11
12.0
 21
9.0
 12
0.0
 22
0.0
 32
0.0
 14
0.0
 24
0.0
 34
0.0
 15
0.0
 25
0.0
 35
0.0
146
0.0
 13
0.0
 23
0.0
 33
0.0
 16
1.0
 26
0.0
 36
0.0
 17
0.0
 27
1.0
 37
0.0
 76
     0
330
1F
331
10230C
  0
LAYOUT
  5
1023CF
102
{ACAD_REACTORS
330
1A
102
}
330
1A
100
AcDbPlotSettings
  1

  2
RICOH imagio MP C5001 RPCS
  4
A4
  6

 40
5.873749732971191
 41
5.873748779296875
 42
5.873733520507812
 43
5.873748779296875
 44
209.9733276367186
 45
296.9259948730469
 46
0.0
 47
0.0
 48
0.0
 49
0.0
140
0.0
141
0.0
142
1.0
143
1.0
 70
   688
 72
     1
 73
     1
 74
     5
  7

 75
    16
147
1.0
 76
     0
 77
     2
 78
   300
148
0.0
149
0.0
100
AcDbLayout
  1
レイアウト1
 70
     1
 71
     1
 10
-5.873748779296875
 20
-5.873749732971191
 11
291.05224609375
 21
204.0995779037475
 12
0.0
 22
0.0
 32
0.0
 14
1.000000000000000E+20
 24
1.000000000000000E+20
 34
1.000000000000000E+20
 15
-1.000000000000000E+20
 25
-1.000000000000000E+20
 35
-1.000000000000000E+20
146
0.0
 13
0.0
 23
0.0
 33
0.0
 16
1.0
 26
0.0
 36
0.0
 17
0.0
 27
1.0
 37
0.0
 76
     0
330
1023CE
331
1023D7
1001
ACAD_PSEXT
1000
RICOH imagio MP C5001 RPCS
1000
RICOH imagio MP C5001 RPCS
1000
IP_192.168.13.100
1000
RPCS Driver (For Windows)
1070
     0
  0
MATERIAL
  5
10233A
102
{ACAD_XDICTIONARY
360
10233B
102
}
102
{ACAD_REACTORS
330
8711
102
}
330
8711
100
AcDbMaterial
  1
ByBlock
 72
     0
 43
0.0008202099737533
 43
0.0
 43
0.0
 43
0.0
 43
0.0
 43
0.0008202099737533
 43
0.0
 43
0.0
 43
0.0
 43
0.0
 43
1.0
 43
0.0
 43
0.0
 43
0.0
 43
0.0
 43
1.0
 77
     0
 47
0.0008202099737533
 47
0.0
 47
0.0
 47
0.0
 47
0.0
 47
0.0008202099737533
 47
0.0
 47
0.0
 47
0.0
 47
0.0
 47
1.0
 47
0.0
 47
0.0
 47
0.0
 47
0.0
 47
1.0
171
     0
 49
0.0008202099737533
 49
0.0
 49
0.0
 49
0.0
 49
0.0
 49
0.0008202099737533
 49
0.0
 49
0.0
 49
0.0
 49
0.0
 49
1.0
 49
0.0
 49
0.0
 49
0.0
 49
0.0
 49
1.0
175
     0
142
0.0008202099737533
142
0.0
142
0.0
142
0.0
142
0.0
142
0.0008202099737533
142
0.0
142
0.0
142
0.0
142
0.0
142
1.0
142
0.0
142
0.0
142
0.0
142
0.0
142
1.0
179
     0
144
0.0008202099737533
144
0.0
144
0.0
144
0.0
144
0.0
144
0.0008202099737533
144
0.0
144
0.0
144
0.0
144
0.0
144
1.0
144
0.0
144
0.0
144
0.0
144
0.0
144
1.0
147
0.0008202099737533
147
0.0
147
0.0
147
0.0
147
0.0
147
0.0008202099737533
147
0.0
147
0.0
147
0.0
147
0.0
147
1.0
147
0.0
147
0.0
147
0.0
147
0.0
147
1.0
  0
MATERIAL
  5
102332
102
{ACAD_XDICTIONARY
360
102333
102
}
102
{ACAD_REACTORS
330
8711
102
}
330
8711
100
AcDbMaterial
  1
ByLayer
 72
     0
 43
0.0008202099737533
 43
0.0
 43
0.0
 43
0.0
 43
0.0
 43
0.0008202099737533
 43
0.0
 43
0.0
 43
0.0
 43
0.0
 43
1.0
 43
0.0
 43
0.0
 43
0.0
 43
0.0
 43
1.0
 77
     0
 47
0.0008202099737533
 47
0.0
 47
0.0
 47
0.0
 47
0.0
 47
0.0008202099737533
 47
0.0
 47
0.0
 47
0.0
 47
0.0
 47
1.0
 47
0.0
 47
0.0
 47
0.0
 47
0.0
 47
1.0
171
     0
 49
0.0008202099737533
 49
0.0
 49
0.0
 49
0.0
 49
0.0
 49
0.0008202099737533
 49
0.0
 49
0.0
 49
0.0
 49
0.0
 49
1.0
 49
0.0
 49
0.0
 49
0.0
 49
0.0
 49
1.0
175
     0
142
0.0008202099737533
142
0.0
142
0.0
142
0.0
142
0.0
142
0.0008202099737533
142
0.0
142
0.0
142
0.0
142
0.0
142
1.0
142
0.0
142
0.0
142
0.0
142
0.0
142
1.0
179
     0
144
0.0008202099737533
144
0.0
144
0.0
144
0.0
144
0.0
144
0.0008202099737533
144
0.0
144
0.0
144
0.0
144
0.0
144
1.0
144
0.0
144
0.0
144
0.0
144
0.0
144
1.0
147
0.0008202099737533
147
0.0
147
0.0
147
0.0
147
0.0
147
0.0008202099737533
147
0.0
147
0.0
147
0.0
147
0.0
147
1.0
147
0.0
147
0.0
147
0.0
147
0.0
147
1.0
  0
MATERIAL
  5
102342
102
{ACAD_XDICTIONARY
360
102343
102
}
102
{ACAD_REACTORS
330
8711
102
}
330
8711
100
AcDbMaterial
  1
Global
 72
     0
 43
0.0008202099737533
 43
0.0
 43
0.0
 43
0.0
 43
0.0
 43
0.0008202099737533
 43
0.0
 43
0.0
 43
0.0
 43
0.0
 43
1.0
 43
0.0
 43
0.0
 43
0.0
 43
0.0
 43
1.0
 77
     0
 47
0.0008202099737533
 47
0.0
 47
0.0
 47
0.0
 47
0.0
 47
0.0008202099737533
 47
0.0
 47
0.0
 47
0.0
 47
0.0
 47
1.0
 47
0.0
 47
0.0
 47
0.0
 47
0.0
 47
1.0
171
     0
 49
0.0008202099737533
 49
0.0
 49
0.0
 49
0.0
 49
0.0
 49
0.0008202099737533
 49
0.0
 49
0.0
 49
0.0
 49
0.0
 49
1.0
 49
0.0
 49
0.0
 49
0.0
 49
0.0
 49
1.0
175
     0
142
0.0008202099737533
142
0.0
142
0.0
142
0.0
142
0.0
142
0.0008202099737533
142
0.0
142
0.0
142
0.0
142
0.0
142
1.0
142
0.0
142
0.0
142
0.0
142
0.0
142
1.0
179
     0
144
0.0008202099737533
144
0.0
144
0.0
144
0.0
144
0.0
144
0.0008202099737533
144
0.0
144
0.0
144
0.0
144
0.0
144
1.0
144
0.0
144
0.0
144
0.0
144
0.0
144
1.0
147
0.0008202099737533
147
0.0
147
0.0
147
0.0
147
0.0
147
0.0008202099737533
147
0.0
147
0.0
147
0.0
147
0.0
147
1.0
147
0.0
147
0.0
147
0.0
147
0.0
147
1.0
  0
MLEADERSTYLE
  5
102378
102
{ACAD_XDICTIONARY
360
102EA0
102
}
102
{ACAD_REACTORS
330
102377
102
}
330
102377
100
AcDbMLeaderStyle
170
     2
171
     1
172
     0
 90
        2
 40
0.0
 41
0.0
173
     1
 91
-1056964608
340
14
 92
       -2
290
     1
 42
2.0
291
     1
 43
0.36
  3
Standard
 44
4.0
300

342
11
174
     1
178
     6
175
     1
176
     0
 93
-1056964608
 45
4.0
292
     0
297
     0
 46
4.0
 94
-1056964608
 47
1.0
 49
1.0
140
1.0
293
     1
141
0.0
294
     1
177
     0
142
1.0
295
     0
296
     0
143
0.125
1001
ACAD_MLEADERVER
1070
     2
  0
MLINESTYLE
  5
18
102
{ACAD_REACTORS
330
17
102
}
330
17
100
AcDbMlineStyle
  2
STANDARD
 70
     0
  3

 62
   256
 51
90.0
 52
90.0
 71
     2
 49
0.5
 62
   256
  6
BYLAYER
 49
-0.5
 62
   256
  6
BYLAYER
  0
ACDBPLACEHOLDER
  5
F
102
{ACAD_REACTORS
330
E
102
}
330
E
  0
SCALE
  5
102366
102
{ACAD_REACTORS
330
102365
102
}
330
102365
100
AcDbScale
 70
     0
300
1:1
140
1.0
141
1.0
290
     1
  0
SCALE
  5
102367
102
{ACAD_REACTORS
330
102365
102
}
330
102365
100
AcDbScale
 70
     0
300
1:2
140
1.0
141
2.0
290
     0
  0
SCALE
  5
102368
102
{ACAD_REACTORS
330
102365
102
}
330
102365
100
AcDbScale
 70
     0
300
1:4
140
1.0
141
4.0
290
     0
  0
SCALE
  5
102369
102
{ACAD_REACTORS
330
102365
102
}
330
102365
100
AcDbScale
 70
     0
300
1:5
140
1.0
141
5.0
290
     0
  0
SCALE
  5
10236A
102
{ACAD_REACTORS
330
102365
102
}
330
102365
100
AcDbScale
 70
     0
300
1:8
140
1.0
141
8.0
290
     0
  0
SCALE
  5
10236B
102
{ACAD_REACTORS
330
102365
102
}
330
102365
100
AcDbScale
 70
     0
300
1:10
140
1.0
141
10.0
290
     0
  0
SCALE
  5
10236C
102
{ACAD_REACTORS
330
102365
102
}
330
102365
100
AcDbScale
 70
     0
300
1:16
140
1.0
141
16.0
290
     0
  0
SCALE
  5
10236D
102
{ACAD_REACTORS
330
102365
102
}
330
102365
100
AcDbScale
 70
     0
300
1:20
140
1.0
141
20.0
290
     0
  0
SCALE
  5
10236E
102
{ACAD_REACTORS
330
102365
102
}
330
102365
100
AcDbScale
 70
     0
300
1:30
140
1.0
141
30.0
290
     0
  0
SCALE
  5
10236F
102
{ACAD_REACTORS
330
102365
102
}
330
102365
100
AcDbScale
 70
     0
300
1:40
140
1.0
141
40.0
290
     0
  0
SCALE
  5
102370
102
{ACAD_REACTORS
330
102365
102
}
330
102365
100
AcDbScale
 70
     0
300
1:50
140
1.0
141
50.0
290
     0
  0
SCALE
  5
102371
102
{ACAD_REACTORS
330
102365
102
}
330
102365
100
AcDbScale
 70
     0
300
1:100
140
1.0
141
100.0
290
     0
  0
SCALE
  5
102372
102
{ACAD_REACTORS
330
102365
102
}
330
102365
100
AcDbScale
 70
     0
300
2:1
140
2.0
141
1.0
290
     0
  0
SCALE
  5
102373
102
{ACAD_REACTORS
330
102365
102
}
330
102365
100
AcDbScale
 70
     0
300
4:1
140
4.0
141
1.0
290
     0
  0
SCALE
  5
102374
102
{ACAD_REACTORS
330
102365
102
}
330
102365
100
AcDbScale
 70
     0
300
8:1
140
8.0
141
1.0
290
     0
  0
SCALE
  5
102375
102
{ACAD_REACTORS
330
102365
102
}
330
102365
100
AcDbScale
 70
     0
300
10:1
140
10.0
141
1.0
290
     0
  0
SCALE
  5
102376
102
{ACAD_REACTORS
330
102365
102
}
330
102365
100
AcDbScale
 70
     0
300
100:1
140
100.0
141
1.0
290
     0
  0
ACDBSECTIONVIEWSTYLE
  5
10237A
102
{ACAD_XDICTIONARY
360
102EA2
102
}
102
{ACAD_REACTORS
330
102379
330
102DDF
102
}
330
102379
100
AcDbModelDocViewStyle
 70
     0
  3
Metric50
290
     0
100
AcDbSectionViewStyle
 70
     0
 71
     0
 90
      102
 71
     1
340
11
 62
   256
 40
5.0
340
0
340
0
 62
   256
 40
5.0
300
I, O, Q, S, X, Z
 40
10.0
 90
        0
 40
2.5
 90
        0
 71
     2
340
16
 90
       25
 62
   256
340
16
 90
       50
 62
   256
 40
5.0
 40
2.5
 40
5.0
 71
     3
340
11
 62
   256
 40
5.0
 90
        0
 40
15.0
 90
        1
300
%<\AcVar ViewSectionStartId>%-%<\AcVar ViewSectionEndId>% (%<\AcVar ViewScale \f "%sn">%)
 71
     4
 62
   256
 62
   257
300
ANSI31
 40
1.0
 90
        0
290
     0
290
     0
 90
        6
 40
0.0
 40
1.570796326794896
 40
0.2617993877991494
 40
1.308996938995747
 40
-0.2617993877991494
 40
1.832595714594044
  0
TABLESTYLE
  5
102364
102
{ACAD_XDICTIONARY
360
1027BF
102
}
102
{ACAD_REACTORS
330
102363
102
}
330
102363
100
AcDbTableStyle
  3
Standard
 70
     0
 71
     0
 40
1.5
 41
1.5
280
     0
281
     0
  7
STANDARD
140
4.5
170
     2
 62
     0
 63
     7
283
     0
274
    -2
284
     1
 64
     0
275
    -2
285
     1
 65
     0
276
    -2
286
     1
 66
     0
277
    -2
287
     1
 67
     0
278
    -2
288
     1
 68
     0
279
    -2
289
     1
 69
     0
  7
STANDARD
140
6.0
170
     5
 62
     0
 63
     7
283
     0
274
    -2
284
     1
 64
     0
275
    -2
285
     1
 65
     0
276
    -2
286
     1
 66
     0
277
    -2
287
     1
 67
     0
278
    -2
288
     1
 68
     0
279
    -2
289
     1
 69
     0
  7
STANDARD
140
4.5
170
     5
 62
     0
 63
     7
283
     0
274
    -2
284
     1
 64
     0
275
    -2
285
     1
 65
     0
276
    -2
286
     1
 66
     0
277
    -2
287
     1
 67
     0
278
    -2
288
     1
 68
     0
279
    -2
289
     1
 69
     0
  0
VISUALSTYLE
  5
102350
102
{ACAD_XDICTIONARY
360
102E79
102
}
102
{ACAD_REACTORS
330
10234A
102
}
330
10234A
100
AcDbVisualStyle
  2

 70
     4
 71
     0
 72
     2
 73
     0
 90
        0
 40
-0.6
 41
-30.0
 62
     5
 63
     7
 74
     1
 91
        4
 64
     7
 65
   257
 75
     1
175
     1
 42
1.0
 92
        0
 66
   257
 43
1.0
 76
     1
 77
     6
 78
     2
 67
     7
 79
     5
170
     0
171
     0
290
     0
174
     0
 93
        1
 44
0.0
173
     0
291
     0
 45
0.0
1001
ACAD
1000
AcDbSavedByObjectVersion
1070
     0
  0
VISUALSTYLE
  5
10234F
102
{ACAD_XDICTIONARY
360
102E77
102
}
102
{ACAD_REACTORS
330
10234A
102
}
330
10234A
100
AcDbVisualStyle
  2

 70
     7
 71
     1
 72
     0
 73
     1
 90
        0
 40
-0.6
 41
-30.0
 62
     5
 63
     7
 74
     0
 91
        4
 64
     7
 65
   257
 75
     1
175
     1
 42
1.0
 92
        8
 66
     7
 43
1.0
 76
     1
 77
     6
 78
     2
 67
     7
 79
     5
170
     0
171
     0
290
     0
174
     0
 93
        1
 44
0.0
173
     0
291
     1
 45
0.0
1001
ACAD
1000
AcDbSavedByObjectVersion
1070
     0
  0
VISUALSTYLE
  5
102356
102
{ACAD_XDICTIONARY
360
102E85
102
}
102
{ACAD_REACTORS
330
10234A
102
}
330
10234A
100
AcDbVisualStyle
  2

 70
    12
 71
     2
 72
     2
 73
     0
 90
        0
 40
-0.6
 41
-30.0
 62
     5
 63
     7
 74
     1
 91
        4
 64
     7
 65
   257
 75
     1
175
     1
 42
1.0
 92
        8
 66
     7
 43
1.0
 76
     1
 77
     6
 78
     2
 67
     7
 79
     5
170
     0
171
     0
290
     0
174
     0
 93
        1
 44
50.0
173
     0
291
     1
 45
0.0
1001
ACAD
1000
AcDbSavedByObjectVersion
1070
     0
  0
VISUALSTYLE
  5
10235A
102
{ACAD_XDICTIONARY
360
102E8D
102
}
102
{ACAD_REACTORS
330
10234A
102
}
330
10234A
100
AcDbVisualStyle
  2

 70
    16
 71
     2
 72
     2
 73
     3
 90
        0
 40
-0.6
 41
-30.0
 62
     5
 63
     8
 74
     1
 91
        4
 64
     7
 65
   257
 75
     1
175
     1
 42
1.0
 92
        8
 66
     8
 43
1.0
 76
     1
 77
     6
 78
     2
 67
     7
 79
     5
170
     0
171
     0
290
     0
174
     0
 93
        1
 44
0.0
173
     0
291
     1
 45
0.0
1001
ACAD
1000
AcDbSavedByObjectVersion
1070
     0
  0
VISUALSTYLE
  5
102353
102
{ACAD_XDICTIONARY
360
102E7F
102
}
102
{ACAD_REACTORS
330
10234A
102
}
330
10234A
100
AcDbVisualStyle
  2

 70
     9
 71
     3
 72
     2
 73
     0
 90
        0
 40
-0.6
 41
-30.0
 62
     5
 63
     7
 74
     2
 91
        2
 64
     7
 65
   257
 75
     1
175
     1
 42
179.0
 92
        8
 66
     7
 43
1.0
 76
     1
 77
     6
 78
     2
 67
     7
 79
     3
170
     0
171
     0
290
     0
174
     0
 93
        1
 44
0.0
173
     0
291
     0
 45
0.0
1001
ACAD
1000
AcDbSavedByObjectVersion
1070
     0
  0
VISUALSTYLE
  5
102355
102
{ACAD_XDICTIONARY
360
102E83
102
}
102
{ACAD_REACTORS
330
10234A
102
}
330
10234A
100
AcDbVisualStyle
  2

 70
    11
 71
     2
 72
     2
 73
     0
 90
        0
 40
-0.6
 41
-30.0
 62
     5
 63
     7
 74
     1
 91
        4
 64
     7
 65
   257
 75
     1
175
     1
 42
1.0
 92
        8
 66
     7
 43
1.0
 76
     1
 77
     6
 78
     2
 67
     7
 79
     5
170
     0
171
     0
290
     0
174
     0
 93
        1
 44
-50.0
173
     0
291
     1
 45
0.0
1001
ACAD
1000
AcDbSavedByObjectVersion
1070
     0
  0
VISUALSTYLE
  5
102362
102
{ACAD_XDICTIONARY
360
102E9D
102
}
102
{ACAD_REACTORS
330
10234A
102
}
330
10234A
100
AcDbVisualStyle
  2

 70
    22
 71
     2
 72
     2
 73
     0
 90
        0
 40
-0.6
 41
-30.0
 62
     5
 63
     7
 74
     1
 91
        4
 64
     7
 65
   257
 75
     1
175
     1
 42
1.0
 92
        8
 66
     7
 43
1.0
 76
     1
 77
     6
 78
     2
 67
     7
 79
     5
170
     0
171
     0
290
     0
174
     0
 93
        1
 44
0.0
173
     0
291
     1
 45
0.0
1001
ACAD
1000
AcDbSavedByObjectVersion
1070
     0
  0
VISUALSTYLE
  5
102359
102
{ACAD_XDICTIONARY
360
102E8B
102
}
102
{ACAD_REACTORS
330
10234A
102
}
330
10234A
100
AcDbVisualStyle
  2

 70
    15
 71
     2
 72
     2
 73
     0
 90
        0
 40
-0.6
 41
-30.0
 62
     5
 63
     7
 74
     1
 91
        4
 64
     7
 65
   257
 75
     1
175
     1
 42
1.0
 92
        8
 66
     7
 43
1.0
 76
     1
 77
     6
 78
     2
 67
     7
 79
     5
170
     0
171
     0
290
     0
174
     0
 93
        1
 44
0.0
173
     0
291
     1
 45
0.0
1001
ACAD
1000
AcDbSavedByObjectVersion
1070
     0
  0
VISUALSTYLE
  5
10234B
102
{ACAD_XDICTIONARY
360
102E6F
102
}
102
{ACAD_REACTORS
330
10234A
102
}
330
10234A
100
AcDbVisualStyle
  2

 70
     0
 71
     2
 72
     1
 73
     1
 90
        2
 40
-0.6
 41
30.0
 62
     5
 63
     7
 74
     0
 91
        0
 64
     7
 65
   257
 75
     1
175
     1
 42
1.0
 92
        8
 66
     7
 43
1.0
 76
     1
 77
     6
 78
     2
 67
     7
 79
     5
170
     0
171
     0
290
     0
174
     0
 93
       13
 44
0.0
173
     0
291
     1
 45
0.0
1001
ACAD
1000
AcDbSavedByObjectVersion
1070
     0
  0
VISUALSTYLE
  5
10234C
102
{ACAD_XDICTIONARY
360
102E71
102
}
102
{ACAD_REACTORS
330
10234A
102
}
330
10234A
100
AcDbVisualStyle
  2

 70
     1
 71
     2
 72
     1
 73
     1
 90
        2
 40
-0.6
 41
30.0
 62
     5
 63
     7
 74
     1
 91
        0
 64
     7
 65
   257
 75
     1
175
     1
 42
1.0
 92
        0
 66
   257
 43
1.0
 76
     1
 77
     6
 78
     2
 67
     7
 79
     5
170
     0
171
     0
290
     0
174
     0
 93
       13
 44
0.0
173
     0
291
     1
 45
0.0
1001
ACAD
1000
AcDbSavedByObjectVersion
1070
     0
  0
VISUALSTYLE
  5
10234D
102
{ACAD_XDICTIONARY
360
102E73
102
}
102
{ACAD_REACTORS
330
10234A
102
}
330
10234A
100
AcDbVisualStyle
  2

 70
     2
 71
     2
 72
     2
 73
     1
 90
        2
 40
-0.6
 41
30.0
 62
     5
 63
     7
 74
     0
 91
        0
 64
     7
 65
   257
 75
     1
175
     1
 42
1.0
 92
        0
 66
     7
 43
1.0
 76
     1
 77
     6
 78
     2
 67
     7
 79
     5
170
     0
171
     0
290
     0
174
     0
 93
       13
 44
0.0
173
     0
291
     1
 45
0.0
1001
ACAD
1000
AcDbSavedByObjectVersion
1070
     0
  0
VISUALSTYLE
  5
10234E
102
{ACAD_XDICTIONARY
360
102E75
102
}
102
{ACAD_REACTORS
330
10234A
102
}
330
10234A
100
AcDbVisualStyle
  2

 70
     3
 71
     2
 72
     2
 73
     1
 90
        2
 40
-0.6
 41
30.0
 62
     5
 63
     7
 74
     1
 91
        0
 64
     7
 65
   257
 75
     1
175
     1
 42
1.0
 92
        0
 66
   257
 43
1.0
 76
     1
 77
     6
 78
     2
 67
     7
 79
     5
170
     0
171
     0
290
     0
174
     0
 93
       13
 44
0.0
173
     0
291
     1
 45
0.0
1001
ACAD
1000
AcDbSavedByObjectVersion
1070
     0
  0
VISUALSTYLE
  5
102352
102
{ACAD_XDICTIONARY
360
102E7D
102
}
102
{ACAD_REACTORS
330
10234A
102
}
330
10234A
100
AcDbVisualStyle
  2

 70
     6
 71
     1
 72
     2
 73
     2
 90
        0
 40
-0.6
 41
-30.0
 62
     5
 63
     7
 74
     2
 91
        2
 64
     7
 65
   257
 75
     2
175
     1
 42
40.0
 92
        0
 66
   257
 43
1.0
 76
     1
 77
     6
 78
     2
 67
     7
 79
     3
170
     0
171
     0
290
     0
174
     0
 93
        1
 44
0.0
173
     0
291
     0
 45
0.0
1001
ACAD
1000
AcDbSavedByObjectVersion
1070
     0
  0
VISUALSTYLE
  5
102360
102
{ACAD_XDICTIONARY
360
102E99
102
}
102
{ACAD_REACTORS
330
10234A
102
}
330
10234A
100
AcDbVisualStyle
  2

 70
    20
 71
     2
 72
     2
 73
     0
 90
        0
 40
-0.6
 41
-30.0
 62
     5
 63
     7
 74
     1
 91
        4
 64
     7
 65
   257
 75
     1
175
     1
 42
1.0
 92
       10
 66
     7
 43
1.0
 76
     1
 77
     6
 78
     2
 67
     7
 79
     5
170
     0
171
     0
290
     0
174
     0
 93
        1
 44
0.0
173
     0
291
     1
 45
0.0
1001
ACAD
1000
AcDbSavedByObjectVersion
1070
     0
  0
VISUALSTYLE
  5
102358
102
{ACAD_XDICTIONARY
360
102E89
102
}
102
{ACAD_REACTORS
330
10234A
102
}
330
10234A
100
AcDbVisualStyle
  2

 70
    14
 71
     2
 72
     2
 73
     0
 90
        0
 40
-0.6
 41
-30.0
 62
     5
 63
     7
 74
     1
 91
        4
 64
     7
 65
   257
 75
     7
175
     7
 42
1.0
 92
        8
 66
     7
 43
1.0
 76
     1
 77
     6
 78
     2
 67
     7
 79
     5
170
     0
171
     0
290
     0
174
     0
 93
        1
 44
0.0
173
     0
291
     1
 45
0.0
1001
ACAD
1000
AcDbSavedByObjectVersion
1070
     0
  0
VISUALSTYLE
  5
102361
102
{ACAD_XDICTIONARY
360
102E9B
102
}
102
{ACAD_REACTORS
330
10234A
102
}
330
10234A
100
AcDbVisualStyle
  2

 70
    21
 71
     2
 72
     2
 73
     0
 90
        0
 40
-0.6
 41
-30.0
 62
     5
 63
     7
 74
     1
 91
        4
 64
     7
 65
   257
 75
     1
175
     1
 42
1.0
 92
        9
 66
     7
 43
1.0
 76
     1
 77
     6
 78
     2
 67
     7
 79
     5
170
     0
171
     0
290
     0
174
     0
 93
        1
 44
0.0
173
     0
291
     1
 45
0.0
1001
ACAD
1000
AcDbSavedByObjectVersion
1070
     0
  0
VISUALSTYLE
  5
102354
102
{ACAD_XDICTIONARY
360
102E81
102
}
102
{ACAD_REACTORS
330
10234A
102
}
330
10234A
100
AcDbVisualStyle
  2

 70
     8
 71
     2
 72
     3
 73
     0
 90
        2
 40
-0.6
 41
30.0
 62
     5
 63
     7
 74
     0
 91
        0
 64
     7
 65
   257
 75
     1
175
     1
 42
1.0
 92
        8
 66
   257
 43
1.0
 76
     1
 77
     6
 78
     2
 67
     7
 79
     3
170
     0
171
     0
290
     0
174
     0
 93
       13
 44
0.0
173
     0
291
     0
 45
0.0
1001
ACAD
1000
AcDbSavedByObjectVersion
1070
     0
  0
VISUALSTYLE
  5
10235F
102
{ACAD_XDICTIONARY
360
102E97
102
}
102
{ACAD_REACTORS
330
10234A
102
}
330
10234A
100
AcDbVisualStyle
  2

 70
    27
 71
     2
 72
     2
 73
     1
 90
        2
 40
-0.6
 41
30.0
 62
     5
 63
     7
 74
     0
 91
        4
 64
     7
 65
   257
 75
     1
175
     1
 42
1.0
 92
        8
 66
   257
 43
1.0
 76
     1
 77
     6
 78
     2
 67
     8
 79
     3
170
     0
171
     0
290
     0
174
     0
 93
        5
 44
0.0
173
     0
291
     0
 45
0.0
1001
ACAD
1000
AcDbSavedByObjectVersion
1070
     0
  0
VISUALSTYLE
  5
10235E
102
{ACAD_XDICTIONARY
360
102E95
102
}
102
{ACAD_REACTORS
330
10234A
102
}
330
10234A
100
AcDbVisualStyle
  2

 70
    26
 71
     2
 72
     2
 73
     1
 90
        2
 40
-0.6
 41
30.0
 62
     5
 63
     7
 74
     1
 91
       10
 64
     7
 65
   257
 75
     2
175
     1
 42
1.0
 92
        8
 66
   257
 43
1.0
 76
     1
 77
     6
 78
     2
 67
     7
 79
     3
170
     0
171
     0
290
     0
174
     0
 93
        5
 44
0.0
173
     0
291
     0
 45
0.0
1001
ACAD
1000
AcDbSavedByObjectVersion
1070
     0
  0
VISUALSTYLE
  5
10235B
102
{ACAD_XDICTIONARY
360
102E8F
102
}
102
{ACAD_REACTORS
330
10234A
102
}
330
10234A
100
AcDbVisualStyle
  2

 70
    23
 71
     2
 72
     2
 73
     3
 90
        0
 40
-0.6
 41
-30.0
 62
     5
 63
     7
 74
     2
 91
        2
 64
     7
 65
     7
 75
     1
175
     1
 42
40.0
 92
        8
 66
     7
 43
1.0
 76
     1
 77
     6
 78
     2
 67
     7
 79
     3
170
     0
171
     0
290
     0
174
     0
 93
        1
 44
0.0
173
     0
291
     0
 45
0.0
1001
ACAD
1000
AcDbSavedByObjectVersion
1070
     0
  0
VISUALSTYLE
  5
10235C
102
{ACAD_XDICTIONARY
360
102E91
102
}
102
{ACAD_REACTORS
330
10234A
102
}
330
10234A
100
AcDbVisualStyle
  2

 70
    24
 71
     1
 72
     2
 73
     2
 90
        0
 40
-0.6
 41
-30.0
 62
     5
 63
     7
 74
     2
 91
        2
 64
     7
 65
     7
 75
     1
175
     1
 42
40.0
 92
       11
 66
     7
 43
1.0
 76
     1
 77
     6
 78
     2
 67
     7
 79
     6
170
     0
171
     0
290
     0
174
     0
 93
        1
 44
0.0
173
     0
291
     0
 45
0.0
1001
ACAD
1000
AcDbSavedByObjectVersion
1070
     0
  0
VISUALSTYLE
  5
102357
102
{ACAD_XDICTIONARY
360
102E87
102
}
102
{ACAD_REACTORS
330
10234A
102
}
330
10234A
100
AcDbVisualStyle
  2

 70
    13
 71
     2
 72
     2
 73
     0
 90
        0
 40
-0.6
 41
-30.0
 62
     5
 63
     7
 74
     1
 91
        4
 64
     7
 65
   257
 75
     1
175
     1
 42
1.0
 92
       12
 66
     7
 43
1.0
 76
     1
 77
     6
 78
     2
 67
     7
 79
     5
170
     0
171
     0
290
     0
174
     0
 93
        1
 44
0.0
173
     0
291
     1
 45
0.0
1001
ACAD
1000
AcDbSavedByObjectVersion
1070
     0
  0
VISUALSTYLE
  5
102351
102
{ACAD_XDICTIONARY
360
102E7B
102
}
102
{ACAD_REACTORS
330
10234A
102
}
330
10234A
100
AcDbVisualStyle
  2

 70
     5
 71
     0
 72
     2
 73
     0
 90
        0
 40
-0.6
 41
-30.0
 62
     5
 63
     7
 74
     1
 91
        4
 64
     7
 65
   257
 75
     1
175
     1
 42
1.0
 92
        0
 66
   257
 43
1.0
 76
     1
 77
     6
 78
     2
 67
     7
 79
     3
170
     0
171
     0
290
     0
174
     0
 93
        1
 44
0.0
173
     0
291
     0
 45
0.0
1001
ACAD
1000
AcDbSavedByObjectVersion
1070
     0
  0
VISUALSTYLE
  5
10235D
102
{ACAD_XDICTIONARY
360
102E93
102
}
102
{ACAD_REACTORS
330
10234A
102
}
330
10234A
100
AcDbVisualStyle
  2

 70
    25
 71
     2
 72
     2
 73
     1
 90
        1
 40
0.5
 41
-30.0
 62
     5
 63
     7
 74
     1
 91
        0
 64
     7
 65
   257
 75
     1
175
     1
 42
1.0
 92
        8
 66
     7
 43
1.0
 76
     1
 77
     6
 78
     2
 67
     7
 79
     3
170
     0
171
     0
290
     0
174
     0
 93
       13
 44
0.0
173
     0
291
     0
 45
0.0
1001
ACAD
1000
AcDbSavedByObjectVersion
1070
     0
  0
DICTIONARYVAR
  5
1027BD
102
{ACAD_REACTORS
330
6B9
102
}
330
6B9
100
DictionaryVariables
280
     0
  1
1:1
  0
DICTIONARYVAR
  5
1027BA
102
{ACAD_REACTORS
330
6B9
102
}
330
6B9
100
DictionaryVariables
280
     0
  1
STANDARD
  0
DICTIONARYVAR
  5
1027B9
102
{ACAD_REACTORS
330
6B9
102
}
330
6B9
100
DictionaryVariables
280
     0
  1
STANDARD
  0
DICTIONARYVAR
  5
1027BB
102
{ACAD_REACTORS
330
6B9
102
}
330
6B9
100
DictionaryVariables
280
     0
  1
Metric50
  0
DICTIONARYVAR
  5
1027BC
102
{ACAD_REACTORS
330
6B9
102
}
330
6B9
100
DictionaryVariables
280
     0
  1
Metric50
  0
DICTIONARYVAR
  5
F4248
102
{ACAD_REACTORS
330
6B9
102
}
330
6B9
100
DictionaryVariables
280
     0
  1
1
  0
DICTIONARYVAR
  5
F4247
102
{ACAD_REACTORS
330
6B9
102
}
330
6B9
100
DictionaryVariables
280
     0
  1
0
  0
DICTIONARYVAR
  5
F4249
102
{ACAD_REACTORS
330
6B9
102
}
330
6B9
100
DictionaryVariables
280
     0
  1

  0
DICTIONARYVAR
  5
6BA
102
{ACAD_REACTORS
330
6B9
102
}
330
6B9
100
DictionaryVariables
280
     0
  1
96
  0
DICTIONARYVAR
  5
102E6C
102
{ACAD_REACTORS
330
6B9
102
}
330
6B9
100
DictionaryVariables
280
     0
  1
2
  0
DICTIONARY
  5
16D3E
102
{ACAD_REACTORS
330
16D31
102
}
330
16D31
100
AcDbDictionary
281
     1
  0
XRECORD
  5
16DB5
102
{ACAD_REACTORS
330
16D31
102
}
330
16D31
100
AcDbXrecord
280
     1
 90
-1023410169
  0
XRECORD
  5
F4A77
102
{ACAD_REACTORS
330
F4A75
102
}
330
F4A75
100
AcDbXrecord
280
     1
330
0
330
0
330
0
330
0
330
0
330
0
330
0
330
0
330
0
  0
XRECORD
  5
F82D2
102
{ACAD_REACTORS
330
F82BE
102
}
330
F82BE
100
AcDbXrecord
280
     1
 91
      484
330
4C
 90
        8
 62
     2
370
    40
331
16
  1
色_2
330
30
 90
        8
 62
    30
370
     9
331
F3ACE
  1
色_30
330
3AE4
 90
        8
 62
   123
370
     9
331
3AE3
  1
色_123
330
F3AD3
 90
        8
 62
   233
370
     9
331
16CF6
  1
色_233
330
33
 90
        8
 62
     8
370
     9
331
16
  1
色_8
330
86CB
 90
        8
 62
     7
370
    20
331
16
  1
色_7
330
86C9
 90
        8
 62
     4
370
    15
331
16
  1
色_4
330
86C8
 90
        8
 62
   173
370
     9
331
16
  1
色_173
420
-1034792193
330
86CC
 90
        8
 62
     1
370
     5
331
16
  1
色_1
330
548
 90
        0
 62
     6
370
    -3
331
16
  1
色_6
330
86FE
 90
        8
 62
   241
370
     5
331
58DA
  1
色_241
330
54
 90
        0
 62
     7
370
    -3
331
16
  1
色_7
330
F61AE
 90
        0
 62
     1
370
    25
331
16
  1
色_1
330
10
 90
        8
 62
     7
370
    20
331
16
  1
色_7
  0
XRECORD
  5
F82BF
102
{ACAD_REACTORS
330
F82BE
102
}
330
F82BE
100
AcDbXrecord
280
     1
 91
      484
330
4C
 90
        8
 62
     2
370
    40
331
16
  1
色_2
330
30
 90
        8
 62
    30
370
     9
331
F3ACE
  1
色_30
330
3AE4
 90
        8
 62
   123
370
     9
331
3AE3
  1
色_123
330
F3AD3
 90
        8
 62
   233
370
     9
331
16CF6
  1
色_233
330
33
 90
        8
 62
     8
370
     9
331
16
  1
色_8
330
86C8
 90
        8
 62
   173
370
     5
331
16
  1
色_173
420
-1034792193
330
548
 90
        0
 62
     6
370
    -3
331
16
  1
色_6
330
86FE
 90
        8
 62
   241
370
     5
331
58DA
  1
色_241
330
86CC
 90
        8
 62
     1
370
     9
331
16
  1
色_1
330
86CB
 90
        8
 62
     5
370
    20
331
16
  1
色_5
330
86C9
 90
        8
 62
     4
370
    15
331
16
  1
色_4
330
54
 90
        0
 62
     7
370
    -3
331
16
  1
色_7
330
F61AE
 90
        0
 62
     1
370
    25
331
16
  1
色_1
330
10
 90
        8
 62
     7
370
    20
331
16
  1
色_7
  0
DICTIONARY
  5
102EA4
330
10237C
100
AcDbDictionary
280
     1
281
     1
  3
ACAD_XREC_ROUNDTRIP
360
102EA5
  0
DICTIONARY
  5
10233B
330
10233A
100
AcDbDictionary
280
     1
281
     1
  3
ACAD_XREC_ROUNDTRIP
360
1027D4
  3
BUMPTILE
360
10233D
  3
DIFFUSETILE
360
10233C
  3
OPACITYTILE
360
102340
  3
REFLECTIONTILE
360
10233F
  3
REFRACTIONTILE
360
102341
  3
SPECULARTILE
360
10233E
  0
DICTIONARY
  5
102333
330
102332
100
AcDbDictionary
280
     1
281
     1
  3
ACAD_XREC_ROUNDTRIP
360
1027D3
  3
BUMPTILE
360
102335
  3
DIFFUSETILE
360
102334
  3
OPACITYTILE
360
102338
  3
REFLECTIONTILE
360
102337
  3
REFRACTIONTILE
360
102339
  3
SPECULARTILE
360
102336
  0
DICTIONARY
  5
102343
330
102342
100
AcDbDictionary
280
     1
281
     1
  3
ACAD_XREC_ROUNDTRIP
360
1027D5
  3
BUMPTILE
360
102345
  3
DIFFUSETILE
360
102344
  3
OPACITYTILE
360
102348
  3
REFLECTIONTILE
360
102347
  3
REFRACTIONTILE
360
102349
  3
SPECULARTILE
360
102346
  0
DICTIONARY
  5
102EA0
330
102378
100
AcDbDictionary
280
     1
281
     1
  3
ACAD_XREC_ROUNDTRIP
360
102EA1
  0
DICTIONARY
  5
102EA2
330
10237A
100
AcDbDictionary
280
     1
281
     1
  3
ACAD_XREC_ROUNDTRIP
360
102EA3
  0
DICTIONARY
  5
1027BF
330
102364
100
AcDbDictionary
280
     1
281
     1
  3
ACAD_ROUNDTRIP_2008_TABLESTYLE_CELLSTYLEMAP
360
102E6D
  3
ACAD_XREC_ROUNDTRIP
360
102E9F
  0
DICTIONARY
  5
102E79
330
102350
100
AcDbDictionary
280
     1
281
     1
  3
ACAD_XREC_ROUNDTRIP
360
102E7A
  0
DICTIONARY
  5
102E77
330
10234F
100
AcDbDictionary
280
     1
281
     1
  3
ACAD_XREC_ROUNDTRIP
360
102E78
  0
DICTIONARY
  5
102E85
330
102356
100
AcDbDictionary
280
     1
281
     1
  3
ACAD_XREC_ROUNDTRIP
360
102E86
  0
DICTIONARY
  5
102E8D
330
10235A
100
AcDbDictionary
280
     1
281
     1
  3
ACAD_XREC_ROUNDTRIP
360
102E8E
  0
DICTIONARY
  5
102E7F
330
102353
100
AcDbDictionary
280
     1
281
     1
  3
ACAD_XREC_ROUNDTRIP
360
102E80
  0
DICTIONARY
  5
102E83
330
102355
100
AcDbDictionary
280
     1
281
     1
  3
ACAD_XREC_ROUNDTRIP
360
102E84
  0
DICTIONARY
  5
102E9D
330
102362
100
AcDbDictionary
280
     1
281
     1
  3
ACAD_XREC_ROUNDTRIP
360
102E9E
  0
DICTIONARY
  5
102E8B
330
102359
100
AcDbDictionary
280
     1
281
     1
  3
ACAD_XREC_ROUNDTRIP
360
102E8C
  0
DICTIONARY
  5
102E6F
330
10234B
100
AcDbDictionary
280
     1
281
     1
  3
ACAD_XREC_ROUNDTRIP
360
102E70
  0
DICTIONARY
  5
102E71
330
10234C
100
AcDbDictionary
280
     1
281
     1
  3
ACAD_XREC_ROUNDTRIP
360
102E72
  0
DICTIONARY
  5
102E73
330
10234D
100
AcDbDictionary
280
     1
281
     1
  3
ACAD_XREC_ROUNDTRIP
360
102E74
  0
DICTIONARY
  5
102E75
330
10234E
100
AcDbDictionary
280
     1
281
     1
  3
ACAD_XREC_ROUNDTRIP
360
102E76
  0
DICTIONARY
  5
102E7D
330
102352
100
AcDbDictionary
280
     1
281
     1
  3
ACAD_XREC_ROUNDTRIP
360
102E7E
  0
DICTIONARY
  5
102E99
330
102360
100
AcDbDictionary
280
     1
281
     1
  3
ACAD_XREC_ROUNDTRIP
360
102E9A
  0
DICTIONARY
  5
102E89
330
102358
100
AcDbDictionary
280
     1
281
     1
  3
ACAD_XREC_ROUNDTRIP
360
102E8A
  0
DICTIONARY
  5
102E9B
330
102361
100
AcDbDictionary
280
     1
281
     1
  3
ACAD_XREC_ROUNDTRIP
360
102E9C
  0
DICTIONARY
  5
102E81
330
102354
100
AcDbDictionary
280
     1
281
     1
  3
ACAD_XREC_ROUNDTRIP
360
102E82
  0
DICTIONARY
  5
102E97
330
10235F
100
AcDbDictionary
280
     1
281
     1
  3
ACAD_XREC_ROUNDTRIP
360
102E98
  0
DICTIONARY
  5
102E95
330
10235E
100
AcDbDictionary
280
     1
281
     1
  3
ACAD_XREC_ROUNDTRIP
360
102E96
  0
DICTIONARY
  5
102E8F
330
10235B
100
AcDbDictionary
280
     1
281
     1
  3
ACAD_XREC_ROUNDTRIP
360
102E90
  0
DICTIONARY
  5
102E91
330
10235C
100
AcDbDictionary
280
     1
281
     1
  3
ACAD_XREC_ROUNDTRIP
360
102E92
  0
DICTIONARY
  5
102E87
330
102357
100
AcDbDictionary
280
     1
281
     1
  3
ACAD_XREC_ROUNDTRIP
360
102E88
  0
DICTIONARY
  5
102E7B
330
102351
100
AcDbDictionary
280
     1
281
     1
  3
ACAD_XREC_ROUNDTRIP
360
102E7C
  0
DICTIONARY
  5
102E93
330
10235D
100
AcDbDictionary
280
     1
281
     1
  3
ACAD_XREC_ROUNDTRIP
360
102E94
  0
XRECORD
  5
102EA5
102
{ACAD_REACTORS
330
102EA4
102
}
330
102EA4
100
AcDbXrecord
280
     1
102
DISPLAYNAME
  1
Metric50
102
FLAGS
 90
        0
  0
XRECORD
  5
1027D4
102
{ACAD_REACTORS
330
10233B
102
}
330
10233B
100
AcDbXrecord
280
     1
102
MATERIAL
148
0.0
149
0.0
149
0.0
 93
        0
 94
      127
282
     0
 72
     0
 77
     0
171
     0
175
     0
179
     0
273
     0
  0
XRECORD
  5
10233D
102
{ACAD_REACTORS
330
10233B
102
}
330
10233B
100
AcDbXrecord
280
     1
270
     1
271
     1
  0
XRECORD
  5
10233C
102
{ACAD_REACTORS
330
10233B
102
}
330
10233B
100
AcDbXrecord
280
     1
270
     1
271
     1
  0
XRECORD
  5
102340
102
{ACAD_REACTORS
330
10233B
102
}
330
10233B
100
AcDbXrecord
280
     1
270
     1
271
     1
  0
XRECORD
  5
10233F
102
{ACAD_REACTORS
330
10233B
102
}
330
10233B
100
AcDbXrecord
280
     1
270
     1
271
     1
  0
XRECORD
  5
102341
102
{ACAD_REACTORS
330
10233B
102
}
330
10233B
100
AcDbXrecord
280
     1
270
     1
271
     1
  0
XRECORD
  5
10233E
102
{ACAD_REACTORS
330
10233B
102
}
330
10233B
100
AcDbXrecord
280
     1
270
     1
271
     1
  0
XRECORD
  5
1027D3
102
{ACAD_REACTORS
330
102333
102
}
330
102333
100
AcDbXrecord
280
     1
102
MATERIAL
148
0.0
149
0.0
149
0.0
 93
        0
 94
      127
282
     0
 72
     0
 77
     0
171
     0
175
     0
179
     0
273
     0
  0
XRECORD
  5
102335
102
{ACAD_REACTORS
330
102333
102
}
330
102333
100
AcDbXrecord
280
     1
270
     1
271
     1
  0
XRECORD
  5
102334
102
{ACAD_REACTORS
330
102333
102
}
330
102333
100
AcDbXrecord
280
     1
270
     1
271
     1
  0
XRECORD
  5
102338
102
{ACAD_REACTORS
330
102333
102
}
330
102333
100
AcDbXrecord
280
     1
270
     1
271
     1
  0
XRECORD
  5
102337
102
{ACAD_REACTORS
330
102333
102
}
330
102333
100
AcDbXrecord
280
     1
270
     1
271
     1
  0
XRECORD
  5
102339
102
{ACAD_REACTORS
330
102333
102
}
330
102333
100
AcDbXrecord
280
     1
270
     1
271
     1
  0
XRECORD
  5
102336
102
{ACAD_REACTORS
330
102333
102
}
330
102333
100
AcDbXrecord
280
     1
270
     1
271
     1
  0
XRECORD
  5
1027D5
102
{ACAD_REACTORS
330
102343
102
}
330
102343
100
AcDbXrecord
280
     1
102
MATERIAL
148
0.0
149
0.0
149
0.0
 93
        0
 94
      127
282
     0
 72
     0
 77
     0
171
     0
175
     0
179
     0
273
     0
  0
XRECORD
  5
102345
102
{ACAD_REACTORS
330
102343
102
}
330
102343
100
AcDbXrecord
280
     1
270
     1
271
     1
  0
XRECORD
  5
102344
102
{ACAD_REACTORS
330
102343
102
}
330
102343
100
AcDbXrecord
280
     1
270
     1
271
     1
  0
XRECORD
  5
102348
102
{ACAD_REACTORS
330
102343
102
}
330
102343
100
AcDbXrecord
280
     1
270
     1
271
     1
  0
XRECORD
  5
102347
102
{ACAD_REACTORS
330
102343
102
}
330
102343
100
AcDbXrecord
280
     1
270
     1
271
     1
  0
XRECORD
  5
102349
102
{ACAD_REACTORS
330
102343
102
}
330
102343
100
AcDbXrecord
280
     1
270
     1
271
     1
  0
XRECORD
  5
102346
102
{ACAD_REACTORS
330
102343
102
}
330
102343
100
AcDbXrecord
280
     1
270
     1
271
     1
  0
XRECORD
  5
102EA1
102
{ACAD_REACTORS
330
102EA0
102
}
330
102EA0
100
AcDbXrecord
280
     1
102
ACAD_ROUNDTRIP_2012_MLEADER_STYLE
298
     1
  0
XRECORD
  5
102EA3
102
{ACAD_REACTORS
330
102EA2
102
}
330
102EA2
100
AcDbXrecord
280
     1
102
DISPLAYNAME
  1
Metric50
102
FLAGS
 90
        0
  0
CELLSTYLEMAP
  5
102E6D
102
{ACAD_REACTORS
330
1027BF
102
}
330
1027BF
100
AcDbCellStyleMap
 90
        3
300
CELLSTYLE
  1
TABLEFORMAT_BEGIN
 90
        5
170
     1
 91
        0
 92
    32768
 62
   257
 93
        1
300
CONTENTFORMAT
  1
CONTENTFORMAT_BEGIN
 90
        0
 91
        0
 92
      512
 93
        0
300

 40
0.0
140
1.0
 94
        5
 62
     0
340
11
144
6.0
309
CONTENTFORMAT_END
171
     1
301
MARGIN
  1
CELLMARGIN_BEGIN
 40
1.5
 40
1.5
 40
1.5
 40
1.5
 40
0.18
 40
0.18
309
CELLMARGIN_END
 94
        6
 95
        1
302
GRIDFORMAT
  1
GRIDFORMAT_BEGIN
 90
        0
 91
        1
 62
     0
 92
       -2
340
0
 93
        0
 40
1.125
309
GRIDFORMAT_END
 95
        2
302
GRIDFORMAT
  1
GRIDFORMAT_BEGIN
 90
        0
 91
        1
 62
     0
 92
       -2
340
0
 93
        0
 40
1.125
309
GRIDFORMAT_END
 95
        4
302
GRIDFORMAT
  1
GRIDFORMAT_BEGIN
 90
        0
 91
        1
 62
     0
 92
       -2
340
0
 93
        0
 40
1.125
309
GRIDFORMAT_END
 95
        8
302
GRIDFORMAT
  1
GRIDFORMAT_BEGIN
 90
        0
 91
        1
 62
     0
 92
       -2
340
0
 93
        0
 40
1.125
309
GRIDFORMAT_END
 95
       16
302
GRIDFORMAT
  1
GRIDFORMAT_BEGIN
 90
        0
 91
        1
 62
     0
 92
       -2
340
0
 93
        0
 40
1.125
309
GRIDFORMAT_END
 95
       32
302
GRIDFORMAT
  1
GRIDFORMAT_BEGIN
 90
        0
 91
        1
 62
     0
 92
       -2
340
0
 93
        0
 40
1.125
309
GRIDFORMAT_END
309
TABLEFORMAT_END
  1
CELLSTYLE_BEGIN
 90
        1
 91
        1
300
_TITLE
309
CELLSTYLE_END
300
CELLSTYLE
  1
TABLEFORMAT_BEGIN
 90
        5
170
     1
 91
        0
 92
        0
 62
   257
 93
        1
300
CONTENTFORMAT
  1
CONTENTFORMAT_BEGIN
 90
        0
 91
        0
 92
      512
 93
        0
300

 40
0.0
140
1.0
 94
        5
 62
     0
340
11
144
4.5
309
CONTENTFORMAT_END
171
     1
301
MARGIN
  1
CELLMARGIN_BEGIN
 40
1.5
 40
1.5
 40
1.5
 40
1.5
 40
0.18
 40
0.18
309
CELLMARGIN_END
 94
        6
 95
        1
302
GRIDFORMAT
  1
GRIDFORMAT_BEGIN
 90
        0
 91
        1
 62
     0
 92
       -2
340
0
 93
        0
 40
1.125
309
GRIDFORMAT_END
 95
        2
302
GRIDFORMAT
  1
GRIDFORMAT_BEGIN
 90
        0
 91
        1
 62
     0
 92
       -2
340
0
 93
        0
 40
1.125
309
GRIDFORMAT_END
 95
        4
302
GRIDFORMAT
  1
GRIDFORMAT_BEGIN
 90
        0
 91
        1
 62
     0
 92
       -2
340
0
 93
        0
 40
1.125
309
GRIDFORMAT_END
 95
        8
302
GRIDFORMAT
  1
GRIDFORMAT_BEGIN
 90
        0
 91
        1
 62
     0
 92
       -2
340
0
 93
        0
 40
1.125
309
GRIDFORMAT_END
 95
       16
302
GRIDFORMAT
  1
GRIDFORMAT_BEGIN
 90
        0
 91
        1
 62
     0
 92
       -2
340
0
 93
        0
 40
1.125
309
GRIDFORMAT_END
 95
       32
302
GRIDFORMAT
  1
GRIDFORMAT_BEGIN
 90
        0
 91
        1
 62
     0
 92
       -2
340
0
 93
        0
 40
1.125
309
GRIDFORMAT_END
309
TABLEFORMAT_END
  1
CELLSTYLE_BEGIN
 90
        2
 91
        1
300
_HEADER
309
CELLSTYLE_END
300
CELLSTYLE
  1
TABLEFORMAT_BEGIN
 90
        5
170
     1
 91
        0
 92
        0
 62
   257
 93
        1
300
CONTENTFORMAT
  1
CONTENTFORMAT_BEGIN
 90
        0
 91
        0
 92
      512
 93
        0
300

 40
0.0
140
1.0
 94
        2
 62
     0
340
11
144
4.5
309
CONTENTFORMAT_END
171
     1
301
MARGIN
  1
CELLMARGIN_BEGIN
 40
1.5
 40
1.5
 40
1.5
 40
1.5
 40
0.18
 40
0.18
309
CELLMARGIN_END
 94
        6
 95
        1
302
GRIDFORMAT
  1
GRIDFORMAT_BEGIN
 90
        0
 91
        1
 62
     0
 92
       -2
340
0
 93
        0
 40
1.125
309
GRIDFORMAT_END
 95
        2
302
GRIDFORMAT
  1
GRIDFORMAT_BEGIN
 90
        0
 91
        1
 62
     0
 92
       -2
340
0
 93
        0
 40
1.125
309
GRIDFORMAT_END
 95
        4
302
GRIDFORMAT
  1
GRIDFORMAT_BEGIN
 90
        0
 91
        1
 62
     0
 92
       -2
340
0
 93
        0
 40
1.125
309
GRIDFORMAT_END
 95
        8
302
GRIDFORMAT
  1
GRIDFORMAT_BEGIN
 90
        0
 91
        1
 62
     0
 92
       -2
340
0
 93
        0
 40
1.125
309
GRIDFORMAT_END
 95
       16
302
GRIDFORMAT
  1
GRIDFORMAT_BEGIN
 90
        0
 91
        1
 62
     0
 92
       -2
340
0
 93
        0
 40
1.125
309
GRIDFORMAT_END
 95
       32
302
GRIDFORMAT
  1
GRIDFORMAT_BEGIN
 90
        0
 91
        1
 62
     0
 92
       -2
340
0
 93
        0
 40
1.125
309
GRIDFORMAT_END
309
TABLEFORMAT_END
  1
CELLSTYLE_BEGIN
 90
        3
 91
        2
300
_DATA
309
CELLSTYLE_END
  0
XRECORD
  5
102E9F
102
{ACAD_REACTORS
330
1027BF
102
}
330
1027BF
100
AcDbXrecord
280
     1
102
ACAD_ROUNDTRIP_PRE2007_TABLESTYLE
 90
      512
 91
        0
  1

 92
      512
 93
        0
  2

 94
      512
 95
        0
  3

  0
XRECORD
  5
102E7A
102
{ACAD_REACTORS
330
102E79
102
}
330
102E79
100
AcDbXrecord
280
     1
102
RTVSPost2010Prop28
280
     1
102
RTVSPost2010PropOp28
 70
     1
102
RTVSPost2010Prop29
280
     1
102
RTVSPost2010PropOp29
 70
     1
102
RTVSPost2010Prop30
280
     0
102
RTVSPost2010PropOp30
 70
     1
102
RTVSPost2010Prop31
280
     0
102
RTVSPost2010PropOp31
 70
     1
102
RTVSPost2010Prop32
280
     0
102
RTVSPost2010PropOp32
 70
     1
102
RTVSPost2010Prop33
280
     0
102
RTVSPost2010PropOp33
 70
     1
102
RTVSPost2010Prop34
280
     0
102
RTVSPost2010PropOp34
 70
     1
102
RTVSPost2010Prop35
280
     0
102
RTVSPost2010PropOp35
 70
     1
102
RTVSPost2010Prop36
280
     0
102
RTVSPost2010PropOp36
 70
     1
102
RTVSPost2010Prop37
 90
       50
102
RTVSPost2010PropOp37
 70
     1
102
RTVSPost2010Prop38
140
0.0
102
RTVSPost2010PropOp38
 70
     1
102
RTVSPost2010Prop39
140
1.0
102
RTVSPost2010PropOp39
 70
     1
102
RTVSPost2010Prop40
 90
        0
102
RTVSPost2010PropOp40
 70
     1
102
RTVSPost2010Prop41ColorIndex
 90
       18
102
RTVSPost2010Prop41ColorRGB
 90
        0
102
RTVSPost2010PropOp41
 70
     1
102
RTVSPost2010Prop42
 90
       50
102
RTVSPost2010PropOp42
 70
     1
102
RTVSPost2010Prop43
 90
        3
102
RTVSPost2010PropOp43
 70
     1
102
RTVSPost2010Prop44ColorIndex
 90
        5
102
RTVSPost2010Prop44ColorRGB
 90
      255
102
RTVSPost2010PropOp44
 70
     1
102
RTVSPost2010Prop45
280
     0
102
RTVSPost2010PropOp45
 70
     1
102
RTVSPost2010Prop46
 90
       50
102
RTVSPost2010PropOp46
 70
     1
102
RTVSPost2010Prop47
 90
       50
102
RTVSPost2010PropOp47
 70
     1
102
RTVSPost2010Prop48
 90
       50
102
RTVSPost2010PropOp48
 70
     1
102
RTVSPost2010Prop49
280
     0
102
RTVSPost2010PropOp49
 70
     1
102
RTVSPost2010Prop50
 90
       50
102
RTVSPost2010PropOp50
 70
     1
102
RTVSPost2010Prop51ColorIndex
 90
      256
102
RTVSPost2010Prop51ColorRGB
 90
-16777216
102
RTVSPost2010PropOp51
 70
     0
102
RTVSPost2010Prop52
140
1.0
102
RTVSPost2010PropOp52
 70
     0
102
RTVSPost2010Prop53
 90
        2
102
RTVSPost2010PropOp53
 70
     1
102
RTVSPost2010Prop54
  1
strokes_ogs.tif
102
RTVSPost2010PropOp54
 70
     1
102
RTVSPost2010Prop55
280
     0
102
RTVSPost2010PropOp55
 70
     1
102
RTVSPost2010Prop56
140
1.0
102
RTVSPost2010PropOp56
 70
     1
102
RTVSPost2010Prop57
140
1.0
102
RTVSPost2010PropOp57
 70
     1
102
RTVSPropertyOp0
 70
     1
102
RTVSPropertyOp1
 70
     1
102
RTVSPropertyOp2
 70
     1
102
RTVSPropertyOp3
 70
     1
102
RTVSPropertyOp4
 70
     1
102
RTVSPropertyOp5
 70
     1
102
RTVSPropertyOp6
 70
     1
102
RTVSPropertyOp7
 70
     1
102
RTVSPropertyOp8
 70
     1
102
RTVSPropertyOp9
 70
     1
102
RTVSPropertyOp10
 70
     1
102
RTVSPropertyOp11
 70
     1
102
RTVSPropertyOp12
 70
     1
102
RTVSPropertyOp13
 70
     1
102
RTVSPropertyOp14
 70
     1
102
RTVSPropertyOp15
 70
     1
102
RTVSPropertyOp16
 70
     1
102
RTVSPropertyOp17
 70
     1
102
RTVSPropertyOp18
 70
     1
102
RTVSPropertyOp19
 70
     1
102
RTVSPropertyOp20
 70
     1
102
RTVSPropertyOp21
 70
     1
102
RTVSPropertyOp22
 70
     1
102
RTVSPropertyOp23
 70
     1
102
RTVSPropertyOp24
 70
     1
102
RTVSPropertyOp25
 70
     1
102
RTVSPropertyOp26
 70
     1
102
RTVSPropertyOp27
 70
     1
102
RTVSPropertyOp28
 70
     1
102
RTVSPropertyOp29
 70
     1
102
RTVSPropertyOp30
 70
     1
102
RTVSPropertyOp31
 70
     1
102
RTVSPropertyOp32
 70
     1
102
RTVSPropertyOp33
 70
     1
102
RTVSPropertyOp34
 70
     1
102
RTVSPropertyOp35
 70
     1
102
RTVSPropertyOp36
 70
     1
102
RTVSPropertyOp37
 70
     1
102
RTVSPropertyOp38
 70
     1
102
RTVSPropertyOp39
 70
     1
102
RTVSPropertyOp40
 70
     1
102
RTVSPropertyOp41
 70
     1
102
RTVSPropertyOp42
 70
     1
102
RTVSPropertyOp43
 70
     1
102
RTVSPropertyOp44
 70
     1
102
RTVSPropertyOp45
 70
     1
102
RTVSPropertyOp46
 70
     1
102
RTVSPropertyOp47
 70
     1
102
RTVSPropertyOp48
 70
     1
102
RTVSPropertyOp49
 70
     1
102
RTVSPropertyOp50
 70
     1
102
RTVSPropertyOp51
 70
     0
102
RTVSPropertyOp52
 70
     0
102
RTVSPropertyOp53
 70
     1
102
RTVSPropertyOp54
 70
     1
102
RTVSPropertyOp55
 70
     1
102
RTVSPropertyOp56
 70
     1
102
RTVSPropertyOp57
 70
     1
102
RTVSPropertyOp58
 70
     1
102
RTVSPropertyOp59
 70
     1
102
RTVSPropertyOp60
 70
     1
102
RTVSPropertyOp61
 70
     1
102
RTVSPropertyOp62
 70
     1
  0
XRECORD
  5
102E78
102
{ACAD_REACTORS
330
102E77
102
}
330
102E77
100
AcDbXrecord
280
     1
102
RTVSPost2010Prop28
280
     0
102
RTVSPost2010PropOp28
 70
     1
102
RTVSPost2010Prop29
280
     1
102
RTVSPost2010PropOp29
 70
     1
102
RTVSPost2010Prop30
280
     1
102
RTVSPost2010PropOp30
 70
     1
102
RTVSPost2010Prop31
280
     0
102
RTVSPost2010PropOp31
 70
     1
102
RTVSPost2010Prop32
280
     0
102
RTVSPost2010PropOp32
 70
     1
102
RTVSPost2010Prop33
280
     0
102
RTVSPost2010PropOp33
 70
     1
102
RTVSPost2010Prop34
280
     0
102
RTVSPost2010PropOp34
 70
     1
102
RTVSPost2010Prop35
280
     0
102
RTVSPost2010PropOp35
 70
     1
102
RTVSPost2010Prop36
280
     0
102
RTVSPost2010PropOp36
 70
     1
102
RTVSPost2010Prop37
 90
       50
102
RTVSPost2010PropOp37
 70
     1
102
RTVSPost2010Prop38
140
0.0
102
RTVSPost2010PropOp38
 70
     1
102
RTVSPost2010Prop39
140
1.0
102
RTVSPost2010PropOp39
 70
     1
102
RTVSPost2010Prop40
 90
        0
102
RTVSPost2010PropOp40
 70
     1
102
RTVSPost2010Prop41ColorIndex
 90
       18
102
RTVSPost2010Prop41ColorRGB
 90
        0
102
RTVSPost2010PropOp41
 70
     1
102
RTVSPost2010Prop42
 90
       50
102
RTVSPost2010PropOp42
 70
     1
102
RTVSPost2010Prop43
 90
        3
102
RTVSPost2010PropOp43
 70
     1
102
RTVSPost2010Prop44ColorIndex
 90
        5
102
RTVSPost2010Prop44ColorRGB
 90
      255
102
RTVSPost2010PropOp44
 70
     1
102
RTVSPost2010Prop45
280
     0
102
RTVSPost2010PropOp45
 70
     1
102
RTVSPost2010Prop46
 90
       50
102
RTVSPost2010PropOp46
 70
     1
102
RTVSPost2010Prop47
 90
       50
102
RTVSPost2010PropOp47
 70
     1
102
RTVSPost2010Prop48
 90
       50
102
RTVSPost2010PropOp48
 70
     1
102
RTVSPost2010Prop49
280
     0
102
RTVSPost2010PropOp49
 70
     1
102
RTVSPost2010Prop50
 90
       50
102
RTVSPost2010PropOp50
 70
     1
102
RTVSPost2010Prop51ColorIndex
 90
      256
102
RTVSPost2010Prop51ColorRGB
 90
-16777216
102
RTVSPost2010PropOp51
 70
     0
102
RTVSPost2010Prop52
140
1.0
102
RTVSPost2010PropOp52
 70
     0
102
RTVSPost2010Prop53
 90
        2
102
RTVSPost2010PropOp53
 70
     1
102
RTVSPost2010Prop54
  1
strokes_ogs.tif
102
RTVSPost2010PropOp54
 70
     1
102
RTVSPost2010Prop55
280
     0
102
RTVSPost2010PropOp55
 70
     1
102
RTVSPost2010Prop56
140
1.0
102
RTVSPost2010PropOp56
 70
     1
102
RTVSPost2010Prop57
140
1.0
102
RTVSPost2010PropOp57
 70
     1
102
RTVSPropertyOp0
 70
     1
102
RTVSPropertyOp1
 70
     1
102
RTVSPropertyOp2
 70
     1
102
RTVSPropertyOp3
 70
     1
102
RTVSPropertyOp4
 70
     1
102
RTVSPropertyOp5
 70
     1
102
RTVSPropertyOp6
 70
     1
102
RTVSPropertyOp7
 70
     1
102
RTVSPropertyOp8
 70
     1
102
RTVSPropertyOp9
 70
     1
102
RTVSPropertyOp10
 70
     1
102
RTVSPropertyOp11
 70
     1
102
RTVSPropertyOp12
 70
     1
102
RTVSPropertyOp13
 70
     1
102
RTVSPropertyOp14
 70
     1
102
RTVSPropertyOp15
 70
     1
102
RTVSPropertyOp16
 70
     1
102
RTVSPropertyOp17
 70
     1
102
RTVSPropertyOp18
 70
     1
102
RTVSPropertyOp19
 70
     1
102
RTVSPropertyOp20
 70
     1
102
RTVSPropertyOp21
 70
     1
102
RTVSPropertyOp22
 70
     1
102
RTVSPropertyOp23
 70
     1
102
RTVSPropertyOp24
 70
     1
102
RTVSPropertyOp25
 70
     1
102
RTVSPropertyOp26
 70
     1
102
RTVSPropertyOp27
 70
     1
102
RTVSPropertyOp28
 70
     1
102
RTVSPropertyOp29
 70
     1
102
RTVSPropertyOp30
 70
     1
102
RTVSPropertyOp31
 70
     1
102
RTVSPropertyOp32
 70
     1
102
RTVSPropertyOp33
 70
     1
102
RTVSPropertyOp34
 70
     1
102
RTVSPropertyOp35
 70
     1
102
RTVSPropertyOp36
 70
     1
102
RTVSPropertyOp37
 70
     1
102
RTVSPropertyOp38
 70
     1
102
RTVSPropertyOp39
 70
     1
102
RTVSPropertyOp40
 70
     1
102
RTVSPropertyOp41
 70
     1
102
RTVSPropertyOp42
 70
     1
102
RTVSPropertyOp43
 70
     1
102
RTVSPropertyOp44
 70
     1
102
RTVSPropertyOp45
 70
     1
102
RTVSPropertyOp46
 70
     1
102
RTVSPropertyOp47
 70
     1
102
RTVSPropertyOp48
 70
     1
102
RTVSPropertyOp49
 70
     1
102
RTVSPropertyOp50
 70
     1
102
RTVSPropertyOp51
 70
     0
102
RTVSPropertyOp52
 70
     0
102
RTVSPropertyOp53
 70
     1
102
RTVSPropertyOp54
 70
     1
102
RTVSPropertyOp55
 70
     1
102
RTVSPropertyOp56
 70
     1
102
RTVSPropertyOp57
 70
     1
102
RTVSPropertyOp58
 70
     1
102
RTVSPropertyOp59
 70
     1
102
RTVSPropertyOp60
 70
     1
102
RTVSPropertyOp61
 70
     1
102
RTVSPropertyOp62
 70
     1
  0
XRECORD
  5
102E86
102
{ACAD_REACTORS
330
102E85
102
}
330
102E85
100
AcDbXrecord
280
     1
102
RTVSPost2010Prop28
280
     0
102
RTVSPost2010PropOp28
 70
     1
102
RTVSPost2010Prop29
280
     1
102
RTVSPost2010PropOp29
 70
     1
102
RTVSPost2010Prop30
280
     1
102
RTVSPost2010PropOp30
 70
     1
102
RTVSPost2010Prop31
280
     0
102
RTVSPost2010PropOp31
 70
     1
102
RTVSPost2010Prop32
280
     0
102
RTVSPost2010PropOp32
 70
     1
102
RTVSPost2010Prop33
280
     0
102
RTVSPost2010PropOp33
 70
     1
102
RTVSPost2010Prop34
280
     0
102
RTVSPost2010PropOp34
 70
     1
102
RTVSPost2010Prop35
280
     0
102
RTVSPost2010PropOp35
 70
     1
102
RTVSPost2010Prop36
280
     0
102
RTVSPost2010PropOp36
 70
     1
102
RTVSPost2010Prop37
 90
       50
102
RTVSPost2010PropOp37
 70
     1
102
RTVSPost2010Prop38
140
0.0
102
RTVSPost2010PropOp38
 70
     1
102
RTVSPost2010Prop39
140
1.0
102
RTVSPost2010PropOp39
 70
     1
102
RTVSPost2010Prop40
 90
        0
102
RTVSPost2010PropOp40
 70
     1
102
RTVSPost2010Prop41ColorIndex
 90
       18
102
RTVSPost2010Prop41ColorRGB
 90
        0
102
RTVSPost2010PropOp41
 70
     1
102
RTVSPost2010Prop42
 90
       50
102
RTVSPost2010PropOp42
 70
     1
102
RTVSPost2010Prop43
 90
        3
102
RTVSPost2010PropOp43
 70
     1
102
RTVSPost2010Prop44ColorIndex
 90
        5
102
RTVSPost2010Prop44ColorRGB
 90
      255
102
RTVSPost2010PropOp44
 70
     1
102
RTVSPost2010Prop45
280
     0
102
RTVSPost2010PropOp45
 70
     1
102
RTVSPost2010Prop46
 90
       50
102
RTVSPost2010PropOp46
 70
     1
102
RTVSPost2010Prop47
 90
       50
102
RTVSPost2010PropOp47
 70
     1
102
RTVSPost2010Prop48
 90
       50
102
RTVSPost2010PropOp48
 70
     1
102
RTVSPost2010Prop49
280
     0
102
RTVSPost2010PropOp49
 70
     1
102
RTVSPost2010Prop50
 90
       50
102
RTVSPost2010PropOp50
 70
     1
102
RTVSPost2010Prop51ColorIndex
 90
      256
102
RTVSPost2010Prop51ColorRGB
 90
-16777216
102
RTVSPost2010PropOp51
 70
     0
102
RTVSPost2010Prop52
140
1.0
102
RTVSPost2010PropOp52
 70
     0
102
RTVSPost2010Prop53
 90
        2
102
RTVSPost2010PropOp53
 70
     1
102
RTVSPost2010Prop54
  1
strokes_ogs.tif
102
RTVSPost2010PropOp54
 70
     1
102
RTVSPost2010Prop55
280
     0
102
RTVSPost2010PropOp55
 70
     1
102
RTVSPost2010Prop56
140
1.0
102
RTVSPost2010PropOp56
 70
     1
102
RTVSPost2010Prop57
140
1.0
102
RTVSPost2010PropOp57
 70
     1
102
RTVSPropertyOp0
 70
     1
102
RTVSPropertyOp1
 70
     1
102
RTVSPropertyOp2
 70
     1
102
RTVSPropertyOp3
 70
     1
102
RTVSPropertyOp4
 70
     1
102
RTVSPropertyOp5
 70
     1
102
RTVSPropertyOp6
 70
     1
102
RTVSPropertyOp7
 70
     1
102
RTVSPropertyOp8
 70
     1
102
RTVSPropertyOp9
 70
     1
102
RTVSPropertyOp10
 70
     1
102
RTVSPropertyOp11
 70
     1
102
RTVSPropertyOp12
 70
     1
102
RTVSPropertyOp13
 70
     1
102
RTVSPropertyOp14
 70
     1
102
RTVSPropertyOp15
 70
     1
102
RTVSPropertyOp16
 70
     1
102
RTVSPropertyOp17
 70
     1
102
RTVSPropertyOp18
 70
     1
102
RTVSPropertyOp19
 70
     1
102
RTVSPropertyOp20
 70
     1
102
RTVSPropertyOp21
 70
     1
102
RTVSPropertyOp22
 70
     1
102
RTVSPropertyOp23
 70
     1
102
RTVSPropertyOp24
 70
     1
102
RTVSPropertyOp25
 70
     1
102
RTVSPropertyOp26
 70
     1
102
RTVSPropertyOp27
 70
     1
102
RTVSPropertyOp28
 70
     1
102
RTVSPropertyOp29
 70
     1
102
RTVSPropertyOp30
 70
     1
102
RTVSPropertyOp31
 70
     1
102
RTVSPropertyOp32
 70
     1
102
RTVSPropertyOp33
 70
     1
102
RTVSPropertyOp34
 70
     1
102
RTVSPropertyOp35
 70
     1
102
RTVSPropertyOp36
 70
     1
102
RTVSPropertyOp37
 70
     1
102
RTVSPropertyOp38
 70
     1
102
RTVSPropertyOp39
 70
     1
102
RTVSPropertyOp40
 70
     1
102
RTVSPropertyOp41
 70
     1
102
RTVSPropertyOp42
 70
     1
102
RTVSPropertyOp43
 70
     1
102
RTVSPropertyOp44
 70
     1
102
RTVSPropertyOp45
 70
     1
102
RTVSPropertyOp46
 70
     1
102
RTVSPropertyOp47
 70
     1
102
RTVSPropertyOp48
 70
     1
102
RTVSPropertyOp49
 70
     1
102
RTVSPropertyOp50
 70
     1
102
RTVSPropertyOp51
 70
     0
102
RTVSPropertyOp52
 70
     0
102
RTVSPropertyOp53
 70
     1
102
RTVSPropertyOp54
 70
     1
102
RTVSPropertyOp55
 70
     1
102
RTVSPropertyOp56
 70
     1
102
RTVSPropertyOp57
 70
     1
102
RTVSPropertyOp58
 70
     1
102
RTVSPropertyOp59
 70
     1
102
RTVSPropertyOp60
 70
     1
102
RTVSPropertyOp61
 70
     1
102
RTVSPropertyOp62
 70
     1
  0
XRECORD
  5
102E8E
102
{ACAD_REACTORS
330
102E8D
102
}
330
102E8D
100
AcDbXrecord
280
     1
102
RTVSPost2010Prop28
280
     0
102
RTVSPost2010PropOp28
 70
     1
102
RTVSPost2010Prop29
280
     1
102
RTVSPost2010PropOp29
 70
     1
102
RTVSPost2010Prop30
280
     1
102
RTVSPost2010PropOp30
 70
     1
102
RTVSPost2010Prop31
280
     0
102
RTVSPost2010PropOp31
 70
     1
102
RTVSPost2010Prop32
280
     0
102
RTVSPost2010PropOp32
 70
     1
102
RTVSPost2010Prop33
280
     0
102
RTVSPost2010PropOp33
 70
     1
102
RTVSPost2010Prop34
280
     0
102
RTVSPost2010PropOp34
 70
     1
102
RTVSPost2010Prop35
280
     0
102
RTVSPost2010PropOp35
 70
     1
102
RTVSPost2010Prop36
280
     0
102
RTVSPost2010PropOp36
 70
     1
102
RTVSPost2010Prop37
 90
       50
102
RTVSPost2010PropOp37
 70
     1
102
RTVSPost2010Prop38
140
0.0
102
RTVSPost2010PropOp38
 70
     1
102
RTVSPost2010Prop39
140
1.0
102
RTVSPost2010PropOp39
 70
     1
102
RTVSPost2010Prop40
 90
        0
102
RTVSPost2010PropOp40
 70
     1
102
RTVSPost2010Prop41ColorIndex
 90
       18
102
RTVSPost2010Prop41ColorRGB
 90
        0
102
RTVSPost2010PropOp41
 70
     1
102
RTVSPost2010Prop42
 90
       50
102
RTVSPost2010PropOp42
 70
     1
102
RTVSPost2010Prop43
 90
        3
102
RTVSPost2010PropOp43
 70
     1
102
RTVSPost2010Prop44ColorIndex
 90
        5
102
RTVSPost2010Prop44ColorRGB
 90
      255
102
RTVSPost2010PropOp44
 70
     1
102
RTVSPost2010Prop45
280
     0
102
RTVSPost2010PropOp45
 70
     1
102
RTVSPost2010Prop46
 90
       50
102
RTVSPost2010PropOp46
 70
     1
102
RTVSPost2010Prop47
 90
       50
102
RTVSPost2010PropOp47
 70
     1
102
RTVSPost2010Prop48
 90
       50
102
RTVSPost2010PropOp48
 70
     1
102
RTVSPost2010Prop49
280
     0
102
RTVSPost2010PropOp49
 70
     1
102
RTVSPost2010Prop50
 90
       50
102
RTVSPost2010PropOp50
 70
     1
102
RTVSPost2010Prop51ColorIndex
 90
      256
102
RTVSPost2010Prop51ColorRGB
 90
-16777216
102
RTVSPost2010PropOp51
 70
     0
102
RTVSPost2010Prop52
140
1.0
102
RTVSPost2010PropOp52
 70
     0
102
RTVSPost2010Prop53
 90
        2
102
RTVSPost2010PropOp53
 70
     1
102
RTVSPost2010Prop54
  1
strokes_ogs.tif
102
RTVSPost2010PropOp54
 70
     1
102
RTVSPost2010Prop55
280
     0
102
RTVSPost2010PropOp55
 70
     1
102
RTVSPost2010Prop56
140
1.0
102
RTVSPost2010PropOp56
 70
     1
102
RTVSPost2010Prop57
140
1.0
102
RTVSPost2010PropOp57
 70
     1
102
RTVSPropertyOp0
 70
     1
102
RTVSPropertyOp1
 70
     1
102
RTVSPropertyOp2
 70
     1
102
RTVSPropertyOp3
 70
     1
102
RTVSPropertyOp4
 70
     1
102
RTVSPropertyOp5
 70
     1
102
RTVSPropertyOp6
 70
     1
102
RTVSPropertyOp7
 70
     1
102
RTVSPropertyOp8
 70
     1
102
RTVSPropertyOp9
 70
     1
102
RTVSPropertyOp10
 70
     1
102
RTVSPropertyOp11
 70
     1
102
RTVSPropertyOp12
 70
     1
102
RTVSPropertyOp13
 70
     1
102
RTVSPropertyOp14
 70
     1
102
RTVSPropertyOp15
 70
     1
102
RTVSPropertyOp16
 70
     1
102
RTVSPropertyOp17
 70
     1
102
RTVSPropertyOp18
 70
     1
102
RTVSPropertyOp19
 70
     1
102
RTVSPropertyOp20
 70
     1
102
RTVSPropertyOp21
 70
     1
102
RTVSPropertyOp22
 70
     1
102
RTVSPropertyOp23
 70
     1
102
RTVSPropertyOp24
 70
     1
102
RTVSPropertyOp25
 70
     1
102
RTVSPropertyOp26
 70
     1
102
RTVSPropertyOp27
 70
     1
102
RTVSPropertyOp28
 70
     1
102
RTVSPropertyOp29
 70
     1
102
RTVSPropertyOp30
 70
     1
102
RTVSPropertyOp31
 70
     1
102
RTVSPropertyOp32
 70
     1
102
RTVSPropertyOp33
 70
     1
102
RTVSPropertyOp34
 70
     1
102
RTVSPropertyOp35
 70
     1
102
RTVSPropertyOp36
 70
     1
102
RTVSPropertyOp37
 70
     1
102
RTVSPropertyOp38
 70
     1
102
RTVSPropertyOp39
 70
     1
102
RTVSPropertyOp40
 70
     1
102
RTVSPropertyOp41
 70
     1
102
RTVSPropertyOp42
 70
     1
102
RTVSPropertyOp43
 70
     1
102
RTVSPropertyOp44
 70
     1
102
RTVSPropertyOp45
 70
     1
102
RTVSPropertyOp46
 70
     1
102
RTVSPropertyOp47
 70
     1
102
RTVSPropertyOp48
 70
     1
102
RTVSPropertyOp49
 70
     1
102
RTVSPropertyOp50
 70
     1
102
RTVSPropertyOp51
 70
     0
102
RTVSPropertyOp52
 70
     0
102
RTVSPropertyOp53
 70
     1
102
RTVSPropertyOp54
 70
     1
102
RTVSPropertyOp55
 70
     1
102
RTVSPropertyOp56
 70
     1
102
RTVSPropertyOp57
 70
     1
102
RTVSPropertyOp58
 70
     1
102
RTVSPropertyOp59
 70
     1
102
RTVSPropertyOp60
 70
     1
102
RTVSPropertyOp61
 70
     1
102
RTVSPropertyOp62
 70
     1
  0
XRECORD
  5
102E80
102
{ACAD_REACTORS
330
102E7F
102
}
330
102E7F
100
AcDbXrecord
280
     1
102
RTVSPost2010Prop28
280
     0
102
RTVSPost2010PropOp28
 70
     1
102
RTVSPost2010Prop29
280
     1
102
RTVSPost2010PropOp29
 70
     1
102
RTVSPost2010Prop30
280
     1
102
RTVSPost2010PropOp30
 70
     1
102
RTVSPost2010Prop31
280
     0
102
RTVSPost2010PropOp31
 70
     1
102
RTVSPost2010Prop32
280
     0
102
RTVSPost2010PropOp32
 70
     1
102
RTVSPost2010Prop33
280
     0
102
RTVSPost2010PropOp33
 70
     1
102
RTVSPost2010Prop34
280
     0
102
RTVSPost2010PropOp34
 70
     1
102
RTVSPost2010Prop35
280
     0
102
RTVSPost2010PropOp35
 70
     1
102
RTVSPost2010Prop36
280
     0
102
RTVSPost2010PropOp36
 70
     1
102
RTVSPost2010Prop37
 90
       50
102
RTVSPost2010PropOp37
 70
     1
102
RTVSPost2010Prop38
140
0.0
102
RTVSPost2010PropOp38
 70
     1
102
RTVSPost2010Prop39
140
1.0
102
RTVSPost2010PropOp39
 70
     1
102
RTVSPost2010Prop40
 90
        0
102
RTVSPost2010PropOp40
 70
     1
102
RTVSPost2010Prop41ColorIndex
 90
       18
102
RTVSPost2010Prop41ColorRGB
 90
        0
102
RTVSPost2010PropOp41
 70
     1
102
RTVSPost2010Prop42
 90
       50
102
RTVSPost2010PropOp42
 70
     1
102
RTVSPost2010Prop43
 90
        3
102
RTVSPost2010PropOp43
 70
     1
102
RTVSPost2010Prop44ColorIndex
 90
        5
102
RTVSPost2010Prop44ColorRGB
 90
      255
102
RTVSPost2010PropOp44
 70
     1
102
RTVSPost2010Prop45
280
     0
102
RTVSPost2010PropOp45
 70
     1
102
RTVSPost2010Prop46
 90
       50
102
RTVSPost2010PropOp46
 70
     1
102
RTVSPost2010Prop47
 90
       50
102
RTVSPost2010PropOp47
 70
     1
102
RTVSPost2010Prop48
 90
       50
102
RTVSPost2010PropOp48
 70
     1
102
RTVSPost2010Prop49
280
     0
102
RTVSPost2010PropOp49
 70
     1
102
RTVSPost2010Prop50
 90
       50
102
RTVSPost2010PropOp50
 70
     1
102
RTVSPost2010Prop51ColorIndex
 90
      256
102
RTVSPost2010Prop51ColorRGB
 90
-16777216
102
RTVSPost2010PropOp51
 70
     0
102
RTVSPost2010Prop52
140
1.0
102
RTVSPost2010PropOp52
 70
     0
102
RTVSPost2010Prop53
 90
        2
102
RTVSPost2010PropOp53
 70
     1
102
RTVSPost2010Prop54
  1
strokes_ogs.tif
102
RTVSPost2010PropOp54
 70
     1
102
RTVSPost2010Prop55
280
     0
102
RTVSPost2010PropOp55
 70
     1
102
RTVSPost2010Prop56
140
1.0
102
RTVSPost2010PropOp56
 70
     1
102
RTVSPost2010Prop57
140
1.0
102
RTVSPost2010PropOp57
 70
     1
102
RTVSPropertyOp0
 70
     1
102
RTVSPropertyOp1
 70
     1
102
RTVSPropertyOp2
 70
     1
102
RTVSPropertyOp3
 70
     1
102
RTVSPropertyOp4
 70
     1
102
RTVSPropertyOp5
 70
     1
102
RTVSPropertyOp6
 70
     1
102
RTVSPropertyOp7
 70
     1
102
RTVSPropertyOp8
 70
     1
102
RTVSPropertyOp9
 70
     1
102
RTVSPropertyOp10
 70
     1
102
RTVSPropertyOp11
 70
     1
102
RTVSPropertyOp12
 70
     1
102
RTVSPropertyOp13
 70
     1
102
RTVSPropertyOp14
 70
     1
102
RTVSPropertyOp15
 70
     1
102
RTVSPropertyOp16
 70
     1
102
RTVSPropertyOp17
 70
     1
102
RTVSPropertyOp18
 70
     1
102
RTVSPropertyOp19
 70
     1
102
RTVSPropertyOp20
 70
     1
102
RTVSPropertyOp21
 70
     1
102
RTVSPropertyOp22
 70
     1
102
RTVSPropertyOp23
 70
     1
102
RTVSPropertyOp24
 70
     1
102
RTVSPropertyOp25
 70
     1
102
RTVSPropertyOp26
 70
     1
102
RTVSPropertyOp27
 70
     1
102
RTVSPropertyOp28
 70
     1
102
RTVSPropertyOp29
 70
     1
102
RTVSPropertyOp30
 70
     1
102
RTVSPropertyOp31
 70
     1
102
RTVSPropertyOp32
 70
     1
102
RTVSPropertyOp33
 70
     1
102
RTVSPropertyOp34
 70
     1
102
RTVSPropertyOp35
 70
     1
102
RTVSPropertyOp36
 70
     1
102
RTVSPropertyOp37
 70
     1
102
RTVSPropertyOp38
 70
     1
102
RTVSPropertyOp39
 70
     1
102
RTVSPropertyOp40
 70
     1
102
RTVSPropertyOp41
 70
     1
102
RTVSPropertyOp42
 70
     1
102
RTVSPropertyOp43
 70
     1
102
RTVSPropertyOp44
 70
     1
102
RTVSPropertyOp45
 70
     1
102
RTVSPropertyOp46
 70
     1
102
RTVSPropertyOp47
 70
     1
102
RTVSPropertyOp48
 70
     1
102
RTVSPropertyOp49
 70
     1
102
RTVSPropertyOp50
 70
     1
102
RTVSPropertyOp51
 70
     0
102
RTVSPropertyOp52
 70
     0
102
RTVSPropertyOp53
 70
     1
102
RTVSPropertyOp54
 70
     1
102
RTVSPropertyOp55
 70
     1
102
RTVSPropertyOp56
 70
     1
102
RTVSPropertyOp57
 70
     1
102
RTVSPropertyOp58
 70
     1
102
RTVSPropertyOp59
 70
     1
102
RTVSPropertyOp60
 70
     1
102
RTVSPropertyOp61
 70
     1
102
RTVSPropertyOp62
 70
     1
  0
XRECORD
  5
102E84
102
{ACAD_REACTORS
330
102E83
102
}
330
102E83
100
AcDbXrecord
280
     1
102
RTVSPost2010Prop28
280
     0
102
RTVSPost2010PropOp28
 70
     1
102
RTVSPost2010Prop29
280
     1
102
RTVSPost2010PropOp29
 70
     1
102
RTVSPost2010Prop30
280
     1
102
RTVSPost2010PropOp30
 70
     1
102
RTVSPost2010Prop31
280
     0
102
RTVSPost2010PropOp31
 70
     1
102
RTVSPost2010Prop32
280
     0
102
RTVSPost2010PropOp32
 70
     1
102
RTVSPost2010Prop33
280
     0
102
RTVSPost2010PropOp33
 70
     1
102
RTVSPost2010Prop34
280
     0
102
RTVSPost2010PropOp34
 70
     1
102
RTVSPost2010Prop35
280
     0
102
RTVSPost2010PropOp35
 70
     1
102
RTVSPost2010Prop36
280
     0
102
RTVSPost2010PropOp36
 70
     1
102
RTVSPost2010Prop37
 90
       50
102
RTVSPost2010PropOp37
 70
     1
102
RTVSPost2010Prop38
140
0.0
102
RTVSPost2010PropOp38
 70
     1
102
RTVSPost2010Prop39
140
1.0
102
RTVSPost2010PropOp39
 70
     1
102
RTVSPost2010Prop40
 90
        0
102
RTVSPost2010PropOp40
 70
     1
102
RTVSPost2010Prop41ColorIndex
 90
       18
102
RTVSPost2010Prop41ColorRGB
 90
        0
102
RTVSPost2010PropOp41
 70
     1
102
RTVSPost2010Prop42
 90
       50
102
RTVSPost2010PropOp42
 70
     1
102
RTVSPost2010Prop43
 90
        3
102
RTVSPost2010PropOp43
 70
     1
102
RTVSPost2010Prop44ColorIndex
 90
        5
102
RTVSPost2010Prop44ColorRGB
 90
      255
102
RTVSPost2010PropOp44
 70
     1
102
RTVSPost2010Prop45
280
     0
102
RTVSPost2010PropOp45
 70
     1
102
RTVSPost2010Prop46
 90
       50
102
RTVSPost2010PropOp46
 70
     1
102
RTVSPost2010Prop47
 90
       50
102
RTVSPost2010PropOp47
 70
     1
102
RTVSPost2010Prop48
 90
       50
102
RTVSPost2010PropOp48
 70
     1
102
RTVSPost2010Prop49
280
     0
102
RTVSPost2010PropOp49
 70
     1
102
RTVSPost2010Prop50
 90
       50
102
RTVSPost2010PropOp50
 70
     1
102
RTVSPost2010Prop51ColorIndex
 90
      256
102
RTVSPost2010Prop51ColorRGB
 90
-16777216
102
RTVSPost2010PropOp51
 70
     0
102
RTVSPost2010Prop52
140
1.0
102
RTVSPost2010PropOp52
 70
     0
102
RTVSPost2010Prop53
 90
        2
102
RTVSPost2010PropOp53
 70
     1
102
RTVSPost2010Prop54
  1
strokes_ogs.tif
102
RTVSPost2010PropOp54
 70
     1
102
RTVSPost2010Prop55
280
     0
102
RTVSPost2010PropOp55
 70
     1
102
RTVSPost2010Prop56
140
1.0
102
RTVSPost2010PropOp56
 70
     1
102
RTVSPost2010Prop57
140
1.0
102
RTVSPost2010PropOp57
 70
     1
102
RTVSPropertyOp0
 70
     1
102
RTVSPropertyOp1
 70
     1
102
RTVSPropertyOp2
 70
     1
102
RTVSPropertyOp3
 70
     1
102
RTVSPropertyOp4
 70
     1
102
RTVSPropertyOp5
 70
     1
102
RTVSPropertyOp6
 70
     1
102
RTVSPropertyOp7
 70
     1
102
RTVSPropertyOp8
 70
     1
102
RTVSPropertyOp9
 70
     1
102
RTVSPropertyOp10
 70
     1
102
RTVSPropertyOp11
 70
     1
102
RTVSPropertyOp12
 70
     1
102
RTVSPropertyOp13
 70
     1
102
RTVSPropertyOp14
 70
     1
102
RTVSPropertyOp15
 70
     1
102
RTVSPropertyOp16
 70
     1
102
RTVSPropertyOp17
 70
     1
102
RTVSPropertyOp18
 70
     1
102
RTVSPropertyOp19
 70
     1
102
RTVSPropertyOp20
 70
     1
102
RTVSPropertyOp21
 70
     1
102
RTVSPropertyOp22
 70
     1
102
RTVSPropertyOp23
 70
     1
102
RTVSPropertyOp24
 70
     1
102
RTVSPropertyOp25
 70
     1
102
RTVSPropertyOp26
 70
     1
102
RTVSPropertyOp27
 70
     1
102
RTVSPropertyOp28
 70
     1
102
RTVSPropertyOp29
 70
     1
102
RTVSPropertyOp30
 70
     1
102
RTVSPropertyOp31
 70
     1
102
RTVSPropertyOp32
 70
     1
102
RTVSPropertyOp33
 70
     1
102
RTVSPropertyOp34
 70
     1
102
RTVSPropertyOp35
 70
     1
102
RTVSPropertyOp36
 70
     1
102
RTVSPropertyOp37
 70
     1
102
RTVSPropertyOp38
 70
     1
102
RTVSPropertyOp39
 70
     1
102
RTVSPropertyOp40
 70
     1
102
RTVSPropertyOp41
 70
     1
102
RTVSPropertyOp42
 70
     1
102
RTVSPropertyOp43
 70
     1
102
RTVSPropertyOp44
 70
     1
102
RTVSPropertyOp45
 70
     1
102
RTVSPropertyOp46
 70
     1
102
RTVSPropertyOp47
 70
     1
102
RTVSPropertyOp48
 70
     1
102
RTVSPropertyOp49
 70
     1
102
RTVSPropertyOp50
 70
     1
102
RTVSPropertyOp51
 70
     0
102
RTVSPropertyOp52
 70
     0
102
RTVSPropertyOp53
 70
     1
102
RTVSPropertyOp54
 70
     1
102
RTVSPropertyOp55
 70
     1
102
RTVSPropertyOp56
 70
     1
102
RTVSPropertyOp57
 70
     1
102
RTVSPropertyOp58
 70
     1
102
RTVSPropertyOp59
 70
     1
102
RTVSPropertyOp60
 70
     1
102
RTVSPropertyOp61
 70
     1
102
RTVSPropertyOp62
 70
     1
  0
XRECORD
  5
102E9E
102
{ACAD_REACTORS
330
102E9D
102
}
330
102E9D
100
AcDbXrecord
280
     1
102
RTVSPost2010Prop28
280
     0
102
RTVSPost2010PropOp28
 70
     0
102
RTVSPost2010Prop29
280
     1
102
RTVSPost2010PropOp29
 70
     0
102
RTVSPost2010Prop30
280
     1
102
RTVSPost2010PropOp30
 70
     0
102
RTVSPost2010Prop31
280
     0
102
RTVSPost2010PropOp31
 70
     0
102
RTVSPost2010Prop32
280
     0
102
RTVSPost2010PropOp32
 70
     0
102
RTVSPost2010Prop33
280
     0
102
RTVSPost2010PropOp33
 70
     0
102
RTVSPost2010Prop34
280
     0
102
RTVSPost2010PropOp34
 70
     0
102
RTVSPost2010Prop35
280
     0
102
RTVSPost2010PropOp35
 70
     0
102
RTVSPost2010Prop36
280
     0
102
RTVSPost2010PropOp36
 70
     0
102
RTVSPost2010Prop37
 90
       50
102
RTVSPost2010PropOp37
 70
     0
102
RTVSPost2010Prop38
140
0.0
102
RTVSPost2010PropOp38
 70
     0
102
RTVSPost2010Prop39
140
1.0
102
RTVSPost2010PropOp39
 70
     0
102
RTVSPost2010Prop40
 90
        0
102
RTVSPost2010PropOp40
 70
     0
102
RTVSPost2010Prop41ColorIndex
 90
       18
102
RTVSPost2010Prop41ColorRGB
 90
        0
102
RTVSPost2010PropOp41
 70
     0
102
RTVSPost2010Prop42
 90
       50
102
RTVSPost2010PropOp42
 70
     0
102
RTVSPost2010Prop43
 90
        3
102
RTVSPost2010PropOp43
 70
     0
102
RTVSPost2010Prop44ColorIndex
 90
        5
102
RTVSPost2010Prop44ColorRGB
 90
      255
102
RTVSPost2010PropOp44
 70
     0
102
RTVSPost2010Prop45
280
     0
102
RTVSPost2010PropOp45
 70
     0
102
RTVSPost2010Prop46
 90
       50
102
RTVSPost2010PropOp46
 70
     0
102
RTVSPost2010Prop47
 90
       50
102
RTVSPost2010PropOp47
 70
     0
102
RTVSPost2010Prop48
 90
       50
102
RTVSPost2010PropOp48
 70
     0
102
RTVSPost2010Prop49
280
     0
102
RTVSPost2010PropOp49
 70
     0
102
RTVSPost2010Prop50
 90
       50
102
RTVSPost2010PropOp50
 70
     0
102
RTVSPost2010Prop51ColorIndex
 90
      256
102
RTVSPost2010Prop51ColorRGB
 90
-16777216
102
RTVSPost2010PropOp51
 70
     0
102
RTVSPost2010Prop52
140
1.0
102
RTVSPost2010PropOp52
 70
     0
102
RTVSPost2010Prop53
 90
        2
102
RTVSPost2010PropOp53
 70
     0
102
RTVSPost2010Prop54
  1
strokes_ogs.tif
102
RTVSPost2010PropOp54
 70
     0
102
RTVSPost2010Prop55
280
     0
102
RTVSPost2010PropOp55
 70
     0
102
RTVSPost2010Prop56
140
1.0
102
RTVSPost2010PropOp56
 70
     0
102
RTVSPost2010Prop57
140
1.0
102
RTVSPost2010PropOp57
 70
     0
102
RTVSPropertyOp0
 70
     0
102
RTVSPropertyOp1
 70
     0
102
RTVSPropertyOp2
 70
     0
102
RTVSPropertyOp3
 70
     0
102
RTVSPropertyOp4
 70
     0
102
RTVSPropertyOp5
 70
     0
102
RTVSPropertyOp6
 70
     0
102
RTVSPropertyOp7
 70
     0
102
RTVSPropertyOp8
 70
     0
102
RTVSPropertyOp9
 70
     0
102
RTVSPropertyOp10
 70
     0
102
RTVSPropertyOp11
 70
     0
102
RTVSPropertyOp12
 70
     0
102
RTVSPropertyOp13
 70
     0
102
RTVSPropertyOp14
 70
     2
102
RTVSPropertyOp15
 70
     0
102
RTVSPropertyOp16
 70
     0
102
RTVSPropertyOp17
 70
     0
102
RTVSPropertyOp18
 70
     0
102
RTVSPropertyOp19
 70
     0
102
RTVSPropertyOp20
 70
     0
102
RTVSPropertyOp21
 70
     0
102
RTVSPropertyOp22
 70
     0
102
RTVSPropertyOp23
 70
     0
102
RTVSPropertyOp24
 70
     0
102
RTVSPropertyOp25
 70
     0
102
RTVSPropertyOp26
 70
     0
102
RTVSPropertyOp27
 70
     0
102
RTVSPropertyOp28
 70
     0
102
RTVSPropertyOp29
 70
     0
102
RTVSPropertyOp30
 70
     0
102
RTVSPropertyOp31
 70
     0
102
RTVSPropertyOp32
 70
     0
102
RTVSPropertyOp33
 70
     0
102
RTVSPropertyOp34
 70
     0
102
RTVSPropertyOp35
 70
     0
102
RTVSPropertyOp36
 70
     0
102
RTVSPropertyOp37
 70
     0
102
RTVSPropertyOp38
 70
     0
102
RTVSPropertyOp39
 70
     0
102
RTVSPropertyOp40
 70
     0
102
RTVSPropertyOp41
 70
     0
102
RTVSPropertyOp42
 70
     0
102
RTVSPropertyOp43
 70
     0
102
RTVSPropertyOp44
 70
     0
102
RTVSPropertyOp45
 70
     0
102
RTVSPropertyOp46
 70
     0
102
RTVSPropertyOp47
 70
     0
102
RTVSPropertyOp48
 70
     0
102
RTVSPropertyOp49
 70
     0
102
RTVSPropertyOp50
 70
     0
102
RTVSPropertyOp51
 70
     0
102
RTVSPropertyOp52
 70
     0
102
RTVSPropertyOp53
 70
     0
102
RTVSPropertyOp54
 70
     0
102
RTVSPropertyOp55
 70
     0
102
RTVSPropertyOp56
 70
     0
102
RTVSPropertyOp57
 70
     0
102
RTVSPropertyOp58
 70
     0
102
RTVSPropertyOp59
 70
     0
102
RTVSPropertyOp60
 70
     0
102
RTVSPropertyOp61
 70
     0
102
RTVSPropertyOp62
 70
     0
  0
XRECORD
  5
102E8C
102
{ACAD_REACTORS
330
102E8B
102
}
330
102E8B
100
AcDbXrecord
280
     1
102
RTVSPost2010Prop28
280
     0
102
RTVSPost2010PropOp28
 70
     1
102
RTVSPost2010Prop29
280
     1
102
RTVSPost2010PropOp29
 70
     1
102
RTVSPost2010Prop30
280
     1
102
RTVSPost2010PropOp30
 70
     1
102
RTVSPost2010Prop31
280
     0
102
RTVSPost2010PropOp31
 70
     1
102
RTVSPost2010Prop32
280
     0
102
RTVSPost2010PropOp32
 70
     1
102
RTVSPost2010Prop33
280
     0
102
RTVSPost2010PropOp33
 70
     1
102
RTVSPost2010Prop34
280
     0
102
RTVSPost2010PropOp34
 70
     1
102
RTVSPost2010Prop35
280
     0
102
RTVSPost2010PropOp35
 70
     1
102
RTVSPost2010Prop36
280
     0
102
RTVSPost2010PropOp36
 70
     1
102
RTVSPost2010Prop37
 90
       50
102
RTVSPost2010PropOp37
 70
     1
102
RTVSPost2010Prop38
140
0.0
102
RTVSPost2010PropOp38
 70
     1
102
RTVSPost2010Prop39
140
1.0
102
RTVSPost2010PropOp39
 70
     1
102
RTVSPost2010Prop40
 90
        0
102
RTVSPost2010PropOp40
 70
     1
102
RTVSPost2010Prop41ColorIndex
 90
       18
102
RTVSPost2010Prop41ColorRGB
 90
        0
102
RTVSPost2010PropOp41
 70
     1
102
RTVSPost2010Prop42
 90
       50
102
RTVSPost2010PropOp42
 70
     1
102
RTVSPost2010Prop43
 90
        3
102
RTVSPost2010PropOp43
 70
     1
102
RTVSPost2010Prop44ColorIndex
 90
        5
102
RTVSPost2010Prop44ColorRGB
 90
      255
102
RTVSPost2010PropOp44
 70
     1
102
RTVSPost2010Prop45
280
     0
102
RTVSPost2010PropOp45
 70
     1
102
RTVSPost2010Prop46
 90
       50
102
RTVSPost2010PropOp46
 70
     1
102
RTVSPost2010Prop47
 90
       50
102
RTVSPost2010PropOp47
 70
     1
102
RTVSPost2010Prop48
 90
       50
102
RTVSPost2010PropOp48
 70
     1
102
RTVSPost2010Prop49
280
     0
102
RTVSPost2010PropOp49
 70
     1
102
RTVSPost2010Prop50
 90
       50
102
RTVSPost2010PropOp50
 70
     1
102
RTVSPost2010Prop51ColorIndex
 90
      256
102
RTVSPost2010Prop51ColorRGB
 90
-16777216
102
RTVSPost2010PropOp51
 70
     0
102
RTVSPost2010Prop52
140
1.0
102
RTVSPost2010PropOp52
 70
     0
102
RTVSPost2010Prop53
 90
        2
102
RTVSPost2010PropOp53
 70
     1
102
RTVSPost2010Prop54
  1
strokes_ogs.tif
102
RTVSPost2010PropOp54
 70
     1
102
RTVSPost2010Prop55
280
     0
102
RTVSPost2010PropOp55
 70
     1
102
RTVSPost2010Prop56
140
1.0
102
RTVSPost2010PropOp56
 70
     1
102
RTVSPost2010Prop57
140
1.0
102
RTVSPost2010PropOp57
 70
     1
102
RTVSPropertyOp0
 70
     1
102
RTVSPropertyOp1
 70
     1
102
RTVSPropertyOp2
 70
     1
102
RTVSPropertyOp3
 70
     1
102
RTVSPropertyOp4
 70
     1
102
RTVSPropertyOp5
 70
     1
102
RTVSPropertyOp6
 70
     1
102
RTVSPropertyOp7
 70
     1
102
RTVSPropertyOp8
 70
     1
102
RTVSPropertyOp9
 70
     1
102
RTVSPropertyOp10
 70
     1
102
RTVSPropertyOp11
 70
     1
102
RTVSPropertyOp12
 70
     1
102
RTVSPropertyOp13
 70
     1
102
RTVSPropertyOp14
 70
     1
102
RTVSPropertyOp15
 70
     1
102
RTVSPropertyOp16
 70
     1
102
RTVSPropertyOp17
 70
     1
102
RTVSPropertyOp18
 70
     1
102
RTVSPropertyOp19
 70
     1
102
RTVSPropertyOp20
 70
     1
102
RTVSPropertyOp21
 70
     1
102
RTVSPropertyOp22
 70
     1
102
RTVSPropertyOp23
 70
     1
102
RTVSPropertyOp24
 70
     1
102
RTVSPropertyOp25
 70
     1
102
RTVSPropertyOp26
 70
     1
102
RTVSPropertyOp27
 70
     1
102
RTVSPropertyOp28
 70
     1
102
RTVSPropertyOp29
 70
     1
102
RTVSPropertyOp30
 70
     1
102
RTVSPropertyOp31
 70
     1
102
RTVSPropertyOp32
 70
     1
102
RTVSPropertyOp33
 70
     1
102
RTVSPropertyOp34
 70
     1
102
RTVSPropertyOp35
 70
     1
102
RTVSPropertyOp36
 70
     1
102
RTVSPropertyOp37
 70
     1
102
RTVSPropertyOp38
 70
     1
102
RTVSPropertyOp39
 70
     1
102
RTVSPropertyOp40
 70
     1
102
RTVSPropertyOp41
 70
     1
102
RTVSPropertyOp42
 70
     1
102
RTVSPropertyOp43
 70
     1
102
RTVSPropertyOp44
 70
     1
102
RTVSPropertyOp45
 70
     1
102
RTVSPropertyOp46
 70
     1
102
RTVSPropertyOp47
 70
     1
102
RTVSPropertyOp48
 70
     1
102
RTVSPropertyOp49
 70
     1
102
RTVSPropertyOp50
 70
     1
102
RTVSPropertyOp51
 70
     0
102
RTVSPropertyOp52
 70
     0
102
RTVSPropertyOp53
 70
     1
102
RTVSPropertyOp54
 70
     1
102
RTVSPropertyOp55
 70
     1
102
RTVSPropertyOp56
 70
     1
102
RTVSPropertyOp57
 70
     1
102
RTVSPropertyOp58
 70
     1
102
RTVSPropertyOp59
 70
     1
102
RTVSPropertyOp60
 70
     1
102
RTVSPropertyOp61
 70
     1
102
RTVSPropertyOp62
 70
     1
  0
XRECORD
  5
102E70
102
{ACAD_REACTORS
330
102E6F
102
}
330
102E6F
100
AcDbXrecord
280
     1
102
RTVSPost2010Prop28
280
     0
102
RTVSPost2010PropOp28
 70
     1
102
RTVSPost2010Prop29
280
     1
102
RTVSPost2010PropOp29
 70
     1
102
RTVSPost2010Prop30
280
     1
102
RTVSPost2010PropOp30
 70
     1
102
RTVSPost2010Prop31
280
     0
102
RTVSPost2010PropOp31
 70
     1
102
RTVSPost2010Prop32
280
     0
102
RTVSPost2010PropOp32
 70
     1
102
RTVSPost2010Prop33
280
     0
102
RTVSPost2010PropOp33
 70
     1
102
RTVSPost2010Prop34
280
     0
102
RTVSPost2010PropOp34
 70
     1
102
RTVSPost2010Prop35
280
     0
102
RTVSPost2010PropOp35
 70
     1
102
RTVSPost2010Prop36
280
     0
102
RTVSPost2010PropOp36
 70
     1
102
RTVSPost2010Prop37
 90
       50
102
RTVSPost2010PropOp37
 70
     1
102
RTVSPost2010Prop38
140
0.0
102
RTVSPost2010PropOp38
 70
     1
102
RTVSPost2010Prop39
140
1.0
102
RTVSPost2010PropOp39
 70
     1
102
RTVSPost2010Prop40
 90
        0
102
RTVSPost2010PropOp40
 70
     1
102
RTVSPost2010Prop41ColorIndex
 90
       18
102
RTVSPost2010Prop41ColorRGB
 90
        0
102
RTVSPost2010PropOp41
 70
     1
102
RTVSPost2010Prop42
 90
       50
102
RTVSPost2010PropOp42
 70
     1
102
RTVSPost2010Prop43
 90
        3
102
RTVSPost2010PropOp43
 70
     1
102
RTVSPost2010Prop44ColorIndex
 90
        5
102
RTVSPost2010Prop44ColorRGB
 90
      255
102
RTVSPost2010PropOp44
 70
     1
102
RTVSPost2010Prop45
280
     0
102
RTVSPost2010PropOp45
 70
     1
102
RTVSPost2010Prop46
 90
       50
102
RTVSPost2010PropOp46
 70
     1
102
RTVSPost2010Prop47
 90
       50
102
RTVSPost2010PropOp47
 70
     1
102
RTVSPost2010Prop48
 90
       50
102
RTVSPost2010PropOp48
 70
     1
102
RTVSPost2010Prop49
280
     0
102
RTVSPost2010PropOp49
 70
     1
102
RTVSPost2010Prop50
 90
       50
102
RTVSPost2010PropOp50
 70
     1
102
RTVSPost2010Prop51ColorIndex
 90
      256
102
RTVSPost2010Prop51ColorRGB
 90
-16777216
102
RTVSPost2010PropOp51
 70
     0
102
RTVSPost2010Prop52
140
1.0
102
RTVSPost2010PropOp52
 70
     0
102
RTVSPost2010Prop53
 90
        2
102
RTVSPost2010PropOp53
 70
     1
102
RTVSPost2010Prop54
  1
strokes_ogs.tif
102
RTVSPost2010PropOp54
 70
     1
102
RTVSPost2010Prop55
280
     0
102
RTVSPost2010PropOp55
 70
     1
102
RTVSPost2010Prop56
140
1.0
102
RTVSPost2010PropOp56
 70
     1
102
RTVSPost2010Prop57
140
1.0
102
RTVSPost2010PropOp57
 70
     1
102
RTVSPropertyOp0
 70
     1
102
RTVSPropertyOp1
 70
     1
102
RTVSPropertyOp2
 70
     1
102
RTVSPropertyOp3
 70
     1
102
RTVSPropertyOp4
 70
     1
102
RTVSPropertyOp5
 70
     1
102
RTVSPropertyOp6
 70
     1
102
RTVSPropertyOp7
 70
     1
102
RTVSPropertyOp8
 70
     1
102
RTVSPropertyOp9
 70
     1
102
RTVSPropertyOp10
 70
     1
102
RTVSPropertyOp11
 70
     1
102
RTVSPropertyOp12
 70
     1
102
RTVSPropertyOp13
 70
     1
102
RTVSPropertyOp14
 70
     1
102
RTVSPropertyOp15
 70
     1
102
RTVSPropertyOp16
 70
     1
102
RTVSPropertyOp17
 70
     1
102
RTVSPropertyOp18
 70
     1
102
RTVSPropertyOp19
 70
     1
102
RTVSPropertyOp20
 70
     1
102
RTVSPropertyOp21
 70
     1
102
RTVSPropertyOp22
 70
     1
102
RTVSPropertyOp23
 70
     1
102
RTVSPropertyOp24
 70
     1
102
RTVSPropertyOp25
 70
     1
102
RTVSPropertyOp26
 70
     1
102
RTVSPropertyOp27
 70
     1
102
RTVSPropertyOp28
 70
     1
102
RTVSPropertyOp29
 70
     1
102
RTVSPropertyOp30
 70
     1
102
RTVSPropertyOp31
 70
     1
102
RTVSPropertyOp32
 70
     1
102
RTVSPropertyOp33
 70
     1
102
RTVSPropertyOp34
 70
     1
102
RTVSPropertyOp35
 70
     1
102
RTVSPropertyOp36
 70
     1
102
RTVSPropertyOp37
 70
     1
102
RTVSPropertyOp38
 70
     1
102
RTVSPropertyOp39
 70
     1
102
RTVSPropertyOp40
 70
     1
102
RTVSPropertyOp41
 70
     1
102
RTVSPropertyOp42
 70
     1
102
RTVSPropertyOp43
 70
     1
102
RTVSPropertyOp44
 70
     1
102
RTVSPropertyOp45
 70
     1
102
RTVSPropertyOp46
 70
     1
102
RTVSPropertyOp47
 70
     1
102
RTVSPropertyOp48
 70
     1
102
RTVSPropertyOp49
 70
     1
102
RTVSPropertyOp50
 70
     1
102
RTVSPropertyOp51
 70
     0
102
RTVSPropertyOp52
 70
     0
102
RTVSPropertyOp53
 70
     1
102
RTVSPropertyOp54
 70
     1
102
RTVSPropertyOp55
 70
     1
102
RTVSPropertyOp56
 70
     1
102
RTVSPropertyOp57
 70
     1
102
RTVSPropertyOp58
 70
     1
102
RTVSPropertyOp59
 70
     1
102
RTVSPropertyOp60
 70
     1
102
RTVSPropertyOp61
 70
     1
102
RTVSPropertyOp62
 70
     1
  0
XRECORD
  5
102E72
102
{ACAD_REACTORS
330
102E71
102
}
330
102E71
100
AcDbXrecord
280
     1
102
RTVSPost2010Prop28
280
     0
102
RTVSPost2010PropOp28
 70
     1
102
RTVSPost2010Prop29
280
     1
102
RTVSPost2010PropOp29
 70
     1
102
RTVSPost2010Prop30
280
     1
102
RTVSPost2010PropOp30
 70
     1
102
RTVSPost2010Prop31
280
     0
102
RTVSPost2010PropOp31
 70
     1
102
RTVSPost2010Prop32
280
     0
102
RTVSPost2010PropOp32
 70
     1
102
RTVSPost2010Prop33
280
     0
102
RTVSPost2010PropOp33
 70
     1
102
RTVSPost2010Prop34
280
     0
102
RTVSPost2010PropOp34
 70
     1
102
RTVSPost2010Prop35
280
     0
102
RTVSPost2010PropOp35
 70
     1
102
RTVSPost2010Prop36
280
     0
102
RTVSPost2010PropOp36
 70
     1
102
RTVSPost2010Prop37
 90
       50
102
RTVSPost2010PropOp37
 70
     1
102
RTVSPost2010Prop38
140
0.0
102
RTVSPost2010PropOp38
 70
     1
102
RTVSPost2010Prop39
140
1.0
102
RTVSPost2010PropOp39
 70
     1
102
RTVSPost2010Prop40
 90
        0
102
RTVSPost2010PropOp40
 70
     1
102
RTVSPost2010Prop41ColorIndex
 90
       18
102
RTVSPost2010Prop41ColorRGB
 90
        0
102
RTVSPost2010PropOp41
 70
     1
102
RTVSPost2010Prop42
 90
       50
102
RTVSPost2010PropOp42
 70
     1
102
RTVSPost2010Prop43
 90
        3
102
RTVSPost2010PropOp43
 70
     1
102
RTVSPost2010Prop44ColorIndex
 90
        5
102
RTVSPost2010Prop44ColorRGB
 90
      255
102
RTVSPost2010PropOp44
 70
     1
102
RTVSPost2010Prop45
280
     0
102
RTVSPost2010PropOp45
 70
     1
102
RTVSPost2010Prop46
 90
       50
102
RTVSPost2010PropOp46
 70
     1
102
RTVSPost2010Prop47
 90
       50
102
RTVSPost2010PropOp47
 70
     1
102
RTVSPost2010Prop48
 90
       50
102
RTVSPost2010PropOp48
 70
     1
102
RTVSPost2010Prop49
280
     0
102
RTVSPost2010PropOp49
 70
     1
102
RTVSPost2010Prop50
 90
       50
102
RTVSPost2010PropOp50
 70
     1
102
RTVSPost2010Prop51ColorIndex
 90
      256
102
RTVSPost2010Prop51ColorRGB
 90
-16777216
102
RTVSPost2010PropOp51
 70
     0
102
RTVSPost2010Prop52
140
1.0
102
RTVSPost2010PropOp52
 70
     0
102
RTVSPost2010Prop53
 90
        2
102
RTVSPost2010PropOp53
 70
     1
102
RTVSPost2010Prop54
  1
strokes_ogs.tif
102
RTVSPost2010PropOp54
 70
     1
102
RTVSPost2010Prop55
280
     0
102
RTVSPost2010PropOp55
 70
     1
102
RTVSPost2010Prop56
140
1.0
102
RTVSPost2010PropOp56
 70
     1
102
RTVSPost2010Prop57
140
1.0
102
RTVSPost2010PropOp57
 70
     1
102
RTVSPropertyOp0
 70
     1
102
RTVSPropertyOp1
 70
     1
102
RTVSPropertyOp2
 70
     1
102
RTVSPropertyOp3
 70
     1
102
RTVSPropertyOp4
 70
     1
102
RTVSPropertyOp5
 70
     1
102
RTVSPropertyOp6
 70
     1
102
RTVSPropertyOp7
 70
     1
102
RTVSPropertyOp8
 70
     1
102
RTVSPropertyOp9
 70
     1
102
RTVSPropertyOp10
 70
     1
102
RTVSPropertyOp11
 70
     1
102
RTVSPropertyOp12
 70
     1
102
RTVSPropertyOp13
 70
     1
102
RTVSPropertyOp14
 70
     1
102
RTVSPropertyOp15
 70
     1
102
RTVSPropertyOp16
 70
     1
102
RTVSPropertyOp17
 70
     1
102
RTVSPropertyOp18
 70
     1
102
RTVSPropertyOp19
 70
     1
102
RTVSPropertyOp20
 70
     1
102
RTVSPropertyOp21
 70
     1
102
RTVSPropertyOp22
 70
     1
102
RTVSPropertyOp23
 70
     1
102
RTVSPropertyOp24
 70
     1
102
RTVSPropertyOp25
 70
     1
102
RTVSPropertyOp26
 70
     1
102
RTVSPropertyOp27
 70
     1
102
RTVSPropertyOp28
 70
     1
102
RTVSPropertyOp29
 70
     1
102
RTVSPropertyOp30
 70
     1
102
RTVSPropertyOp31
 70
     1
102
RTVSPropertyOp32
 70
     1
102
RTVSPropertyOp33
 70
     1
102
RTVSPropertyOp34
 70
     1
102
RTVSPropertyOp35
 70
     1
102
RTVSPropertyOp36
 70
     1
102
RTVSPropertyOp37
 70
     1
102
RTVSPropertyOp38
 70
     1
102
RTVSPropertyOp39
 70
     1
102
RTVSPropertyOp40
 70
     1
102
RTVSPropertyOp41
 70
     1
102
RTVSPropertyOp42
 70
     1
102
RTVSPropertyOp43
 70
     1
102
RTVSPropertyOp44
 70
     1
102
RTVSPropertyOp45
 70
     1
102
RTVSPropertyOp46
 70
     1
102
RTVSPropertyOp47
 70
     1
102
RTVSPropertyOp48
 70
     1
102
RTVSPropertyOp49
 70
     1
102
RTVSPropertyOp50
 70
     1
102
RTVSPropertyOp51
 70
     0
102
RTVSPropertyOp52
 70
     0
102
RTVSPropertyOp53
 70
     1
102
RTVSPropertyOp54
 70
     1
102
RTVSPropertyOp55
 70
     1
102
RTVSPropertyOp56
 70
     1
102
RTVSPropertyOp57
 70
     1
102
RTVSPropertyOp58
 70
     1
102
RTVSPropertyOp59
 70
     1
102
RTVSPropertyOp60
 70
     1
102
RTVSPropertyOp61
 70
     1
102
RTVSPropertyOp62
 70
     1
  0
XRECORD
  5
102E74
102
{ACAD_REACTORS
330
102E73
102
}
330
102E73
100
AcDbXrecord
280
     1
102
RTVSPost2010Prop28
280
     0
102
RTVSPost2010PropOp28
 70
     1
102
RTVSPost2010Prop29
280
     1
102
RTVSPost2010PropOp29
 70
     1
102
RTVSPost2010Prop30
280
     1
102
RTVSPost2010PropOp30
 70
     1
102
RTVSPost2010Prop31
280
     0
102
RTVSPost2010PropOp31
 70
     1
102
RTVSPost2010Prop32
280
     0
102
RTVSPost2010PropOp32
 70
     1
102
RTVSPost2010Prop33
280
     0
102
RTVSPost2010PropOp33
 70
     1
102
RTVSPost2010Prop34
280
     0
102
RTVSPost2010PropOp34
 70
     1
102
RTVSPost2010Prop35
280
     0
102
RTVSPost2010PropOp35
 70
     1
102
RTVSPost2010Prop36
280
     0
102
RTVSPost2010PropOp36
 70
     1
102
RTVSPost2010Prop37
 90
       50
102
RTVSPost2010PropOp37
 70
     1
102
RTVSPost2010Prop38
140
0.0
102
RTVSPost2010PropOp38
 70
     1
102
RTVSPost2010Prop39
140
1.0
102
RTVSPost2010PropOp39
 70
     1
102
RTVSPost2010Prop40
 90
        0
102
RTVSPost2010PropOp40
 70
     1
102
RTVSPost2010Prop41ColorIndex
 90
       18
102
RTVSPost2010Prop41ColorRGB
 90
        0
102
RTVSPost2010PropOp41
 70
     1
102
RTVSPost2010Prop42
 90
       50
102
RTVSPost2010PropOp42
 70
     1
102
RTVSPost2010Prop43
 90
        3
102
RTVSPost2010PropOp43
 70
     1
102
RTVSPost2010Prop44ColorIndex
 90
        5
102
RTVSPost2010Prop44ColorRGB
 90
      255
102
RTVSPost2010PropOp44
 70
     1
102
RTVSPost2010Prop45
280
     0
102
RTVSPost2010PropOp45
 70
     1
102
RTVSPost2010Prop46
 90
       50
102
RTVSPost2010PropOp46
 70
     1
102
RTVSPost2010Prop47
 90
       50
102
RTVSPost2010PropOp47
 70
     1
102
RTVSPost2010Prop48
 90
       50
102
RTVSPost2010PropOp48
 70
     1
102
RTVSPost2010Prop49
280
     0
102
RTVSPost2010PropOp49
 70
     1
102
RTVSPost2010Prop50
 90
       50
102
RTVSPost2010PropOp50
 70
     1
102
RTVSPost2010Prop51ColorIndex
 90
      256
102
RTVSPost2010Prop51ColorRGB
 90
-16777216
102
RTVSPost2010PropOp51
 70
     0
102
RTVSPost2010Prop52
140
1.0
102
RTVSPost2010PropOp52
 70
     0
102
RTVSPost2010Prop53
 90
        2
102
RTVSPost2010PropOp53
 70
     1
102
RTVSPost2010Prop54
  1
strokes_ogs.tif
102
RTVSPost2010PropOp54
 70
     1
102
RTVSPost2010Prop55
280
     0
102
RTVSPost2010PropOp55
 70
     1
102
RTVSPost2010Prop56
140
1.0
102
RTVSPost2010PropOp56
 70
     1
102
RTVSPost2010Prop57
140
1.0
102
RTVSPost2010PropOp57
 70
     1
102
RTVSPropertyOp0
 70
     1
102
RTVSPropertyOp1
 70
     1
102
RTVSPropertyOp2
 70
     1
102
RTVSPropertyOp3
 70
     1
102
RTVSPropertyOp4
 70
     1
102
RTVSPropertyOp5
 70
     1
102
RTVSPropertyOp6
 70
     1
102
RTVSPropertyOp7
 70
     1
102
RTVSPropertyOp8
 70
     1
102
RTVSPropertyOp9
 70
     1
102
RTVSPropertyOp10
 70
     1
102
RTVSPropertyOp11
 70
     1
102
RTVSPropertyOp12
 70
     1
102
RTVSPropertyOp13
 70
     1
102
RTVSPropertyOp14
 70
     1
102
RTVSPropertyOp15
 70
     1
102
RTVSPropertyOp16
 70
     1
102
RTVSPropertyOp17
 70
     1
102
RTVSPropertyOp18
 70
     1
102
RTVSPropertyOp19
 70
     1
102
RTVSPropertyOp20
 70
     1
102
RTVSPropertyOp21
 70
     1
102
RTVSPropertyOp22
 70
     1
102
RTVSPropertyOp23
 70
     1
102
RTVSPropertyOp24
 70
     1
102
RTVSPropertyOp25
 70
     1
102
RTVSPropertyOp26
 70
     1
102
RTVSPropertyOp27
 70
     1
102
RTVSPropertyOp28
 70
     1
102
RTVSPropertyOp29
 70
     1
102
RTVSPropertyOp30
 70
     1
102
RTVSPropertyOp31
 70
     1
102
RTVSPropertyOp32
 70
     1
102
RTVSPropertyOp33
 70
     1
102
RTVSPropertyOp34
 70
     1
102
RTVSPropertyOp35
 70
     1
102
RTVSPropertyOp36
 70
     1
102
RTVSPropertyOp37
 70
     1
102
RTVSPropertyOp38
 70
     1
102
RTVSPropertyOp39
 70
     1
102
RTVSPropertyOp40
 70
     1
102
RTVSPropertyOp41
 70
     1
102
RTVSPropertyOp42
 70
     1
102
RTVSPropertyOp43
 70
     1
102
RTVSPropertyOp44
 70
     1
102
RTVSPropertyOp45
 70
     1
102
RTVSPropertyOp46
 70
     1
102
RTVSPropertyOp47
 70
     1
102
RTVSPropertyOp48
 70
     1
102
RTVSPropertyOp49
 70
     1
102
RTVSPropertyOp50
 70
     1
102
RTVSPropertyOp51
 70
     0
102
RTVSPropertyOp52
 70
     0
102
RTVSPropertyOp53
 70
     1
102
RTVSPropertyOp54
 70
     1
102
RTVSPropertyOp55
 70
     1
102
RTVSPropertyOp56
 70
     1
102
RTVSPropertyOp57
 70
     1
102
RTVSPropertyOp58
 70
     1
102
RTVSPropertyOp59
 70
     1
102
RTVSPropertyOp60
 70
     1
102
RTVSPropertyOp61
 70
     1
102
RTVSPropertyOp62
 70
     1
  0
XRECORD
  5
102E76
102
{ACAD_REACTORS
330
102E75
102
}
330
102E75
100
AcDbXrecord
280
     1
102
RTVSPost2010Prop28
280
     0
102
RTVSPost2010PropOp28
 70
     1
102
RTVSPost2010Prop29
280
     1
102
RTVSPost2010PropOp29
 70
     1
102
RTVSPost2010Prop30
280
     1
102
RTVSPost2010PropOp30
 70
     1
102
RTVSPost2010Prop31
280
     0
102
RTVSPost2010PropOp31
 70
     1
102
RTVSPost2010Prop32
280
     0
102
RTVSPost2010PropOp32
 70
     1
102
RTVSPost2010Prop33
280
     0
102
RTVSPost2010PropOp33
 70
     1
102
RTVSPost2010Prop34
280
     0
102
RTVSPost2010PropOp34
 70
     1
102
RTVSPost2010Prop35
280
     0
102
RTVSPost2010PropOp35
 70
     1
102
RTVSPost2010Prop36
280
     0
102
RTVSPost2010PropOp36
 70
     1
102
RTVSPost2010Prop37
 90
       50
102
RTVSPost2010PropOp37
 70
     1
102
RTVSPost2010Prop38
140
0.0
102
RTVSPost2010PropOp38
 70
     1
102
RTVSPost2010Prop39
140
1.0
102
RTVSPost2010PropOp39
 70
     1
102
RTVSPost2010Prop40
 90
        0
102
RTVSPost2010PropOp40
 70
     1
102
RTVSPost2010Prop41ColorIndex
 90
       18
102
RTVSPost2010Prop41ColorRGB
 90
        0
102
RTVSPost2010PropOp41
 70
     1
102
RTVSPost2010Prop42
 90
       50
102
RTVSPost2010PropOp42
 70
     1
102
RTVSPost2010Prop43
 90
        3
102
RTVSPost2010PropOp43
 70
     1
102
RTVSPost2010Prop44ColorIndex
 90
        5
102
RTVSPost2010Prop44ColorRGB
 90
      255
102
RTVSPost2010PropOp44
 70
     1
102
RTVSPost2010Prop45
280
     0
102
RTVSPost2010PropOp45
 70
     1
102
RTVSPost2010Prop46
 90
       50
102
RTVSPost2010PropOp46
 70
     1
102
RTVSPost2010Prop47
 90
       50
102
RTVSPost2010PropOp47
 70
     1
102
RTVSPost2010Prop48
 90
       50
102
RTVSPost2010PropOp48
 70
     1
102
RTVSPost2010Prop49
280
     0
102
RTVSPost2010PropOp49
 70
     1
102
RTVSPost2010Prop50
 90
       50
102
RTVSPost2010PropOp50
 70
     1
102
RTVSPost2010Prop51ColorIndex
 90
      256
102
RTVSPost2010Prop51ColorRGB
 90
-16777216
102
RTVSPost2010PropOp51
 70
     0
102
RTVSPost2010Prop52
140
1.0
102
RTVSPost2010PropOp52
 70
     0
102
RTVSPost2010Prop53
 90
        2
102
RTVSPost2010PropOp53
 70
     1
102
RTVSPost2010Prop54
  1
strokes_ogs.tif
102
RTVSPost2010PropOp54
 70
     1
102
RTVSPost2010Prop55
280
     0
102
RTVSPost2010PropOp55
 70
     1
102
RTVSPost2010Prop56
140
1.0
102
RTVSPost2010PropOp56
 70
     1
102
RTVSPost2010Prop57
140
1.0
102
RTVSPost2010PropOp57
 70
     1
102
RTVSPropertyOp0
 70
     1
102
RTVSPropertyOp1
 70
     1
102
RTVSPropertyOp2
 70
     1
102
RTVSPropertyOp3
 70
     1
102
RTVSPropertyOp4
 70
     1
102
RTVSPropertyOp5
 70
     1
102
RTVSPropertyOp6
 70
     1
102
RTVSPropertyOp7
 70
     1
102
RTVSPropertyOp8
 70
     1
102
RTVSPropertyOp9
 70
     1
102
RTVSPropertyOp10
 70
     1
102
RTVSPropertyOp11
 70
     1
102
RTVSPropertyOp12
 70
     1
102
RTVSPropertyOp13
 70
     1
102
RTVSPropertyOp14
 70
     1
102
RTVSPropertyOp15
 70
     1
102
RTVSPropertyOp16
 70
     1
102
RTVSPropertyOp17
 70
     1
102
RTVSPropertyOp18
 70
     1
102
RTVSPropertyOp19
 70
     1
102
RTVSPropertyOp20
 70
     1
102
RTVSPropertyOp21
 70
     1
102
RTVSPropertyOp22
 70
     1
102
RTVSPropertyOp23
 70
     1
102
RTVSPropertyOp24
 70
     1
102
RTVSPropertyOp25
 70
     1
102
RTVSPropertyOp26
 70
     1
102
RTVSPropertyOp27
 70
     1
102
RTVSPropertyOp28
 70
     1
102
RTVSPropertyOp29
 70
     1
102
RTVSPropertyOp30
 70
     1
102
RTVSPropertyOp31
 70
     1
102
RTVSPropertyOp32
 70
     1
102
RTVSPropertyOp33
 70
     1
102
RTVSPropertyOp34
 70
     1
102
RTVSPropertyOp35
 70
     1
102
RTVSPropertyOp36
 70
     1
102
RTVSPropertyOp37
 70
     1
102
RTVSPropertyOp38
 70
     1
102
RTVSPropertyOp39
 70
     1
102
RTVSPropertyOp40
 70
     1
102
RTVSPropertyOp41
 70
     1
102
RTVSPropertyOp42
 70
     1
102
RTVSPropertyOp43
 70
     1
102
RTVSPropertyOp44
 70
     1
102
RTVSPropertyOp45
 70
     1
102
RTVSPropertyOp46
 70
     1
102
RTVSPropertyOp47
 70
     1
102
RTVSPropertyOp48
 70
     1
102
RTVSPropertyOp49
 70
     1
102
RTVSPropertyOp50
 70
     1
102
RTVSPropertyOp51
 70
     0
102
RTVSPropertyOp52
 70
     0
102
RTVSPropertyOp53
 70
     1
102
RTVSPropertyOp54
 70
     1
102
RTVSPropertyOp55
 70
     1
102
RTVSPropertyOp56
 70
     1
102
RTVSPropertyOp57
 70
     1
102
RTVSPropertyOp58
 70
     1
102
RTVSPropertyOp59
 70
     1
102
RTVSPropertyOp60
 70
     1
102
RTVSPropertyOp61
 70
     1
102
RTVSPropertyOp62
 70
     1
  0
XRECORD
  5
102E7E
102
{ACAD_REACTORS
330
102E7D
102
}
330
102E7D
100
AcDbXrecord
280
     1
102
RTVSPost2010Prop28
280
     0
102
RTVSPost2010PropOp28
 70
     1
102
RTVSPost2010Prop29
280
     1
102
RTVSPost2010PropOp29
 70
     1
102
RTVSPost2010Prop30
280
     1
102
RTVSPost2010PropOp30
 70
     1
102
RTVSPost2010Prop31
280
     0
102
RTVSPost2010PropOp31
 70
     1
102
RTVSPost2010Prop32
280
     0
102
RTVSPost2010PropOp32
 70
     1
102
RTVSPost2010Prop33
280
     0
102
RTVSPost2010PropOp33
 70
     1
102
RTVSPost2010Prop34
280
     0
102
RTVSPost2010PropOp34
 70
     1
102
RTVSPost2010Prop35
280
     0
102
RTVSPost2010PropOp35
 70
     1
102
RTVSPost2010Prop36
280
     0
102
RTVSPost2010PropOp36
 70
     1
102
RTVSPost2010Prop37
 90
       50
102
RTVSPost2010PropOp37
 70
     1
102
RTVSPost2010Prop38
140
0.0
102
RTVSPost2010PropOp38
 70
     1
102
RTVSPost2010Prop39
140
1.0
102
RTVSPost2010PropOp39
 70
     1
102
RTVSPost2010Prop40
 90
        0
102
RTVSPost2010PropOp40
 70
     1
102
RTVSPost2010Prop41ColorIndex
 90
       18
102
RTVSPost2010Prop41ColorRGB
 90
        0
102
RTVSPost2010PropOp41
 70
     1
102
RTVSPost2010Prop42
 90
       50
102
RTVSPost2010PropOp42
 70
     1
102
RTVSPost2010Prop43
 90
        3
102
RTVSPost2010PropOp43
 70
     1
102
RTVSPost2010Prop44ColorIndex
 90
        5
102
RTVSPost2010Prop44ColorRGB
 90
      255
102
RTVSPost2010PropOp44
 70
     1
102
RTVSPost2010Prop45
280
     0
102
RTVSPost2010PropOp45
 70
     1
102
RTVSPost2010Prop46
 90
       50
102
RTVSPost2010PropOp46
 70
     1
102
RTVSPost2010Prop47
 90
       50
102
RTVSPost2010PropOp47
 70
     1
102
RTVSPost2010Prop48
 90
       50
102
RTVSPost2010PropOp48
 70
     1
102
RTVSPost2010Prop49
280
     0
102
RTVSPost2010PropOp49
 70
     1
102
RTVSPost2010Prop50
 90
       50
102
RTVSPost2010PropOp50
 70
     1
102
RTVSPost2010Prop51ColorIndex
 90
      256
102
RTVSPost2010Prop51ColorRGB
 90
-16777216
102
RTVSPost2010PropOp51
 70
     0
102
RTVSPost2010Prop52
140
1.0
102
RTVSPost2010PropOp52
 70
     0
102
RTVSPost2010Prop53
 90
        2
102
RTVSPost2010PropOp53
 70
     1
102
RTVSPost2010Prop54
  1
strokes_ogs.tif
102
RTVSPost2010PropOp54
 70
     1
102
RTVSPost2010Prop55
280
     0
102
RTVSPost2010PropOp55
 70
     1
102
RTVSPost2010Prop56
140
1.0
102
RTVSPost2010PropOp56
 70
     1
102
RTVSPost2010Prop57
140
1.0
102
RTVSPost2010PropOp57
 70
     1
102
RTVSPropertyOp0
 70
     1
102
RTVSPropertyOp1
 70
     1
102
RTVSPropertyOp2
 70
     1
102
RTVSPropertyOp3
 70
     1
102
RTVSPropertyOp4
 70
     1
102
RTVSPropertyOp5
 70
     1
102
RTVSPropertyOp6
 70
     1
102
RTVSPropertyOp7
 70
     1
102
RTVSPropertyOp8
 70
     1
102
RTVSPropertyOp9
 70
     1
102
RTVSPropertyOp10
 70
     1
102
RTVSPropertyOp11
 70
     1
102
RTVSPropertyOp12
 70
     1
102
RTVSPropertyOp13
 70
     1
102
RTVSPropertyOp14
 70
     1
102
RTVSPropertyOp15
 70
     1
102
RTVSPropertyOp16
 70
     1
102
RTVSPropertyOp17
 70
     1
102
RTVSPropertyOp18
 70
     1
102
RTVSPropertyOp19
 70
     1
102
RTVSPropertyOp20
 70
     1
102
RTVSPropertyOp21
 70
     1
102
RTVSPropertyOp22
 70
     1
102
RTVSPropertyOp23
 70
     1
102
RTVSPropertyOp24
 70
     1
102
RTVSPropertyOp25
 70
     1
102
RTVSPropertyOp26
 70
     1
102
RTVSPropertyOp27
 70
     1
102
RTVSPropertyOp28
 70
     1
102
RTVSPropertyOp29
 70
     1
102
RTVSPropertyOp30
 70
     1
102
RTVSPropertyOp31
 70
     1
102
RTVSPropertyOp32
 70
     1
102
RTVSPropertyOp33
 70
     1
102
RTVSPropertyOp34
 70
     1
102
RTVSPropertyOp35
 70
     1
102
RTVSPropertyOp36
 70
     1
102
RTVSPropertyOp37
 70
     1
102
RTVSPropertyOp38
 70
     1
102
RTVSPropertyOp39
 70
     1
102
RTVSPropertyOp40
 70
     1
102
RTVSPropertyOp41
 70
     1
102
RTVSPropertyOp42
 70
     1
102
RTVSPropertyOp43
 70
     1
102
RTVSPropertyOp44
 70
     1
102
RTVSPropertyOp45
 70
     1
102
RTVSPropertyOp46
 70
     1
102
RTVSPropertyOp47
 70
     1
102
RTVSPropertyOp48
 70
     1
102
RTVSPropertyOp49
 70
     1
102
RTVSPropertyOp50
 70
     1
102
RTVSPropertyOp51
 70
     0
102
RTVSPropertyOp52
 70
     0
102
RTVSPropertyOp53
 70
     1
102
RTVSPropertyOp54
 70
     1
102
RTVSPropertyOp55
 70
     1
102
RTVSPropertyOp56
 70
     1
102
RTVSPropertyOp57
 70
     1
102
RTVSPropertyOp58
 70
     1
102
RTVSPropertyOp59
 70
     1
102
RTVSPropertyOp60
 70
     1
102
RTVSPropertyOp61
 70
     1
102
RTVSPropertyOp62
 70
     1
  0
XRECORD
  5
102E9A
102
{ACAD_REACTORS
330
102E99
102
}
330
102E99
100
AcDbXrecord
280
     1
102
RTVSPost2010Prop28
280
     0
102
RTVSPost2010PropOp28
 70
     0
102
RTVSPost2010Prop29
280
     1
102
RTVSPost2010PropOp29
 70
     0
102
RTVSPost2010Prop30
280
     1
102
RTVSPost2010PropOp30
 70
     0
102
RTVSPost2010Prop31
280
     0
102
RTVSPost2010PropOp31
 70
     0
102
RTVSPost2010Prop32
280
     0
102
RTVSPost2010PropOp32
 70
     0
102
RTVSPost2010Prop33
280
     0
102
RTVSPost2010PropOp33
 70
     0
102
RTVSPost2010Prop34
280
     0
102
RTVSPost2010PropOp34
 70
     0
102
RTVSPost2010Prop35
280
     0
102
RTVSPost2010PropOp35
 70
     0
102
RTVSPost2010Prop36
280
     0
102
RTVSPost2010PropOp36
 70
     0
102
RTVSPost2010Prop37
 90
       50
102
RTVSPost2010PropOp37
 70
     0
102
RTVSPost2010Prop38
140
0.0
102
RTVSPost2010PropOp38
 70
     0
102
RTVSPost2010Prop39
140
1.0
102
RTVSPost2010PropOp39
 70
     0
102
RTVSPost2010Prop40
 90
        0
102
RTVSPost2010PropOp40
 70
     0
102
RTVSPost2010Prop41ColorIndex
 90
       18
102
RTVSPost2010Prop41ColorRGB
 90
        0
102
RTVSPost2010PropOp41
 70
     0
102
RTVSPost2010Prop42
 90
       50
102
RTVSPost2010PropOp42
 70
     0
102
RTVSPost2010Prop43
 90
        3
102
RTVSPost2010PropOp43
 70
     0
102
RTVSPost2010Prop44ColorIndex
 90
        5
102
RTVSPost2010Prop44ColorRGB
 90
      255
102
RTVSPost2010PropOp44
 70
     0
102
RTVSPost2010Prop45
280
     0
102
RTVSPost2010PropOp45
 70
     0
102
RTVSPost2010Prop46
 90
       50
102
RTVSPost2010PropOp46
 70
     0
102
RTVSPost2010Prop47
 90
       50
102
RTVSPost2010PropOp47
 70
     0
102
RTVSPost2010Prop48
 90
       50
102
RTVSPost2010PropOp48
 70
     0
102
RTVSPost2010Prop49
280
     0
102
RTVSPost2010PropOp49
 70
     0
102
RTVSPost2010Prop50
 90
       50
102
RTVSPost2010PropOp50
 70
     0
102
RTVSPost2010Prop51ColorIndex
 90
      256
102
RTVSPost2010Prop51ColorRGB
 90
-16777216
102
RTVSPost2010PropOp51
 70
     0
102
RTVSPost2010Prop52
140
1.0
102
RTVSPost2010PropOp52
 70
     0
102
RTVSPost2010Prop53
 90
        2
102
RTVSPost2010PropOp53
 70
     0
102
RTVSPost2010Prop54
  1
strokes_ogs.tif
102
RTVSPost2010PropOp54
 70
     0
102
RTVSPost2010Prop55
280
     0
102
RTVSPost2010PropOp55
 70
     0
102
RTVSPost2010Prop56
140
1.0
102
RTVSPost2010PropOp56
 70
     0
102
RTVSPost2010Prop57
140
1.0
102
RTVSPost2010PropOp57
 70
     0
102
RTVSPropertyOp0
 70
     0
102
RTVSPropertyOp1
 70
     0
102
RTVSPropertyOp2
 70
     0
102
RTVSPropertyOp3
 70
     0
102
RTVSPropertyOp4
 70
     0
102
RTVSPropertyOp5
 70
     0
102
RTVSPropertyOp6
 70
     0
102
RTVSPropertyOp7
 70
     0
102
RTVSPropertyOp8
 70
     0
102
RTVSPropertyOp9
 70
     0
102
RTVSPropertyOp10
 70
     0
102
RTVSPropertyOp11
 70
     0
102
RTVSPropertyOp12
 70
     0
102
RTVSPropertyOp13
 70
     0
102
RTVSPropertyOp14
 70
     2
102
RTVSPropertyOp15
 70
     0
102
RTVSPropertyOp16
 70
     0
102
RTVSPropertyOp17
 70
     0
102
RTVSPropertyOp18
 70
     0
102
RTVSPropertyOp19
 70
     0
102
RTVSPropertyOp20
 70
     0
102
RTVSPropertyOp21
 70
     0
102
RTVSPropertyOp22
 70
     0
102
RTVSPropertyOp23
 70
     0
102
RTVSPropertyOp24
 70
     0
102
RTVSPropertyOp25
 70
     0
102
RTVSPropertyOp26
 70
     0
102
RTVSPropertyOp27
 70
     0
102
RTVSPropertyOp28
 70
     0
102
RTVSPropertyOp29
 70
     0
102
RTVSPropertyOp30
 70
     0
102
RTVSPropertyOp31
 70
     0
102
RTVSPropertyOp32
 70
     0
102
RTVSPropertyOp33
 70
     0
102
RTVSPropertyOp34
 70
     0
102
RTVSPropertyOp35
 70
     0
102
RTVSPropertyOp36
 70
     0
102
RTVSPropertyOp37
 70
     0
102
RTVSPropertyOp38
 70
     0
102
RTVSPropertyOp39
 70
     0
102
RTVSPropertyOp40
 70
     0
102
RTVSPropertyOp41
 70
     0
102
RTVSPropertyOp42
 70
     0
102
RTVSPropertyOp43
 70
     0
102
RTVSPropertyOp44
 70
     0
102
RTVSPropertyOp45
 70
     0
102
RTVSPropertyOp46
 70
     0
102
RTVSPropertyOp47
 70
     0
102
RTVSPropertyOp48
 70
     0
102
RTVSPropertyOp49
 70
     0
102
RTVSPropertyOp50
 70
     0
102
RTVSPropertyOp51
 70
     0
102
RTVSPropertyOp52
 70
     0
102
RTVSPropertyOp53
 70
     0
102
RTVSPropertyOp54
 70
     0
102
RTVSPropertyOp55
 70
     0
102
RTVSPropertyOp56
 70
     0
102
RTVSPropertyOp57
 70
     0
102
RTVSPropertyOp58
 70
     0
102
RTVSPropertyOp59
 70
     0
102
RTVSPropertyOp60
 70
     0
102
RTVSPropertyOp61
 70
     0
102
RTVSPropertyOp62
 70
     0
  0
XRECORD
  5
102E8A
102
{ACAD_REACTORS
330
102E89
102
}
330
102E89
100
AcDbXrecord
280
     1
102
RTVSPost2010Prop28
280
     0
102
RTVSPost2010PropOp28
 70
     1
102
RTVSPost2010Prop29
280
     1
102
RTVSPost2010PropOp29
 70
     1
102
RTVSPost2010Prop30
280
     1
102
RTVSPost2010PropOp30
 70
     1
102
RTVSPost2010Prop31
280
     0
102
RTVSPost2010PropOp31
 70
     1
102
RTVSPost2010Prop32
280
     0
102
RTVSPost2010PropOp32
 70
     1
102
RTVSPost2010Prop33
280
     0
102
RTVSPost2010PropOp33
 70
     1
102
RTVSPost2010Prop34
280
     0
102
RTVSPost2010PropOp34
 70
     1
102
RTVSPost2010Prop35
280
     0
102
RTVSPost2010PropOp35
 70
     1
102
RTVSPost2010Prop36
280
     0
102
RTVSPost2010PropOp36
 70
     1
102
RTVSPost2010Prop37
 90
       50
102
RTVSPost2010PropOp37
 70
     1
102
RTVSPost2010Prop38
140
0.0
102
RTVSPost2010PropOp38
 70
     1
102
RTVSPost2010Prop39
140
1.0
102
RTVSPost2010PropOp39
 70
     1
102
RTVSPost2010Prop40
 90
        0
102
RTVSPost2010PropOp40
 70
     1
102
RTVSPost2010Prop41ColorIndex
 90
       18
102
RTVSPost2010Prop41ColorRGB
 90
        0
102
RTVSPost2010PropOp41
 70
     1
102
RTVSPost2010Prop42
 90
       50
102
RTVSPost2010PropOp42
 70
     1
102
RTVSPost2010Prop43
 90
        3
102
RTVSPost2010PropOp43
 70
     1
102
RTVSPost2010Prop44ColorIndex
 90
        5
102
RTVSPost2010Prop44ColorRGB
 90
      255
102
RTVSPost2010PropOp44
 70
     1
102
RTVSPost2010Prop45
280
     0
102
RTVSPost2010PropOp45
 70
     1
102
RTVSPost2010Prop46
 90
       50
102
RTVSPost2010PropOp46
 70
     1
102
RTVSPost2010Prop47
 90
       50
102
RTVSPost2010PropOp47
 70
     1
102
RTVSPost2010Prop48
 90
       50
102
RTVSPost2010PropOp48
 70
     1
102
RTVSPost2010Prop49
280
     0
102
RTVSPost2010PropOp49
 70
     1
102
RTVSPost2010Prop50
 90
       50
102
RTVSPost2010PropOp50
 70
     1
102
RTVSPost2010Prop51ColorIndex
 90
      256
102
RTVSPost2010Prop51ColorRGB
 90
-16777216
102
RTVSPost2010PropOp51
 70
     0
102
RTVSPost2010Prop52
140
1.0
102
RTVSPost2010PropOp52
 70
     0
102
RTVSPost2010Prop53
 90
        2
102
RTVSPost2010PropOp53
 70
     1
102
RTVSPost2010Prop54
  1
strokes_ogs.tif
102
RTVSPost2010PropOp54
 70
     1
102
RTVSPost2010Prop55
280
     0
102
RTVSPost2010PropOp55
 70
     1
102
RTVSPost2010Prop56
140
1.0
102
RTVSPost2010PropOp56
 70
     1
102
RTVSPost2010Prop57
140
1.0
102
RTVSPost2010PropOp57
 70
     1
102
RTVSPropertyOp0
 70
     1
102
RTVSPropertyOp1
 70
     1
102
RTVSPropertyOp2
 70
     1
102
RTVSPropertyOp3
 70
     1
102
RTVSPropertyOp4
 70
     1
102
RTVSPropertyOp5
 70
     1
102
RTVSPropertyOp6
 70
     1
102
RTVSPropertyOp7
 70
     1
102
RTVSPropertyOp8
 70
     1
102
RTVSPropertyOp9
 70
     1
102
RTVSPropertyOp10
 70
     1
102
RTVSPropertyOp11
 70
     1
102
RTVSPropertyOp12
 70
     1
102
RTVSPropertyOp13
 70
     1
102
RTVSPropertyOp14
 70
     1
102
RTVSPropertyOp15
 70
     1
102
RTVSPropertyOp16
 70
     1
102
RTVSPropertyOp17
 70
     1
102
RTVSPropertyOp18
 70
     1
102
RTVSPropertyOp19
 70
     1
102
RTVSPropertyOp20
 70
     1
102
RTVSPropertyOp21
 70
     1
102
RTVSPropertyOp22
 70
     1
102
RTVSPropertyOp23
 70
     1
102
RTVSPropertyOp24
 70
     1
102
RTVSPropertyOp25
 70
     1
102
RTVSPropertyOp26
 70
     1
102
RTVSPropertyOp27
 70
     1
102
RTVSPropertyOp28
 70
     1
102
RTVSPropertyOp29
 70
     1
102
RTVSPropertyOp30
 70
     1
102
RTVSPropertyOp31
 70
     1
102
RTVSPropertyOp32
 70
     1
102
RTVSPropertyOp33
 70
     1
102
RTVSPropertyOp34
 70
     1
102
RTVSPropertyOp35
 70
     1
102
RTVSPropertyOp36
 70
     1
102
RTVSPropertyOp37
 70
     1
102
RTVSPropertyOp38
 70
     1
102
RTVSPropertyOp39
 70
     1
102
RTVSPropertyOp40
 70
     1
102
RTVSPropertyOp41
 70
     1
102
RTVSPropertyOp42
 70
     1
102
RTVSPropertyOp43
 70
     1
102
RTVSPropertyOp44
 70
     1
102
RTVSPropertyOp45
 70
     1
102
RTVSPropertyOp46
 70
     1
102
RTVSPropertyOp47
 70
     1
102
RTVSPropertyOp48
 70
     1
102
RTVSPropertyOp49
 70
     1
102
RTVSPropertyOp50
 70
     1
102
RTVSPropertyOp51
 70
     0
102
RTVSPropertyOp52
 70
     0
102
RTVSPropertyOp53
 70
     1
102
RTVSPropertyOp54
 70
     1
102
RTVSPropertyOp55
 70
     1
102
RTVSPropertyOp56
 70
     1
102
RTVSPropertyOp57
 70
     1
102
RTVSPropertyOp58
 70
     1
102
RTVSPropertyOp59
 70
     1
102
RTVSPropertyOp60
 70
     1
102
RTVSPropertyOp61
 70
     1
102
RTVSPropertyOp62
 70
     1
  0
XRECORD
  5
102E9C
102
{ACAD_REACTORS
330
102E9B
102
}
330
102E9B
100
AcDbXrecord
280
     1
102
RTVSPost2010Prop28
280
     0
102
RTVSPost2010PropOp28
 70
     0
102
RTVSPost2010Prop29
280
     1
102
RTVSPost2010PropOp29
 70
     0
102
RTVSPost2010Prop30
280
     1
102
RTVSPost2010PropOp30
 70
     0
102
RTVSPost2010Prop31
280
     0
102
RTVSPost2010PropOp31
 70
     0
102
RTVSPost2010Prop32
280
     0
102
RTVSPost2010PropOp32
 70
     0
102
RTVSPost2010Prop33
280
     0
102
RTVSPost2010PropOp33
 70
     0
102
RTVSPost2010Prop34
280
     0
102
RTVSPost2010PropOp34
 70
     0
102
RTVSPost2010Prop35
280
     0
102
RTVSPost2010PropOp35
 70
     0
102
RTVSPost2010Prop36
280
     0
102
RTVSPost2010PropOp36
 70
     0
102
RTVSPost2010Prop37
 90
       50
102
RTVSPost2010PropOp37
 70
     0
102
RTVSPost2010Prop38
140
0.0
102
RTVSPost2010PropOp38
 70
     0
102
RTVSPost2010Prop39
140
1.0
102
RTVSPost2010PropOp39
 70
     0
102
RTVSPost2010Prop40
 90
        0
102
RTVSPost2010PropOp40
 70
     0
102
RTVSPost2010Prop41ColorIndex
 90
       18
102
RTVSPost2010Prop41ColorRGB
 90
        0
102
RTVSPost2010PropOp41
 70
     0
102
RTVSPost2010Prop42
 90
       50
102
RTVSPost2010PropOp42
 70
     0
102
RTVSPost2010Prop43
 90
        3
102
RTVSPost2010PropOp43
 70
     0
102
RTVSPost2010Prop44ColorIndex
 90
        5
102
RTVSPost2010Prop44ColorRGB
 90
      255
102
RTVSPost2010PropOp44
 70
     0
102
RTVSPost2010Prop45
280
     0
102
RTVSPost2010PropOp45
 70
     0
102
RTVSPost2010Prop46
 90
       50
102
RTVSPost2010PropOp46
 70
     0
102
RTVSPost2010Prop47
 90
       50
102
RTVSPost2010PropOp47
 70
     0
102
RTVSPost2010Prop48
 90
       50
102
RTVSPost2010PropOp48
 70
     0
102
RTVSPost2010Prop49
280
     0
102
RTVSPost2010PropOp49
 70
     0
102
RTVSPost2010Prop50
 90
       50
102
RTVSPost2010PropOp50
 70
     0
102
RTVSPost2010Prop51ColorIndex
 90
      256
102
RTVSPost2010Prop51ColorRGB
 90
-16777216
102
RTVSPost2010PropOp51
 70
     0
102
RTVSPost2010Prop52
140
1.0
102
RTVSPost2010PropOp52
 70
     0
102
RTVSPost2010Prop53
 90
        2
102
RTVSPost2010PropOp53
 70
     0
102
RTVSPost2010Prop54
  1
strokes_ogs.tif
102
RTVSPost2010PropOp54
 70
     0
102
RTVSPost2010Prop55
280
     0
102
RTVSPost2010PropOp55
 70
     0
102
RTVSPost2010Prop56
140
1.0
102
RTVSPost2010PropOp56
 70
     0
102
RTVSPost2010Prop57
140
1.0
102
RTVSPost2010PropOp57
 70
     0
102
RTVSPropertyOp0
 70
     0
102
RTVSPropertyOp1
 70
     0
102
RTVSPropertyOp2
 70
     0
102
RTVSPropertyOp3
 70
     0
102
RTVSPropertyOp4
 70
     0
102
RTVSPropertyOp5
 70
     0
102
RTVSPropertyOp6
 70
     0
102
RTVSPropertyOp7
 70
     0
102
RTVSPropertyOp8
 70
     0
102
RTVSPropertyOp9
 70
     0
102
RTVSPropertyOp10
 70
     0
102
RTVSPropertyOp11
 70
     0
102
RTVSPropertyOp12
 70
     0
102
RTVSPropertyOp13
 70
     0
102
RTVSPropertyOp14
 70
     2
102
RTVSPropertyOp15
 70
     0
102
RTVSPropertyOp16
 70
     0
102
RTVSPropertyOp17
 70
     0
102
RTVSPropertyOp18
 70
     0
102
RTVSPropertyOp19
 70
     0
102
RTVSPropertyOp20
 70
     0
102
RTVSPropertyOp21
 70
     0
102
RTVSPropertyOp22
 70
     0
102
RTVSPropertyOp23
 70
     0
102
RTVSPropertyOp24
 70
     0
102
RTVSPropertyOp25
 70
     0
102
RTVSPropertyOp26
 70
     0
102
RTVSPropertyOp27
 70
     0
102
RTVSPropertyOp28
 70
     0
102
RTVSPropertyOp29
 70
     0
102
RTVSPropertyOp30
 70
     0
102
RTVSPropertyOp31
 70
     0
102
RTVSPropertyOp32
 70
     0
102
RTVSPropertyOp33
 70
     0
102
RTVSPropertyOp34
 70
     0
102
RTVSPropertyOp35
 70
     0
102
RTVSPropertyOp36
 70
     0
102
RTVSPropertyOp37
 70
     0
102
RTVSPropertyOp38
 70
     0
102
RTVSPropertyOp39
 70
     0
102
RTVSPropertyOp40
 70
     0
102
RTVSPropertyOp41
 70
     0
102
RTVSPropertyOp42
 70
     0
102
RTVSPropertyOp43
 70
     0
102
RTVSPropertyOp44
 70
     0
102
RTVSPropertyOp45
 70
     0
102
RTVSPropertyOp46
 70
     0
102
RTVSPropertyOp47
 70
     0
102
RTVSPropertyOp48
 70
     0
102
RTVSPropertyOp49
 70
     0
102
RTVSPropertyOp50
 70
     0
102
RTVSPropertyOp51
 70
     0
102
RTVSPropertyOp52
 70
     0
102
RTVSPropertyOp53
 70
     0
102
RTVSPropertyOp54
 70
     0
102
RTVSPropertyOp55
 70
     0
102
RTVSPropertyOp56
 70
     0
102
RTVSPropertyOp57
 70
     0
102
RTVSPropertyOp58
 70
     0
102
RTVSPropertyOp59
 70
     0
102
RTVSPropertyOp60
 70
     0
102
RTVSPropertyOp61
 70
     0
102
RTVSPropertyOp62
 70
     0
  0
XRECORD
  5
102E82
102
{ACAD_REACTORS
330
102E81
102
}
330
102E81
100
AcDbXrecord
280
     1
102
RTVSPost2010Prop28
280
     0
102
RTVSPost2010PropOp28
 70
     1
102
RTVSPost2010Prop29
280
     1
102
RTVSPost2010PropOp29
 70
     1
102
RTVSPost2010Prop30
280
     1
102
RTVSPost2010PropOp30
 70
     1
102
RTVSPost2010Prop31
280
     0
102
RTVSPost2010PropOp31
 70
     1
102
RTVSPost2010Prop32
280
     0
102
RTVSPost2010PropOp32
 70
     1
102
RTVSPost2010Prop33
280
     0
102
RTVSPost2010PropOp33
 70
     1
102
RTVSPost2010Prop34
280
     0
102
RTVSPost2010PropOp34
 70
     1
102
RTVSPost2010Prop35
280
     0
102
RTVSPost2010PropOp35
 70
     1
102
RTVSPost2010Prop36
280
     0
102
RTVSPost2010PropOp36
 70
     1
102
RTVSPost2010Prop37
 90
       50
102
RTVSPost2010PropOp37
 70
     1
102
RTVSPost2010Prop38
140
0.0
102
RTVSPost2010PropOp38
 70
     1
102
RTVSPost2010Prop39
140
1.0
102
RTVSPost2010PropOp39
 70
     1
102
RTVSPost2010Prop40
 90
        0
102
RTVSPost2010PropOp40
 70
     1
102
RTVSPost2010Prop41ColorIndex
 90
       18
102
RTVSPost2010Prop41ColorRGB
 90
        0
102
RTVSPost2010PropOp41
 70
     1
102
RTVSPost2010Prop42
 90
       50
102
RTVSPost2010PropOp42
 70
     1
102
RTVSPost2010Prop43
 90
        3
102
RTVSPost2010PropOp43
 70
     1
102
RTVSPost2010Prop44ColorIndex
 90
        5
102
RTVSPost2010Prop44ColorRGB
 90
      255
102
RTVSPost2010PropOp44
 70
     1
102
RTVSPost2010Prop45
280
     0
102
RTVSPost2010PropOp45
 70
     1
102
RTVSPost2010Prop46
 90
       50
102
RTVSPost2010PropOp46
 70
     1
102
RTVSPost2010Prop47
 90
       50
102
RTVSPost2010PropOp47
 70
     1
102
RTVSPost2010Prop48
 90
       50
102
RTVSPost2010PropOp48
 70
     1
102
RTVSPost2010Prop49
280
     0
102
RTVSPost2010PropOp49
 70
     1
102
RTVSPost2010Prop50
 90
       50
102
RTVSPost2010PropOp50
 70
     1
102
RTVSPost2010Prop51ColorIndex
 90
      256
102
RTVSPost2010Prop51ColorRGB
 90
-16777216
102
RTVSPost2010PropOp51
 70
     0
102
RTVSPost2010Prop52
140
1.0
102
RTVSPost2010PropOp52
 70
     0
102
RTVSPost2010Prop53
 90
        2
102
RTVSPost2010PropOp53
 70
     1
102
RTVSPost2010Prop54
  1
strokes_ogs.tif
102
RTVSPost2010PropOp54
 70
     1
102
RTVSPost2010Prop55
280
     0
102
RTVSPost2010PropOp55
 70
     1
102
RTVSPost2010Prop56
140
1.0
102
RTVSPost2010PropOp56
 70
     1
102
RTVSPost2010Prop57
140
1.0
102
RTVSPost2010PropOp57
 70
     1
102
RTVSPropertyOp0
 70
     1
102
RTVSPropertyOp1
 70
     1
102
RTVSPropertyOp2
 70
     1
102
RTVSPropertyOp3
 70
     1
102
RTVSPropertyOp4
 70
     1
102
RTVSPropertyOp5
 70
     1
102
RTVSPropertyOp6
 70
     1
102
RTVSPropertyOp7
 70
     1
102
RTVSPropertyOp8
 70
     1
102
RTVSPropertyOp9
 70
     1
102
RTVSPropertyOp10
 70
     1
102
RTVSPropertyOp11
 70
     1
102
RTVSPropertyOp12
 70
     1
102
RTVSPropertyOp13
 70
     1
102
RTVSPropertyOp14
 70
     1
102
RTVSPropertyOp15
 70
     1
102
RTVSPropertyOp16
 70
     1
102
RTVSPropertyOp17
 70
     1
102
RTVSPropertyOp18
 70
     1
102
RTVSPropertyOp19
 70
     1
102
RTVSPropertyOp20
 70
     1
102
RTVSPropertyOp21
 70
     1
102
RTVSPropertyOp22
 70
     1
102
RTVSPropertyOp23
 70
     1
102
RTVSPropertyOp24
 70
     1
102
RTVSPropertyOp25
 70
     1
102
RTVSPropertyOp26
 70
     1
102
RTVSPropertyOp27
 70
     1
102
RTVSPropertyOp28
 70
     1
102
RTVSPropertyOp29
 70
     1
102
RTVSPropertyOp30
 70
     1
102
RTVSPropertyOp31
 70
     1
102
RTVSPropertyOp32
 70
     1
102
RTVSPropertyOp33
 70
     1
102
RTVSPropertyOp34
 70
     1
102
RTVSPropertyOp35
 70
     1
102
RTVSPropertyOp36
 70
     1
102
RTVSPropertyOp37
 70
     1
102
RTVSPropertyOp38
 70
     1
102
RTVSPropertyOp39
 70
     1
102
RTVSPropertyOp40
 70
     1
102
RTVSPropertyOp41
 70
     1
102
RTVSPropertyOp42
 70
     1
102
RTVSPropertyOp43
 70
     1
102
RTVSPropertyOp44
 70
     1
102
RTVSPropertyOp45
 70
     1
102
RTVSPropertyOp46
 70
     1
102
RTVSPropertyOp47
 70
     1
102
RTVSPropertyOp48
 70
     1
102
RTVSPropertyOp49
 70
     1
102
RTVSPropertyOp50
 70
     1
102
RTVSPropertyOp51
 70
     0
102
RTVSPropertyOp52
 70
     0
102
RTVSPropertyOp53
 70
     1
102
RTVSPropertyOp54
 70
     1
102
RTVSPropertyOp55
 70
     1
102
RTVSPropertyOp56
 70
     1
102
RTVSPropertyOp57
 70
     1
102
RTVSPropertyOp58
 70
     1
102
RTVSPropertyOp59
 70
     1
102
RTVSPropertyOp60
 70
     1
102
RTVSPropertyOp61
 70
     1
102
RTVSPropertyOp62
 70
     1
  0
XRECORD
  5
102E98
102
{ACAD_REACTORS
330
102E97
102
}
330
102E97
100
AcDbXrecord
280
     1
102
RTVSPost2010Prop28
280
     0
102
RTVSPost2010PropOp28
 70
     1
102
RTVSPost2010Prop29
280
     1
102
RTVSPost2010PropOp29
 70
     1
102
RTVSPost2010Prop30
280
     1
102
RTVSPost2010PropOp30
 70
     1
102
RTVSPost2010Prop31
280
     0
102
RTVSPost2010PropOp31
 70
     1
102
RTVSPost2010Prop32
280
     0
102
RTVSPost2010PropOp32
 70
     1
102
RTVSPost2010Prop33
280
     0
102
RTVSPost2010PropOp33
 70
     1
102
RTVSPost2010Prop34
280
     0
102
RTVSPost2010PropOp34
 70
     1
102
RTVSPost2010Prop35
280
     0
102
RTVSPost2010PropOp35
 70
     1
102
RTVSPost2010Prop36
280
     0
102
RTVSPost2010PropOp36
 70
     1
102
RTVSPost2010Prop37
 90
       50
102
RTVSPost2010PropOp37
 70
     1
102
RTVSPost2010Prop38
140
0.0
102
RTVSPost2010PropOp38
 70
     1
102
RTVSPost2010Prop39
140
1.0
102
RTVSPost2010PropOp39
 70
     1
102
RTVSPost2010Prop40
 90
        0
102
RTVSPost2010PropOp40
 70
     1
102
RTVSPost2010Prop41ColorIndex
 90
       18
102
RTVSPost2010Prop41ColorRGB
 90
        0
102
RTVSPost2010PropOp41
 70
     1
102
RTVSPost2010Prop42
 90
       50
102
RTVSPost2010PropOp42
 70
     1
102
RTVSPost2010Prop43
 90
        3
102
RTVSPost2010PropOp43
 70
     1
102
RTVSPost2010Prop44ColorIndex
 90
        5
102
RTVSPost2010Prop44ColorRGB
 90
      255
102
RTVSPost2010PropOp44
 70
     1
102
RTVSPost2010Prop45
280
     0
102
RTVSPost2010PropOp45
 70
     1
102
RTVSPost2010Prop46
 90
       50
102
RTVSPost2010PropOp46
 70
     1
102
RTVSPost2010Prop47
 90
       50
102
RTVSPost2010PropOp47
 70
     1
102
RTVSPost2010Prop48
 90
       50
102
RTVSPost2010PropOp48
 70
     1
102
RTVSPost2010Prop49
280
     0
102
RTVSPost2010PropOp49
 70
     1
102
RTVSPost2010Prop50
 90
       50
102
RTVSPost2010PropOp50
 70
     1
102
RTVSPost2010Prop51ColorIndex
 90
      256
102
RTVSPost2010Prop51ColorRGB
 90
-16777216
102
RTVSPost2010PropOp51
 70
     0
102
RTVSPost2010Prop52
140
1.0
102
RTVSPost2010PropOp52
 70
     0
102
RTVSPost2010Prop53
 90
        2
102
RTVSPost2010PropOp53
 70
     1
102
RTVSPost2010Prop54
  1
strokes_ogs.tif
102
RTVSPost2010PropOp54
 70
     1
102
RTVSPost2010Prop55
280
     0
102
RTVSPost2010PropOp55
 70
     1
102
RTVSPost2010Prop56
140
1.0
102
RTVSPost2010PropOp56
 70
     1
102
RTVSPost2010Prop57
140
1.0
102
RTVSPost2010PropOp57
 70
     1
102
RTVSPropertyOp0
 70
     1
102
RTVSPropertyOp1
 70
     1
102
RTVSPropertyOp2
 70
     1
102
RTVSPropertyOp3
 70
     1
102
RTVSPropertyOp4
 70
     1
102
RTVSPropertyOp5
 70
     1
102
RTVSPropertyOp6
 70
     1
102
RTVSPropertyOp7
 70
     1
102
RTVSPropertyOp8
 70
     1
102
RTVSPropertyOp9
 70
     1
102
RTVSPropertyOp10
 70
     1
102
RTVSPropertyOp11
 70
     1
102
RTVSPropertyOp12
 70
     1
102
RTVSPropertyOp13
 70
     1
102
RTVSPropertyOp14
 70
     1
102
RTVSPropertyOp15
 70
     1
102
RTVSPropertyOp16
 70
     1
102
RTVSPropertyOp17
 70
     1
102
RTVSPropertyOp18
 70
     1
102
RTVSPropertyOp19
 70
     1
102
RTVSPropertyOp20
 70
     1
102
RTVSPropertyOp21
 70
     1
102
RTVSPropertyOp22
 70
     1
102
RTVSPropertyOp23
 70
     1
102
RTVSPropertyOp24
 70
     1
102
RTVSPropertyOp25
 70
     1
102
RTVSPropertyOp26
 70
     1
102
RTVSPropertyOp27
 70
     1
102
RTVSPropertyOp28
 70
     1
102
RTVSPropertyOp29
 70
     1
102
RTVSPropertyOp30
 70
     1
102
RTVSPropertyOp31
 70
     1
102
RTVSPropertyOp32
 70
     1
102
RTVSPropertyOp33
 70
     1
102
RTVSPropertyOp34
 70
     1
102
RTVSPropertyOp35
 70
     1
102
RTVSPropertyOp36
 70
     1
102
RTVSPropertyOp37
 70
     1
102
RTVSPropertyOp38
 70
     1
102
RTVSPropertyOp39
 70
     1
102
RTVSPropertyOp40
 70
     1
102
RTVSPropertyOp41
 70
     1
102
RTVSPropertyOp42
 70
     1
102
RTVSPropertyOp43
 70
     1
102
RTVSPropertyOp44
 70
     1
102
RTVSPropertyOp45
 70
     1
102
RTVSPropertyOp46
 70
     1
102
RTVSPropertyOp47
 70
     1
102
RTVSPropertyOp48
 70
     1
102
RTVSPropertyOp49
 70
     1
102
RTVSPropertyOp50
 70
     1
102
RTVSPropertyOp51
 70
     0
102
RTVSPropertyOp52
 70
     0
102
RTVSPropertyOp53
 70
     1
102
RTVSPropertyOp54
 70
     1
102
RTVSPropertyOp55
 70
     1
102
RTVSPropertyOp56
 70
     1
102
RTVSPropertyOp57
 70
     1
102
RTVSPropertyOp58
 70
     1
102
RTVSPropertyOp59
 70
     1
102
RTVSPropertyOp60
 70
     1
102
RTVSPropertyOp61
 70
     1
102
RTVSPropertyOp62
 70
     1
  0
XRECORD
  5
102E96
102
{ACAD_REACTORS
330
102E95
102
}
330
102E95
100
AcDbXrecord
280
     1
102
RTVSPost2010Prop28
280
     0
102
RTVSPost2010PropOp28
 70
     1
102
RTVSPost2010Prop29
280
     1
102
RTVSPost2010PropOp29
 70
     1
102
RTVSPost2010Prop30
280
     1
102
RTVSPost2010PropOp30
 70
     1
102
RTVSPost2010Prop31
280
     0
102
RTVSPost2010PropOp31
 70
     1
102
RTVSPost2010Prop32
280
     0
102
RTVSPost2010PropOp32
 70
     1
102
RTVSPost2010Prop33
280
     0
102
RTVSPost2010PropOp33
 70
     1
102
RTVSPost2010Prop34
280
     0
102
RTVSPost2010PropOp34
 70
     1
102
RTVSPost2010Prop35
280
     0
102
RTVSPost2010PropOp35
 70
     1
102
RTVSPost2010Prop36
280
     0
102
RTVSPost2010PropOp36
 70
     1
102
RTVSPost2010Prop37
 90
       50
102
RTVSPost2010PropOp37
 70
     1
102
RTVSPost2010Prop38
140
0.0
102
RTVSPost2010PropOp38
 70
     1
102
RTVSPost2010Prop39
140
1.0
102
RTVSPost2010PropOp39
 70
     1
102
RTVSPost2010Prop40
 90
        0
102
RTVSPost2010PropOp40
 70
     1
102
RTVSPost2010Prop41ColorIndex
 90
       18
102
RTVSPost2010Prop41ColorRGB
 90
        0
102
RTVSPost2010PropOp41
 70
     1
102
RTVSPost2010Prop42
 90
       50
102
RTVSPost2010PropOp42
 70
     1
102
RTVSPost2010Prop43
 90
        3
102
RTVSPost2010PropOp43
 70
     1
102
RTVSPost2010Prop44ColorIndex
 90
        5
102
RTVSPost2010Prop44ColorRGB
 90
      255
102
RTVSPost2010PropOp44
 70
     1
102
RTVSPost2010Prop45
280
     0
102
RTVSPost2010PropOp45
 70
     1
102
RTVSPost2010Prop46
 90
       50
102
RTVSPost2010PropOp46
 70
     1
102
RTVSPost2010Prop47
 90
       50
102
RTVSPost2010PropOp47
 70
     1
102
RTVSPost2010Prop48
 90
       50
102
RTVSPost2010PropOp48
 70
     1
102
RTVSPost2010Prop49
280
     0
102
RTVSPost2010PropOp49
 70
     1
102
RTVSPost2010Prop50
 90
       50
102
RTVSPost2010PropOp50
 70
     1
102
RTVSPost2010Prop51ColorIndex
 90
      256
102
RTVSPost2010Prop51ColorRGB
 90
-16777216
102
RTVSPost2010PropOp51
 70
     0
102
RTVSPost2010Prop52
140
1.0
102
RTVSPost2010PropOp52
 70
     0
102
RTVSPost2010Prop53
 90
        2
102
RTVSPost2010PropOp53
 70
     1
102
RTVSPost2010Prop54
  1
strokes_ogs.tif
102
RTVSPost2010PropOp54
 70
     1
102
RTVSPost2010Prop55
280
     0
102
RTVSPost2010PropOp55
 70
     1
102
RTVSPost2010Prop56
140
1.0
102
RTVSPost2010PropOp56
 70
     1
102
RTVSPost2010Prop57
140
1.0
102
RTVSPost2010PropOp57
 70
     1
102
RTVSPropertyOp0
 70
     1
102
RTVSPropertyOp1
 70
     1
102
RTVSPropertyOp2
 70
     1
102
RTVSPropertyOp3
 70
     1
102
RTVSPropertyOp4
 70
     1
102
RTVSPropertyOp5
 70
     1
102
RTVSPropertyOp6
 70
     1
102
RTVSPropertyOp7
 70
     1
102
RTVSPropertyOp8
 70
     1
102
RTVSPropertyOp9
 70
     1
102
RTVSPropertyOp10
 70
     1
102
RTVSPropertyOp11
 70
     1
102
RTVSPropertyOp12
 70
     1
102
RTVSPropertyOp13
 70
     1
102
RTVSPropertyOp14
 70
     1
102
RTVSPropertyOp15
 70
     1
102
RTVSPropertyOp16
 70
     1
102
RTVSPropertyOp17
 70
     1
102
RTVSPropertyOp18
 70
     1
102
RTVSPropertyOp19
 70
     1
102
RTVSPropertyOp20
 70
     1
102
RTVSPropertyOp21
 70
     1
102
RTVSPropertyOp22
 70
     1
102
RTVSPropertyOp23
 70
     1
102
RTVSPropertyOp24
 70
     1
102
RTVSPropertyOp25
 70
     1
102
RTVSPropertyOp26
 70
     1
102
RTVSPropertyOp27
 70
     1
102
RTVSPropertyOp28
 70
     1
102
RTVSPropertyOp29
 70
     1
102
RTVSPropertyOp30
 70
     1
102
RTVSPropertyOp31
 70
     1
102
RTVSPropertyOp32
 70
     1
102
RTVSPropertyOp33
 70
     1
102
RTVSPropertyOp34
 70
     1
102
RTVSPropertyOp35
 70
     1
102
RTVSPropertyOp36
 70
     1
102
RTVSPropertyOp37
 70
     1
102
RTVSPropertyOp38
 70
     1
102
RTVSPropertyOp39
 70
     1
102
RTVSPropertyOp40
 70
     1
102
RTVSPropertyOp41
 70
     1
102
RTVSPropertyOp42
 70
     1
102
RTVSPropertyOp43
 70
     1
102
RTVSPropertyOp44
 70
     1
102
RTVSPropertyOp45
 70
     1
102
RTVSPropertyOp46
 70
     1
102
RTVSPropertyOp47
 70
     1
102
RTVSPropertyOp48
 70
     1
102
RTVSPropertyOp49
 70
     1
102
RTVSPropertyOp50
 70
     1
102
RTVSPropertyOp51
 70
     0
102
RTVSPropertyOp52
 70
     0
102
RTVSPropertyOp53
 70
     1
102
RTVSPropertyOp54
 70
     1
102
RTVSPropertyOp55
 70
     1
102
RTVSPropertyOp56
 70
     1
102
RTVSPropertyOp57
 70
     1
102
RTVSPropertyOp58
 70
     1
102
RTVSPropertyOp59
 70
     1
102
RTVSPropertyOp60
 70
     1
102
RTVSPropertyOp61
 70
     1
102
RTVSPropertyOp62
 70
     1
  0
XRECORD
  5
102E90
102
{ACAD_REACTORS
330
102E8F
102
}
330
102E8F
100
AcDbXrecord
280
     1
102
RTVSPost2010Prop28
280
     0
102
RTVSPost2010PropOp28
 70
     1
102
RTVSPost2010Prop29
280
     1
102
RTVSPost2010PropOp29
 70
     1
102
RTVSPost2010Prop30
280
     1
102
RTVSPost2010PropOp30
 70
     1
102
RTVSPost2010Prop31
280
     0
102
RTVSPost2010PropOp31
 70
     1
102
RTVSPost2010Prop32
280
     0
102
RTVSPost2010PropOp32
 70
     1
102
RTVSPost2010Prop33
280
     0
102
RTVSPost2010PropOp33
 70
     1
102
RTVSPost2010Prop34
280
     0
102
RTVSPost2010PropOp34
 70
     1
102
RTVSPost2010Prop35
280
     0
102
RTVSPost2010PropOp35
 70
     1
102
RTVSPost2010Prop36
280
     0
102
RTVSPost2010PropOp36
 70
     1
102
RTVSPost2010Prop37
 90
       50
102
RTVSPost2010PropOp37
 70
     1
102
RTVSPost2010Prop38
140
0.0
102
RTVSPost2010PropOp38
 70
     1
102
RTVSPost2010Prop39
140
1.0
102
RTVSPost2010PropOp39
 70
     1
102
RTVSPost2010Prop40
 90
        0
102
RTVSPost2010PropOp40
 70
     1
102
RTVSPost2010Prop41ColorIndex
 90
       18
102
RTVSPost2010Prop41ColorRGB
 90
        0
102
RTVSPost2010PropOp41
 70
     1
102
RTVSPost2010Prop42
 90
       50
102
RTVSPost2010PropOp42
 70
     1
102
RTVSPost2010Prop43
 90
        3
102
RTVSPost2010PropOp43
 70
     1
102
RTVSPost2010Prop44ColorIndex
 90
        5
102
RTVSPost2010Prop44ColorRGB
 90
      255
102
RTVSPost2010PropOp44
 70
     1
102
RTVSPost2010Prop45
280
     0
102
RTVSPost2010PropOp45
 70
     1
102
RTVSPost2010Prop46
 90
       50
102
RTVSPost2010PropOp46
 70
     1
102
RTVSPost2010Prop47
 90
       50
102
RTVSPost2010PropOp47
 70
     1
102
RTVSPost2010Prop48
 90
       50
102
RTVSPost2010PropOp48
 70
     1
102
RTVSPost2010Prop49
280
     0
102
RTVSPost2010PropOp49
 70
     1
102
RTVSPost2010Prop50
 90
       50
102
RTVSPost2010PropOp50
 70
     1
102
RTVSPost2010Prop51ColorIndex
 90
      256
102
RTVSPost2010Prop51ColorRGB
 90
-16777216
102
RTVSPost2010PropOp51
 70
     0
102
RTVSPost2010Prop52
140
1.0
102
RTVSPost2010PropOp52
 70
     0
102
RTVSPost2010Prop53
 90
        2
102
RTVSPost2010PropOp53
 70
     1
102
RTVSPost2010Prop54
  1
strokes_ogs.tif
102
RTVSPost2010PropOp54
 70
     1
102
RTVSPost2010Prop55
280
     0
102
RTVSPost2010PropOp55
 70
     1
102
RTVSPost2010Prop56
140
1.0
102
RTVSPost2010PropOp56
 70
     1
102
RTVSPost2010Prop57
140
1.0
102
RTVSPost2010PropOp57
 70
     1
102
RTVSPropertyOp0
 70
     1
102
RTVSPropertyOp1
 70
     1
102
RTVSPropertyOp2
 70
     1
102
RTVSPropertyOp3
 70
     1
102
RTVSPropertyOp4
 70
     1
102
RTVSPropertyOp5
 70
     1
102
RTVSPropertyOp6
 70
     1
102
RTVSPropertyOp7
 70
     1
102
RTVSPropertyOp8
 70
     1
102
RTVSPropertyOp9
 70
     1
102
RTVSPropertyOp10
 70
     1
102
RTVSPropertyOp11
 70
     1
102
RTVSPropertyOp12
 70
     1
102
RTVSPropertyOp13
 70
     1
102
RTVSPropertyOp14
 70
     1
102
RTVSPropertyOp15
 70
     1
102
RTVSPropertyOp16
 70
     1
102
RTVSPropertyOp17
 70
     1
102
RTVSPropertyOp18
 70
     1
102
RTVSPropertyOp19
 70
     1
102
RTVSPropertyOp20
 70
     1
102
RTVSPropertyOp21
 70
     1
102
RTVSPropertyOp22
 70
     1
102
RTVSPropertyOp23
 70
     1
102
RTVSPropertyOp24
 70
     1
102
RTVSPropertyOp25
 70
     1
102
RTVSPropertyOp26
 70
     1
102
RTVSPropertyOp27
 70
     1
102
RTVSPropertyOp28
 70
     1
102
RTVSPropertyOp29
 70
     1
102
RTVSPropertyOp30
 70
     1
102
RTVSPropertyOp31
 70
     1
102
RTVSPropertyOp32
 70
     1
102
RTVSPropertyOp33
 70
     1
102
RTVSPropertyOp34
 70
     1
102
RTVSPropertyOp35
 70
     1
102
RTVSPropertyOp36
 70
     1
102
RTVSPropertyOp37
 70
     1
102
RTVSPropertyOp38
 70
     1
102
RTVSPropertyOp39
 70
     1
102
RTVSPropertyOp40
 70
     1
102
RTVSPropertyOp41
 70
     1
102
RTVSPropertyOp42
 70
     1
102
RTVSPropertyOp43
 70
     1
102
RTVSPropertyOp44
 70
     1
102
RTVSPropertyOp45
 70
     1
102
RTVSPropertyOp46
 70
     1
102
RTVSPropertyOp47
 70
     1
102
RTVSPropertyOp48
 70
     1
102
RTVSPropertyOp49
 70
     1
102
RTVSPropertyOp50
 70
     1
102
RTVSPropertyOp51
 70
     0
102
RTVSPropertyOp52
 70
     0
102
RTVSPropertyOp53
 70
     1
102
RTVSPropertyOp54
 70
     1
102
RTVSPropertyOp55
 70
     1
102
RTVSPropertyOp56
 70
     1
102
RTVSPropertyOp57
 70
     1
102
RTVSPropertyOp58
 70
     1
102
RTVSPropertyOp59
 70
     1
102
RTVSPropertyOp60
 70
     1
102
RTVSPropertyOp61
 70
     1
102
RTVSPropertyOp62
 70
     1
  0
XRECORD
  5
102E92
102
{ACAD_REACTORS
330
102E91
102
}
330
102E91
100
AcDbXrecord
280
     1
102
RTVSPost2010Prop28
280
     0
102
RTVSPost2010PropOp28
 70
     1
102
RTVSPost2010Prop29
280
     1
102
RTVSPost2010PropOp29
 70
     1
102
RTVSPost2010Prop30
280
     1
102
RTVSPost2010PropOp30
 70
     1
102
RTVSPost2010Prop31
280
     0
102
RTVSPost2010PropOp31
 70
     1
102
RTVSPost2010Prop32
280
     0
102
RTVSPost2010PropOp32
 70
     1
102
RTVSPost2010Prop33
280
     0
102
RTVSPost2010PropOp33
 70
     1
102
RTVSPost2010Prop34
280
     0
102
RTVSPost2010PropOp34
 70
     1
102
RTVSPost2010Prop35
280
     0
102
RTVSPost2010PropOp35
 70
     1
102
RTVSPost2010Prop36
280
     0
102
RTVSPost2010PropOp36
 70
     1
102
RTVSPost2010Prop37
 90
       50
102
RTVSPost2010PropOp37
 70
     1
102
RTVSPost2010Prop38
140
0.0
102
RTVSPost2010PropOp38
 70
     1
102
RTVSPost2010Prop39
140
1.0
102
RTVSPost2010PropOp39
 70
     1
102
RTVSPost2010Prop40
 90
        0
102
RTVSPost2010PropOp40
 70
     1
102
RTVSPost2010Prop41ColorIndex
 90
       18
102
RTVSPost2010Prop41ColorRGB
 90
        0
102
RTVSPost2010PropOp41
 70
     1
102
RTVSPost2010Prop42
 90
       50
102
RTVSPost2010PropOp42
 70
     1
102
RTVSPost2010Prop43
 90
        3
102
RTVSPost2010PropOp43
 70
     1
102
RTVSPost2010Prop44ColorIndex
 90
        5
102
RTVSPost2010Prop44ColorRGB
 90
      255
102
RTVSPost2010PropOp44
 70
     1
102
RTVSPost2010Prop45
280
     0
102
RTVSPost2010PropOp45
 70
     1
102
RTVSPost2010Prop46
 90
       50
102
RTVSPost2010PropOp46
 70
     1
102
RTVSPost2010Prop47
 90
       50
102
RTVSPost2010PropOp47
 70
     1
102
RTVSPost2010Prop48
 90
       50
102
RTVSPost2010PropOp48
 70
     1
102
RTVSPost2010Prop49
280
     0
102
RTVSPost2010PropOp49
 70
     1
102
RTVSPost2010Prop50
 90
       50
102
RTVSPost2010PropOp50
 70
     1
102
RTVSPost2010Prop51ColorIndex
 90
      256
102
RTVSPost2010Prop51ColorRGB
 90
-16777216
102
RTVSPost2010PropOp51
 70
     0
102
RTVSPost2010Prop52
140
1.0
102
RTVSPost2010PropOp52
 70
     0
102
RTVSPost2010Prop53
 90
        2
102
RTVSPost2010PropOp53
 70
     1
102
RTVSPost2010Prop54
  1
strokes_ogs.tif
102
RTVSPost2010PropOp54
 70
     1
102
RTVSPost2010Prop55
280
     0
102
RTVSPost2010PropOp55
 70
     1
102
RTVSPost2010Prop56
140
1.0
102
RTVSPost2010PropOp56
 70
     1
102
RTVSPost2010Prop57
140
1.0
102
RTVSPost2010PropOp57
 70
     1
102
RTVSPropertyOp0
 70
     1
102
RTVSPropertyOp1
 70
     1
102
RTVSPropertyOp2
 70
     1
102
RTVSPropertyOp3
 70
     1
102
RTVSPropertyOp4
 70
     1
102
RTVSPropertyOp5
 70
     1
102
RTVSPropertyOp6
 70
     1
102
RTVSPropertyOp7
 70
     1
102
RTVSPropertyOp8
 70
     1
102
RTVSPropertyOp9
 70
     1
102
RTVSPropertyOp10
 70
     1
102
RTVSPropertyOp11
 70
     1
102
RTVSPropertyOp12
 70
     1
102
RTVSPropertyOp13
 70
     1
102
RTVSPropertyOp14
 70
     1
102
RTVSPropertyOp15
 70
     1
102
RTVSPropertyOp16
 70
     1
102
RTVSPropertyOp17
 70
     1
102
RTVSPropertyOp18
 70
     1
102
RTVSPropertyOp19
 70
     1
102
RTVSPropertyOp20
 70
     1
102
RTVSPropertyOp21
 70
     1
102
RTVSPropertyOp22
 70
     1
102
RTVSPropertyOp23
 70
     1
102
RTVSPropertyOp24
 70
     1
102
RTVSPropertyOp25
 70
     1
102
RTVSPropertyOp26
 70
     1
102
RTVSPropertyOp27
 70
     1
102
RTVSPropertyOp28
 70
     1
102
RTVSPropertyOp29
 70
     1
102
RTVSPropertyOp30
 70
     1
102
RTVSPropertyOp31
 70
     1
102
RTVSPropertyOp32
 70
     1
102
RTVSPropertyOp33
 70
     1
102
RTVSPropertyOp34
 70
     1
102
RTVSPropertyOp35
 70
     1
102
RTVSPropertyOp36
 70
     1
102
RTVSPropertyOp37
 70
     1
102
RTVSPropertyOp38
 70
     1
102
RTVSPropertyOp39
 70
     1
102
RTVSPropertyOp40
 70
     1
102
RTVSPropertyOp41
 70
     1
102
RTVSPropertyOp42
 70
     1
102
RTVSPropertyOp43
 70
     1
102
RTVSPropertyOp44
 70
     1
102
RTVSPropertyOp45
 70
     1
102
RTVSPropertyOp46
 70
     1
102
RTVSPropertyOp47
 70
     1
102
RTVSPropertyOp48
 70
     1
102
RTVSPropertyOp49
 70
     1
102
RTVSPropertyOp50
 70
     1
102
RTVSPropertyOp51
 70
     0
102
RTVSPropertyOp52
 70
     0
102
RTVSPropertyOp53
 70
     1
102
RTVSPropertyOp54
 70
     1
102
RTVSPropertyOp55
 70
     1
102
RTVSPropertyOp56
 70
     1
102
RTVSPropertyOp57
 70
     1
102
RTVSPropertyOp58
 70
     1
102
RTVSPropertyOp59
 70
     1
102
RTVSPropertyOp60
 70
     1
102
RTVSPropertyOp61
 70
     1
102
RTVSPropertyOp62
 70
     1
  0
XRECORD
  5
102E88
102
{ACAD_REACTORS
330
102E87
102
}
330
102E87
100
AcDbXrecord
280
     1
102
RTVSPost2010Prop28
280
     0
102
RTVSPost2010PropOp28
 70
     1
102
RTVSPost2010Prop29
280
     1
102
RTVSPost2010PropOp29
 70
     1
102
RTVSPost2010Prop30
280
     1
102
RTVSPost2010PropOp30
 70
     1
102
RTVSPost2010Prop31
280
     0
102
RTVSPost2010PropOp31
 70
     1
102
RTVSPost2010Prop32
280
     0
102
RTVSPost2010PropOp32
 70
     1
102
RTVSPost2010Prop33
280
     0
102
RTVSPost2010PropOp33
 70
     1
102
RTVSPost2010Prop34
280
     0
102
RTVSPost2010PropOp34
 70
     1
102
RTVSPost2010Prop35
280
     0
102
RTVSPost2010PropOp35
 70
     1
102
RTVSPost2010Prop36
280
     0
102
RTVSPost2010PropOp36
 70
     1
102
RTVSPost2010Prop37
 90
       50
102
RTVSPost2010PropOp37
 70
     1
102
RTVSPost2010Prop38
140
0.0
102
RTVSPost2010PropOp38
 70
     1
102
RTVSPost2010Prop39
140
1.0
102
RTVSPost2010PropOp39
 70
     1
102
RTVSPost2010Prop40
 90
        0
102
RTVSPost2010PropOp40
 70
     1
102
RTVSPost2010Prop41ColorIndex
 90
       18
102
RTVSPost2010Prop41ColorRGB
 90
        0
102
RTVSPost2010PropOp41
 70
     1
102
RTVSPost2010Prop42
 90
       50
102
RTVSPost2010PropOp42
 70
     1
102
RTVSPost2010Prop43
 90
        3
102
RTVSPost2010PropOp43
 70
     1
102
RTVSPost2010Prop44ColorIndex
 90
        5
102
RTVSPost2010Prop44ColorRGB
 90
      255
102
RTVSPost2010PropOp44
 70
     1
102
RTVSPost2010Prop45
280
     0
102
RTVSPost2010PropOp45
 70
     1
102
RTVSPost2010Prop46
 90
       50
102
RTVSPost2010PropOp46
 70
     1
102
RTVSPost2010Prop47
 90
       50
102
RTVSPost2010PropOp47
 70
     1
102
RTVSPost2010Prop48
 90
       50
102
RTVSPost2010PropOp48
 70
     1
102
RTVSPost2010Prop49
280
     0
102
RTVSPost2010PropOp49
 70
     1
102
RTVSPost2010Prop50
 90
       50
102
RTVSPost2010PropOp50
 70
     1
102
RTVSPost2010Prop51ColorIndex
 90
      256
102
RTVSPost2010Prop51ColorRGB
 90
-16777216
102
RTVSPost2010PropOp51
 70
     0
102
RTVSPost2010Prop52
140
1.0
102
RTVSPost2010PropOp52
 70
     0
102
RTVSPost2010Prop53
 90
        2
102
RTVSPost2010PropOp53
 70
     1
102
RTVSPost2010Prop54
  1
strokes_ogs.tif
102
RTVSPost2010PropOp54
 70
     1
102
RTVSPost2010Prop55
280
     0
102
RTVSPost2010PropOp55
 70
     1
102
RTVSPost2010Prop56
140
1.0
102
RTVSPost2010PropOp56
 70
     1
102
RTVSPost2010Prop57
140
1.0
102
RTVSPost2010PropOp57
 70
     1
102
RTVSPropertyOp0
 70
     1
102
RTVSPropertyOp1
 70
     1
102
RTVSPropertyOp2
 70
     1
102
RTVSPropertyOp3
 70
     1
102
RTVSPropertyOp4
 70
     1
102
RTVSPropertyOp5
 70
     1
102
RTVSPropertyOp6
 70
     1
102
RTVSPropertyOp7
 70
     1
102
RTVSPropertyOp8
 70
     1
102
RTVSPropertyOp9
 70
     1
102
RTVSPropertyOp10
 70
     1
102
RTVSPropertyOp11
 70
     1
102
RTVSPropertyOp12
 70
     1
102
RTVSPropertyOp13
 70
     1
102
RTVSPropertyOp14
 70
     1
102
RTVSPropertyOp15
 70
     1
102
RTVSPropertyOp16
 70
     1
102
RTVSPropertyOp17
 70
     1
102
RTVSPropertyOp18
 70
     1
102
RTVSPropertyOp19
 70
     1
102
RTVSPropertyOp20
 70
     1
102
RTVSPropertyOp21
 70
     1
102
RTVSPropertyOp22
 70
     1
102
RTVSPropertyOp23
 70
     1
102
RTVSPropertyOp24
 70
     1
102
RTVSPropertyOp25
 70
     1
102
RTVSPropertyOp26
 70
     1
102
RTVSPropertyOp27
 70
     1
102
RTVSPropertyOp28
 70
     1
102
RTVSPropertyOp29
 70
     1
102
RTVSPropertyOp30
 70
     1
102
RTVSPropertyOp31
 70
     1
102
RTVSPropertyOp32
 70
     1
102
RTVSPropertyOp33
 70
     1
102
RTVSPropertyOp34
 70
     1
102
RTVSPropertyOp35
 70
     1
102
RTVSPropertyOp36
 70
     1
102
RTVSPropertyOp37
 70
     1
102
RTVSPropertyOp38
 70
     1
102
RTVSPropertyOp39
 70
     1
102
RTVSPropertyOp40
 70
     1
102
RTVSPropertyOp41
 70
     1
102
RTVSPropertyOp42
 70
     1
102
RTVSPropertyOp43
 70
     1
102
RTVSPropertyOp44
 70
     1
102
RTVSPropertyOp45
 70
     1
102
RTVSPropertyOp46
 70
     1
102
RTVSPropertyOp47
 70
     1
102
RTVSPropertyOp48
 70
     1
102
RTVSPropertyOp49
 70
     1
102
RTVSPropertyOp50
 70
     1
102
RTVSPropertyOp51
 70
     0
102
RTVSPropertyOp52
 70
     0
102
RTVSPropertyOp53
 70
     1
102
RTVSPropertyOp54
 70
     1
102
RTVSPropertyOp55
 70
     1
102
RTVSPropertyOp56
 70
     1
102
RTVSPropertyOp57
 70
     1
102
RTVSPropertyOp58
 70
     1
102
RTVSPropertyOp59
 70
     1
102
RTVSPropertyOp60
 70
     1
102
RTVSPropertyOp61
 70
     1
102
RTVSPropertyOp62
 70
     1
  0
XRECORD
  5
102E7C
102
{ACAD_REACTORS
330
102E7B
102
}
330
102E7B
100
AcDbXrecord
280
     1
102
RTVSPost2010Prop28
280
     0
102
RTVSPost2010PropOp28
 70
     1
102
RTVSPost2010Prop29
280
     1
102
RTVSPost2010PropOp29
 70
     1
102
RTVSPost2010Prop30
280
     1
102
RTVSPost2010PropOp30
 70
     1
102
RTVSPost2010Prop31
280
     0
102
RTVSPost2010PropOp31
 70
     1
102
RTVSPost2010Prop32
280
     0
102
RTVSPost2010PropOp32
 70
     1
102
RTVSPost2010Prop33
280
     0
102
RTVSPost2010PropOp33
 70
     1
102
RTVSPost2010Prop34
280
     0
102
RTVSPost2010PropOp34
 70
     1
102
RTVSPost2010Prop35
280
     0
102
RTVSPost2010PropOp35
 70
     1
102
RTVSPost2010Prop36
280
     0
102
RTVSPost2010PropOp36
 70
     1
102
RTVSPost2010Prop37
 90
       50
102
RTVSPost2010PropOp37
 70
     1
102
RTVSPost2010Prop38
140
0.0
102
RTVSPost2010PropOp38
 70
     1
102
RTVSPost2010Prop39
140
1.0
102
RTVSPost2010PropOp39
 70
     1
102
RTVSPost2010Prop40
 90
        0
102
RTVSPost2010PropOp40
 70
     1
102
RTVSPost2010Prop41ColorIndex
 90
       18
102
RTVSPost2010Prop41ColorRGB
 90
        0
102
RTVSPost2010PropOp41
 70
     1
102
RTVSPost2010Prop42
 90
       50
102
RTVSPost2010PropOp42
 70
     1
102
RTVSPost2010Prop43
 90
        3
102
RTVSPost2010PropOp43
 70
     1
102
RTVSPost2010Prop44ColorIndex
 90
        5
102
RTVSPost2010Prop44ColorRGB
 90
      255
102
RTVSPost2010PropOp44
 70
     1
102
RTVSPost2010Prop45
280
     0
102
RTVSPost2010PropOp45
 70
     1
102
RTVSPost2010Prop46
 90
       50
102
RTVSPost2010PropOp46
 70
     1
102
RTVSPost2010Prop47
 90
       50
102
RTVSPost2010PropOp47
 70
     1
102
RTVSPost2010Prop48
 90
       50
102
RTVSPost2010PropOp48
 70
     1
102
RTVSPost2010Prop49
280
     0
102
RTVSPost2010PropOp49
 70
     1
102
RTVSPost2010Prop50
 90
       50
102
RTVSPost2010PropOp50
 70
     1
102
RTVSPost2010Prop51ColorIndex
 90
      256
102
RTVSPost2010Prop51ColorRGB
 90
-16777216
102
RTVSPost2010PropOp51
 70
     0
102
RTVSPost2010Prop52
140
1.0
102
RTVSPost2010PropOp52
 70
     0
102
RTVSPost2010Prop53
 90
        2
102
RTVSPost2010PropOp53
 70
     1
102
RTVSPost2010Prop54
  1
strokes_ogs.tif
102
RTVSPost2010PropOp54
 70
     1
102
RTVSPost2010Prop55
280
     0
102
RTVSPost2010PropOp55
 70
     1
102
RTVSPost2010Prop56
140
1.0
102
RTVSPost2010PropOp56
 70
     1
102
RTVSPost2010Prop57
140
1.0
102
RTVSPost2010PropOp57
 70
     1
102
RTVSPropertyOp0
 70
     1
102
RTVSPropertyOp1
 70
     1
102
RTVSPropertyOp2
 70
     1
102
RTVSPropertyOp3
 70
     1
102
RTVSPropertyOp4
 70
     1
102
RTVSPropertyOp5
 70
     1
102
RTVSPropertyOp6
 70
     1
102
RTVSPropertyOp7
 70
     1
102
RTVSPropertyOp8
 70
     1
102
RTVSPropertyOp9
 70
     1
102
RTVSPropertyOp10
 70
     1
102
RTVSPropertyOp11
 70
     1
102
RTVSPropertyOp12
 70
     1
102
RTVSPropertyOp13
 70
     1
102
RTVSPropertyOp14
 70
     1
102
RTVSPropertyOp15
 70
     1
102
RTVSPropertyOp16
 70
     1
102
RTVSPropertyOp17
 70
     1
102
RTVSPropertyOp18
 70
     1
102
RTVSPropertyOp19
 70
     1
102
RTVSPropertyOp20
 70
     1
102
RTVSPropertyOp21
 70
     1
102
RTVSPropertyOp22
 70
     1
102
RTVSPropertyOp23
 70
     1
102
RTVSPropertyOp24
 70
     1
102
RTVSPropertyOp25
 70
     1
102
RTVSPropertyOp26
 70
     1
102
RTVSPropertyOp27
 70
     1
102
RTVSPropertyOp28
 70
     1
102
RTVSPropertyOp29
 70
     1
102
RTVSPropertyOp30
 70
     1
102
RTVSPropertyOp31
 70
     1
102
RTVSPropertyOp32
 70
     1
102
RTVSPropertyOp33
 70
     1
102
RTVSPropertyOp34
 70
     1
102
RTVSPropertyOp35
 70
     1
102
RTVSPropertyOp36
 70
     1
102
RTVSPropertyOp37
 70
     1
102
RTVSPropertyOp38
 70
     1
102
RTVSPropertyOp39
 70
     1
102
RTVSPropertyOp40
 70
     1
102
RTVSPropertyOp41
 70
     1
102
RTVSPropertyOp42
 70
     1
102
RTVSPropertyOp43
 70
     1
102
RTVSPropertyOp44
 70
     1
102
RTVSPropertyOp45
 70
     1
102
RTVSPropertyOp46
 70
     1
102
RTVSPropertyOp47
 70
     1
102
RTVSPropertyOp48
 70
     1
102
RTVSPropertyOp49
 70
     1
102
RTVSPropertyOp50
 70
     1
102
RTVSPropertyOp51
 70
     0
102
RTVSPropertyOp52
 70
     0
102
RTVSPropertyOp53
 70
     1
102
RTVSPropertyOp54
 70
     1
102
RTVSPropertyOp55
 70
     1
102
RTVSPropertyOp56
 70
     1
102
RTVSPropertyOp57
 70
     1
102
RTVSPropertyOp58
 70
     1
102
RTVSPropertyOp59
 70
     1
102
RTVSPropertyOp60
 70
     1
102
RTVSPropertyOp61
 70
     1
102
RTVSPropertyOp62
 70
     1
  0
XRECORD
  5
102E94
102
{ACAD_REACTORS
330
102E93
102
}
330
102E93
100
AcDbXrecord
280
     1
102
RTVSPost2010Prop28
280
     0
102
RTVSPost2010PropOp28
 70
     1
102
RTVSPost2010Prop29
280
     1
102
RTVSPost2010PropOp29
 70
     1
102
RTVSPost2010Prop30
280
     1
102
RTVSPost2010PropOp30
 70
     1
102
RTVSPost2010Prop31
280
     0
102
RTVSPost2010PropOp31
 70
     1
102
RTVSPost2010Prop32
280
     0
102
RTVSPost2010PropOp32
 70
     1
102
RTVSPost2010Prop33
280
     0
102
RTVSPost2010PropOp33
 70
     1
102
RTVSPost2010Prop34
280
     0
102
RTVSPost2010PropOp34
 70
     1
102
RTVSPost2010Prop35
280
     0
102
RTVSPost2010PropOp35
 70
     1
102
RTVSPost2010Prop36
280
     0
102
RTVSPost2010PropOp36
 70
     1
102
RTVSPost2010Prop37
 90
       50
102
RTVSPost2010PropOp37
 70
     1
102
RTVSPost2010Prop38
140
0.0
102
RTVSPost2010PropOp38
 70
     1
102
RTVSPost2010Prop39
140
1.0
102
RTVSPost2010PropOp39
 70
     1
102
RTVSPost2010Prop40
 90
        0
102
RTVSPost2010PropOp40
 70
     1
102
RTVSPost2010Prop41ColorIndex
 90
       18
102
RTVSPost2010Prop41ColorRGB
 90
        0
102
RTVSPost2010PropOp41
 70
     1
102
RTVSPost2010Prop42
 90
       50
102
RTVSPost2010PropOp42
 70
     1
102
RTVSPost2010Prop43
 90
        3
102
RTVSPost2010PropOp43
 70
     1
102
RTVSPost2010Prop44ColorIndex
 90
        5
102
RTVSPost2010Prop44ColorRGB
 90
      255
102
RTVSPost2010PropOp44
 70
     1
102
RTVSPost2010Prop45
280
     0
102
RTVSPost2010PropOp45
 70
     1
102
RTVSPost2010Prop46
 90
       50
102
RTVSPost2010PropOp46
 70
     1
102
RTVSPost2010Prop47
 90
       50
102
RTVSPost2010PropOp47
 70
     1
102
RTVSPost2010Prop48
 90
       50
102
RTVSPost2010PropOp48
 70
     1
102
RTVSPost2010Prop49
280
     0
102
RTVSPost2010PropOp49
 70
     1
102
RTVSPost2010Prop50
 90
       50
102
RTVSPost2010PropOp50
 70
     1
102
RTVSPost2010Prop51ColorIndex
 90
      256
102
RTVSPost2010Prop51ColorRGB
 90
-16777216
102
RTVSPost2010PropOp51
 70
     0
102
RTVSPost2010Prop52
140
1.0
102
RTVSPost2010PropOp52
 70
     0
102
RTVSPost2010Prop53
 90
        2
102
RTVSPost2010PropOp53
 70
     1
102
RTVSPost2010Prop54
  1
strokes_ogs.tif
102
RTVSPost2010PropOp54
 70
     1
102
RTVSPost2010Prop55
280
     0
102
RTVSPost2010PropOp55
 70
     1
102
RTVSPost2010Prop56
140
1.0
102
RTVSPost2010PropOp56
 70
     1
102
RTVSPost2010Prop57
140
1.0
102
RTVSPost2010PropOp57
 70
     1
102
RTVSPropertyOp0
 70
     1
102
RTVSPropertyOp1
 70
     1
102
RTVSPropertyOp2
 70
     1
102
RTVSPropertyOp3
 70
     1
102
RTVSPropertyOp4
 70
     1
102
RTVSPropertyOp5
 70
     1
102
RTVSPropertyOp6
 70
     1
102
RTVSPropertyOp7
 70
     1
102
RTVSPropertyOp8
 70
     1
102
RTVSPropertyOp9
 70
     1
102
RTVSPropertyOp10
 70
     1
102
RTVSPropertyOp11
 70
     1
102
RTVSPropertyOp12
 70
     1
102
RTVSPropertyOp13
 70
     1
102
RTVSPropertyOp14
 70
     1
102
RTVSPropertyOp15
 70
     1
102
RTVSPropertyOp16
 70
     1
102
RTVSPropertyOp17
 70
     1
102
RTVSPropertyOp18
 70
     1
102
RTVSPropertyOp19
 70
     1
102
RTVSPropertyOp20
 70
     1
102
RTVSPropertyOp21
 70
     1
102
RTVSPropertyOp22
 70
     1
102
RTVSPropertyOp23
 70
     1
102
RTVSPropertyOp24
 70
     1
102
RTVSPropertyOp25
 70
     1
102
RTVSPropertyOp26
 70
     1
102
RTVSPropertyOp27
 70
     1
102
RTVSPropertyOp28
 70
     1
102
RTVSPropertyOp29
 70
     1
102
RTVSPropertyOp30
 70
     1
102
RTVSPropertyOp31
 70
     1
102
RTVSPropertyOp32
 70
     1
102
RTVSPropertyOp33
 70
     1
102
RTVSPropertyOp34
 70
     1
102
RTVSPropertyOp35
 70
     1
102
RTVSPropertyOp36
 70
     1
102
RTVSPropertyOp37
 70
     1
102
RTVSPropertyOp38
 70
     1
102
RTVSPropertyOp39
 70
     1
102
RTVSPropertyOp40
 70
     1
102
RTVSPropertyOp41
 70
     1
102
RTVSPropertyOp42
 70
     1
102
RTVSPropertyOp43
 70
     1
102
RTVSPropertyOp44
 70
     1
102
RTVSPropertyOp45
 70
     1
102
RTVSPropertyOp46
 70
     1
102
RTVSPropertyOp47
 70
     1
102
RTVSPropertyOp48
 70
     1
102
RTVSPropertyOp49
 70
     1
102
RTVSPropertyOp50
 70
     1
102
RTVSPropertyOp51
 70
     0
102
RTVSPropertyOp52
 70
     0
102
RTVSPropertyOp53
 70
     1
102
RTVSPropertyOp54
 70
     1
102
RTVSPropertyOp55
 70
     1
102
RTVSPropertyOp56
 70
     1
102
RTVSPropertyOp57
 70
     1
102
RTVSPropertyOp58
 70
     1
102
RTVSPropertyOp59
 70
     1
102
RTVSPropertyOp60
 70
     1
102
RTVSPropertyOp61
 70
     1
102
RTVSPropertyOp62
 70
     1
  0
ENDSEC
  0
EOF
