  0
SECTION
  2
HEADER
  9
$ACADVER
  1
AC1018
  9
$ACADMAINTVER
 70
   104
  9
$DWGCODEPAGE
  3
ANSI_932
  9
$LASTSAVEDBY
  1
開発
  9
$INSBASE
 10
0.0
 20
0.0
 30
0.0
  9
$EXTMIN
 10
337.2654402771026
 20
167.8128140057273
 30
-0.0000000349181948
  9
$EXTMAX
 10
489.5832013800742
 20
375.0039607163598
 30
0.0000000814935747
  9
$LIMMIN
 10
0.0
 20
0.0
  9
$LIMMAX
 10
420.0
 20
297.0
  9
$ORTHOMODE
 70
     0
  9
$REGENMODE
 70
     1
  9
$FILLMODE
 70
     1
  9
$QTEXTMODE
 70
     0
  9
$MIRRTEXT
 70
     0
  9
$LTSCALE
 40
0.25
  9
$ATTMODE
 70
     1
  9
$TEXTSIZE
 40
2.5
  9
$TRACEWID
 40
1.0
  9
$TEXTSTYLE
  7
2014++
  9
$CLAYER
  8
04_ele1_0.15
  9
$CELTYPE
  6
ByLayer
  9
$CECOLOR
 62
   256
  9
$CELTSCALE
 40
1.0
  9
$DISPSILH
 70
     0
  9
$DIMSCALE
 40
0.0
  9
$DIMASZ
 40
2.0
  9
$DIMEXO
 40
2.0
  9
$DIMDLI
 40
3.75
  9
$DIMRND
 40
0.0
  9
$DIMDLE
 40
0.0
  9
$DIMEXE
 40
1.0
  9
$DIMTP
 40
0.0
  9
$DIMTM
 40
0.0
  9
$DIMTXT
 40
2.0
  9
$DIMCEN
 40
2.5
  9
$DIMTSZ
 40
0.0
  9
$DIMTOL
 70
     0
  9
$DIMLIM
 70
     0
  9
$DIMTIH
 70
     0
  9
$DIMTOH
 70
     0
  9
$DIMSE1
 70
     0
  9
$DIMSE2
 70
     0
  9
$DIMTAD
 70
     3
  9
$DIMZIN
 70
     8
  9
$DIMBLK
  1

  9
$DIMASO
 70
     1
  9
$DIMSHO
 70
     1
  9
$DIMPOST
  1

  9
$DIMAPOST
  1

  9
$DIMALT
 70
     0
  9
$DIMALTD
 70
     3
  9
$DIMALTF
 40
0.03937007874016
  9
$DIMLFAC
 40
1.0
  9
$DIMTOFL
 70
     1
  9
$DIMTVP
 40
0.0
  9
$DIMTIX
 70
     0
  9
$DIMSOXD
 70
     1
  9
$DIMSAH
 70
     0
  9
$DIMBLK1
  1

  9
$DIMBLK2
  1

  9
$DIMSTYLE
  2
2014+
  9
$DIMCLRD
 70
   256
  9
$DIMCLRE
 70
   256
  9
$DIMCLRT
 70
   256
  9
$DIMTFAC
 40
1.0
  9
$DIMGAP
 40
0.75
  9
$DIMJUST
 70
     0
  9
$DIMSD1
 70
     0
  9
$DIMSD2
 70
     0
  9
$DIMTOLJ
 70
     0
  9
$DIMTZIN
 70
     8
  9
$DIMALTZ
 70
     0
  9
$DIMALTTZ
 70
     0
  9
$DIMUPT
 70
     0
  9
$DIMDEC
 70
     2
  9
$DIMTDEC
 70
     2
  9
$DIMALTU
 70
     2
  9
$DIMALTTD
 70
     3
  9
$DIMTXSTY
  7
2014++
  9
$DIMAUNIT
 70
     0
  9
$DIMADEC
 70
     0
  9
$DIMALTRND
 40
0.0
  9
$DIMAZIN
 70
     0
  9
$DIMDSEP
 70
    46
  9
$DIMATFIT
 70
     3
  9
$DIMFRAC
 70
     0
  9
$DIMLDRBLK
  1

  9
$DIMLUNIT
 70
     2
  9
$DIMLWD
 70
    -1
  9
$DIMLWE
 70
    -1
  9
$DIMTMOVE
 70
     0
  9
$LUNITS
 70
     2
  9
$LUPREC
 70
     2
  9
$SKETCHINC
 40
1.0
  9
$FILLETRAD
 40
2.5
  9
$AUNITS
 70
     0
  9
$AUPREC
 70
     0
  9
$MENU
  1
.
  9
$ELEVATION
 40
0.0
  9
$PELEVATION
 40
0.0
  9
$THICKNESS
 40
0.0
  9
$LIMCHECK
 70
     0
  9
$CHAMFERA
 40
2.5
  9
$CHAMFERB
 40
2.5
  9
$CHAMFERC
 40
20.0
  9
$CHAMFERD
 40
0.0
  9
$SKPOLY
 70
     0
  9
$TDCREATE
 40
2457116.762643761
  9
$TDUCREATE
 40
2457116.387643762
  9
$TDUPDATE
 40
2458410.557385544
  9
$TDUUPDATE
 40
2458410.182385544
  9
$TDINDWG
 40
0.0804413079
  9
$TDUSRTIMER
 40
0.0804412963
  9
$USRTIMER
 70
     1
  9
$ANGBASE
 50
0.0
  9
$ANGDIR
 70
     0
  9
$PDMODE
 70
     0
  9
$PDSIZE
 40
0.0
  9
$PLINEWID
 40
0.0
  9
$SPLFRAME
 70
     0
  9
$SPLINETYPE
 70
     6
  9
$SPLINESEGS
 70
     8
  9
$HANDSEED
  5
1008D3
  9
$SURFTAB1
 70
     6
  9
$SURFTAB2
 70
     6
  9
$SURFTYPE
 70
     6
  9
$SURFU
 70
     6
  9
$SURFV
 70
     6
  9
$UCSBASE
  2

  9
$UCSNAME
  2

  9
$UCSORG
 10
0.0
 20
0.0
 30
0.0
  9
$UCSXDIR
 10
1.0
 20
0.0
 30
0.0
  9
$UCSYDIR
 10
0.0
 20
1.0
 30
0.0
  9
$UCSORTHOREF
  2

  9
$UCSORTHOVIEW
 70
     0
  9
$UCSORGTOP
 10
0.0
 20
0.0
 30
0.0
  9
$UCSORGBOTTOM
 10
0.0
 20
0.0
 30
0.0
  9
$UCSORGLEFT
 10
0.0
 20
0.0
 30
0.0
  9
$UCSORGRIGHT
 10
0.0
 20
0.0
 30
0.0
  9
$UCSORGFRONT
 10
0.0
 20
0.0
 30
0.0
  9
$UCSORGBACK
 10
0.0
 20
0.0
 30
0.0
  9
$PUCSBASE
  2

  9
$PUCSNAME
  2

  9
$PUCSORG
 10
0.0
 20
0.0
 30
0.0
  9
$PUCSXDIR
 10
1.0
 20
0.0
 30
0.0
  9
$PUCSYDIR
 10
0.0
 20
1.0
 30
0.0
  9
$PUCSORTHOREF
  2

  9
$PUCSORTHOVIEW
 70
     0
  9
$PUCSORGTOP
 10
0.0
 20
0.0
 30
0.0
  9
$PUCSORGBOTTOM
 10
0.0
 20
0.0
 30
0.0
  9
$PUCSORGLEFT
 10
0.0
 20
0.0
 30
0.0
  9
$PUCSORGRIGHT
 10
0.0
 20
0.0
 30
0.0
  9
$PUCSORGFRONT
 10
0.0
 20
0.0
 30
0.0
  9
$PUCSORGBACK
 10
0.0
 20
0.0
 30
0.0
  9
$USERI1
 70
     0
  9
$USERI2
 70
     0
  9
$USERI3
 70
     0
  9
$USERI4
 70
     0
  9
$USERI5
 70
     0
  9
$USERR1
 40
0.0
  9
$USERR2
 40
0.0
  9
$USERR3
 40
0.0
  9
$USERR4
 40
0.0
  9
$USERR5
 40
0.0
  9
$WORLDVIEW
 70
     1
  9
$SHADEDGE
 70
     3
  9
$SHADEDIF
 70
    70
  9
$TILEMODE
 70
     1
  9
$MAXACTVP
 70
    64
  9
$PINSBASE
 10
0.0
 20
0.0
 30
0.0
  9
$PLIMCHECK
 70
     0
  9
$PEXTMIN
 10
1.000000000000000E+20
 20
1.000000000000000E+20
 30
1.000000000000000E+20
  9
$PEXTMAX
 10
-1.000000000000000E+20
 20
-1.000000000000000E+20
 30
-1.000000000000000E+20
  9
$PLIMMIN
 10
-5.873748779296875
 20
-5.873749732971191
  9
$PLIMMAX
 10
291.05224609375
 20
204.0995779037475
  9
$UNITMODE
 70
     0
  9
$VISRETAIN
 70
     1
  9
$PLINEGEN
 70
     0
  9
$PSLTSCALE
 70
     1
  9
$TREEDEPTH
 70
  3020
  9
$CMLSTYLE
  2
Standard
  9
$CMLJUST
 70
     0
  9
$CMLSCALE
 40
20.0
  9
$PROXYGRAPHICS
 70
     1
  9
$MEASUREMENT
 70
     1
  9
$CELWEIGHT
370
    -1
  9
$ENDCAPS
280
     0
  9
$JOINSTYLE
280
     0
  9
$LWDISPLAY
290
     0
  9
$INSUNITS
 70
     4
  9
$HYPERLINKBASE
  1

  9
$STYLESHEET
  1
MONOCHROME.CTB
  9
$XEDIT
290
     1
  9
$CEPSNTYPE
380
     0
  9
$PSTYLEMODE
290
     1
  9
$FINGERPRINTGUID
  2
{50BE1C40-7876-4AFD-8770-B7778E71A178}
  9
$VERSIONGUID
  2
{126BCECA-34EF-4CBA-9B87-7C4C62FFF291}
  9
$EXTNAMES
290
     1
  9
$PSVPSCALE
 40
0.0
  9
$OLESTARTUP
290
     0
  9
$SORTENTS
280
    96
  9
$INDEXCTL
280
     0
  9
$HIDETEXT
280
     0
  9
$XCLIPFRAME
290
     0
  9
$HALOGAP
280
     0
  9
$OBSCOLOR
 70
   257
  9
$OBSLTYPE
280
     0
  9
$INTERSECTIONDISPLAY
280
     0
  9
$INTERSECTIONCOLOR
 70
   257
  9
$DIMASSOC
280
     1
  9
$PROJECTNAME
  1

  0
ENDSEC
  0
SECTION
  2
CLASSES
  0
CLASS
  1
ACDBDICTIONARYWDFLT
  2
AcDbDictionaryWithDefault
  3
ObjectDBX Classes
 90
        0
 91
        1
280
     0
281
     0
  0
CLASS
  1
DICTIONARYVAR
  2
AcDbDictionaryVar
  3
ObjectDBX Classes
 90
        0
 91
       15
280
     0
281
     0
  0
CLASS
  1
ACME_DOCUMENT
  2
AcMeDbDoc
  3
AcMeServices
 90
     1024
 91
        1
280
     0
281
     0
  0
CLASS
  1
ACMESCOPE
  2
AcMeScope
  3
AcMeServices
 90
     1024
 91
        1
280
     0
281
     0
  0
CLASS
  1
ACMECOMMANDHISTORY
  2
AcMeCommandHistory
  3
AcMeServices
 90
     1024
 91
        1
280
     0
281
     0
  0
CLASS
  1
ACIMSYSVARMAN
  2
AcImSysVarManager
  3
AcMeServices
 90
     1024
 91
        3
280
     0
281
     0
  0
CLASS
  1
ACIMINTSYSVAR
  2
AcImIntSysVar
  3
AcMeServices
 90
     1024
 91
        2
280
     0
281
     0
  0
CLASS
  1
ACMEDRAWINGMAN
  2
AcMeDrawingMan
  3
AcMeServices
 90
     1024
 91
        0
280
     0
281
     0
  0
CLASS
  1
ACMEVIEW
  2
AcMeView
  3
AcMeServices
 90
     1024
 91
        0
280
     0
281
     0
  0
CLASS
  1
ACDBENTITYCACHE
  2
AcMeEntityCache
  3
AcMeServices
 90
     1024
 91
        1
280
     0
281
     0
  0
CLASS
  1
GSMANAGER
  2
AcMeGSManager
  3
AcMeServices
 90
        0
 91
        0
280
     0
281
     0
  0
CLASS
  1
AMDTINTERNALREACTOR
  2
AmdtInternalReactor
  3
AcMeServices
 90
     1024
 91
        0
280
     0
281
     0
  0
CLASS
  1
ACMESTATEMGR
  2
AcMeStateMgr
  3
AcMeServices
 90
     1024
 91
        1
280
     0
281
     0
  0
CLASS
  1
ACGREFMASTER
  2
AcGrefMaster
  3
AcAttribServices
 90
     1024
 91
        1
280
     0
281
     0
  0
CLASS
  1
AM_DRAWING_MGR
  2
AcDmDwgMgr
  3
AcMechDwgViewMgmt
 90
     1024
 91
        0
280
     0
281
     0
  0
CLASS
  1
AM_DWG_DOCUMENT
  2
AcDmDwgDocument
  3
AcMechDwgViewMgmt
 90
     1024
 91
        0
280
     0
281
     0
  0
CLASS
  1
AM_DWG_SHEET
  2
AcDmSheet
  3
AcMechDwgViewMgmt
 90
     1024
 91
        0
280
     0
281
     0
  0
CLASS
  1
AM_VIEWDIMPARMAP
  2
AcDmViewDimParMap
  3
AcMechDwgViewMgmt
 90
     1024
 91
        0
280
     0
281
     0
  0
CLASS
  1
ACIMREALSYSVAR
  2
AcImRealSysVar
  3
AcMeServices
 90
     1024
 91
        0
280
     0
281
     0
  0
CLASS
  1
AM_DWGMGR_NAME
  2
AcDmDwgMgrName
  3
AcMechDwgViewMgmt
 90
     1024
 91
        0
280
     0
281
     0
  0
CLASS
  1
ACME_DATABASE
  2
AcMeDbDatabase
  3
AcMeServices
 90
     1024
 91
        1
280
     0
281
     0
  0
CLASS
  1
ACRFINSADJUSTERMGR
  2
AcRfInsAdjusterMgr
  3
AcMeServices
 90
     1024
 91
        1
280
     0
281
     0
  0
CLASS
  1
ACGREFACADMASTER
  2
AcGrefacadMaster
  3
AcGrefServices
 90
     1024
 91
        1
280
     0
281
     0
  0
CLASS
  1
AMDTMENUSTATEMGR
  2
AmdtMenuStateMgr
  3
McadcomServices
 90
     1024
 91
        1
280
     0
281
     0
  0
CLASS
  1
AMDTMCOMMENUSTATE
  2
AmdtMcomMenuState
  3
McadcomServices
 90
     1024
 91
        1
280
     0
281
     0
  0
CLASS
  1
AMIMASTER
  2
AmiMaster
  3
AmiServices
 90
     1024
 91
        1
280
     0
281
     0
  0
CLASS
  1
AMGSETTINGSOBJ
  2
AmgSettingsObj
  3
"AcadM|Product Description: AutoCAD Mechanical|Company: Autodesk, Inc."
 90
     1024
 91
        2
280
     0
281
     0
  0
CLASS
  1
MAPIAMMOUDLE
  2
MApiAmModule
  3
MApiAmServices
 90
     1024
 91
        1
280
     0
281
     0
  0
CLASS
  1
AMDTADMENUSTATE
  2
AmdtAdMenuState
  3
DesignerServices
 90
        0
 91
        0
280
     0
281
     0
  0
CLASS
  1
ADAPPL
  2
AcAdAppl
  3
DesignerAssemblies
 90
     1024
 91
        0
280
     0
281
     0
  0
CLASS
  1
DEPMGR
  2
AcAdDepMgr
  3
DesignerAssemblies
 90
     1024
 91
        0
280
     0
281
     0
  0
CLASS
  1
PARAMMGR
  2
AcAdParamMgr
  3
DesignerAssemblies
 90
     1024
 91
        0
280
     0
281
     0
  0
CLASS
  1
PARAMSCOPE
  2
AcAdParamScope
  3
DesignerAssemblies
 90
     1024
 91
        0
280
     0
281
     0
  0
CLASS
  1
NAMEDAPPL
  2
AcAdNamedAppl
  3
DesignerAssemblies
 90
     1024
 91
        0
280
     0
281
     0
  0
CLASS
  1
AMDTDMMENUSTATE
  2
AmdtDmMenuState
  3
AcMechDwgViewMgmt
 90
        0
 91
        0
280
     0
281
     0
  0
CLASS
  1
AMDTAMMENUSTATE
  2
AmdtAmMenuState
  3
DesignerAssemblies
 90
     1024
 91
        1
280
     0
281
     0
  0
CLASS
  1
ACIMSTRSYSVAR
  2
AcImStrSysVar
  3
AcMeServices
 90
     1024
 91
        5
280
     0
281
     0
  0
CLASS
  1
ACAMPROJECT
  2
AcAmProject
  3
DesignerAssemblies
 90
     1024
 91
        1
280
     0
281
     0
  0
CLASS
  1
ACAMGRCOMPDEF
  2
AcAmGrCompDef
  3
DesignerAssemblies
 90
     1024
 91
        1
280
     0
281
     0
  0
CLASS
  1
ACCMCONTEXT
  2
AcCmContext
  3
DesignerAssemblies
 90
     1024
 91
        0
280
     0
281
     0
  0
CLASS
  1
ACAMCOMPDEF
  2
AcAmCompDef
  3
DesignerAssemblies
 90
     1024
 91
        1
280
     0
281
     0
  0
CLASS
  1
ACAMCOMPDEFMGR
  2
AcAmCompDefMgr
  3
DesignerAssemblies
 90
     1024
 91
        1
280
     0
281
     0
  0
CLASS
  1
AMCONTEXTMGR
  2
AcAmContextMgr
  3
DesignerAssemblies
 90
     1024
 91
        1
280
     0
281
     0
  0
CLASS
  1
ACAMCONTEXTMODELER
  2
AcAmContextModeler
  3
DesignerAssemblies
 90
     1024
 91
        1
280
     0
281
     0
  0
CLASS
  1
ACMDATADICTIONARY
  2
AcmDataDictionary
  3
"AcmSymBB|Product Description: AutoCAD Mechanical|Company: Autodesk, Inc."
 90
     1024
 91
        1
280
     0
281
     0
  0
CLASS
  1
CATALOGSTATE
  2
AcAmCatalogState
  3
DesignerAssemblies
 90
     1024
 91
        0
280
     0
281
     0
  0
CLASS
  1
ACAMGRCOMPDEFSET
  2
AcAmGrCompDefSet
  3
DesignerAssemblies
 90
     1024
 91
        1
280
     0
281
     0
  0
CLASS
  1
AMDTBROWSERDBTAB
  2
AmdtBrowserDbTab
  3
McadcomServices
 90
     1024
 91
        1
280
     0
281
     0
  0
CLASS
  1
CBROWSERAPPOBJECT
  2
CBrowserAppObject
  3
McadcomServices
 90
     1024
 91
        2
280
     0
281
     0
  0
CLASS
  1
DM_PLACEHOLDER
  2
AcDmSelsetPlaceholder
  3
McadcomServices
 90
     1024
 91
        1
280
     0
281
     0
  0
CLASS
  1
ACMSTANDARDISO
  2
AcmStandardISO
  3
"Amdt_StdImp|Product Description: AutoCAD Mechanical|Company: Autodesk, Inc."
 90
     1024
 91
        1
280
     0
281
     0
  0
CLASS
  1
AMGOBJPROPCFG
  2
AmgObjPropCfg
  3
"AmgLay|Product Description: AutoCAD Mechanical|Company: Autodesk, Inc."
 90
     1024
 91
        1
280
     0
281
     0
  0
CLASS
  1
AMDTEDGESTANDARDISO
  2
AmdtEdgeStdISO
  3
"Amdt_StdImp|Product Description: AutoCAD Mechanical|Company: Autodesk, Inc."
 90
     1024
 91
        0
280
     0
281
     0
  0
CLASS
  1
ACMSURFSTANDARDISO
  2
AcmSurfTextStdISO
  3
"Amdt_StdImp|Product Description: AutoCAD Mechanical|Company: Autodesk, Inc."
 90
     1024
 91
        0
280
     0
281
     0
  0
CLASS
  1
ACMFCFSTANDARDISO
  2
AcmFCFStdISO
  3
"Amdt_StdImp|Product Description: AutoCAD Mechanical|Company: Autodesk, Inc."
 90
     1024
 91
        0
280
     0
281
     0
  0
CLASS
  1
ACMWELDSTANDARDISO
  2
AcmWeldingStdISO
  3
"Amdt_StdImp|Product Description: AutoCAD Mechanical|Company: Autodesk, Inc."
 90
     1024
 91
        1
280
     0
281
     0
  0
CLASS
  1
ACMIDSTANDARDISO
  2
AcmIdStdISO
  3
"Amdt_StdImp|Product Description: AutoCAD Mechanical|Company: Autodesk, Inc."
 90
     1024
 91
        0
280
     0
281
     0
  0
CLASS
  1
ACMDATUMSTANDARDISO
  2
AcmDatumStdISO
  3
"Amdt_StdImp|Product Description: AutoCAD Mechanical|Company: Autodesk, Inc."
 90
     1024
 91
        0
280
     0
281
     0
  0
CLASS
  1
ACMBOMSTANDARDISO
  2
AcmBOMStdISO
  3
"Amdt_StdImp|Product Description: AutoCAD Mechanical|Company: Autodesk, Inc."
 90
     1024
 91
        1
280
     0
281
     0
  0
CLASS
  1
ACMDETAILSTANDARDISO
  2
AmdtDetailSymStdISO
  3
"Amdt_StdImp|Product Description: AutoCAD Mechanical|Company: Autodesk, Inc."
 90
     1024
 91
        1
280
     0
281
     0
  0
CLASS
  1
ACMSECTIONSTANDARDISO
  2
AmdtSectionSymStdISO
  3
"Amdt_StdImp|Product Description: AutoCAD Mechanical|Company: Autodesk, Inc."
 90
     1024
 91
        0
280
     0
281
     0
  0
CLASS
  1
ACMCENTERLINESTANDARDISO
  2
AmdtCenterLineStdISO
  3
"Amdt_StdImp|Product Description: AutoCAD Mechanical|Company: Autodesk, Inc."
 90
     1024
 91
        1
280
     0
281
     0
  0
CLASS
  1
ACMTHREADLINESTANDARDISO
  2
AmdtThreadLineStdISO
  3
"Amdt_StdImp|Product Description: AutoCAD Mechanical|Company: Autodesk, Inc."
 90
     1024
 91
        1
280
     0
281
     0
  0
CLASS
  1
ACMNOTESTANDARDISO
  2
AmdtNoteStdISO
  3
"Amdt_StdImp|Product Description: AutoCAD Mechanical|Company: Autodesk, Inc."
 90
     1024
 91
        1
280
     0
281
     0
  0
CLASS
  1
AMDTNOTETEMPLATEDB
  2
AmdtNoteTemplateDB
  3
AcmSymBB|Product Description: AutoCAD Mechanical|Company: Autodesk, Inc.
 90
     1024
 91
        7
280
     0
281
     0
  0
CLASS
  1
ACAMGLAYSTD
  2
AcAmgLayStd
  3
"AmgLay|Product Description: AutoCAD Mechanical|Company: Autodesk, Inc."
 90
     1024
 91
        1
280
     0
281
     0
  0
CLASS
  1
ACAMGDIMSTD
  2
AcAmgDimStd
  3
"AmgDim|Product Description: AutoCAD Mechanical|Company: Autodesk, Inc."
 90
     1024
 91
        1
280
     0
281
     0
  0
CLASS
  1
ACAMGHOLECHARTSTDISO
  2
AcAmgHoleChartStdISO
  3
AmgDim|Product Description: AutoCAD Mechanical|Company: Autodesk, Inc.
 90
     1024
 91
        1
280
     0
281
     0
  0
CLASS
  1
ACAMGTITLESTD
  2
AcAmgTitleStd
  3
"AmgTitle|Product Description: AutoCAD Mechanical|Company: Autodesk, Inc."
 90
     1024
 91
        1
280
     0
281
     0
  0
CLASS
  1
LAYER_INDEX
  2
AcDbLayerIndex
  3
ObjectDBX Classes
 90
        0
 91
        0
280
     0
281
     0
  0
CLASS
  1
IDBUFFER
  2
AcDbIdBuffer
  3
ObjectDBX Classes
 90
        0
 91
        0
280
     0
281
     0
  0
CLASS
  1
ACMSTANDARDANSI
  2
AcmStandardANSI
  3
"Amdt_StdImp|Product Description: AutoCAD Mechanical|Company: Autodesk, Inc."
 90
     1024
 91
        0
280
     0
281
     0
  0
CLASS
  1
ACMSURFSTANDARDANSI
  2
AcmSurfTextStdANSI
  3
"Amdt_StdImp|Product Description: AutoCAD Mechanical|Company: Autodesk, Inc."
 90
     1024
 91
        0
280
     0
281
     0
  0
CLASS
  1
ACMFCFSTANDARDANSI
  2
AcmFCFStdANSI
  3
"Amdt_StdImp|Product Description: AutoCAD Mechanical|Company: Autodesk, Inc."
 90
     1024
 91
        0
280
     0
281
     0
  0
CLASS
  1
ACMWELDSTANDARDANSI
  2
AcmWeldingStdANSI
  3
"Amdt_StdImp|Product Description: AutoCAD Mechanical|Company: Autodesk, Inc."
 90
     1024
 91
        0
280
     0
281
     0
  0
CLASS
  1
ACMIDSTANDARDANSI
  2
AcmIdStdANSI
  3
"Amdt_StdImp|Product Description: AutoCAD Mechanical|Company: Autodesk, Inc."
 90
     1024
 91
        0
280
     0
281
     0
  0
CLASS
  1
ACMDATUMSTANDARDANSI
  2
AcmDatumStdANSI
  3
"Amdt_StdImp|Product Description: AutoCAD Mechanical|Company: Autodesk, Inc."
 90
     1024
 91
        0
280
     0
281
     0
  0
CLASS
  1
ACMBOMSTANDARDANSI
  2
AcmBOMStdANSI
  3
"Amdt_StdImp|Product Description: AutoCAD Mechanical|Company: Autodesk, Inc."
 90
     1024
 91
        0
280
     0
281
     0
  0
CLASS
  1
ACMDETAILSTANDARDANSI
  2
AmdtDetailSymStdANSI
  3
"Amdt_StdImp|Product Description: AutoCAD Mechanical|Company: Autodesk, Inc."
 90
     1024
 91
        0
280
     0
281
     0
  0
CLASS
  1
ACMSECTIONSTANDARDANSI
  2
AmdtSectionSymStdANSI
  3
"Amdt_StdImp|Product Description: AutoCAD Mechanical|Company: Autodesk, Inc."
 90
     1024
 91
        0
280
     0
281
     0
  0
CLASS
  1
ACMCENTERLINESTANDARDANSI
  2
AmdtCenterLineStdANSI
  3
"Amdt_StdImp|Product Description: AutoCAD Mechanical|Company: Autodesk, Inc."
 90
     1024
 91
        0
280
     0
281
     0
  0
CLASS
  1
ACMTHREADLINESTANDARDANSI
  2
AmdtThreadLineStdANSI
  3
"Amdt_StdImp|Product Description: AutoCAD Mechanical|Company: Autodesk, Inc."
 90
     1024
 91
        0
280
     0
281
     0
  0
CLASS
  1
ACMNOTESTANDARDANSI
  2
AmdtNoteStdANSI
  3
"Amdt_StdImp|Product Description: AutoCAD Mechanical|Company: Autodesk, Inc."
 90
     1024
 91
        0
280
     0
281
     0
  0
CLASS
  1
ACAMGHOLECHARTSTDANSI
  2
AcAmgHoleChartStdANSI
  3
AmgDim|Product Description: AutoCAD Mechanical|Company: Autodesk, Inc.
 90
     1024
 91
        0
280
     0
281
     0
  0
CLASS
  1
ACAMGFILTERDAT
  2
AcAmgFilterDat
  3
"AcadM|Product Description: AutoCAD Mechanical|Company: Autodesk, Inc."
 90
     1024
 91
        0
280
     0
281
     0
  0
CLASS
  1
ACRFATTGENMGR
  2
AcRfAttGeneralMgr
  3
AcAttribServices
 90
     1024
 91
        0
280
     0
281
     0
  0
CLASS
  1
MATERIAL
  2
AcDbMaterial
  3
ObjectDBX Classes
 90
     1153
 91
        3
280
     0
281
     0
  0
CLASS
  1
VISUALSTYLE
  2
AcDbVisualStyle
  3
ObjectDBX Classes
 90
     4095
 91
       24
280
     0
281
     0
  0
CLASS
  1
TABLESTYLE
  2
AcDbTableStyle
  3
ObjectDBX Classes
 90
     4095
 91
        1
280
     0
281
     0
  0
CLASS
  1
SCALE
  2
AcDbScale
  3
ObjectDBX Classes
 90
     1153
 91
       17
280
     0
281
     0
  0
CLASS
  1
MLEADERSTYLE
  2
AcDbMLeaderStyle
  3
ACDB_MLEADERSTYLE_CLASS
 90
     4095
 91
        1
280
     0
281
     0
  0
CLASS
  1
ACDBSECTIONVIEWSTYLE
  2
AcDbSectionViewStyle
  3
ObjectDBX Classes
 90
     1025
 91
        2
280
     0
281
     0
  0
CLASS
  1
ACDBDETAILVIEWSTYLE
  2
AcDbDetailViewStyle
  3
ObjectDBX Classes
 90
     1025
 91
        2
280
     0
281
     0
  0
CLASS
  1
ACMTAPERSTANDARDISO
  2
AcmTaperStdISO
  3
"Amdt_StdImp|Product Description: AutoCAD Mechanical|Company: Autodesk, Inc."
 90
     1024
 91
        1
280
     0
281
     0
  0
CLASS
  1
ACMANOOTATIONVIEWSTANDARDISO
  2
AmdtAnViewStdISO
  3
"Amdt_StdImp|Product Description: AutoCAD Mechanical|Company: Autodesk, Inc."
 90
     1024
 91
        1
280
     0
281
     0
  0
CLASS
  1
ACMSECTIONSTANDARDCUSTOM
  2
AmdtSectionSymStdCustom
  3
"Amdt_StdImp|Product Description: AutoCAD Mechanical|Company: Autodesk, Inc."
 90
     1024
 91
        1
280
     0
281
     0
  0
CLASS
  1
ACMDETAILTANDARDCUSTOM
  2
AmdtDetailSymStdCustom
  3
"Amdt_StdImp|Product Description: AutoCAD Mechanical|Company: Autodesk, Inc."
 90
     1024
 91
        1
280
     0
281
     0
  0
CLASS
  1
FIELD
  2
AcDbField
  3
ObjectDBX Classes
 90
     1152
 91
        3
280
     0
281
     0
  0
CLASS
  1
FIELDLIST
  2
AcDbFieldList
  3
ObjectDBX Classes
 90
     1152
 91
        1
280
     0
281
     0
  0
CLASS
  1
CELLSTYLEMAP
  2
AcDbCellStyleMap
  3
ObjectDBX Classes
 90
     1152
 91
        2
280
     0
281
     0
  0
CLASS
  1
AMDTEDGESTANDARDISO13715
  2
AmdtEdgeStdISO13715
  3
"Amdt_StdImp|Product Description: AutoCAD Mechanical|Company: Autodesk, Inc."
 90
     1024
 91
        1
280
     0
281
     0
  0
CLASS
  1
ACMSURFSTANDARDISO2002
  2
AcmSurfTextStdISO2002
  3
"Amdt_StdImp|Product Description: AutoCAD Mechanical|Company: Autodesk, Inc."
 90
     1024
 91
        1
280
     0
281
     0
  0
CLASS
  1
ACMFCFSTANDARDISO2012
  2
AcmFCFStdISO2012
  3
"Amdt_StdImp|Product Description: AutoCAD Mechanical|Company: Autodesk, Inc."
 90
     1024
 91
        1
280
     0
281
     0
  0
CLASS
  1
ACMIDSTANDARDISO2012
  2
AcmIdStdISO2012
  3
"Amdt_StdImp|Product Description: AutoCAD Mechanical|Company: Autodesk, Inc."
 90
     1024
 91
        1
280
     0
281
     0
  0
CLASS
  1
ACMDATUMSTANDARDISO2012
  2
AcmDatumStdISO2012
  3
"Amdt_StdImp|Product Description: AutoCAD Mechanical|Company: Autodesk, Inc."
 90
     1024
 91
        1
280
     0
281
     0
  0
CLASS
  1
ACMSECTIONSTANDARDISO2001
  2
AmdtSectionSymStdISO2001
  3
"Amdt_StdImp|Product Description: AutoCAD Mechanical|Company: Autodesk, Inc."
 90
     1024
 91
        1
280
     0
281
     0
  0
CLASS
  1
CAMSSTRUCTBTNSTATE
  2
StructBtnState
  3
DesignerAssemblies
 90
     1024
 91
        1
280
     0
281
     0
  0
ENDSEC
  0
SECTION
  2
TABLES
  0
TABLE
  2
VPORT
  5
8
330
0
100
AcDbSymbolTable
 70
     1
  0
VPORT
  5
100624
330
8
100
AcDbSymbolTableRecord
100
AcDbViewportTableRecord
  2
*Active
 70
     0
 10
0.0
 20
0.0
 11
1.0
 21
1.0
 12
413.4243207095949
 22
271.6521277463647
 13
0.0
 23
0.0
 14
2.5
 24
2.5
 15
10.0
 25
10.0
 16
0.0
 26
0.0
 36
1.0
 17
0.0
 27
0.0
 37
0.0
 40
208.6417266420507
 41
1.807242990654205
 42
50.0
 43
0.0
 44
0.0
 50
0.0
 51
0.0
 71
     0
 72
   100
 73
     1
 74
     3
 75
     0
 76
     0
 77
     0
 78
     0
281
     0
 65
     0
110
0.0
120
0.0
130
0.0
111
1.0
121
0.0
131
0.0
112
0.0
122
1.0
132
0.0
 79
     0
146
0.0
1001
ACAD_NAV_VCDISPLAY
1070
     3
  0
ENDTAB
  0
TABLE
  2
LTYPE
  5
5
330
0
100
AcDbSymbolTable
 70
    14
  0
LTYPE
  5
14
330
5
100
AcDbSymbolTableRecord
100
AcDbLinetypeTableRecord
  2
ByBlock
 70
     0
  3

 72
    65
 73
     0
 40
0.0
  0
LTYPE
  5
15
330
5
100
AcDbSymbolTableRecord
100
AcDbLinetypeTableRecord
  2
ByLayer
 70
     0
  3

 72
    65
 73
     0
 40
0.0
  0
LTYPE
  5
16
330
5
100
AcDbSymbolTableRecord
100
AcDbLinetypeTableRecord
  2
Continuous
 70
     0
  3
Solid line
 72
    65
 73
     0
 40
0.0
  0
LTYPE
  5
16D41
330
5
100
AcDbSymbolTableRecord
100
AcDbLinetypeTableRecord
  2
AM_ISO02W050
 70
     0
  3
__ __ __ __ __ __ __ __ __ __ __ __ __ __ __
 72
    65
 73
     2
 40
7.5
 49
6.0
 74
     0
 49
-1.5
 74
     0
  0
LTYPE
  5
16D42
330
5
100
AcDbSymbolTableRecord
100
AcDbLinetypeTableRecord
  2
AM_ISO08W050
 70
     0
  3
____ . ____ . ____ . ____ . ____ . ____ . ____
 72
    65
 73
     4
 40
18.0
 49
12.0
 74
     0
 49
-1.5
 74
     0
 49
3.0
 74
     0
 49
-1.5
 74
     0
  0
LTYPE
  5
16D43
330
5
100
AcDbSymbolTableRecord
100
AcDbLinetypeTableRecord
  2
AM_ISO09W050
 70
     0
  3
_____ . . _____ . . _____ . . ____ .. ____
 72
    65
 73
     6
 40
22.5
 49
12.0
 74
     0
 49
-1.5
 74
     0
 49
3.0
 74
     0
 49
-1.5
 74
     0
 49
3.0
 74
     0
 49
-1.5
 74
     0
  0
LTYPE
  5
16D44
330
5
100
AcDbSymbolTableRecord
100
AcDbLinetypeTableRecord
  2
Amconstr
 70
     0
  3
_______________________
 72
    65
 73
     2
 40
9999.0
 49
9999.0
 74
     0
 49
0.0
 74
     0
  0
LTYPE
  5
16D45
330
5
100
AcDbSymbolTableRecord
100
AcDbLinetypeTableRecord
  2
AM_ISO08W050x2
 70
     0
  3
__ . __ . __ . __ . __ . __
 72
    65
 73
     4
 40
9.0
 49
6.0
 74
     0
 49
-0.75
 74
     0
 49
1.5
 74
     0
 49
-0.75
 74
     0
  0
LTYPE
  5
16D46
330
5
100
AcDbSymbolTableRecord
100
AcDbLinetypeTableRecord
  2
AM_ISO02W050x2
 70
     0
  3
 _ _ _ _ _ _ _ _ _ _ _ _
 72
    65
 73
     2
 40
3.75
 49
3.0
 74
     0
 49
-0.75
 74
     0
  0
LTYPE
  5
16D47
330
5
100
AcDbSymbolTableRecord
100
AcDbLinetypeTableRecord
  2
Amzigzag
 70
     0
  3
/\/-/\/-/\/-/\/-/\/-/\/
 72
    65
 73
     2
 40
11.0001
 49
0.0001
 74
     4
 75
   135
340
3AE2
 46
0.04
 50
0.0
 44
0.0
 45
0.0
 49
-11.0
 74
     0
  0
LTYPE
  5
16D56
330
5
100
AcDbSymbolTableRecord
100
AcDbLinetypeTableRecord
  2
ACISOWELD
 70
     0
  3
_ _ _ _ _
 72
    65
 73
     2
 40
2.0
 49
2.0
 74
     0
 49
-1.0
 74
     0
  0
LTYPE
  5
16D57
330
5
100
AcDbSymbolTableRecord
100
AcDbLinetypeTableRecord
  2
ACISOTGB
 70
     0
  3
__ . . __ . .
 72
    65
 73
     6
 40
9.0
 49
4.0
 74
     0
 49
-1.0
 74
     0
 49
1.0
 74
     0
 49
-1.0
 74
     0
 49
1.0
 74
     0
 49
-1.0
 74
     0
  0
LTYPE
  5
16D58
330
5
100
AcDbSymbolTableRecord
100
AcDbLinetypeTableRecord
  2
ACISOTGL
 70
     0
  3
_ _ _ _ _
 72
    65
 73
     2
 40
3.0
 49
2.0
 74
     0
 49
-1.0
 74
     0
  0
ENDTAB
  0
TABLE
  2
LAYER
  5
2
102
{ACAD_XDICTIONARY
360
F82BD
102
}
330
0
100
AcDbSymbolTable
 70
     4
  0
LAYER
  5
10
102
{ACAD_XDICTIONARY
360
1007CD
102
}
330
2
100
AcDbSymbolTableRecord
100
AcDbLayerTableRecord
  2
0
 70
     0
 62
     7
  6
Continuous
370
    20
390
F
  0
LAYER
  5
54
330
2
100
AcDbSymbolTableRecord
100
AcDbLayerTableRecord
  2
Defpoints
 70
     0
 62
     7
  6
Continuous
290
     0
370
    -3
390
F
  0
LAYER
  5
86C9
102
{ACAD_XDICTIONARY
360
1007CF
102
}
330
2
100
AcDbSymbolTableRecord
100
AcDbLayerTableRecord
  2
04_ele1_0.15
 70
     0
 62
     4
  6
Continuous
370
    15
390
F
  0
LAYER
  5
100703
102
{ACAD_XDICTIONARY
360
1007D1
102
}
330
2
100
AcDbSymbolTableRecord
100
AcDbLayerTableRecord
  2
AM_5
 70
     0
 62
     3
  6
Continuous
370
    25
390
F
1001
AcAecLayerStandard
1000

1000

  0
ENDTAB
  0
TABLE
  2
STYLE
  5
3
330
0
100
AcDbSymbolTable
 70
     6
  0
STYLE
  5
11
330
3
100
AcDbSymbolTableRecord
100
AcDbTextStyleTableRecord
  2
STANDARD
 70
     0
 40
0.0
 41
1.0
 50
0.0
 71
     0
 42
2.5
  3
ISOCP.SHX
  4
EXTFONT.SHX
  0
STYLE
  5
3AE2
330
3
100
AcDbSymbolTableRecord
100
AcDbTextStyleTableRecord
  2

 70
     1
 40
0.0
 41
1.0
 50
0.0
 71
     0
 42
2.5
  3
ltypeshp.shx
  4

  0
STYLE
  5
16D55
330
3
100
AcDbSymbolTableRecord
100
AcDbTextStyleTableRecord
  2
ACISOGDT
 70
     0
 40
0.0
 41
1.0
 50
0.0
 71
     0
 42
2.5
  3
amgdt.shx
  4

  0
STYLE
  5
F61F9
330
3
100
AcDbSymbolTableRecord
100
AcDbTextStyleTableRecord
  2
2014++
 70
     0
 40
0.0
 41
0.8
 50
0.0
 71
     0
 42
2.5
  3
simplex.shx
  4
bigfont.shx
  0
ENDTAB
  0
TABLE
  2
VIEW
  5
6
330
0
100
AcDbSymbolTable
 70
     0
  0
ENDTAB
  0
TABLE
  2
UCS
  5
7
330
0
100
AcDbSymbolTable
 70
     0
  0
ENDTAB
  0
TABLE
  2
APPID
  5
9
330
0
100
AcDbSymbolTable
 70
    21
  0
APPID
  5
12
330
9
100
AcDbSymbolTableRecord
100
AcDbRegAppTableRecord
  2
ACAD
 70
     0
  0
APPID
  5
16CD8
330
9
100
AcDbSymbolTableRecord
100
AcDbRegAppTableRecord
  2
MCAD_NO_VIS
 70
     0
  0
APPID
  5
16CD9
330
9
100
AcDbSymbolTableRecord
100
AcDbRegAppTableRecord
  2
ACAD_TEMP_GRAPHIC
 70
     0
  0
APPID
  5
16D0B
330
9
100
AcDbSymbolTableRecord
100
AcDbRegAppTableRecord
  2
AD_DRAW
 70
     0
  0
APPID
  5
16D0E
330
9
100
AcDbSymbolTableRecord
100
AcDbRegAppTableRecord
  2
ACATTRIBSERVICES
 70
     0
  0
APPID
  5
16D30
330
9
100
AcDbSymbolTableRecord
100
AcDbRegAppTableRecord
  2
DESIGNERASSEMBLIES
 70
     0
  0
APPID
  5
16D36
330
9
100
AcDbSymbolTableRecord
100
AcDbRegAppTableRecord
  2
ACADM_DIM_EDIT
 70
     0
  0
APPID
  5
16D37
330
9
100
AcDbSymbolTableRecord
100
AcDbRegAppTableRecord
  2
AMDT_DM_ADJ
 70
     0
  0
APPID
  5
16D6D
330
9
100
AcDbSymbolTableRecord
100
AcDbRegAppTableRecord
  2
GENIUS_GENSCREG_15
 70
     0
  0
APPID
  5
16D6E
330
9
100
AcDbSymbolTableRecord
100
AcDbRegAppTableRecord
  2
GENIUS_GENOBJ-N-SDF_13
 70
     0
  0
APPID
  5
16D6F
330
9
100
AcDbSymbolTableRecord
100
AcDbRegAppTableRecord
  2
GENIUS_GENODEF_13
 70
     0
  0
APPID
  5
ADC12
330
9
100
AcDbSymbolTableRecord
100
AcDbRegAppTableRecord
  2
GENIUS_GENDTOL_13
 70
     0
  0
APPID
  5
BA934
330
9
100
AcDbSymbolTableRecord
100
AcDbRegAppTableRecord
  2
GENIUS_GENOBJ-N-FIL_13
 70
     0
  0
APPID
  5
F4A76
330
9
100
AcDbSymbolTableRecord
100
AcDbRegAppTableRecord
  2
DCO15
 70
     0
  0
APPID
  5
1006BF
330
9
100
AcDbSymbolTableRecord
100
AcDbRegAppTableRecord
  2
ACAD_PSEXT
 70
     0
  0
APPID
  5
1006C7
330
9
100
AcDbSymbolTableRecord
100
AcDbRegAppTableRecord
  2
ACAD_NAV_VCDISPLAY
 70
     0
  0
APPID
  5
1006C8
330
9
100
AcDbSymbolTableRecord
100
AcDbRegAppTableRecord
  2
ACAD_DSTYLE_DIMINSPECT
 70
     0
  0
APPID
  5
100704
330
9
100
AcDbSymbolTableRecord
100
AcDbRegAppTableRecord
  2
AcAecLayerStandard
 70
     0
  0
APPID
  5
100708
330
9
100
AcDbSymbolTableRecord
100
AcDbRegAppTableRecord
  2
ACAD_DSTYLE_DIMBREAK
 70
     0
  0
APPID
  5
100709
330
9
100
AcDbSymbolTableRecord
100
AcDbRegAppTableRecord
  2
ACAD_DSTYLE_DIMJAG
 70
     0
  0
APPID
  5
100825
330
9
100
AcDbSymbolTableRecord
100
AcDbRegAppTableRecord
  2
ACAD_MLEADERVER
 70
     0
  0
ENDTAB
  0
TABLE
  2
DIMSTYLE
  5
A
330
0
100
AcDbSymbolTable
 70
     9
100
AcDbDimStyleTable
 71
     3
340
F65ED
340
16D6A
340
16D65
  0
DIMSTYLE
105
16D60
102
{ACAD_REACTORS
330
100867
102
}
330
A
100
AcDbSymbolTableRecord
100
AcDbDimStyleTableRecord
  2
AM_ISO
 70
     0
  4
"
 41
2.5
 42
1.0
 43
10.0
 44
1.0
 47
0.1
 48
0.1
 73
     0
 74
     0
 77
     1
 78
     8
 79
     2
140
3.5
141
0.0
143
0.0393701
146
0.71
147
1.5
172
     1
176
   256
177
   256
178
     2
271
     2
272
     3
274
     4
283
     0
284
     8
340
11
371
    -1
372
    -1
  0
DIMSTYLE
105
16D61
330
A
100
AcDbSymbolTableRecord
100
AcDbDimStyleTableRecord
  2
AM_ISO$3
 70
     0
  4
"
 41
2.5
 42
1.0
 43
10.0
 44
1.0
 47
0.1
 48
0.1
 73
     0
 77
     1
 78
     8
 79
     2
140
3.5
141
0.0
143
0.0393701
146
0.71
147
1.5
176
   256
177
   256
178
     2
271
     2
272
     3
274
     4
283
     0
284
     8
288
     1
289
     0
340
11
371
    -1
372
    -1
  0
DIMSTYLE
105
16D62
330
A
100
AcDbSymbolTableRecord
100
AcDbDimStyleTableRecord
  2
AM_ISO$4
 70
     0
  4
"
 41
2.5
 42
1.0
 43
10.0
 44
1.0
 47
0.1
 48
0.1
 73
     0
 77
     1
 78
     8
 79
     2
140
3.5
141
0.0
143
0.0393701
146
0.71
147
1.5
176
   256
177
   256
178
     2
271
     2
272
     3
274
     4
283
     0
284
     8
288
     1
289
     0
340
11
371
    -1
372
    -1
  0
DIMSTYLE
105
16D63
330
A
100
AcDbSymbolTableRecord
100
AcDbDimStyleTableRecord
  2
AM_ISO$6
 70
     0
  4
"
 41
2.5
 42
1.0
 43
10.0
 44
1.0
 47
0.1
 48
0.1
 73
     0
 74
     0
 78
     8
 79
     2
140
3.5
141
0.0
143
0.0393701
146
0.71
147
1.5
172
     1
176
   256
177
   256
178
     2
271
     2
272
     3
274
     4
283
     0
284
     8
340
11
371
    -1
372
    -1
  0
DIMSTYLE
105
16D64
330
A
100
AcDbSymbolTableRecord
100
AcDbDimStyleTableRecord
  2
AM_ISO$7
 70
     0
  4
"
 41
2.5
 42
1.0
 43
10.0
 44
1.0
 47
0.1
 48
0.1
 73
     0
 74
     0
 77
     1
 78
     8
 79
     2
140
5.0
141
0.0
143
0.0393701
146
0.71
147
1.5
172
     1
176
   256
177
   256
178
     2
271
     2
272
     3
274
     4
283
     0
284
     8
340
11
371
    -1
372
    -1
  0
DIMSTYLE
105
16D65
330
A
100
AcDbSymbolTableRecord
100
AcDbDimStyleTableRecord
  2
AM_ISO$SF
 70
     0
  4
"
 41
2.5
 42
1.0
 43
10.0
 44
1.0
 47
0.1
 48
0.1
 73
     0
 74
     0
 75
     1
 76
     1
 77
     1
 78
     8
 79
     2
140
3.5
141
0.0
143
0.0393701
146
0.71
147
1.5
172
     1
176
   256
177
   256
178
     2
271
     2
272
     3
274
     4
283
     0
284
     8
340
11
371
    -1
372
    -1
  0
DIMSTYLE
105
16D6A
330
A
100
AcDbSymbolTableRecord
100
AcDbDimStyleTableRecord
  2
AM_ISO$SH
 70
     0
  4
"
 41
2.5
 42
1.0
 43
10.0
 44
1.0
 47
0.1
 48
0.1
 73
     0
 74
     0
 75
     1
 76
     1
 77
     1
 78
     8
 79
     2
140
3.5
141
0.0
143
0.0393701
144
2.0
146
0.71
147
1.5
172
     1
173
     1
176
   256
177
   256
178
     2
271
     2
272
     3
274
     4
283
     0
284
     8
340
11
343
16D66
371
    -1
372
    -1
  0
DIMSTYLE
105
F65ED
102
{ACAD_REACTORS
330
10021D
102
}
330
A
100
AcDbSymbolTableRecord
100
AcDbDimStyleTableRecord
  2
2014+
 70
     0
 40
0.0
 41
2.0
 42
2.0
 43
3.75
 44
1.0
 73
     0
 74
     0
 77
     3
 78
     8
140
2.0
141
2.5
143
0.03937007874016
147
0.75
171
     3
172
     1
175
     1
176
   256
177
   256
178
   256
271
     2
272
     2
274
     3
283
     0
284
     8
340
F61F9
371
    -1
372
    -1
  0
DIMSTYLE
105
10070A
102
{ACAD_REACTORS
330
100265
330
10025B
330
1005F4
330
100246
330
100244
330
100245
330
10021F
330
100220
330
100376
102
}
330
A
100
AcDbSymbolTableRecord
100
AcDbDimStyleTableRecord
  2
2014+$0
 70
     0
 40
0.0
 41
2.0
 42
2.0
 43
3.75
 44
1.0
 73
     0
 74
     0
 77
     3
 78
     8
140
2.0
141
2.5
143
0.03937007874016
147
0.75
171
     3
172
     1
175
     1
176
   256
177
   256
178
   256
271
     2
272
     2
274
     3
283
     0
284
     8
340
F61F9
371
    -1
372
    -1
1001
ACAD_DSTYLE_DIMBREAK
1070
   391
1040
3.75
1001
ACAD_DSTYLE_DIMJAG
1070
   388
1040
1.5
  0
ENDTAB
  0
TABLE
  2
BLOCK_RECORD
  5
1
330
0
100
AcDbSymbolTable
 70
    20
  0
BLOCK_RECORD
  5
1F
102
{ACAD_XDICTIONARY
360
16D78
102
}
330
1
100
AcDbSymbolTableRecord
100
AcDbBlockTableRecord
  2
*Model_Space
340
22
  0
BLOCK_RECORD
  5
1006B3
330
1
100
AcDbSymbolTableRecord
100
AcDbBlockTableRecord
  2
*Paper_Space
340
1006B4
  0
BLOCK_RECORD
  5
16D66
330
1
100
AcDbSymbolTableRecord
100
AcDbBlockTableRecord
  2
GENAXEH
340
0
  0
BLOCK_RECORD
  5
1003BE
330
1
100
AcDbSymbolTableRecord
100
AcDbBlockTableRecord
  2
*D1
340
0
  0
BLOCK_RECORD
  5
1003CA
330
1
100
AcDbSymbolTableRecord
100
AcDbBlockTableRecord
  2
*D2
340
0
  0
BLOCK_RECORD
  5
1003D6
330
1
100
AcDbSymbolTableRecord
100
AcDbBlockTableRecord
  2
*D3
340
0
  0
BLOCK_RECORD
  5
1003EE
330
1
100
AcDbSymbolTableRecord
100
AcDbBlockTableRecord
  2
*D5
340
0
  0
BLOCK_RECORD
  5
1003FA
330
1
100
AcDbSymbolTableRecord
100
AcDbBlockTableRecord
  2
*D6
340
0
  0
BLOCK_RECORD
  5
100406
330
1
100
AcDbSymbolTableRecord
100
AcDbBlockTableRecord
  2
*D7
340
0
  0
BLOCK_RECORD
  5
100442
330
1
100
AcDbSymbolTableRecord
100
AcDbBlockTableRecord
  2
*D10
340
0
  0
BLOCK_RECORD
  5
10044E
330
1
100
AcDbSymbolTableRecord
100
AcDbBlockTableRecord
  2
*D11
340
0
  0
BLOCK_RECORD
  5
100481
330
1
100
AcDbSymbolTableRecord
100
AcDbBlockTableRecord
  2
*D15
340
0
  0
BLOCK_RECORD
  5
1005F5
330
1
100
AcDbSymbolTableRecord
100
AcDbBlockTableRecord
  2
*D17
340
0
  0
ENDTAB
  0
ENDSEC
  0
SECTION
  2
BLOCKS
  0
BLOCK
  5
20
330
1F
100
AcDbEntity
  8
0
100
AcDbBlockBegin
  2
*Model_Space
 70
     0
 10
0.0
 20
0.0
 30
0.0
  3
*Model_Space
  1

  0
ENDBLK
  5
21
330
1F
100
AcDbEntity
  8
0
100
AcDbBlockEnd
  0
BLOCK
  5
1006B5
330
1006B3
100
AcDbEntity
 67
     1
  8
0
100
AcDbBlockBegin
  2
*Paper_Space
 70
     0
 10
0.0
 20
0.0
 30
0.0
  3
*Paper_Space
  1

  0
ENDBLK
  5
1006B6
330
1006B3
100
AcDbEntity
 67
     1
  8
0
100
AcDbBlockEnd
  0
BLOCK
  5
16D68
330
16D66
100
AcDbEntity
  8
0
100
AcDbBlockBegin
  2
GENAXEH
 70
     0
 10
0.0
 20
0.0
 30
0.0
  3
GENAXEH
  1

  0
LINE
  5
16D67
330
16D66
100
AcDbEntity
  8
0
100
AcDbLine
 10
-1.0
 20
0.0
 30
0.0
 11
1.0
 21
0.0
 31
0.0
  0
ENDBLK
  5
16D69
330
16D66
100
AcDbEntity
  8
0
100
AcDbBlockEnd
  0
BLOCK
  5
1003C8
330
1003BE
100
AcDbEntity
  8
0
100
AcDbBlockBegin
  2
*D1
 70
     1
 10
0.0
 20
0.0
 30
0.0
  3
*D1
  1

  0
LINE
  5
100775
330
1003BE
100
AcDbEntity
  8
AM_5
440
 16777216
100
AcDbLine
 10
363.8390893502935
 20
371.1541304600014
 30
0.0
 11
385.6703459563849
 21
345.9149227362676
 31
0.0
  0
LINE
  5
100776
330
1003BE
100
AcDbEntity
  8
AM_5
440
 16777216
100
AcDbLine
 10
396.7917310054502
 20
333.057442633603
 30
0.0
 11
398.1001292465168
 21
331.5447979156423
 31
0.0
  0
MTEXT
  5
100777
102
{ACAD_XDICTIONARY
360
10082F
102
}
330
1003BE
100
AcDbEntity
  8
AM_5
440
 16777216
100
AcDbMText
 10
366.8744745105712
 20
370.3199354149362
 30
0.0
 40
2.0
 41
0.0
 71
     5
 72
     1
  1
\U+220513
  7
2014++
 11
0.6541991205332634
 21
-0.7563223589802863
 31
0.0
 73
     1
 44
1.0
1001
ACAD
1000
MTEXTBEGIN
1070
    73
1070
     1
1070
    44
1040
1.0
1070
    74
1070
     0
1000
MTEXTEND
  0
LINE
  5
100778
330
1003BE
100
AcDbEntity
  8
AM_5
440
 16777216
100
AcDbLine
 10
395.4833327643837
 20
334.5700873515635
 30
0.0
 11
386.9787441974515
 21
344.402278018307
 31
0.0
  0
SOLID
  5
100779
330
1003BE
100
AcDbEntity
  8
AM_5
440
 16777216
100
AcDbTrace
 10
397.0438384584437
 20
333.2755090071141
 30
0.0
 11
396.5396235524567
 21
332.8393762600919
 31
0.0
 12
395.4833327643837
 22
334.5700873515635
 32
0.0
 13
395.4833327643837
 23
334.5700873515635
 33
0.0
  0
SOLID
  5
10077A
330
1003BE
100
AcDbEntity
  8
AM_5
440
 16777216
100
AcDbTrace
 10
385.9224534093783
 20
346.1329891097788
 30
0.0
 11
385.4182385033915
 21
345.6968563627565
 31
0.0
 12
386.9787441974515
 22
344.402278018307
 32
0.0
 13
386.9787441974515
 23
344.402278018307
 33
0.0
  0
POINT
  5
10077B
330
1003BE
100
AcDbEntity
  8
Defpoints
 62
     0
440
 16777216
100
AcDbPoint
 10
386.9787441974515
 20
344.402278018307
 30
0.0
  0
POINT
  5
10077C
330
1003BE
100
AcDbEntity
  8
Defpoints
 62
     0
440
 16777216
100
AcDbPoint
 10
395.4833327643837
 20
334.5700873515635
 30
0.0
  0
ENDBLK
  5
1003C9
330
1003BE
100
AcDbEntity
  8
0
100
AcDbBlockEnd
  0
BLOCK
  5
1003D4
330
1003CA
100
AcDbEntity
  8
0
100
AcDbBlockBegin
  2
*D2
 70
     1
 10
0.0
 20
0.0
 30
0.0
  3
*D2
  1

  0
LINE
  5
1007A1
330
1003CA
100
AcDbEntity
  8
AM_5
440
 16777216
100
AcDbLine
 10
374.7310384809168
 20
355.4861826849348
 30
0.0
 11
374.7310384809168
 21
373.241929741652
 31
0.0
  0
LINE
  5
1007A2
330
1003CA
100
AcDbEntity
  8
AM_5
440
 16777216
100
AcDbLine
 10
391.2310384809168
 20
364.4861826849348
 30
0.0
 11
391.2310384809168
 21
373.241929741652
 31
0.0
  0
LINE
  5
1007A3
330
1003CA
100
AcDbEntity
  8
AM_5
440
 16777216
100
AcDbLine
 10
376.7310384809168
 20
372.241929741652
 30
0.0
 11
389.2310384809168
 21
372.241929741652
 31
0.0
  0
SOLID
  5
1007A4
330
1003CA
100
AcDbEntity
  8
AM_5
440
 16777216
100
AcDbTrace
 10
376.7310384809168
 20
372.5752630749854
 30
0.0
 11
376.7310384809168
 21
371.9085964083187
 31
0.0
 12
374.7310384809168
 22
372.241929741652
 32
0.0
 13
374.7310384809168
 23
372.241929741652
 33
0.0
  0
SOLID
  5
1007A5
330
1003CA
100
AcDbEntity
  8
AM_5
440
 16777216
100
AcDbTrace
 10
389.2310384809168
 20
372.5752630749854
 30
0.0
 11
389.2310384809168
 21
371.9085964083187
 31
0.0
 12
391.2310384809168
 22
372.241929741652
 32
0.0
 13
391.2310384809168
 23
372.241929741652
 33
0.0
  0
MTEXT
  5
1007A6
330
1003CA
100
AcDbEntity
  8
AM_5
440
 16777216
100
AcDbMText
 10
382.9810384809168
 20
373.991929741652
 30
0.0
 40
2.0
 41
0.0
 71
     5
 72
     1
  1
16.5
  7
2014++
 73
     1
 44
1.0
1001
ACAD
1000
MTEXTBEGIN
1070
    73
1070
     1
1070
    44
1040
1.0
1070
    74
1070
     0
1000
MTEXTEND
  0
POINT
  5
1007A7
330
1003CA
100
AcDbEntity
  8
Defpoints
 62
     0
440
 16777216
100
AcDbPoint
 10
374.7310384809168
 20
353.4861826849348
 30
0.0
  0
POINT
  5
1007A8
330
1003CA
100
AcDbEntity
  8
Defpoints
 62
     0
440
 16777216
100
AcDbPoint
 10
391.2310384809168
 20
362.4861826849348
 30
0.0
  0
POINT
  5
1007A9
330
1003CA
100
AcDbEntity
  8
Defpoints
 62
     0
440
 16777216
100
AcDbPoint
 10
391.2310384809168
 20
372.241929741652
 30
0.0
  0
ENDBLK
  5
1003D5
330
1003CA
100
AcDbEntity
  8
0
100
AcDbBlockEnd
  0
BLOCK
  5
1003E0
330
1003D6
100
AcDbEntity
  8
0
100
AcDbBlockBegin
  2
*D3
 70
     1
 10
0.0
 20
0.0
 30
0.0
  3
*D3
  1

  0
LINE
  5
1007AA
330
1003D6
100
AcDbEntity
  8
AM_5
440
 16777216
100
AcDbLine
 10
377.7310384809168
 20
339.4861826849349
 30
0.0
 11
349.6013259341042
 21
339.4861826849349
 31
0.0
  0
LINE
  5
1007AB
330
1003D6
100
AcDbEntity
  8
AM_5
440
 16777216
100
AcDbLine
 10
376.7310384809168
 20
357.4861826849348
 30
0.0
 11
349.6013259341042
 21
357.4861826849348
 31
0.0
  0
LINE
  5
1007AC
330
1003D6
100
AcDbEntity
  8
AM_5
440
 16777216
100
AcDbLine
 10
350.6013259341042
 20
341.4861826849349
 30
0.0
 11
350.6013259341042
 21
355.4861826849348
 31
0.0
  0
SOLID
  5
1007AD
330
1003D6
100
AcDbEntity
  8
AM_5
440
 16777216
100
AcDbTrace
 10
350.2679926007707
 20
341.4861826849349
 30
0.0
 11
350.9346592674374
 21
341.4861826849349
 31
0.0
 12
350.6013259341042
 22
339.4861826849349
 32
0.0
 13
350.6013259341042
 23
339.4861826849349
 33
0.0
  0
SOLID
  5
1007AE
330
1003D6
100
AcDbEntity
  8
AM_5
440
 16777216
100
AcDbTrace
 10
350.2679926007707
 20
355.4861826849348
 30
0.0
 11
350.9346592674374
 21
355.4861826849348
 31
0.0
 12
350.6013259341042
 22
357.4861826849348
 32
0.0
 13
350.6013259341042
 23
357.4861826849348
 33
0.0
  0
MTEXT
  5
1007AF
330
1003D6
100
AcDbEntity
  8
AM_5
440
 16777216
100
AcDbMText
 10
348.851325934104
 20
348.4861826849348
 30
0.0
 40
2.0
 41
0.0
 71
     5
 72
     1
  1
18
  7
2014++
 11
0.0000000000000001
 21
1.0
 31
0.0
 73
     1
 44
1.0
1001
ACAD
1000
MTEXTBEGIN
1070
    73
1070
     1
1070
    44
1040
1.0
1070
    74
1070
     0
1000
MTEXTEND
  0
POINT
  5
1007B0
330
1003D6
100
AcDbEntity
  8
Defpoints
 62
     0
440
 16777216
100
AcDbPoint
 10
379.7310384809168
 20
339.4861826849349
 30
0.0
  0
POINT
  5
1007B1
330
1003D6
100
AcDbEntity
  8
Defpoints
 62
     0
440
 16777216
100
AcDbPoint
 10
378.7310384809168
 20
357.4861826849348
 30
0.0
  0
POINT
  5
1007B2
330
1003D6
100
AcDbEntity
  8
Defpoints
 62
     0
440
 16777216
100
AcDbPoint
 10
350.6013259341042
 20
357.4861826849348
 30
0.0
  0
ENDBLK
  5
1003E1
330
1003D6
100
AcDbEntity
  8
0
100
AcDbBlockEnd
  0
BLOCK
  5
1003F8
330
1003EE
100
AcDbEntity
  8
0
100
AcDbBlockBegin
  2
*D5
 70
     1
 10
0.0
 20
0.0
 30
0.0
  3
*D5
  1

  0
LINE
  5
100786
330
1003EE
100
AcDbEntity
  8
AM_5
440
 16777216
100
AcDbLine
 10
377.7310384809168
 20
339.4861826849349
 30
0.0
 11
349.601325934104
 21
339.4861826849349
 31
0.0
  0
LINE
  5
100787
330
1003EE
100
AcDbEntity
  8
AM_5
440
 16777216
100
AcDbLine
 10
372.7310384809168
 20
244.4861826849349
 30
0.0
 11
349.601325934104
 21
244.4861826849349
 31
0.0
  0
LINE
  5
100788
330
1003EE
100
AcDbEntity
  8
AM_5
440
 16777216
100
AcDbLine
 10
350.601325934104
 20
337.4861826849349
 30
0.0
 11
350.601325934104
 21
246.4861826849349
 31
0.0
  0
SOLID
  5
100789
330
1003EE
100
AcDbEntity
  8
AM_5
440
 16777216
100
AcDbTrace
 10
350.2679926007707
 20
337.4861826849349
 30
0.0
 11
350.9346592674372
 21
337.4861826849349
 31
0.0
 12
350.601325934104
 22
339.4861826849349
 32
0.0
 13
350.601325934104
 23
339.4861826849349
 33
0.0
  0
SOLID
  5
10078A
330
1003EE
100
AcDbEntity
  8
AM_5
440
 16777216
100
AcDbTrace
 10
350.2679926007707
 20
246.4861826849349
 30
0.0
 11
350.9346592674372
 21
246.4861826849349
 31
0.0
 12
350.601325934104
 22
244.4861826849349
 32
0.0
 13
350.601325934104
 23
244.4861826849349
 33
0.0
  0
MTEXT
  5
10078B
330
1003EE
100
AcDbEntity
  8
AM_5
440
 16777216
100
AcDbMText
 10
348.8513259341039
 20
291.9861826849349
 30
0.0
 40
2.0
 41
0.0
 71
     5
 72
     1
  1
95
  7
2014++
 11
0.0000000000000001
 21
1.0
 31
0.0
 73
     1
 44
1.0
1001
ACAD
1000
MTEXTBEGIN
1070
    73
1070
     1
1070
    44
1040
1.0
1070
    74
1070
     0
1000
MTEXTEND
  0
POINT
  5
10078C
330
1003EE
100
AcDbEntity
  8
Defpoints
 62
     0
440
 16777216
100
AcDbPoint
 10
379.7310384809168
 20
339.4861826849349
 30
0.0
  0
POINT
  5
10078D
330
1003EE
100
AcDbEntity
  8
Defpoints
 62
     0
440
 16777216
100
AcDbPoint
 10
374.7310384809168
 20
244.4861826849349
 30
0.0
  0
POINT
  5
10078E
330
1003EE
100
AcDbEntity
  8
Defpoints
 62
     0
440
 16777216
100
AcDbPoint
 10
350.601325934104
 20
244.4861826849349
 30
0.0
  0
ENDBLK
  5
1003F9
330
1003EE
100
AcDbEntity
  8
0
100
AcDbBlockEnd
  0
BLOCK
  5
100404
330
1003FA
100
AcDbEntity
  8
0
100
AcDbBlockBegin
  2
*D6
 70
     1
 10
0.0
 20
0.0
 30
0.0
  3
*D6
  1

  0
LINE
  5
100798
330
1003FA
100
AcDbEntity
  8
AM_5
440
 16777216
100
AcDbLine
 10
372.7310384809168
 20
244.4861826849349
 30
0.0
 11
339.0254283377524
 21
244.4861826849349
 31
0.0
  0
LINE
  5
100799
330
1003FA
100
AcDbEntity
  8
AM_5
440
 16777216
100
AcDbLine
 10
376.7310384809168
 20
357.4861826849348
 30
0.0
 11
339.0254283377524
 21
357.4861826849348
 31
0.0
  0
LINE
  5
10079A
330
1003FA
100
AcDbEntity
  8
AM_5
440
 16777216
100
AcDbLine
 10
340.0254283377524
 20
246.4861826849349
 30
0.0
 11
340.0254283377524
 21
355.4861826849348
 31
0.0
  0
SOLID
  5
10079B
330
1003FA
100
AcDbEntity
  8
AM_5
440
 16777216
100
AcDbTrace
 10
339.6920950044191
 20
246.4861826849349
 30
0.0
 11
340.3587616710857
 21
246.4861826849349
 31
0.0
 12
340.0254283377524
 22
244.4861826849349
 32
0.0
 13
340.0254283377524
 23
244.4861826849349
 33
0.0
  0
SOLID
  5
10079C
330
1003FA
100
AcDbEntity
  8
AM_5
440
 16777216
100
AcDbTrace
 10
339.6920950044191
 20
355.4861826849348
 30
0.0
 11
340.3587616710857
 21
355.4861826849348
 31
0.0
 12
340.0254283377524
 22
357.4861826849348
 32
0.0
 13
340.0254283377524
 23
357.4861826849348
 33
0.0
  0
MTEXT
  5
10079D
330
1003FA
100
AcDbEntity
  8
AM_5
440
 16777216
100
AcDbMText
 10
338.2754283377523
 20
300.9861826849349
 30
0.0
 40
2.0
 41
0.0
 71
     5
 72
     1
  1
113
  7
2014++
 11
0.0000000000000001
 21
1.0
 31
0.0
 73
     1
 44
1.0
1001
ACAD
1000
MTEXTBEGIN
1070
    73
1070
     1
1070
    44
1040
1.0
1070
    74
1070
     0
1000
MTEXTEND
  0
POINT
  5
10079E
330
1003FA
100
AcDbEntity
  8
Defpoints
 62
     0
440
 16777216
100
AcDbPoint
 10
374.7310384809168
 20
244.4861826849349
 30
0.0
  0
POINT
  5
10079F
330
1003FA
100
AcDbEntity
  8
Defpoints
 62
     0
440
 16777216
100
AcDbPoint
 10
378.7310384809168
 20
357.4861826849348
 30
0.0
  0
POINT
  5
1007A0
330
1003FA
100
AcDbEntity
  8
Defpoints
 62
     0
440
 16777216
100
AcDbPoint
 10
340.0254283377524
 20
357.4861826849348
 30
0.0
  0
ENDBLK
  5
100405
330
1003FA
100
AcDbEntity
  8
0
100
AcDbBlockEnd
  0
BLOCK
  5
100410
330
100406
100
AcDbEntity
  8
0
100
AcDbBlockBegin
  2
*D7
 70
     1
 10
0.0
 20
0.0
 30
0.0
  3
*D7
  1

  0
LINE
  5
10077D
330
100406
100
AcDbEntity
  8
AM_5
440
 16777216
100
AcDbLine
 10
374.7310384809168
 20
242.4861826849349
 30
0.0
 11
374.7310384809168
 21
221.0622611625379
 31
0.0
  0
LINE
  5
10077E
330
100406
100
AcDbEntity
  8
AM_5
440
 16777216
100
AcDbLine
 10
407.7310384809168
 20
242.4861826849349
 30
0.0
 11
407.7310384809168
 21
221.0622611625379
 31
0.0
  0
LINE
  5
10077F
330
100406
100
AcDbEntity
  8
AM_5
440
 16777216
100
AcDbLine
 10
376.7310384809168
 20
222.0622611625379
 30
0.0
 11
405.7310384809168
 21
222.0622611625379
 31
0.0
  0
SOLID
  5
100780
330
100406
100
AcDbEntity
  8
AM_5
440
 16777216
100
AcDbTrace
 10
376.7310384809168
 20
222.3955944958712
 30
0.0
 11
376.7310384809168
 21
221.7289278292045
 31
0.0
 12
374.7310384809168
 22
222.0622611625379
 32
0.0
 13
374.7310384809168
 23
222.0622611625379
 33
0.0
  0
SOLID
  5
100781
330
100406
100
AcDbEntity
  8
AM_5
440
 16777216
100
AcDbTrace
 10
405.7310384809168
 20
222.3955944958712
 30
0.0
 11
405.7310384809168
 21
221.7289278292045
 31
0.0
 12
407.7310384809168
 22
222.0622611625379
 32
0.0
 13
407.7310384809168
 23
222.0622611625379
 33
0.0
  0
MTEXT
  5
100782
330
100406
100
AcDbEntity
  8
AM_5
440
 16777216
100
AcDbMText
 10
391.2310384809168
 20
223.8122611625379
 30
0.0
 40
2.0
 41
0.0
 71
     5
 72
     1
  1
33
  7
2014++
 73
     1
 44
1.0
1001
ACAD
1000
MTEXTBEGIN
1070
    73
1070
     1
1070
    44
1040
1.0
1070
    74
1070
     0
1000
MTEXTEND
  0
POINT
  5
100783
330
100406
100
AcDbEntity
  8
Defpoints
 62
     0
440
 16777216
100
AcDbPoint
 10
374.7310384809168
 20
244.4861826849349
 30
0.0
  0
POINT
  5
100784
330
100406
100
AcDbEntity
  8
Defpoints
 62
     0
440
 16777216
100
AcDbPoint
 10
407.7310384809168
 20
244.4861826849349
 30
0.0
  0
POINT
  5
100785
330
100406
100
AcDbEntity
  8
Defpoints
 62
     0
440
 16777216
100
AcDbPoint
 10
407.7310384809168
 20
222.0622611625379
 30
0.0
  0
ENDBLK
  5
100411
330
100406
100
AcDbEntity
  8
0
100
AcDbBlockEnd
  0
BLOCK
  5
10044C
330
100442
100
AcDbEntity
  8
0
100
AcDbBlockBegin
  2
*D10
 70
     1
 10
0.0
 20
0.0
 30
0.0
  3
*D10
  1

  0
LINE
  5
10073D
330
100442
100
AcDbEntity
  8
AM_5
440
 16777216
100
AcDbLine
 10
445.5533186810789
 20
207.1724063932842
 30
0.0
 11
445.5533186810789
 21
167.8350602419522
 31
0.0
  0
LINE
  5
10073E
330
100442
100
AcDbEntity
  8
AM_5
440
 16777216
100
AcDbLine
 10
484.553318681079
 20
190.6724063932841
 30
0.0
 11
484.553318681079
 21
167.8350602419522
 31
0.0
  0
LINE
  5
10073F
330
100442
100
AcDbEntity
  8
AM_5
440
 16777216
100
AcDbLine
 10
447.5533186810791
 20
168.8350602419522
 30
0.0
 11
482.553318681079
 21
168.8350602419522
 31
0.0
  0
SOLID
  5
100740
330
100442
100
AcDbEntity
  8
AM_5
440
 16777216
100
AcDbTrace
 10
447.5533186810791
 20
169.1683935752855
 30
0.0
 11
447.5533186810791
 21
168.5017269086188
 31
0.0
 12
445.5533186810789
 22
168.8350602419522
 32
0.0
 13
445.5533186810789
 23
168.8350602419522
 33
0.0
  0
SOLID
  5
100741
330
100442
100
AcDbEntity
  8
AM_5
440
 16777216
100
AcDbTrace
 10
482.553318681079
 20
169.1683935752855
 30
0.0
 11
482.553318681079
 21
168.5017269086188
 31
0.0
 12
484.553318681079
 22
168.8350602419522
 32
0.0
 13
484.553318681079
 23
168.8350602419522
 33
0.0
  0
MTEXT
  5
100742
330
100442
100
AcDbEntity
  8
AM_5
440
 16777216
100
AcDbMText
 10
465.0533186810791
 20
170.5850602419522
 30
0.0
 40
2.0
 41
0.0
 71
     5
 72
     1
  1
39
  7
2014++
 73
     1
 44
1.0
1001
ACAD
1000
MTEXTBEGIN
1070
    73
1070
     1
1070
    44
1040
1.0
1070
    74
1070
     0
1000
MTEXTEND
  0
POINT
  5
100743
330
100442
100
AcDbEntity
  8
Defpoints
 62
     0
440
 16777216
100
AcDbPoint
 10
445.5533186810789
 20
209.1724063932842
 30
0.0
  0
POINT
  5
100744
330
100442
100
AcDbEntity
  8
Defpoints
 62
     0
440
 16777216
100
AcDbPoint
 10
484.553318681079
 20
192.6724063932842
 30
0.0
  0
POINT
  5
100745
330
100442
100
AcDbEntity
  8
Defpoints
 62
     0
440
 16777216
100
AcDbPoint
 10
484.553318681079
 20
168.8350602419522
 30
0.0
  0
ENDBLK
  5
10044D
330
100442
100
AcDbEntity
  8
0
100
AcDbBlockEnd
  0
BLOCK
  5
100458
330
10044E
100
AcDbEntity
  8
0
100
AcDbBlockBegin
  2
*D11
 70
     1
 10
0.0
 20
0.0
 30
0.0
  3
*D11
  1

  0
LINE
  5
100734
330
10044E
100
AcDbEntity
  8
AM_5
440
 16777216
100
AcDbLine
 10
484.553318681079
 20
190.6724063932841
 30
0.0
 11
484.553318681079
 21
182.2989895133704
 31
0.0
  0
LINE
  5
100735
330
10044E
100
AcDbEntity
  8
AM_5
440
 16777216
100
AcDbLine
 10
460.5533186810791
 20
195.9224063932841
 30
0.0
 11
460.5533186810791
 21
182.2989895133704
 31
0.0
  0
LINE
  5
100736
330
10044E
100
AcDbEntity
  8
AM_5
440
 16777216
100
AcDbLine
 10
482.553318681079
 20
183.2989895133704
 30
0.0
 11
462.553318681079
 21
183.2989895133704
 31
0.0
  0
SOLID
  5
100737
330
10044E
100
AcDbEntity
  8
AM_5
440
 16777216
100
AcDbTrace
 10
482.553318681079
 20
183.6323228467037
 30
0.0
 11
482.553318681079
 21
182.9656561800371
 31
0.0
 12
484.553318681079
 22
183.2989895133704
 32
0.0
 13
484.553318681079
 23
183.2989895133704
 33
0.0
  0
SOLID
  5
100738
330
10044E
100
AcDbEntity
  8
AM_5
440
 16777216
100
AcDbTrace
 10
462.553318681079
 20
183.6323228467037
 30
0.0
 11
462.553318681079
 21
182.9656561800371
 31
0.0
 12
460.5533186810791
 22
183.2989895133704
 32
0.0
 13
460.5533186810791
 23
183.2989895133704
 33
0.0
  0
MTEXT
  5
100739
330
10044E
100
AcDbEntity
  8
AM_5
440
 16777216
100
AcDbMText
 10
472.5533186810791
 20
185.0489895133704
 30
0.0
 40
2.0
 41
0.0
 71
     5
 72
     1
  1
24
  7
2014++
 73
     1
 44
1.0
1001
ACAD
1000
MTEXTBEGIN
1070
    73
1070
     1
1070
    44
1040
1.0
1070
    74
1070
     0
1000
MTEXTEND
  0
POINT
  5
10073A
330
10044E
100
AcDbEntity
  8
Defpoints
 62
     0
440
 16777216
100
AcDbPoint
 10
484.553318681079
 20
192.6724063932842
 30
0.0
  0
POINT
  5
10073B
330
10044E
100
AcDbEntity
  8
Defpoints
 62
     0
440
 16777216
100
AcDbPoint
 10
460.5533186810791
 20
197.9224063932841
 30
0.0
  0
POINT
  5
10073C
330
10044E
100
AcDbEntity
  8
Defpoints
 62
     0
440
 16777216
100
AcDbPoint
 10
460.5533186810791
 20
183.2989895133704
 30
0.0
  0
ENDBLK
  5
100459
330
10044E
100
AcDbEntity
  8
0
100
AcDbBlockEnd
  0
BLOCK
  5
10048E
330
100481
100
AcDbEntity
  8
0
100
AcDbBlockBegin
  2
*D15
 70
     1
 10
0.0
 20
0.0
 30
0.0
  3
*D15
  1

  0
LINE
  5
1007BC
330
100481
100
AcDbEntity
  8
AM_5
440
 16777216
100
AcDbLine
 10
484.5533186810787
 20
359.4861826849348
 30
0.0
 11
484.5533186810787
 21
373.241929741652
 31
0.0
  0
LINE
  5
1007BD
330
100481
100
AcDbEntity
  8
AM_5
440
 16777216
100
AcDbLine
 10
481.3533186810787
 20
359.4861826849348
 30
0.0
 11
481.3533186810787
 21
373.241929741652
 31
0.0
  0
LINE
  5
1007BE
330
100481
100
AcDbEntity
  8
AM_5
440
 16777216
100
AcDbLine
 10
486.5533186810788
 20
372.241929741652
 30
0.0
 11
488.5533186810787
 21
372.241929741652
 31
0.0
  0
LINE
  5
1007BF
330
100481
100
AcDbEntity
  8
AM_5
440
 16777216
100
AcDbLine
 10
479.3533186810788
 20
372.241929741652
 30
0.0
 11
469.4533186810788
 21
372.241929741652
 31
0.0
  0
LINE
  5
1007C0
330
100481
100
AcDbEntity
  8
AM_5
440
 16777216
100
AcDbLine
 10
484.5533186810787
 20
372.241929741652
 30
0.0
 11
481.3533186810787
 21
372.241929741652
 31
0.0
  0
SOLID
  5
1007C1
330
100481
100
AcDbEntity
  8
AM_5
440
 16777216
100
AcDbTrace
 10
486.5533186810788
 20
372.5752630749854
 30
0.0
 11
486.5533186810788
 21
371.9085964083187
 31
0.0
 12
484.5533186810787
 22
372.241929741652
 32
0.0
 13
484.5533186810787
 23
372.241929741652
 33
0.0
  0
SOLID
  5
1007C2
330
100481
100
AcDbEntity
  8
AM_5
440
 16777216
100
AcDbTrace
 10
479.3533186810788
 20
372.5752630749854
 30
0.0
 11
479.3533186810788
 21
371.9085964083187
 31
0.0
 12
481.3533186810787
 22
372.241929741652
 32
0.0
 13
481.3533186810787
 23
372.241929741652
 33
0.0
  0
MTEXT
  5
1007C3
330
100481
100
AcDbEntity
  8
AM_5
440
 16777216
100
AcDbMText
 10
473.4033186810788
 20
373.991929741652
 30
0.0
 40
2.0
 41
0.0
 71
     5
 72
     1
  1
t=3.2
  7
2014++
 73
     1
 44
1.0
1001
ACAD
1000
MTEXTBEGIN
1070
    73
1070
     1
1070
    44
1040
1.0
1070
    74
1070
     0
1000
MTEXTEND
  0
POINT
  5
1007C4
330
100481
100
AcDbEntity
  8
Defpoints
 62
     0
440
 16777216
100
AcDbPoint
 10
484.5533186810787
 20
357.4861826849348
 30
0.0
  0
POINT
  5
1007C5
330
100481
100
AcDbEntity
  8
Defpoints
 62
     0
440
 16777216
100
AcDbPoint
 10
481.3533186810787
 20
357.4861826849348
 30
0.0
  0
POINT
  5
1007C6
330
100481
100
AcDbEntity
  8
Defpoints
 62
     0
440
 16777216
100
AcDbPoint
 10
481.3533186810787
 20
372.241929741652
 30
0.0
  0
ENDBLK
  5
10048F
330
100481
100
AcDbEntity
  8
0
100
AcDbBlockEnd
  0
BLOCK
  5
1005FF
330
1005F5
100
AcDbEntity
  8
0
100
AcDbBlockBegin
  2
*D17
 70
     1
 10
0.0
 20
0.0
 30
0.0
  3
*D17
  1

  0
LINE
  5
100746
330
1005F5
100
AcDbEntity
  8
AM_5
440
 16777216
100
AcDbLine
 10
407.7310384809166
 20
355.4861826849348
 30
0.0
 11
407.7310384809166
 21
373.241929741652
 31
0.0
  0
LINE
  5
100747
330
1005F5
100
AcDbEntity
  8
AM_5
440
 16777216
100
AcDbLine
 10
391.2310384809168
 20
364.4861826849348
 30
0.0
 11
391.2310384809168
 21
373.241929741652
 31
0.0
  0
LINE
  5
100748
330
1005F5
100
AcDbEntity
  8
AM_5
440
 16777216
100
AcDbLine
 10
405.7310384809166
 20
372.241929741652
 30
0.0
 11
393.2310384809168
 21
372.241929741652
 31
0.0
  0
SOLID
  5
100749
330
1005F5
100
AcDbEntity
  8
AM_5
440
 16777216
100
AcDbTrace
 10
405.7310384809166
 20
372.5752630749854
 30
0.0
 11
405.7310384809166
 21
371.9085964083187
 31
0.0
 12
407.7310384809166
 22
372.241929741652
 32
0.0
 13
407.7310384809166
 23
372.241929741652
 33
0.0
  0
SOLID
  5
10074A
330
1005F5
100
AcDbEntity
  8
AM_5
440
 16777216
100
AcDbTrace
 10
393.2310384809168
 20
372.5752630749854
 30
0.0
 11
393.2310384809168
 21
371.9085964083187
 31
0.0
 12
391.2310384809168
 22
372.241929741652
 32
0.0
 13
391.2310384809168
 23
372.241929741652
 33
0.0
  0
MTEXT
  5
10074B
330
1005F5
100
AcDbEntity
  8
AM_5
440
 16777216
100
AcDbMText
 10
399.4810384809168
 20
373.991929741652
 30
0.0
 40
2.0
 41
0.0
 71
     5
 72
     1
  1
16.5
  7
2014++
 73
     1
 44
1.0
1001
ACAD
1000
MTEXTBEGIN
1070
    73
1070
     1
1070
    44
1040
1.0
1070
    74
1070
     0
1000
MTEXTEND
  0
POINT
  5
10074C
330
1005F5
100
AcDbEntity
  8
Defpoints
 62
     0
440
 16777216
100
AcDbPoint
 10
407.7310384809166
 20
353.4861826849348
 30
0.0
  0
POINT
  5
10074D
330
1005F5
100
AcDbEntity
  8
Defpoints
 62
     0
440
 16777216
100
AcDbPoint
 10
391.2310384809168
 20
362.4861826849348
 30
0.0
  0
POINT
  5
10074E
330
1005F5
100
AcDbEntity
  8
Defpoints
 62
     0
440
 16777216
100
AcDbPoint
 10
391.2310384809168
 20
372.241929741652
 30
0.0
  0
ENDBLK
  5
100600
330
1005F5
100
AcDbEntity
  8
0
100
AcDbBlockEnd
  0
ENDSEC
  0
SECTION
  2
ENTITIES
  0
DIMENSION
  5
10021D
330
1F
100
AcDbEntity
  8
AM_5
100
AcDbDimension
  2
*D1
 10
395.4833327643837
 20
334.5700873515635
 30
0.0
 11
365.5509103823557
 21
369.175086954003
 31
0.0
 70
   163
  1
<>
 71
     5
 42
12.99999999999968
  3
2014+
100
AcDbDiametricDimension
 15
386.9787441974515
 25
344.402278018307
 35
0.0
 40
0.0
1001
ACAD
1000
DSTYLE
1002
{
1070
    40
1040
1.0
1002
}
1001
ACAD_DSTYLE_DIMINSPECT
1070
   396
1000
100%
1070
   395
1000

1070
   394
1070
    33
1070
   393
1070
     0
  0
ARC
  5
10021E
330
1F
100
AcDbEntity
  8
AM_5
100
AcDbCircle
 10
378.7310384809166
 20
353.4861826849348
 30
0.0
 40
4.0
100
AcDbArc
 50
90.0
 51
180.0
  0
DIMENSION
  5
10021F
330
1F
100
AcDbEntity
  8
AM_5
100
AcDbDimension
  2
*D2
 10
391.2310384809168
 20
372.241929741652
 30
0.0
 11
382.9810384809168
 21
373.991929741652
 31
0.0
 70
    32
 71
     5
 42
16.5
  3
2014+$0
100
AcDbAlignedDimension
 13
374.7310384809168
 23
353.4861826849348
 33
0.0
 14
391.2310384809168
 24
362.4861826849348
 34
0.0
 50
180.0
100
AcDbRotatedDimension
1001
ACAD
1000
DSTYLE
1002
{
1070
    40
1040
1.0
1002
}
1001
ACAD_DSTYLE_DIMINSPECT
1070
   396
1000
100%
1070
   395
1000

1070
   394
1070
    33
1070
   393
1070
     0
  0
DIMENSION
  5
100220
330
1F
100
AcDbEntity
  8
AM_5
100
AcDbDimension
  2
*D3
 10
350.6013259341042
 20
357.4861826849348
 30
0.0
 11
348.851325934104
 21
348.4861826849348
 31
0.0
 70
    32
  1
<>
 71
     5
 42
18.0
  3
2014+$0
100
AcDbAlignedDimension
 13
379.7310384809168
 23
339.4861826849349
 33
0.0
 14
378.7310384809168
 24
357.4861826849348
 34
0.0
 50
90.0
100
AcDbRotatedDimension
1001
ACAD
1000
DSTYLE
1002
{
1070
    40
1040
1.0
1002
}
1001
ACAD_DSTYLE_DIMINSPECT
1070
   396
1000
100%
1070
   395
1000

1070
   394
1070
    33
1070
   393
1070
     0
  0
LINE
  5
100221
330
1F
100
AcDbEntity
  8
AM_5
100
AcDbLine
 10
379.6010384809167
 20
244.4861826849349
 30
0.0
 11
374.7310384809168
 21
244.4861826849349
 31
0.0
  0
POLYLINE
  5
100222
330
1F
100
AcDbEntity
  8
AM_5
100
AcDb2dPolyline
 66
     1
 10
0.0
 20
0.0
 30
0.0
  0
VERTEX
  5
100223
330
100222
100
AcDbEntity
  8
AM_5
100
AcDbVertex
100
AcDb2dVertex
 10
377.7310384809166
 20
252.7573522813898
 30
0.0
  0
VERTEX
  5
100224
330
100222
100
AcDbEntity
  8
AM_5
100
AcDbVertex
100
AcDb2dVertex
 10
377.8085440694455
 20
253.4303740914249
 30
0.0
  0
VERTEX
  5
100225
330
100222
100
AcDbEntity
  8
AM_5
100
AcDbVertex
100
AcDb2dVertex
 10
377.9346007405882
 20
254.0003661568546
 30
0.0
  0
VERTEX
  5
100226
330
100222
100
AcDbEntity
  8
AM_5
100
AcDbVertex
100
AcDb2dVertex
 10
378.116726308978
 20
254.5511321480656
 30
0.0
  0
VERTEX
  5
100227
330
100222
100
AcDbEntity
  8
AM_5
100
AcDbVertex
100
AcDb2dVertex
 10
378.3522337972286
 20
255.0752715523624
 30
0.0
  0
VERTEX
  5
100228
330
100222
100
AcDbEntity
  8
AM_5
100
AcDbVertex
100
AcDb2dVertex
 10
378.6369580327631
 20
255.570185607233
 30
0.0
  0
VERTEX
  5
100229
330
100222
100
AcDbEntity
  8
AM_5
100
AcDbVertex
100
AcDb2dVertex
 10
378.9630526601435
 20
256.0291127617741
 30
0.0
  0
VERTEX
  5
10022A
330
100222
100
AcDbEntity
  8
AM_5
100
AcDbVertex
100
AcDb2dVertex
 10
379.3229431211114
 20
256.4458684380436
 30
0.0
  0
VERTEX
  5
10022B
330
100222
100
AcDbEntity
  8
AM_5
100
AcDbVertex
100
AcDb2dVertex
 10
379.7102755605339
 20
256.8203858788395
 30
0.0
  0
VERTEX
  5
10022C
330
100222
100
AcDbEntity
  8
AM_5
100
AcDbVertex
100
AcDb2dVertex
 10
380.1158708631156
 20
257.1523599083805
 30
0.0
  0
VERTEX
  5
10022D
330
100222
100
AcDbEntity
  8
AM_5
100
AcDbVertex
100
AcDb2dVertex
 10
380.530254274523
 20
257.4412087853336
 30
0.0
  0
VERTEX
  5
10022E
330
100222
100
AcDbEntity
  8
AM_5
100
AcDbVertex
100
AcDb2dVertex
 10
380.9480494557973
 20
257.6910762246036
 30
0.0
  0
VERTEX
  5
10022F
330
100222
100
AcDbEntity
  8
AM_5
100
AcDbVertex
100
AcDb2dVertex
 10
381.3680047093983
 20
257.9077462609196
 30
0.0
  0
VERTEX
  5
100230
330
100222
100
AcDbEntity
  8
AM_5
100
AcDbVertex
100
AcDb2dVertex
 10
381.7887968122118
 20
258.0961493904971
 30
0.0
  0
VERTEX
  5
100231
330
100222
100
AcDbEntity
  8
AM_5
100
AcDbVertex
100
AcDb2dVertex
 10
382.2103566228501
 20
258.2616834099674
 30
0.0
  0
VERTEX
  5
100232
330
100222
100
AcDbEntity
  8
AM_5
100
AcDbVertex
100
AcDb2dVertex
 10
383.0703634320847
 20
258.5417346413517
 30
0.0
  0
VERTEX
  5
100233
330
100222
100
AcDbEntity
  8
AM_5
100
AcDbVertex
100
AcDb2dVertex
 10
383.9672464429485
 20
258.7687854226017
 30
0.0
  0
VERTEX
  5
100234
330
100222
100
AcDbEntity
  8
AM_5
100
AcDbVertex
100
AcDb2dVertex
 10
384.4346970616923
 20
258.8679246361636
 30
0.0
  0
VERTEX
  5
100235
330
100222
100
AcDbEntity
  8
AM_5
100
AcDbVertex
100
AcDb2dVertex
 10
384.9176472722636
 20
258.9593057091617
 30
0.0
  0
VERTEX
  5
100236
330
100222
100
AcDbEntity
  8
AM_5
100
AcDbVertex
100
AcDb2dVertex
 10
385.4162258206949
 20
259.0429810936832
 30
0.0
  0
VERTEX
  5
100237
330
100222
100
AcDbEntity
  8
AM_5
100
AcDbVertex
100
AcDb2dVertex
 10
385.9298366605385
 20
259.1191558297062
 30
0.0
  0
VERTEX
  5
100238
330
100222
100
AcDbEntity
  8
AM_5
100
AcDbVertex
100
AcDb2dVertex
 10
386.4578861295326
 20
259.1880349572086
 30
0.0
  0
VERTEX
  5
100239
330
100222
100
AcDbEntity
  8
AM_5
100
AcDbVertex
100
AcDb2dVertex
 10
387.0009225904088
 20
259.2498521263981
 30
0.0
  0
VERTEX
  5
10023A
330
100222
100
AcDbEntity
  8
AM_5
100
AcDbVertex
100
AcDb2dVertex
 10
387.5602120458227
 20
259.3047408516788
 30
0.0
  0
VERTEX
  5
10023B
330
100222
100
AcDbEntity
  8
AM_5
100
AcDbVertex
100
AcDb2dVertex
 10
388.1334346829991
 20
259.3525914605045
 30
0.0
  0
VERTEX
  5
10023C
330
100222
100
AcDbEntity
  8
AM_5
100
AcDbVertex
100
AcDb2dVertex
 10
388.7181252538304
 20
259.3933038170719
 30
0.0
  0
VERTEX
  5
10023D
330
100222
100
AcDbEntity
  8
AM_5
100
AcDbVertex
100
AcDb2dVertex
 10
389.3118101655582
 20
259.426763480463
 30
0.0
  0
VERTEX
  5
10023E
330
100222
100
AcDbEntity
  8
AM_5
100
AcDbVertex
100
AcDb2dVertex
 10
389.9120217858889
 20
259.4528607781315
 30
0.0
  0
VERTEX
  5
10023F
330
100222
100
AcDbEntity
  8
AM_5
100
AcDbVertex
100
AcDb2dVertex
 10
390.5162900983432
 20
259.4714908059025
 30
0.0
  0
VERTEX
  5
100240
330
100222
100
AcDbEntity
  8
AM_5
100
AcDbVertex
100
AcDb2dVertex
 10
391.1229831277469
 20
259.4825725014591
 30
0.0
  0
VERTEX
  5
100241
330
100222
100
AcDbEntity
  8
AM_5
100
AcDbVertex
100
AcDb2dVertex
 10
391.2310384809168
 20
259.4861539148221
 30
0.0
  0
SEQEND
  5
100242
330
100222
100
AcDbEntity
  8
AM_5
  0
DIMENSION
  5
100244
330
1F
100
AcDbEntity
  8
AM_5
100
AcDbDimension
  2
*D5
 10
350.601325934104
 20
244.4861826849349
 30
0.0
 11
348.8513259341039
 21
291.9861826849349
 31
0.0
 70
    32
 71
     5
 42
94.99999999999998
  3
2014+$0
100
AcDbAlignedDimension
 13
379.7310384809168
 23
339.4861826849349
 33
0.0
 14
374.7310384809168
 24
244.4861826849349
 34
0.0
 50
90.0
100
AcDbRotatedDimension
1001
ACAD
1000
DSTYLE
1002
{
1070
    40
1040
1.0
1002
}
1001
ACAD_DSTYLE_DIMINSPECT
1070
   396
1000
100%
1070
   395
1000

1070
   394
1070
    33
1070
   393
1070
     0
  0
DIMENSION
  5
100245
330
1F
100
AcDbEntity
  8
AM_5
100
AcDbDimension
  2
*D6
 10
340.0254283377524
 20
357.4861826849348
 30
0.0
 11
340.0254283377523
 21
300.9861826849349
 31
0.0
 70
   160
  1
<>
 71
     5
 42
112.9999999999999
  3
2014+$0
100
AcDbAlignedDimension
 13
374.7310384809168
 23
244.4861826849349
 33
0.0
 14
378.7310384809168
 24
357.4861826849348
 34
0.0
 50
90.0
100
AcDbRotatedDimension
1001
ACAD
1000
DSTYLE
1002
{
1070
    40
1040
1.0
1002
}
1001
ACAD_DSTYLE_DIMINSPECT
1070
   396
1000
100%
1070
   395
1000

1070
   394
1070
    33
1070
   393
1070
     0
  0
DIMENSION
  5
100246
330
1F
100
AcDbEntity
  8
AM_5
100
AcDbDimension
  2
*D7
 10
407.7310384809168
 20
222.0622611625379
 30
0.0
 11
391.2310384809168
 21
223.8122611625379
 31
0.0
 70
    32
  1
<>
 71
     5
 42
33.00000000000006
  3
2014+$0
100
AcDbAlignedDimension
 13
374.7310384809168
 23
244.4861826849349
 33
0.0
 14
407.7310384809168
 24
244.4861826849349
 34
0.0
 50
180.0
100
AcDbRotatedDimension
1001
ACAD
1000
DSTYLE
1002
{
1070
    40
1040
1.0
1002
}
1001
ACAD_DSTYLE_DIMINSPECT
1070
   396
1000
100%
1070
   395
1000

1070
   394
1070
    33
1070
   393
1070
     0
  0
ELLIPSE
  5
100247
330
1F
100
AcDbEntity
  8
AM_5
100
AcDbEllipse
 10
391.2310384809126
 20
245.2317721569073
 30
0.0
 11
-13.51250672834795
 21
0.0000000000118135
 31
0.0
210
0.0
220
0.0
230
1.0
 40
0.1337344383267898
 41
3.184620776220985
 42
6.240157184679721
  0
LINE
  5
10024E
330
1F
100
AcDbEntity
  8
AM_5
100
AcDbLine
 10
391.2310384809168
 20
240.4861826849349
 30
0.0
 11
391.2310384809168
 21
362.4861826849348
 31
0.0
  0
LINE
  5
100251
330
1F
100
AcDbEntity
  8
AM_5
100
AcDbLine
 10
484.5533186810786
 20
260.786182684935
 30
0.0
 11
484.553318681079
 21
357.4861826849348
 31
0.0
  0
LINE
  5
100252
330
1F
100
AcDbEntity
  8
AM_5
100
AcDbLine
 10
481.353318681079
 20
260.786182684935
 30
0.0
 11
481.3533186810787
 21
357.4861826849348
 31
0.0
  0
LINE
  5
100253
330
1F
100
AcDbEntity
  8
AM_5
100
AcDbLine
 10
407.7310384809168
 20
244.4861826849349
 30
0.0
 11
407.7310384809166
 21
353.4861826849348
 31
0.0
  0
LINE
  5
100254
330
1F
100
AcDbEntity
  8
AM_5
100
AcDbLine
 10
445.5533186810789
 20
247.0388596546093
 30
0.0
 11
467.5533186810793
 21
246.2706027257912
 31
0.0
  0
LINE
  5
100255
330
1F
100
AcDbEntity
  8
AM_5
100
AcDbLine
 10
451.6510372718458
 20
256.2881320384738
 30
0.0
 11
470.8512852916664
 21
255.6176446031888
 31
0.0
  0
LINE
  5
100256
330
1F
100
AcDbEntity
  8
AM_5
100
AcDbLine
 10
451.7627156612937
 20
259.4861826849349
 30
0.0
 11
470.9629636811347
 21
258.81569524965
 31
0.0
  0
ARC
  5
100257
330
1F
100
AcDbEntity
  8
AM_5
100
AcDbCircle
 10
459.5866520144124
 20
209.1724063932842
 30
0.0
 40
9.700000000000043
100
AcDbArc
 50
90.0
 51
270.0
  0
ARC
  5
100258
330
1F
100
AcDbEntity
  8
AM_5
100
AcDbCircle
 10
459.5866520144124
 20
209.1724063932842
 30
0.0
 40
10.83333333333339
100
AcDbArc
 50
90.0
 51
270.0
  0
ARC
  5
100259
330
1F
100
AcDbEntity
  8
AM_5
100
AcDbCircle
 10
459.5866520144124
 20
209.1724063932842
 30
0.0
 40
14.03333333333339
100
AcDbArc
 50
90.0
 51
270.0
  0
LINE
  5
10025A
330
1F
100
AcDbEntity
  8
AM_5
100
AcDbLine
 10
487.553318681079
 20
209.1724063932842
 30
0.0
 11
449.303318681079
 21
209.1724063932842
 31
0.0
  0
DIMENSION
  5
10025B
330
1F
100
AcDbEntity
  8
AM_5
100
AcDbDimension
  2
*D10
 10
484.553318681079
 20
168.8350602419522
 30
0.0
 11
465.0533186810791
 21
170.5850602419522
 31
0.0
 70
    32
 71
     5
 42
39.0
  3
2014+$0
100
AcDbAlignedDimension
 13
445.5533186810789
 23
209.1724063932842
 33
0.0
 14
484.553318681079
 24
192.6724063932842
 34
0.0
 50
180.0
100
AcDbRotatedDimension
1001
ACAD
1000
DSTYLE
1002
{
1070
    40
1040
1.0
1002
}
1001
ACAD_DSTYLE_DIMINSPECT
1070
   396
1000
100%
1070
   395
1000

1070
   394
1070
    33
1070
   393
1070
     0
  0
LINE
  5
10025C
330
1F
100
AcDbEntity
  8
AM_5
100
AcDbLine
 10
460.5533186810791
 20
197.9224063932841
 30
0.0
 11
460.5533186810791
 21
220.4224063932842
 31
0.0
  0
CIRCLE
  5
10025D
330
1F
100
AcDbEntity
  8
AM_5
100
AcDbCircle
 10
460.5533186810791
 20
209.1724063932842
 30
0.0
 40
6.5
  0
ARC
  5
10025E
330
1F
100
AcDbEntity
  8
AM_5
100
AcDbCircle
 10
479.7353034106969
 20
209.1724063932815
 30
0.0
 40
1.622326377282393
100
AcDbArc
 50
292.392159700589
 51
67.60784029940523
  0
ARC
  5
10025F
330
1F
100
AcDbEntity
  8
AM_5
100
AcDbCircle
 10
479.383753463696
 20
209.172406393281
 30
0.0
 40
5.169565217383079
100
AcDbArc
 50
303.7167975354345
 51
56.2832024645818
  0
LINE
  5
100260
330
1F
100
AcDbEntity
  8
AM_5
100
AcDbLine
 10
480.5533186810793
 20
216.4724063932771
 30
0.0
 11
480.5533186810793
 21
201.8724063932858
 31
0.0
  0
LINE
  5
100261
330
1F
100
AcDbEntity
  8
AM_5
100
AcDbLine
 10
481.353318681079
 20
192.6724063932842
 30
0.0
 11
481.353318681079
 21
225.6724063932842
 31
0.0
  0
LINE
  5
100262
330
1F
100
AcDbEntity
  8
AM_5
100
AcDbLine
 10
484.553318681079
 20
192.6724063932842
 30
0.0
 11
484.553318681079
 21
225.6724063932842
 31
0.0
  0
LINE
  5
100263
330
1F
100
AcDbEntity
  8
AM_5
100
AcDbLine
 10
467.553318681079
 20
192.6724063932842
 30
0.0
 11
484.553318681079
 21
192.6724063932842
 31
0.0
  0
LINE
  5
100264
330
1F
100
AcDbEntity
  8
AM_5
100
AcDbLine
 10
459.5866520144124
 20
199.4724063932843
 30
0.0
 11
481.5068719679095
 21
199.4724063932843
 31
0.0
  0
DIMENSION
  5
100265
330
1F
100
AcDbEntity
  8
AM_5
100
AcDbDimension
  2
*D11
 10
460.5533186810791
 20
183.2989895133704
 30
0.0
 11
472.5533186810791
 21
185.0489895133704
 31
0.0
 70
    32
 71
     5
 42
24.0
  3
2014+$0
100
AcDbAlignedDimension
 13
484.553318681079
 23
192.6724063932842
 33
0.0
 14
460.5533186810791
 24
197.9224063932841
 34
0.0
 50
180.0
100
AcDbRotatedDimension
1001
ACAD
1000
DSTYLE
1002
{
1070
    40
1040
1.0
1002
}
1001
ACAD_DSTYLE_DIMINSPECT
1070
   396
1000
100%
1070
   395
1000

1070
   394
1070
    33
1070
   393
1070
     0
  0
ARC
  5
100266
330
1F
100
AcDbEntity
  8
AM_5
100
AcDbCircle
 10
480.3902411412011
 20
195.1067569114983
 30
0.0
 40
4.201330020276728
100
AcDbArc
 50
7.737561237131575
 51
63.67582156406146
  0
ARC
  5
100267
330
1F
100
AcDbEntity
  8
AM_5
100
AcDbCircle
 10
480.553318681079
 20
194.5724063932847
 30
0.0
 40
0.8
100
AcDbArc
 50
0.0
 51
90.0
  0
ARC
  5
100268
330
1F
100
AcDbEntity
  8
AM_5
100
AcDbCircle
 10
480.553318681079
 20
194.5724063932856
 30
0.0
 40
0.8
100
AcDbArc
 50
0.0
 51
90.0
  0
ARC
  5
100269
330
1F
100
AcDbEntity
  8
AM_5
100
AcDbCircle
 10
484.0503775046081
 20
201.8724063932858
 30
0.0
 40
3.497058823529092
100
AcDbArc
 50
120.9224354808801
 51
239.0775645191199
  0
ARC
  5
10026A
330
1F
100
AcDbEntity
  8
AM_5
100
AcDbCircle
 10
484.5294877105398
 20
201.5886855644938
 30
0.0
 40
7.379163020644393
100
AcDbArc
 50
124.4676439652506
 51
237.3954692309023
  0
ARC
  5
10026B
330
1F
100
AcDbEntity
  8
AM_5
100
AcDbCircle
 10
458.6544236888737
 20
188.5950383356156
 30
0.0
 40
9.78852707816638
100
AcDbArc
 50
24.61668916255794
 51
84.53504881078263
  0
ARC
  5
10026C
330
1F
100
AcDbEntity
  8
AM_5
100
AcDbCircle
 10
459.2123006599711
 20
179.8315959377231
 30
0.0
 40
15.31205390481945
100
AcDbArc
 50
56.99341540270765
 51
88.59908474274723
  0
LINE
  5
10026D
330
1F
100
AcDbEntity
  8
AM_5
100
AcDbLine
 10
467.553318681079
 20
225.6724063932842
 30
0.0
 11
484.553318681079
 21
225.6724063932842
 31
0.0
  0
LINE
  5
10026E
330
1F
100
AcDbEntity
  8
AM_5
100
AcDbLine
 10
459.5866520144124
 20
218.872406393284
 30
0.0
 11
481.5068719679155
 21
218.8724063932844
 31
0.0
  0
ARC
  5
10026F
330
1F
100
AcDbEntity
  8
AM_5
100
AcDbCircle
 10
484.5294877105401
 20
216.756127222069
 30
0.0
 40
7.379163020644463
100
AcDbArc
 50
122.6045307690976
 51
235.5323560347495
  0
ARC
  5
100270
330
1F
100
AcDbEntity
  8
AM_5
100
AcDbCircle
 10
480.553318681079
 20
223.7724063932845
 30
0.0
 40
0.8
100
AcDbArc
 50
270.0
 51
0.0
  0
ARC
  5
100271
330
1F
100
AcDbEntity
  8
AM_5
100
AcDbCircle
 10
480.553318681079
 20
223.7724063932768
 30
0.0
 40
0.8
100
AcDbArc
 50
270.0
 51
0.0
  0
ARC
  5
100272
330
1F
100
AcDbEntity
  8
AM_5
100
AcDbCircle
 10
480.3902411412011
 20
223.2380558750641
 30
0.0
 40
4.201330020276728
100
AcDbArc
 50
296.3241784359386
 51
352.2624387628685
  0
ARC
  5
100273
330
1F
100
AcDbEntity
  8
AM_5
100
AcDbCircle
 10
484.0503775046081
 20
216.4724063932771
 30
0.0
 40
3.497058823529092
100
AcDbArc
 50
120.9224354808801
 51
239.0775645191199
  0
ARC
  5
100274
330
1F
100
AcDbEntity
  8
AM_5
100
AcDbCircle
 10
459.2123006599711
 20
238.5132168488452
 30
0.0
 40
15.31205390481945
100
AcDbArc
 50
271.4009152572528
 51
303.0065845972923
  0
ARC
  5
100275
330
1F
100
AcDbEntity
  8
AM_5
100
AcDbCircle
 10
458.6544236888737
 20
229.7497744509536
 30
0.0
 40
9.78852707816638
100
AcDbArc
 50
275.4649511892174
 51
335.3833108374421
  0
LINE
  5
100276
330
1F
100
AcDbEntity
  8
AM_5
100
AcDbLine
 10
477.5184998372488
 20
264.7203993380811
 30
0.0
 11
481.3533186810787
 21
312.4861826849349
 31
0.0
  0
LINE
  5
100277
330
1F
100
AcDbEntity
  8
AM_5
100
AcDbLine
 10
479.4768874941686
 20
260.852894586424
 30
0.0
 11
481.3533186810787
 21
309.2861826849351
 31
0.0
  0
ARC
  5
100278
330
1F
100
AcDbEntity
  8
AM_5
100
AcDbCircle
 10
468.2533186810783
 20
260.786182684935
 30
0.0
 40
13.1
100
AcDbArc
 50
270.0
 51
0.0
  0
ARC
  5
100279
330
1F
100
AcDbEntity
  8
AM_5
100
AcDbCircle
 10
468.2533186810783
 20
260.786182684935
 30
0.0
 40
16.3
100
AcDbArc
 50
270.0
 51
0.0
  0
ARC
  5
10027A
330
1F
100
AcDbEntity
  8
AM_5
100
AcDbCircle
 10
471.1723606613293
 20
264.8120402117644
 30
0.0
 40
9.199999999999999
100
AcDbArc
 50
267.9999999999964
 51
334.5107390679026
  0
ARC
  5
10027B
330
1F
100
AcDbEntity
  8
AM_5
100
AcDbCircle
 10
478.353318681079
 20
267.9260243059208
 30
0.0
 40
3.0
100
AcDbArc
 50
285.7165354298157
 51
0.0
  0
ARC
  5
10027C
330
1F
100
AcDbEntity
  8
AM_5
100
AcDbCircle
 10
481.2849487413908
 20
265.5518551463558
 30
0.0
 40
3.281209643065788
100
AcDbArc
 50
263.8857296848338
 51
354.9296276029321
  0
ARC
  5
10027D
330
1F
100
AcDbEntity
  8
AM_5
100
AcDbCircle
 10
482.1848853744422
 20
259.5618688390306
 30
0.0
 40
3.0
100
AcDbArc
 50
114.6122160050957
 51
154.5107390679026
  0
ARC
  5
10027E
330
1F
100
AcDbEntity
  8
AM_5
100
AcDbCircle
 10
479.9785882730018
 20
262.150342635886
 30
0.0
 40
3.0
100
AcDbArc
 50
105.7165354298156
 51
160.0248879681348
  0
ARC
  5
10027F
330
1F
100
AcDbEntity
  8
AM_5
100
AcDbCircle
 10
470.9358757745397
 20
265.4371732269639
 30
0.0
 40
6.621533384250015
100
AcDbArc
 50
270.2343908822053
 51
353.7856162472428
  0
LINE
  5
100280
330
1F
100
AcDbEntity
  8
AM_5
100
AcDbLine
 10
460.9023136481038
 20
269.1731163333782
 30
0.0
 11
460.0926453246058
 21
243.3230891955811
 31
0.0
  0
LINE
  5
100281
330
1F
100
AcDbEntity
  8
AM_5
100
AcDbLine
 10
467.5533186810793
 20
244.4861826849349
 30
0.0
 11
467.5533186810793
 21
247.6861826849347
 31
0.0
  0
LINE
  5
100282
330
1F
100
AcDbEntity
  8
AM_5
100
AcDbLine
 10
468.2533186810783
 20
244.4861826849349
 30
0.0
 11
467.5533186810793
 21
244.4861826849349
 31
0.0
  0
LINE
  5
100283
330
1F
100
AcDbEntity
  8
AM_5
100
AcDbLine
 10
468.2533186810783
 20
247.6861826849347
 30
0.0
 11
467.5533186810793
 21
247.6861826849347
 31
0.0
  0
LINE
  5
100284
330
1F
100
AcDbEntity
  8
AM_5
100
AcDbLine
 10
454.057278305455
 20
259.406054791754
 30
0.0
 11
453.9455999160068
 21
256.208004145293
 31
0.0
  0
LINE
  5
100285
330
1F
100
AcDbEntity
  8
AM_5
100
AcDbLine
 10
467.0493590567031
 20
258.9523613346212
 30
0.0
 11
466.9376806672548
 21
255.7543106881596
 31
0.0
  0
LINE
  5
100288
330
1F
100
AcDbEntity
  8
AM_5
100
AcDbLine
 10
445.5533186810789
 20
247.0388596546093
 30
0.0
 11
445.5533186810789
 21
253.4898377228203
 31
0.0
  0
LINE
  5
100289
330
1F
100
AcDbEntity
  8
AM_5
100
AcDbLine
 10
448.7533186810789
 20
247.0388596546093
 30
0.0
 11
448.7533186810789
 21
253.4898377228203
 31
0.0
  0
ARC
  5
10028A
330
1F
100
AcDbEntity
  8
AM_5
100
AcDbCircle
 10
451.5533186810787
 20
253.4898377228203
 30
0.0
 40
2.799999999999998
100
AcDbArc
 50
87.99999999999641
 51
180.0
  0
ARC
  5
10028B
330
1F
100
AcDbEntity
  8
AM_5
100
AcDbCircle
 10
451.5533186810787
 20
253.4898377228203
 30
0.0
 40
6.0
100
AcDbArc
 50
87.99999999999641
 51
180.0
  0
LINE
  5
10028C
330
1F
100
AcDbEntity
  8
AM_5
100
AcDbLine
 10
389.7310384809168
 20
262.4861826849349
 30
0.0
 11
389.7310384809167
 21
312.4861826849349
 31
0.0
  0
LINE
  5
10028D
330
1F
100
AcDbEntity
  8
AM_5
100
AcDbLine
 10
405.2310384809166
 20
309.4861826849349
 30
0.0
 11
405.2310384809166
 21
245.260154447755
 31
0.0
  0
LINE
  5
10028E
330
1F
100
AcDbEntity
  8
AM_5
100
AcDbLine
 10
392.7310384809168
 20
262.4861826849349
 30
0.0
 11
392.7310384809166
 21
312.4861826849349
 31
0.0
  0
ELLIPSE
  5
10028F
330
1F
100
AcDbEntity
  8
AM_5
100
AcDbEllipse
 10
391.2310384809139
 20
245.328359025196
 30
0.0
 11
-10.30063333392339
 21
-0.0000000000082809
 31
0.0
210
0.0
220
0.0
230
0.9999999999999998
 40
0.0891012629710927
 41
3.152681889793455
 42
6.272096070957875
  0
LINE
  5
100290
330
1F
100
AcDbEntity
  8
AM_5
100
AcDbLine
 10
382.731038480917
 20
253.0529862032097
 30
0.0
 11
399.7310384809166
 21
253.0529862032097
 31
0.0
  0
POLYLINE
  5
100291
330
1F
100
AcDbEntity
  8
AM_5
100
AcDb2dPolyline
 66
     1
 10
0.0
 20
0.0
 30
0.0
  0
VERTEX
  5
100292
330
100291
100
AcDbEntity
  8
AM_5
100
AcDbVertex
100
AcDb2dVertex
 10
391.2310384809168
 20
259.4861826849349
 30
0.0
  0
VERTEX
  5
100293
330
100291
100
AcDbEntity
  8
AM_5
100
AcDbVertex
100
AcDb2dVertex
 10
391.3451370298005
 20
259.48233408288
 30
0.0
  0
VERTEX
  5
100294
330
100291
100
AcDbEntity
  8
AM_5
100
AcDbVertex
100
AcDb2dVertex
 10
391.9552334844208
 20
259.4711045678043
 30
0.0
  0
VERTEX
  5
100295
330
100291
100
AcDbEntity
  8
AM_5
100
AcDbVertex
100
AcDb2dVertex
 10
392.5607451497652
 20
259.4525174553776
 30
0.0
  0
VERTEX
  5
100296
330
100291
100
AcDbEntity
  8
AM_5
100
AcDbVertex
100
AcDb2dVertex
 10
393.1587275563813
 20
259.4266204293155
 30
0.0
  0
VERTEX
  5
100297
330
100291
100
AcDbEntity
  8
AM_5
100
AcDbVertex
100
AcDb2dVertex
 10
393.747670322571
 20
259.3934134896183
 30
0.0
  0
VERTEX
  5
100298
330
100291
100
AcDbEntity
  8
AM_5
100
AcDbVertex
100
AcDb2dVertex
 10
394.3284699021914
 20
259.3528727944279
 30
0.0
  0
VERTEX
  5
100299
330
100291
100
AcDbEntity
  8
AM_5
100
AcDbVertex
100
AcDb2dVertex
 10
394.8992272912602
 20
259.3050937111759
 30
0.0
  0
VERTEX
  5
10029A
330
100291
100
AcDbEntity
  8
AM_5
100
AcDbVertex
100
AcDb2dVertex
 10
395.4579123555758
 20
259.2501763756656
 30
0.0
  0
VERTEX
  5
10029B
330
100291
100
AcDbEntity
  8
AM_5
100
AcDbVertex
100
AcDb2dVertex
 10
396.0024925767521
 20
259.1882113869572
 30
0.0
  0
VERTEX
  5
10029C
330
100291
100
AcDbEntity
  8
AM_5
100
AcDbVertex
100
AcDb2dVertex
 10
396.5309771596533
 20
259.1193036492252
 30
0.0
  0
VERTEX
  5
10029D
330
100291
100
AcDbEntity
  8
AM_5
100
AcDbVertex
100
AcDb2dVertex
 10
397.0436128675086
 20
259.0435056145572
 30
0.0
  0
VERTEX
  5
10029E
330
100291
100
AcDbEntity
  8
AM_5
100
AcDbVertex
100
AcDb2dVertex
 10
397.5414719878776
 20
258.9603022988224
 30
0.0
  0
VERTEX
  5
10029F
330
100291
100
AcDbEntity
  8
AM_5
100
AcDbVertex
100
AcDb2dVertex
 10
398.0249795018776
 20
258.8690070565128
 30
0.0
  0
VERTEX
  5
1002A0
330
100291
100
AcDbEntity
  8
AM_5
100
AcDbVertex
100
AcDb2dVertex
 10
398.4945615827188
 20
258.7689427788639
 30
0.0
  0
VERTEX
  5
1002A1
330
100291
100
AcDbEntity
  8
AM_5
100
AcDbVertex
100
AcDb2dVertex
 10
399.3936839400877
 20
258.5397700722599
 30
0.0
  0
VERTEX
  5
1002A2
330
100291
100
AcDbEntity
  8
AM_5
100
AcDbVertex
100
AcDb2dVertex
 10
400.2524926959623
 20
258.2617597039127
 30
0.0
  0
VERTEX
  5
1002A3
330
100291
100
AcDbEntity
  8
AM_5
100
AcDbVertex
100
AcDb2dVertex
 10
400.6739684640518
 20
258.0961446221256
 30
0.0
  0
VERTEX
  5
1002A4
330
100291
100
AcDbEntity
  8
AM_5
100
AcDbVertex
100
AcDb2dVertex
 10
401.0933401881807
 20
257.9077796395206
 30
0.0
  0
VERTEX
  5
1002A5
330
100291
100
AcDbEntity
  8
AM_5
100
AcDbVertex
100
AcDb2dVertex
 10
401.5148248969667
 20
257.6901893074894
 30
0.0
  0
VERTEX
  5
1002A6
330
100291
100
AcDbEntity
  8
AM_5
100
AcDbVertex
100
AcDb2dVertex
 10
401.9360133706684
 20
257.4382667000675
 30
0.0
  0
VERTEX
  5
1002A7
330
100291
100
AcDbEntity
  8
AM_5
100
AcDbVertex
100
AcDb2dVertex
 10
402.3512279688473
 20
257.1487645562076
 30
0.0
  0
VERTEX
  5
1002A8
330
100291
100
AcDbEntity
  8
AM_5
100
AcDbVertex
100
AcDb2dVertex
 10
402.7547910510655
 20
256.8184117730045
 30
0.0
  0
VERTEX
  5
1002A9
330
100291
100
AcDbEntity
  8
AM_5
100
AcDbVertex
100
AcDb2dVertex
 10
403.1408488451598
 20
256.4440993721866
 30
0.0
  0
VERTEX
  5
1002AA
330
100291
100
AcDbEntity
  8
AM_5
100
AcDbVertex
100
AcDb2dVertex
 10
403.5010027586578
 20
256.0268382485294
 30
0.0
  0
VERTEX
  5
1002AB
330
100291
100
AcDbEntity
  8
AM_5
100
AcDbVertex
100
AcDb2dVertex
 10
403.8260867892859
 20
255.5692891533756
 30
0.0
  0
VERTEX
  5
1002AC
330
100291
100
AcDbEntity
  8
AM_5
100
AcDbVertex
100
AcDb2dVertex
 10
404.1101357041955
 20
255.0734357293034
 30
0.0
  0
VERTEX
  5
1002AD
330
100291
100
AcDbEntity
  8
AM_5
100
AcDbVertex
100
AcDb2dVertex
 10
404.3465783893227
 20
254.546974128046
 30
0.0
  0
VERTEX
  5
1002AE
330
100291
100
AcDbEntity
  8
AM_5
100
AcDbVertex
100
AcDb2dVertex
 10
404.5288437306046
 20
253.9977387841129
 30
0.0
  0
VERTEX
  5
1002AF
330
100291
100
AcDbEntity
  8
AM_5
100
AcDbVertex
100
AcDb2dVertex
 10
404.6540030538201
 20
253.4297446663761
 30
0.0
  0
VERTEX
  5
1002B0
330
100291
100
AcDbEntity
  8
AM_5
100
AcDbVertex
100
AcDb2dVertex
 10
404.7310384809163
 20
252.7568026583729
 30
0.0
  0
SEQEND
  5
1002B1
330
100291
100
AcDbEntity
  8
AM_5
  0
POLYLINE
  5
1002B2
330
1F
100
AcDbEntity
  8
AM_5
100
AcDb2dPolyline
 66
     1
 10
0.0
 20
0.0
 30
0.0
  0
VERTEX
  5
1002B3
330
1002B2
100
AcDbEntity
  8
AM_5
100
AcDbVertex
100
AcDb2dVertex
 10
391.2310384809168
 20
256.2325202254081
 30
0.0
  0
VERTEX
  5
1002B4
330
1002B2
100
AcDbEntity
  8
AM_5
100
AcDbVertex
100
AcDb2dVertex
 10
391.6895188390356
 20
256.2303887234082
 30
0.0
  0
VERTEX
  5
1002B5
330
1002B2
100
AcDbEntity
  8
AM_5
100
AcDbVertex
100
AcDb2dVertex
 10
391.6470071374515
 20
256.2239657268872
 30
0.0
  0
VERTEX
  5
1002B6
330
1002B2
100
AcDbEntity
  8
AM_5
100
AcDbVertex
100
AcDb2dVertex
 10
392.1025272904972
 20
256.2132559643139
 30
0.0
  0
VERTEX
  5
1002B7
330
1002B2
100
AcDbEntity
  8
AM_5
100
AcDbVertex
100
AcDb2dVertex
 10
392.5550636350254
 20
256.1982689724316
 30
0.0
  0
VERTEX
  5
1002B8
330
1002B2
100
AcDbEntity
  8
AM_5
100
AcDbVertex
100
AcDb2dVertex
 10
393.0036708413701
 20
256.1790381298413
 30
0.0
  0
VERTEX
  5
1002B9
330
1002B2
100
AcDbEntity
  8
AM_5
100
AcDbVertex
100
AcDb2dVertex
 10
393.4474464952092
 20
256.1556015835156
 30
0.0
  0
VERTEX
  5
1002BA
330
1002B2
100
AcDbEntity
  8
AM_5
100
AcDbVertex
100
AcDb2dVertex
 10
393.8854893743138
 20
256.1279974804271
 30
0.0
  0
VERTEX
  5
1002BB
330
1002B2
100
AcDbEntity
  8
AM_5
100
AcDbVertex
100
AcDb2dVertex
 10
394.3168970643622
 20
256.0962639675488
 30
0.0
  0
VERTEX
  5
1002BC
330
1002B2
100
AcDbEntity
  8
AM_5
100
AcDbVertex
100
AcDb2dVertex
 10
394.7407671510321
 20
256.0604344234814
 30
0.0
  0
VERTEX
  5
1002BD
330
1002B2
100
AcDbEntity
  8
AM_5
100
AcDbVertex
100
AcDb2dVertex
 10
395.1561864911658
 20
256.0205469951977
 30
0.0
  0
VERTEX
  5
1002BE
330
1002B2
100
AcDbEntity
  8
AM_5
100
AcDbVertex
100
AcDb2dVertex
 10
395.5622586309059
 20
255.9766875133862
 30
0.0
  0
VERTEX
  5
1002BF
330
1002B2
100
AcDbEntity
  8
AM_5
100
AcDbVertex
100
AcDb2dVertex
 10
395.9583791791542
 20
255.92886551479
 30
0.0
  0
VERTEX
  5
1002C0
330
1002B2
100
AcDbEntity
  8
AM_5
100
AcDbVertex
100
AcDb2dVertex
 10
396.3439938127145
 20
255.8770762310376
 30
0.0
  0
VERTEX
  5
1002C1
330
1002B2
100
AcDbEntity
  8
AM_5
100
AcDbVertex
100
AcDb2dVertex
 10
396.7185470162973
 20
255.8213101253857
 30
0.0
  0
VERTEX
  5
1002C2
330
1002B2
100
AcDbEntity
  8
AM_5
100
AcDbVertex
100
AcDb2dVertex
 10
397.0814844667064
 20
255.7615576610913
 30
0.0
  0
VERTEX
  5
1002C3
330
1002B2
100
AcDbEntity
  8
AM_5
100
AcDbVertex
100
AcDb2dVertex
 10
397.4322524367916
 20
255.6978140697827
 30
0.0
  0
VERTEX
  5
1002C4
330
1002B2
100
AcDbEntity
  8
AM_5
100
AcDbVertex
100
AcDb2dVertex
 10
397.7701988517392
 20
255.6302080974926
 30
0.0
  0
VERTEX
  5
1002C5
330
1002B2
100
AcDbEntity
  8
AM_5
100
AcDbVertex
100
AcDb2dVertex
 10
398.0945560037245
 20
255.5593310222973
 30
0.0
  0
VERTEX
  5
1002C6
330
1002B2
100
AcDbEntity
  8
AM_5
100
AcDbVertex
100
AcDb2dVertex
 10
398.7052926122299
 20
255.4040299282422
 30
0.0
  0
VERTEX
  5
1002C7
330
1002B2
100
AcDbEntity
  8
AM_5
100
AcDbVertex
100
AcDb2dVertex
 10
399.2711230813616
 20
255.2231369839062
 30
0.0
  0
VERTEX
  5
1002C8
330
1002B2
100
AcDbEntity
  8
AM_5
100
AcDbVertex
100
AcDb2dVertex
 10
399.7989210187551
 20
255.0076351986279
 30
0.0
  0
VERTEX
  5
1002C9
330
1002B2
100
AcDbEntity
  8
AM_5
100
AcDbVertex
100
AcDb2dVertex
 10
400.0521799623127
 20
254.8838387356152
 30
0.0
  0
VERTEX
  5
1002CA
330
1002B2
100
AcDbEntity
  8
AM_5
100
AcDbVertex
100
AcDb2dVertex
 10
400.3028359710333
 20
254.7409115658154
 30
0.0
  0
VERTEX
  5
1002CB
330
1002B2
100
AcDbEntity
  8
AM_5
100
AcDbVertex
100
AcDb2dVertex
 10
400.5528178512214
 20
254.5668755398144
 30
0.0
  0
VERTEX
  5
1002CC
330
1002B2
100
AcDbEntity
  8
AM_5
100
AcDbVertex
100
AcDb2dVertex
 10
400.804031759417
 20
254.3497191295971
 30
0.0
  0
VERTEX
  5
1002CD
330
1002B2
100
AcDbEntity
  8
AM_5
100
AcDbVertex
100
AcDb2dVertex
 10
401.0549649297359
 20
254.072381101643
 30
0.0
  0
VERTEX
  5
1002CE
330
1002B2
100
AcDbEntity
  8
AM_5
100
AcDbVertex
100
AcDb2dVertex
 10
401.1749931871057
 20
253.9030896053662
 30
0.0
  0
VERTEX
  5
1002CF
330
1002B2
100
AcDbEntity
  8
AM_5
100
AcDbVertex
100
AcDb2dVertex
 10
401.2870791255596
 20
253.7089024410595
 30
0.0
  0
VERTEX
  5
1002D0
330
1002B2
100
AcDbEntity
  8
AM_5
100
AcDbVertex
100
AcDb2dVertex
 10
401.3851877748135
 20
253.4886179790845
 30
0.0
  0
VERTEX
  5
1002D1
330
1002B2
100
AcDbEntity
  8
AM_5
100
AcDbVertex
100
AcDb2dVertex
 10
401.4628043471937
 20
253.2464991436352
 30
0.0
  0
VERTEX
  5
1002D2
330
1002B2
100
AcDbEntity
  8
AM_5
100
AcDbVertex
100
AcDb2dVertex
 10
401.5134557782775
 20
252.9870663509716
 30
0.0
  0
VERTEX
  5
1002D3
330
1002B2
100
AcDbEntity
  8
AM_5
100
AcDbVertex
100
AcDb2dVertex
 10
401.5310385524396
 20
252.7156458721508
 30
0.0
  0
SEQEND
  5
1002D4
330
1002B2
100
AcDbEntity
  8
AM_5
  0
LINE
  5
1002D5
330
1F
100
AcDbEntity
  8
AM_5
100
AcDbLine
 10
401.5310384809146
 20
245.3385365113834
 30
0.0
 11
401.5310384809146
 21
257.6804915864006
 31
0.0
  0
ARC
  5
1002D6
330
1F
100
AcDbEntity
  8
AM_5
100
AcDbCircle
 10
399.7310384809166
 20
251.25298620321
 30
0.0
 40
1.799999999999999
100
AcDbArc
 50
0.0
 51
90.0
  0
ARC
  5
1002D7
330
1F
100
AcDbEntity
  8
AM_5
100
AcDbCircle
 10
402.9854402957008
 20
246.1441302327092
 30
0.0
 40
1.662608156690081
100
AcDbArc
 50
208.9820853558867
 51
265.7089308743521
  0
LINE
  5
1002D8
330
1F
100
AcDbEntity
  8
AM_5
100
AcDbLine
 10
407.7310384809168
 20
244.4861826849349
 30
0.0
 11
402.8610384809163
 21
244.4861826849349
 31
0.0
  0
LINE
  5
1002D9
330
1F
100
AcDbEntity
  8
AM_5
100
AcDbLine
 10
407.7310384809165
 20
245.6995543735791
 30
0.0
 11
404.7310384809093
 21
245.1722744625888
 31
0.0
  0
LINE
  5
1002DA
330
1F
100
AcDbEntity
  8
AM_5
100
AcDbLine
 10
404.7310384809138
 20
245.1722744625661
 30
0.0
 11
404.7310384809138
 21
252.7568026583951
 31
0.0
  0
POLYLINE
  5
1002DB
330
1F
100
AcDbEntity
  8
AM_5
100
AcDb2dPolyline
 66
     1
 10
0.0
 20
0.0
 30
0.0
  0
VERTEX
  5
1002DC
330
1002DB
100
AcDbEntity
  8
AM_5
100
AcDbVertex
100
AcDb2dVertex
 10
380.9310382901795
 20
252.7156458721508
 30
0.0
  0
VERTEX
  5
1002DD
330
1002DB
100
AcDbEntity
  8
AM_5
100
AcDbVertex
100
AcDb2dVertex
 10
380.9489769040712
 20
252.9869232998242
 30
0.0
  0
VERTEX
  5
1002DE
330
1002DB
100
AcDbEntity
  8
AM_5
100
AcDbVertex
100
AcDb2dVertex
 10
380.9992593824036
 20
253.2480393276562
 30
0.0
  0
VERTEX
  5
1002DF
330
1002DB
100
AcDbEntity
  8
AM_5
100
AcDbVertex
100
AcDb2dVertex
 10
381.0765809117918
 20
253.4910784588208
 30
0.0
  0
VERTEX
  5
1002E0
330
1002DB
100
AcDbEntity
  8
AM_5
100
AcDbVertex
100
AcDb2dVertex
 10
381.1746233998901
 20
253.7093220577588
 30
0.0
  0
VERTEX
  5
1002E1
330
1002DB
100
AcDbEntity
  8
AM_5
100
AcDbVertex
100
AcDb2dVertex
 10
381.2864393293028
 20
253.9024649486889
 30
0.0
  0
VERTEX
  5
1002E2
330
1002DB
100
AcDbEntity
  8
AM_5
100
AcDbVertex
100
AcDb2dVertex
 10
381.4071482717162
 20
254.0722189770093
 30
0.0
  0
VERTEX
  5
1002E3
330
1002DB
100
AcDbEntity
  8
AM_5
100
AcDbVertex
100
AcDb2dVertex
 10
381.6575306951169
 20
254.3501244411816
 30
0.0
  0
VERTEX
  5
1002E4
330
1002DB
100
AcDbEntity
  8
AM_5
100
AcDbVertex
100
AcDb2dVertex
 10
381.9093364774349
 20
254.5656500683179
 30
0.0
  0
VERTEX
  5
1002E5
330
1002DB
100
AcDbEntity
  8
AM_5
100
AcDbVertex
100
AcDb2dVertex
 10
382.1603125630975
 20
254.7377930508007
 30
0.0
  0
VERTEX
  5
1002E6
330
1002DB
100
AcDbEntity
  8
AM_5
100
AcDbVertex
100
AcDb2dVertex
 10
382.6650327741263
 20
255.0123320446362
 30
0.0
  0
VERTEX
  5
1002E7
330
1002DB
100
AcDbEntity
  8
AM_5
100
AcDbVertex
100
AcDb2dVertex
 10
383.1914204656239
 20
255.2260123119702
 30
0.0
  0
VERTEX
  5
1002E8
330
1002DB
100
AcDbEntity
  8
AM_5
100
AcDbVertex
100
AcDb2dVertex
 10
383.7541812955492
 20
255.4013596401562
 30
0.0
  0
VERTEX
  5
1002E9
330
1002DB
100
AcDbEntity
  8
AM_5
100
AcDbVertex
100
AcDb2dVertex
 10
384.3667716085068
 20
255.5582867489209
 30
0.0
  0
VERTEX
  5
1002EA
330
1002DB
100
AcDbEntity
  8
AM_5
100
AcDbVertex
100
AcDb2dVertex
 10
385.0311273633589
 20
255.6984244213452
 30
0.0
  0
VERTEX
  5
1002EB
330
1002DB
100
AcDbEntity
  8
AM_5
100
AcDbVertex
100
AcDb2dVertex
 10
385.3817934095014
 20
255.7621298656811
 30
0.0
  0
VERTEX
  5
1002EC
330
1002DB
100
AcDbEntity
  8
AM_5
100
AcDbVertex
100
AcDb2dVertex
 10
385.7443231641399
 20
255.8217106685986
 30
0.0
  0
VERTEX
  5
1002ED
330
1002DB
100
AcDbEntity
  8
AM_5
100
AcDbVertex
100
AcDb2dVertex
 10
386.118370920335
 20
255.8772621975293
 30
0.0
  0
VERTEX
  5
1002EE
330
1002DB
100
AcDbEntity
  8
AM_5
100
AcDbVertex
100
AcDb2dVertex
 10
386.5035909711466
 20
255.9288750515332
 30
0.0
  0
VERTEX
  5
1002EF
330
1002DB
100
AcDbEntity
  8
AM_5
100
AcDbVertex
100
AcDb2dVertex
 10
386.8996328412637
 20
255.9766398296704
 30
0.0
  0
VERTEX
  5
1002F0
330
1002DB
100
AcDbEntity
  8
AM_5
100
AcDbVertex
100
AcDb2dVertex
 10
387.3059171735391
 20
256.0205422268261
 30
0.0
  0
VERTEX
  5
1002F1
330
1002DB
100
AcDbEntity
  8
AM_5
100
AcDbVertex
100
AcDb2dVertex
 10
387.7214259206398
 20
256.0604296551098
 30
0.0
  0
VERTEX
  5
1002F2
330
1002DB
100
AcDbEntity
  8
AM_5
100
AcDbVertex
100
AcDb2dVertex
 10
388.1452912389382
 20
256.0962639675488
 30
0.0
  0
VERTEX
  5
1002F3
330
1002DB
100
AcDbEntity
  8
AM_5
100
AcDbVertex
100
AcDb2dVertex
 10
388.5766464768989
 20
256.1280022487988
 30
0.0
  0
VERTEX
  5
1002F4
330
1002DB
100
AcDbEntity
  8
AM_5
100
AcDbVertex
100
AcDb2dVertex
 10
389.0146225988013
 20
256.1556111202587
 30
0.0
  0
VERTEX
  5
1002F5
330
1002DB
100
AcDbEntity
  8
AM_5
100
AcDbVertex
100
AcDb2dVertex
 10
389.4583541452033
 20
256.1790476665844
 30
0.0
  0
VERTEX
  5
1002F6
330
1002DB
100
AcDbEntity
  8
AM_5
100
AcDbVertex
100
AcDb2dVertex
 10
389.9069720803839
 20
256.1982737408032
 30
0.0
  0
VERTEX
  5
1002F7
330
1002DB
100
AcDbEntity
  8
AM_5
100
AcDbVertex
100
AcDb2dVertex
 10
390.3595537244422
 20
256.2132464275708
 30
0.0
  0
VERTEX
  5
1002F8
330
1002DB
100
AcDbEntity
  8
AM_5
100
AcDbVertex
100
AcDb2dVertex
 10
390.815082222138
 20
256.2239466534009
 30
0.0
  0
VERTEX
  5
1002F9
330
1002DB
100
AcDbEntity
  8
AM_5
100
AcDbVertex
100
AcDb2dVertex
 10
391.2725740968328
 20
256.2303744182934
 30
0.0
  0
VERTEX
  5
1002FA
330
1002DB
100
AcDbEntity
  8
AM_5
100
AcDbVertex
100
AcDb2dVertex
 10
391.2310384809167
 20
256.2325201453343
 30
0.0
  0
SEQEND
  5
1002FB
330
1002DB
100
AcDbEntity
  8
AM_5
  0
ARC
  5
1002FC
330
1F
100
AcDbEntity
  8
AM_5
100
AcDbCircle
 10
382.731038480917
 20
251.25298620321
 30
0.0
 40
1.8
100
AcDbArc
 50
90.0
 51
180.0
  0
ARC
  5
1002FD
330
1F
100
AcDbEntity
  8
AM_5
100
AcDbCircle
 10
379.4765846076471
 20
246.1442114639751
 30
0.0
 40
1.662693056068465
100
AcDbArc
 50
274.2926485675698
 51
331.0163352023324
  0
LINE
  5
1002FE
330
1F
100
AcDbEntity
  8
AM_5
100
AcDbLine
 10
380.9310384809151
 20
245.3385365113834
 30
0.0
 11
380.9310384809151
 21
252.7156487565578
 31
0.0
  0
POLYLINE
  5
1002FF
330
1F
100
AcDbEntity
  8
AM_5
100
AcDb2dPolyline
 66
     1
 10
0.0
 20
0.0
 30
0.0
  0
VERTEX
  5
100300
330
1002FF
100
AcDbEntity
  8
AM_5
100
AcDbVertex
100
AcDb2dVertex
 10
387.0689763127937
 20
260.9552260939111
 30
0.0
  0
VERTEX
  5
100301
330
1002FF
100
AcDbEntity
  8
AM_5
100
AcDbVertex
100
AcDb2dVertex
 10
387.1717466413153
 20
261.0629817549218
 30
0.0
  0
VERTEX
  5
100302
330
1002FF
100
AcDbEntity
  8
AM_5
100
AcDbVertex
100
AcDb2dVertex
 10
387.2758854924811
 20
261.167537838601
 30
0.0
  0
VERTEX
  5
100303
330
1002FF
100
AcDbEntity
  8
AM_5
100
AcDbVertex
100
AcDb2dVertex
 10
387.380753904499
 20
261.2686797682274
 30
0.0
  0
VERTEX
  5
100304
330
1002FF
100
AcDbEntity
  8
AM_5
100
AcDbVertex
100
AcDb2dVertex
 10
387.4857129155769
 20
261.3661929670799
 30
0.0
  0
VERTEX
  5
100305
330
1002FF
100
AcDbEntity
  8
AM_5
100
AcDbVertex
100
AcDb2dVertex
 10
387.5901235639229
 20
261.4598723951806
 30
0.0
  0
VERTEX
  5
100306
330
1002FF
100
AcDbEntity
  8
AM_5
100
AcDbVertex
100
AcDb2dVertex
 10
387.6933445035591
 20
261.5494987074364
 30
0.0
  0
VERTEX
  5
100307
330
1002FF
100
AcDbEntity
  8
AM_5
100
AcDbVertex
100
AcDb2dVertex
 10
387.7949334680214
 20
261.6350194517602
 30
0.0
  0
VERTEX
  5
100308
330
1002FF
100
AcDbEntity
  8
AM_5
100
AcDbVertex
100
AcDb2dVertex
 10
387.8969146310464
 20
261.7182227674951
 30
0.0
  0
VERTEX
  5
100309
330
1002FF
100
AcDbEntity
  8
AM_5
100
AcDbVertex
100
AcDb2dVertex
 10
387.9996110498087
 20
261.7993470732201
 30
0.0
  0
VERTEX
  5
10030A
330
1002FF
100
AcDbEntity
  8
AM_5
100
AcDbVertex
100
AcDb2dVertex
 10
388.1025291978494
 20
261.8779393736352
 30
0.0
  0
VERTEX
  5
10030B
330
1002FF
100
AcDbEntity
  8
AM_5
100
AcDbVertex
100
AcDb2dVertex
 10
388.2051779328958
 20
261.9535609785546
 30
0.0
  0
VERTEX
  5
10030C
330
1002FF
100
AcDbEntity
  8
AM_5
100
AcDbVertex
100
AcDb2dVertex
 10
388.3070637284891
 20
262.0257684294213
 30
0.0
  0
VERTEX
  5
10030D
330
1002FF
100
AcDbEntity
  8
AM_5
100
AcDbVertex
100
AcDb2dVertex
 10
388.4076942502634
 20
262.0941182676781
 30
0.0
  0
VERTEX
  5
10030E
330
1002FF
100
AcDbEntity
  8
AM_5
100
AcDbVertex
100
AcDb2dVertex
 10
388.5065771638529
 20
262.158167034768
 30
0.0
  0
VERTEX
  5
10030F
330
1002FF
100
AcDbEntity
  8
AM_5
100
AcDbVertex
100
AcDb2dVertex
 10
388.6032201348919
 20
262.2174760405053
 30
0.0
  0
VERTEX
  5
100310
330
1002FF
100
AcDbEntity
  8
AM_5
100
AcDbVertex
100
AcDb2dVertex
 10
388.697132021107
 20
262.2715875212182
 30
0.0
  0
VERTEX
  5
100311
330
1002FF
100
AcDbEntity
  8
AM_5
100
AcDbVertex
100
AcDb2dVertex
 10
388.7879480420726
 20
262.3201390806664
 30
0.0
  0
VERTEX
  5
100312
330
1002FF
100
AcDbEntity
  8
AM_5
100
AcDbVertex
100
AcDb2dVertex
 10
388.8754142820019
 20
262.3629113737572
 30
0.0
  0
VERTEX
  5
100313
330
1002FF
100
AcDbEntity
  8
AM_5
100
AcDbVertex
100
AcDb2dVertex
 10
388.9592839776654
 20
262.3996850553979
 30
0.0
  0
VERTEX
  5
100314
330
1002FF
100
AcDbEntity
  8
AM_5
100
AcDbVertex
100
AcDb2dVertex
 10
389.0393103658338
 20
262.4302550856103
 30
0.0
  0
VERTEX
  5
100315
330
1002FF
100
AcDbEntity
  8
AM_5
100
AcDbVertex
100
AcDb2dVertex
 10
389.1152454911848
 20
262.4544021193017
 30
0.0
  0
VERTEX
  5
100316
330
1002FF
100
AcDbEntity
  8
AM_5
100
AcDbVertex
100
AcDb2dVertex
 10
389.1868413983961
 20
262.4719163481225
 30
0.0
  0
VERTEX
  5
100317
330
1002FF
100
AcDbEntity
  8
AM_5
100
AcDbVertex
100
AcDb2dVertex
 10
389.2538513242385
 20
262.4825784269799
 30
0.0
  0
VERTEX
  5
100318
330
1002FF
100
AcDbEntity
  8
AM_5
100
AcDbVertex
100
AcDb2dVertex
 10
389.3160273133895
 20
262.4861833158959
 30
0.0
  0
SEQEND
  5
100319
330
1002FF
100
AcDbEntity
  8
AM_5
  0
POLYLINE
  5
10031A
330
1F
100
AcDbEntity
  8
AM_5
100
AcDb2dPolyline
 66
     1
 10
0.0
 20
0.0
 30
0.0
  0
VERTEX
  5
10031B
330
10031A
100
AcDbEntity
  8
AM_5
100
AcDbVertex
100
AcDb2dVertex
 10
386.0065783559453
 20
259.8517915312279
 30
0.0
  0
VERTEX
  5
10031C
330
10031A
100
AcDbEntity
  8
AM_5
100
AcDbVertex
100
AcDb2dVertex
 10
386.0524477063787
 20
259.8985501829613
 30
0.0
  0
VERTEX
  5
10031D
330
10031A
100
AcDbEntity
  8
AM_5
100
AcDbVertex
100
AcDb2dVertex
 10
386.0982646047247
 20
259.9452945295799
 30
0.0
  0
VERTEX
  5
10031E
330
10031A
100
AcDbEntity
  8
AM_5
100
AcDbVertex
100
AcDb2dVertex
 10
386.1440123616826
 20
259.9920198027123
 30
0.0
  0
VERTEX
  5
10031F
330
10031A
100
AcDbEntity
  8
AM_5
100
AcDbVertex
100
AcDb2dVertex
 10
386.1896814405096
 20
260.0387164656151
 30
0.0
  0
VERTEX
  5
100320
330
10031A
100
AcDbEntity
  8
AM_5
100
AcDbVertex
100
AcDb2dVertex
 10
386.2352551519048
 20
260.0853702131737
 30
0.0
  0
VERTEX
  5
100321
330
10031A
100
AcDbEntity
  8
AM_5
100
AcDbVertex
100
AcDb2dVertex
 10
386.2807215749395
 20
260.1319762770164
 30
0.0
  0
VERTEX
  5
100322
330
10031A
100
AcDbEntity
  8
AM_5
100
AcDbVertex
100
AcDb2dVertex
 10
386.3260664044988
 20
260.1785155836572
 30
0.0
  0
VERTEX
  5
100323
330
10031A
100
AcDbEntity
  8
AM_5
100
AcDbVertex
100
AcDb2dVertex
 10
386.3712777196539
 20
260.2249881330956
 30
0.0
  0
VERTEX
  5
100324
330
10031A
100
AcDbEntity
  8
AM_5
100
AcDbVertex
100
AcDb2dVertex
 10
386.4163412152898
 20
260.2713796202171
 30
0.0
  0
VERTEX
  5
100325
330
10031A
100
AcDbEntity
  8
AM_5
100
AcDbVertex
100
AcDb2dVertex
 10
386.4612449704778
 20
260.3176805082787
 30
0.0
  0
VERTEX
  5
100326
330
10031A
100
AcDbEntity
  8
AM_5
100
AcDbVertex
100
AcDb2dVertex
 10
386.5059818326604
 20
260.3638860289085
 30
0.0
  0
VERTEX
  5
100327
330
10031A
100
AcDbEntity
  8
AM_5
100
AcDbVertex
100
AcDb2dVertex
 10
386.550582796253
 20
260.4100390974511
 30
0.0
  0
VERTEX
  5
100328
330
10031A
100
AcDbEntity
  8
AM_5
100
AcDbVertex
100
AcDb2dVertex
 10
386.5950407086981
 20
260.456130177163
 30
0.0
  0
VERTEX
  5
100329
330
10031A
100
AcDbEntity
  8
AM_5
100
AcDbVertex
100
AcDb2dVertex
 10
386.6393364965094
 20
260.5021497313012
 30
0.0
  0
VERTEX
  5
10032A
330
10031A
100
AcDbEntity
  8
AM_5
100
AcDbVertex
100
AcDb2dVertex
 10
386.683446317829
 20
260.5480786863793
 30
0.0
  0
VERTEX
  5
10032B
330
10031A
100
AcDbEntity
  8
AM_5
100
AcDbVertex
100
AcDb2dVertex
 10
386.7273534833563
 20
260.5939075056542
 30
0.0
  0
VERTEX
  5
10032C
330
10031A
100
AcDbEntity
  8
AM_5
100
AcDbVertex
100
AcDb2dVertex
 10
386.7710389196051
 20
260.6396218840111
 30
0.0
  0
VERTEX
  5
10032D
330
10031A
100
AcDbEntity
  8
AM_5
100
AcDbVertex
100
AcDb2dVertex
 10
386.8144811689032
 20
260.6852027479638
 30
0.0
  0
VERTEX
  5
10032E
330
10031A
100
AcDbEntity
  8
AM_5
100
AcDbVertex
100
AcDb2dVertex
 10
386.8576611577643
 20
260.7306453291406
 30
0.0
  0
VERTEX
  5
10032F
330
10031A
100
AcDbEntity
  8
AM_5
100
AcDbVertex
100
AcDb2dVertex
 10
386.9005598127021
 20
260.7759257856835
 30
0.0
  0
VERTEX
  5
100330
330
10031A
100
AcDbEntity
  8
AM_5
100
AcDbVertex
100
AcDb2dVertex
 10
386.9431604444159
 20
260.821039349221
 30
0.0
  0
VERTEX
  5
100331
330
10031A
100
AcDbEntity
  8
AM_5
100
AcDbVertex
100
AcDb2dVertex
 10
386.985439211048
 20
260.8659621778954
 30
0.0
  0
VERTEX
  5
100332
330
10031A
100
AcDbEntity
  8
AM_5
100
AcDbVertex
100
AcDb2dVertex
 10
387.027377039112
 20
260.9106895033349
 30
0.0
  0
VERTEX
  5
100333
330
10031A
100
AcDbEntity
  8
AM_5
100
AcDbVertex
100
AcDb2dVertex
 10
387.0689763127937
 20
260.9552260939111
 30
0.0
  0
SEQEND
  5
100334
330
10031A
100
AcDbEntity
  8
AM_5
  0
POLYLINE
  5
100335
330
1F
100
AcDbEntity
  8
AM_5
100
AcDb2dPolyline
 66
     1
 10
0.0
 20
0.0
 30
0.0
  0
VERTEX
  5
100336
330
100335
100
AcDbEntity
  8
AM_5
100
AcDbVertex
100
AcDb2dVertex
 10
391.2310384809168
 20
256.2325201453343
 30
0.0
  0
VERTEX
  5
100337
330
100335
100
AcDbEntity
  8
AM_5
100
AcDbVertex
100
AcDb2dVertex
 10
391.2310470639807
 20
256.2325201855053
 30
0.0
  0
SEQEND
  5
100338
330
100335
100
AcDbEntity
  8
AM_5
  0
LINE
  5
100339
330
1F
100
AcDbEntity
  8
AM_5
100
AcDbLine
 10
386.3619750778429
 20
255.9774736087281
 30
0.0
 11
386.361975077843
 21
259.1755242551891
 31
0.0
  0
POLYLINE
  5
10033A
330
1F
100
AcDbEntity
  8
AM_5
100
AcDb2dPolyline
 66
     1
 10
0.0
 20
0.0
 30
0.0
  0
VERTEX
  5
10033B
330
10033A
100
AcDbEntity
  8
AM_5
100
AcDbVertex
100
AcDb2dVertex
 10
393.1460501252792
 20
262.4861833158959
 30
0.0
  0
VERTEX
  5
10033C
330
10033A
100
AcDbEntity
  8
AM_5
100
AcDbVertex
100
AcDb2dVertex
 10
393.2082261144302
 20
262.4825784269799
 30
0.0
  0
VERTEX
  5
10033D
330
10033A
100
AcDbEntity
  8
AM_5
100
AcDbVertex
100
AcDb2dVertex
 10
393.2752360402723
 20
262.4719163481225
 30
0.0
  0
VERTEX
  5
10033E
330
10033A
100
AcDbEntity
  8
AM_5
100
AcDbVertex
100
AcDb2dVertex
 10
393.3468319474836
 20
262.4544021193017
 30
0.0
  0
VERTEX
  5
10033F
330
10033A
100
AcDbEntity
  8
AM_5
100
AcDbVertex
100
AcDb2dVertex
 10
393.4227670728345
 20
262.4302550856103
 30
0.0
  0
VERTEX
  5
100340
330
10033A
100
AcDbEntity
  8
AM_5
100
AcDbVertex
100
AcDb2dVertex
 10
393.5027922689099
 20
262.3996850553979
 30
0.0
  0
VERTEX
  5
100341
330
10033A
100
AcDbEntity
  8
AM_5
100
AcDbVertex
100
AcDb2dVertex
 10
393.5866631566662
 20
262.3629113737572
 30
0.0
  0
VERTEX
  5
100342
330
10033A
100
AcDbEntity
  8
AM_5
100
AcDbVertex
100
AcDb2dVertex
 10
393.6741293965953
 20
262.3201390806664
 30
0.0
  0
VERTEX
  5
100343
330
10033A
100
AcDbEntity
  8
AM_5
100
AcDbVertex
100
AcDb2dVertex
 10
393.764944225468
 20
262.2715875212182
 30
0.0
  0
VERTEX
  5
100344
330
10033A
100
AcDbEntity
  8
AM_5
100
AcDbVertex
100
AcDb2dVertex
 10
393.858857303776
 20
262.2174760405053
 30
0.0
  0
VERTEX
  5
100345
330
10033A
100
AcDbEntity
  8
AM_5
100
AcDbVertex
100
AcDb2dVertex
 10
393.9555002748148
 20
262.158167034768
 30
0.0
  0
VERTEX
  5
100346
330
10033A
100
AcDbEntity
  8
AM_5
100
AcDbVertex
100
AcDb2dVertex
 10
394.0543831884043
 20
262.0941182676781
 30
0.0
  0
VERTEX
  5
100347
330
10033A
100
AcDbEntity
  8
AM_5
100
AcDbVertex
100
AcDb2dVertex
 10
394.1550137101786
 20
262.0257684294213
 30
0.0
  0
VERTEX
  5
100348
330
10033A
100
AcDbEntity
  8
AM_5
100
AcDbVertex
100
AcDb2dVertex
 10
394.2568995057718
 20
261.9535609785546
 30
0.0
  0
VERTEX
  5
100349
330
10033A
100
AcDbEntity
  8
AM_5
100
AcDbVertex
100
AcDb2dVertex
 10
394.3595482408182
 20
261.8779393736352
 30
0.0
  0
VERTEX
  5
10034A
330
10033A
100
AcDbEntity
  8
AM_5
100
AcDbVertex
100
AcDb2dVertex
 10
394.4624663888589
 20
261.7993470732201
 30
0.0
  0
VERTEX
  5
10034B
330
10033A
100
AcDbEntity
  8
AM_5
100
AcDbVertex
100
AcDb2dVertex
 10
394.5651628076212
 20
261.7182227674951
 30
0.0
  0
VERTEX
  5
10034C
330
10033A
100
AcDbEntity
  8
AM_5
100
AcDbVertex
100
AcDb2dVertex
 10
394.6671427785532
 20
261.6350194517602
 30
0.0
  0
VERTEX
  5
10034D
330
10033A
100
AcDbEntity
  8
AM_5
100
AcDbVertex
100
AcDb2dVertex
 10
394.7687317430153
 20
261.5494987074364
 30
0.0
  0
VERTEX
  5
10034E
330
10033A
100
AcDbEntity
  8
AM_5
100
AcDbVertex
100
AcDb2dVertex
 10
394.8719538747443
 20
261.4598723951806
 30
0.0
  0
VERTEX
  5
10034F
330
10033A
100
AcDbEntity
  8
AM_5
100
AcDbVertex
100
AcDb2dVertex
 10
394.9763633309975
 20
261.3661929670799
 30
0.0
  0
VERTEX
  5
100350
330
10033A
100
AcDbEntity
  8
AM_5
100
AcDbVertex
100
AcDb2dVertex
 10
395.0813223420754
 20
261.2686797682274
 30
0.0
  0
VERTEX
  5
100351
330
10033A
100
AcDbEntity
  8
AM_5
100
AcDbVertex
100
AcDb2dVertex
 10
395.1861907540931
 20
261.167537838601
 30
0.0
  0
VERTEX
  5
100352
330
10033A
100
AcDbEntity
  8
AM_5
100
AcDbVertex
100
AcDb2dVertex
 10
395.2903296052588
 20
261.0629817549218
 30
0.0
  0
VERTEX
  5
100353
330
10033A
100
AcDbEntity
  8
AM_5
100
AcDbVertex
100
AcDb2dVertex
 10
395.3931011258735
 20
260.9552260939111
 30
0.0
  0
SEQEND
  5
100354
330
10033A
100
AcDbEntity
  8
AM_5
  0
POLYLINE
  5
100355
330
1F
100
AcDbEntity
  8
AM_5
100
AcDb2dPolyline
 66
     1
 10
0.0
 20
0.0
 30
0.0
  0
VERTEX
  5
100356
330
100355
100
AcDbEntity
  8
AM_5
100
AcDbVertex
100
AcDb2dVertex
 10
395.3931011258735
 20
260.9552260939111
 30
0.0
  0
VERTEX
  5
100357
330
100355
100
AcDbEntity
  8
AM_5
100
AcDbVertex
100
AcDb2dVertex
 10
395.4347039758338
 20
260.9106799665917
 30
0.0
  0
VERTEX
  5
100358
330
100355
100
AcDbEntity
  8
AM_5
100
AcDbVertex
100
AcDb2dVertex
 10
395.4766644536627
 20
260.8659287992943
 30
0.0
  0
VERTEX
  5
100359
330
100355
100
AcDbEntity
  8
AM_5
100
AcDbVertex
100
AcDb2dVertex
 10
395.518963485874
 20
260.8209821287621
 30
0.0
  0
VERTEX
  5
10035A
330
100355
100
AcDbEntity
  8
AM_5
100
AcDbVertex
100
AcDb2dVertex
 10
395.5615784227027
 20
260.7758542601098
 30
0.0
  0
VERTEX
  5
10035B
330
100355
100
AcDbEntity
  8
AM_5
100
AcDbVertex
100
AcDb2dVertex
 10
395.6044901906622
 20
260.730559498452
 30
0.0
  0
VERTEX
  5
10035C
330
100355
100
AcDbEntity
  8
AM_5
100
AcDbVertex
100
AcDb2dVertex
 10
395.6476785241735
 20
260.6851169172753
 30
0.0
  0
VERTEX
  5
10035D
330
100355
100
AcDbEntity
  8
AM_5
100
AcDbVertex
100
AcDb2dVertex
 10
395.6911243497503
 20
260.6395312849511
 30
0.0
  0
VERTEX
  5
10035E
330
100355
100
AcDbEntity
  8
AM_5
100
AcDbVertex
100
AcDb2dVertex
 10
395.7348050176276
 20
260.5938264433373
 30
0.0
  0
VERTEX
  5
10035F
330
100355
100
AcDbEntity
  8
AM_5
100
AcDbVertex
100
AcDb2dVertex
 10
395.7787014543188
 20
260.5480071608056
 30
0.0
  0
VERTEX
  5
100360
330
100355
100
AcDbEntity
  8
AM_5
100
AcDbVertex
100
AcDb2dVertex
 10
395.822793394245
 20
260.5020972792138
 30
0.0
  0
VERTEX
  5
100361
330
100355
100
AcDbEntity
  8
AM_5
100
AcDbVertex
100
AcDb2dVertex
 10
395.8670605718268
 20
260.4561063353051
 30
0.0
  0
VERTEX
  5
100362
330
100355
100
AcDbEntity
  8
AM_5
100
AcDbVertex
100
AcDb2dVertex
 10
395.9114827214849
 20
260.4100534025658
 30
0.0
  0
VERTEX
  5
100363
330
100355
100
AcDbEntity
  8
AM_5
100
AcDbVertex
100
AcDb2dVertex
 10
395.9560467301977
 20
260.363938480996
 30
0.0
  0
VERTEX
  5
100364
330
100355
100
AcDbEntity
  8
AM_5
100
AcDbVertex
100
AcDb2dVertex
 10
396.0007883607519
 20
260.317723423623
 30
0.0
  0
VERTEX
  5
100365
330
100355
100
AcDbEntity
  8
AM_5
100
AcDbVertex
100
AcDb2dVertex
 10
396.045701652683
 20
260.2714129988183
 30
0.0
  0
VERTEX
  5
100366
330
100355
100
AcDbEntity
  8
AM_5
100
AcDbVertex
100
AcDb2dVertex
 10
396.090777069248
 20
260.225007206582
 30
0.0
  0
VERTEX
  5
100367
330
100355
100
AcDbEntity
  8
AM_5
100
AcDbVertex
100
AcDb2dVertex
 10
396.1359967290533
 20
260.1785298887719
 30
0.0
  0
VERTEX
  5
100368
330
100355
100
AcDbEntity
  8
AM_5
100
AcDbVertex
100
AcDb2dVertex
 10
396.1813510953557
 20
260.1319762770164
 30
0.0
  0
VERTEX
  5
100369
330
100355
100
AcDbEntity
  8
AM_5
100
AcDbVertex
100
AcDb2dVertex
 10
396.2268234788549
 20
260.0853702131737
 30
0.0
  0
VERTEX
  5
10036A
330
100355
100
AcDbEntity
  8
AM_5
100
AcDbVertex
100
AcDb2dVertex
 10
396.2724019586218
 20
260.0387116972436
 30
0.0
  0
VERTEX
  5
10036B
330
100355
100
AcDbEntity
  8
AM_5
100
AcDbVertex
100
AcDb2dVertex
 10
396.3180722295415
 20
259.9920150343407
 30
0.0
  0
VERTEX
  5
10036C
330
100355
100
AcDbEntity
  8
AM_5
100
AcDbVertex
100
AcDb2dVertex
 10
396.3638199864996
 20
259.9452897612084
 30
0.0
  0
VERTEX
  5
10036D
330
100355
100
AcDbEntity
  8
AM_5
100
AcDbVertex
100
AcDb2dVertex
 10
396.4096333085668
 20
259.8985454145898
 30
0.0
  0
VERTEX
  5
10036E
330
100355
100
AcDbEntity
  8
AM_5
100
AcDbVertex
100
AcDb2dVertex
 10
396.4554978906286
 20
259.8517915312279
 30
0.0
  0
SEQEND
  5
10036F
330
100355
100
AcDbEntity
  8
AM_5
  0
LINE
  5
100370
330
1F
100
AcDbEntity
  8
AM_5
100
AcDbLine
 10
396.1619750778425
 20
255.9774736087281
 30
0.0
 11
396.1619750778427
 21
259.1755242551891
 31
0.0
  0
ELLIPSE
  5
100371
330
1F
100
AcDbEntity
  8
AM_5
100
AcDbEllipse
 10
391.261975077843
 20
259.1755242551891
 30
0.0
 11
5.4
 21
-0.0000000000000003
 31
0.0
210
0.0
220
0.0
230
1.0
 40
0.0420086534382512
 41
0.0
 42
6.283185307171588
  0
ELLIPSE
  5
100372
330
1F
100
AcDbEntity
  8
AM_5
100
AcDbEllipse
 10
391.2619750778429
 20
255.9774736087281
 30
0.0
 11
5.399999999999998
 21
-0.000000000000001
 31
0.0
210
0.0
220
0.0
230
1.0
 40
0.0524847908549107
 41
0.0
 42
6.283185307171584
  0
LINE
  5
100373
330
1F
100
AcDbEntity
  8
AM_5
100
AcDbLine
 10
393.1460497209365
 20
262.4861826849349
 30
0.0
 11
389.3160272408949
 21
262.4861826849349
 31
0.0
  0
LINE
  5
100375
330
1F
100
AcDbEntity
  8
AM_5
100
AcDbLine
 10
389.7310384809167
 20
312.4861826849349
 30
0.0
 11
392.7310384809165
 21
312.4861826849349
 31
0.0
  0
DIMENSION
  5
100376
330
1F
100
AcDbEntity
  8
AM_5
100
AcDbDimension
  2
*D15
 10
481.3533186810787
 20
372.241929741652
 30
0.0
 11
473.4033186810788
 21
373.991929741652
 31
0.0
 70
    32
  1
t=<>
 71
     5
 42
3.200000000000044
  3
2014+$0
100
AcDbAlignedDimension
 13
484.5533186810787
 23
357.4861826849348
 33
0.0
 14
481.3533186810787
 24
357.4861826849348
 34
0.0
 50
180.0
100
AcDbRotatedDimension
1001
ACAD
1000
DSTYLE
1002
{
1070
    40
1040
1.0
1002
}
1001
ACAD_DSTYLE_DIMINSPECT
1070
   396
1000
100%
1070
   395
1000

1070
   394
1070
    33
1070
   393
1070
     0
  0
LINE
  5
100377
330
1F
100
AcDbEntity
  8
AM_5
100
AcDbLine
 10
476.3533186810787
 20
339.4861826849349
 30
0.0
 11
489.5533186810787
 21
339.4861826849349
 31
0.0
  0
LINE
  5
100378
330
1F
100
AcDbEntity
  8
AM_5
100
AcDbLine
 10
484.5533186810787
 20
345.9861826849348
 30
0.0
 11
481.3533186810787
 21
345.9861826849348
 31
0.0
  0
LINE
  5
100379
330
1F
100
AcDbEntity
  8
AM_5
100
AcDbLine
 10
481.3533186810787
 20
332.9861826849349
 30
0.0
 11
484.5533186810787
 21
332.9861826849349
 31
0.0
  0
LINE
  5
10037A
330
1F
100
AcDbEntity
  8
AM_5
100
AcDbLine
 10
484.5533186810787
 20
357.4861826849348
 30
0.0
 11
481.3533186810787
 21
357.4861826849348
 31
0.0
  0
LINE
  5
100386
330
1F
100
AcDbEntity
  8
AM_5
100
AcDbLine
 10
378.7310384809168
 20
357.4861826849348
 30
0.0
 11
403.7310384809166
 21
357.4861826849348
 31
0.0
  0
LINE
  5
100387
330
1F
100
AcDbEntity
  8
AM_5
100
AcDbLine
 10
379.7310384809168
 20
339.4861826849349
 30
0.0
 11
402.7310384809166
 21
339.4861826849349
 31
0.0
  0
CIRCLE
  5
100388
330
1F
100
AcDbEntity
  8
AM_5
100
AcDbCircle
 10
391.2310384809167
 20
339.4861826849349
 30
0.0
 40
6.5
  0
ARC
  5
10038A
330
1F
100
AcDbEntity
  8
AM_5
100
AcDbCircle
 10
403.7310384809166
 20
353.4861826849348
 30
0.0
 40
4.0
100
AcDbArc
 50
0.0
 51
90.0
  0
LINE
  5
1003AD
330
1F
100
AcDbEntity
  8
AM_5
100
AcDbLine
 10
374.7310384809168
 20
244.4861826849349
 30
0.0
 11
374.7310384809168
 21
353.4861826849348
 31
0.0
  0
LINE
  5
1003AE
330
1F
100
AcDbEntity
  8
AM_5
100
AcDbLine
 10
377.2310384809168
 20
309.4861826849349
 30
0.0
 11
377.2310384809167
 21
245.260154447755
 31
0.0
  0
LINE
  5
1003AF
330
1F
100
AcDbEntity
  8
AM_5
100
AcDbLine
 10
374.731038480917
 20
245.6995543735791
 30
0.0
 11
377.7310384809242
 21
245.1722744625888
 31
0.0
  0
LINE
  5
1003B0
330
1F
100
AcDbEntity
  8
AM_5
100
AcDbLine
 10
377.7310384808735
 20
252.7573522810155
 30
0.0
 11
377.7310384808339
 21
245.1722744621732
 31
0.0
  0
DIMENSION
  5
1005F4
330
1F
100
AcDbEntity
  8
AM_5
100
AcDbDimension
  2
*D17
 10
391.2310384809168
 20
372.241929741652
 30
0.0
 11
399.4810384809168
 21
373.991929741652
 31
0.0
 70
    32
 71
     5
 42
16.5
  3
2014+$0
100
AcDbAlignedDimension
 13
407.7310384809166
 23
353.4861826849348
 33
0.0
 14
391.2310384809168
 24
362.4861826849348
 34
0.0
 50
0.000000000000007
100
AcDbRotatedDimension
1001
ACAD
1000
DSTYLE
1002
{
1070
    40
1040
1.0
1002
}
1001
ACAD_DSTYLE_DIMINSPECT
1070
   396
1000
100%
1070
   395
1000

1070
   394
1070
    33
1070
   393
1070
     0
  0
VIEWPORT
  5
1006BC
102
{ACAD_XDICTIONARY
360
1006BD
102
}
330
1006B3
100
AcDbEntity
 67
     1
  8
0
100
AcDbViewport
 10
142.5892486572266
 20
99.1129140853882
 30
0.0
 40
430.4720018747953
 41
222.1517806396485
 68
     1
 69
     1
 12
142.5892486572266
 22
99.1129140853882
 13
0.0
 23
0.0
 14
10.0
 24
10.0
 15
10.0
 25
10.0
 16
0.0
 26
0.0
 36
1.0
 17
0.0
 27
0.0
 37
0.0
 42
50.0
 43
0.0
 44
0.0
 45
222.1517806396485
 50
0.0
 51
0.0
 72
   100
 90
   819232
  1

281
     0
 71
     1
 74
     0
110
0.0
120
0.0
130
0.0
111
1.0
121
0.0
131
0.0
112
0.0
122
1.0
132
0.0
 79
     0
146
0.0
170
     0
1001
GENIUS_GENSCREG_15
1000
PF
1040
1.0
1000
DF
1040
1.0
1000
MIN
1011
-72.64675228017108
1021
-11.96297623443604
1031
0.0
1000
MAX
1011
357.8252495946242
1021
210.1888044052125
1031
0.0
1000
FLAGS
1070
     4
1001
GENIUS_GENOBJ-N-SDF_13
1002
{
1000
OWNER
1000
GEN
1002
}
1001
GENIUS_GENODEF_13
1002
{
1000
HIER
1070
     0
1002
}
1002
{
1000
MANEDIT
1070
     0
1002
}
1002
{
1000
NOSEL
1070
     0
1002
}
1002
{
1000
BEHIND
1070
     0
1002
}
1002
{
1000
OTHER
1070
     0
1002
}
1002
{
1000
REACTOR
1002
}
  0
ENDSEC
  0
SECTION
  2
OBJECTS
  0
DICTIONARY
  5
C
330
0
100
AcDbDictionary
281
     1
  3
ACAD_CIP_PREVIOUS_PRODUCT_INFO
350
100686
  3
ACAD_COLOR
350
8712
  3
ACAD_DETAILVIEWSTYLE
350
10066F
  3
ACAD_FIELDLIST
350
1006A2
  3
ACAD_GROUP
350
D
  3
ACAD_LAYOUT
350
1A
  3
ACAD_MATERIAL
350
8711
  3
ACAD_MLEADERSTYLE
350
10066B
  3
ACAD_MLINESTYLE
350
17
  3
ACAD_PLOTSETTINGS
350
19
  3
ACAD_PLOTSTYLENAME
350
E
  3
ACAD_SCALELIST
350
100659
  3
ACAD_SECTIONVIEWSTYLE
350
10066D
  3
ACAD_TABLESTYLE
350
100657
  3
ACAD_VISUALSTYLE
350
10063E
  3
AcadDim
350
CCA4E
  3
ACDB_RECOMPOSE_DATA
350
10089A
  3
AcDbVariableDictionary
350
6B9
  3
AcmDictionary
350
16D31
  3
AMG
350
16D13
  3
AMGSNAPSETTINGS
350
17AE6
  3
ASE_INDEX_DICTIONARY
350
F4A75
  0
DICTIONARY
  5
F82BD
330
2
100
AcDbDictionary
280
     1
281
     1
  3
ACAD_LAYERFILTERS
360
F82C0
  3
ACAD_LAYERSTATES
360
F82BE
  0
DICTIONARY
  5
1007CD
330
10
100
AcDbDictionary
280
     1
281
     1
  3
ADSK_XREC_LAYER_RECONCILED
360
1007CE
  0
DICTIONARY
  5
1007CF
330
86C9
100
AcDbDictionary
280
     1
281
     1
  3
ADSK_XREC_LAYER_RECONCILED
360
1007D0
  0
DICTIONARY
  5
1007D1
330
100703
100
AcDbDictionary
280
     1
281
     1
  3
ADSK_XREC_LAYER_RECONCILED
360
1007D2
  0
DICTIONARY
  5
16D78
330
1F
100
AcDbDictionary
280
     1
281
     1
  0
DICTIONARY
  5
10082F
330
100777
100
AcDbDictionary
280
     1
281
     1
  3
ACAD_MTEXT_2008_RT
360
1008D2
  0
DICTIONARY
  5
1006BD
330
1006BC
100
AcDbDictionary
280
     1
281
     1
  3
ASDK_XREC_ANNOTATION_SCALE_INFO
360
1006BE
  0
XRECORD
  5
100686
102
{ACAD_REACTORS
330
C
102
}
330
C
100
AcDbXrecord
280
     1
300
AMECH_PP
300
2016
300
AMECH_PP_F_S
  0
DICTIONARY
  5
8712
102
{ACAD_REACTORS
330
C
102
}
330
C
100
AcDbDictionary
281
     1
  0
DICTIONARY
  5
10066F
102
{ACAD_REACTORS
330
C
102
}
330
C
100
AcDbDictionary
281
     1
  3
Metric50
350
100670
  0
FIELDLIST
  5
1006A2
102
{ACAD_REACTORS
330
C
102
}
330
C
100
AcDbIdSet
 90
        3
330
100881
330
100882
330
100883
100
AcDbFieldList
  0
DICTIONARY
  5
D
102
{ACAD_REACTORS
330
C
102
}
330
C
100
AcDbDictionary
281
     1
  0
DICTIONARY
  5
1A
102
{ACAD_REACTORS
330
C
102
}
330
C
100
AcDbDictionary
281
     1
  3
Model
350
22
  3
レイアウト1
350
1006B4
  0
DICTIONARY
  5
8711
102
{ACAD_REACTORS
330
C
102
}
330
C
100
AcDbDictionary
281
     1
  3
ByBlock
350
10062E
  3
ByLayer
350
100626
  3
Global
350
100636
  0
DICTIONARY
  5
10066B
102
{ACAD_REACTORS
330
C
102
}
330
C
100
AcDbDictionary
281
     1
  3
Standard
350
10066C
  0
DICTIONARY
  5
17
102
{ACAD_REACTORS
330
C
102
}
330
C
100
AcDbDictionary
281
     1
  3
Standard
350
18
  0
DICTIONARY
  5
19
102
{ACAD_REACTORS
330
C
102
}
330
C
100
AcDbDictionary
281
     1
  0
ACDBDICTIONARYWDFLT
  5
E
102
{ACAD_REACTORS
330
C
102
}
330
C
100
AcDbDictionary
281
     1
  3
Normal
350
F
100
AcDbDictionaryWithDefault
340
F
  0
DICTIONARY
  5
100659
102
{ACAD_REACTORS
330
C
102
}
330
C
100
AcDbDictionary
281
     1
  3
A0
350
10065A
  3
A1
350
10065B
  3
A2
350
10065C
  3
A3
350
10065D
  3
A4
350
10065E
  3
A5
350
10065F
  3
A6
350
100660
  3
A7
350
100661
  3
A8
350
100662
  3
A9
350
100663
  3
B0
350
100664
  3
B1
350
100665
  3
B2
350
100666
  3
B3
350
100667
  3
B4
350
100668
  3
B5
350
100669
  3
B6
350
10066A
  0
DICTIONARY
  5
10066D
102
{ACAD_REACTORS
330
C
102
}
330
C
100
AcDbDictionary
281
     1
  3
Metric50
350
10066E
  0
DICTIONARY
  5
100657
102
{ACAD_REACTORS
330
C
102
}
330
C
100
AcDbDictionary
281
     1
  3
Standard
350
100658
  0
DICTIONARY
  5
10063E
102
{ACAD_REACTORS
330
C
102
}
330
C
100
AcDbDictionary
281
     1
  3
2dWireframe
350
100644
  3
Basic
350
100643
  3
Brighten
350
10064A
  3
ColorChange
350
10064E
  3
Conceptual
350
100647
  3
Dim
350
100649
  3
EdgeColorOff
350
100656
  3
Facepattern
350
10064D
  3
Flat
350
10063F
  3
FlatWithEdges
350
100640
  3
Gouraud
350
100641
  3
GouraudWithEdges
350
100642
  3
Hidden
350
100646
  3
JitterOff
350
100654
  3
Linepattern
350
10064C
  3
OverhangOff
350
100655
  3
Realistic
350
100648
  3
Shaded
350
100653
  3
Shaded with edges
350
100652
  3
Shades of Gray
350
10064F
  3
Sketchy
350
100650
  3
Thicken
350
10064B
  3
Wireframe
350
100645
  3
X-Ray
350
100651
  0
XRECORD
  5
CCA4E
102
{ACAD_REACTORS
330
C
102
}
330
C
100
AcDbXrecord
280
     1
 90
   990106
  3

 60
     0
 61
     0
 62
     1
 63
     3
 64
     0
 65
     0
 66
     0
 67
     3
 68
     1
 69
     0
 70
     0
 71
     0
 72
     0
 40
17.73254125325911
170
     0
  0
XRECORD
  5
10089A
102
{ACAD_REACTORS
330
C
102
}
330
C
100
AcDbXrecord
280
     1
 90
        1
330
100658
  0
DICTIONARY
  5
6B9
102
{ACAD_REACTORS
330
C
102
}
330
C
100
AcDbDictionary
281
     1
  3
CANNOSCALE
350
1007D7
  3
CMLEADERSTYLE
350
1007D4
  3
CTABLESTYLE
350
1007D3
  3
CVIEWDETAILSTYLE
350
1007D5
  3
CVIEWSECTIONSTYLE
350
1007D6
  3
DIMASSOC
350
F4248
  3
INDEXCTL
350
F4247
  3
PROJECTNAME
350
F4249
  3
SORTENTS
350
6BA
  3
XCLIPFRAME
350
100898
  0
DICTIONARY
  5
16D31
102
{ACAD_REACTORS
330
C
102
}
330
C
100
AcDbDictionary
281
     1
  3
AcmStdDictionary
350
16D3E
  3
AMDTSECTSYM_ARROWCOLOR
350
16DB5
  0
DICTIONARY
  5
16D13
102
{ACAD_REACTORS
330
C
102
}
330
C
100
AcDbDictionary
281
     1
  0
DICTIONARY
  5
17AE6
102
{ACAD_REACTORS
330
C
102
}
330
C
100
AcDbDictionary
281
     1
  0
DICTIONARY
  5
F4A75
102
{ACAD_REACTORS
330
C
102
}
330
C
100
AcDbDictionary
281
     1
  3
ASEBlockHierarchyIndexRecord
350
F4A77
1001
DCO15
1040
1654516794.149
  0
DICTIONARY
  5
F82C0
102
{ACAD_REACTORS
330
F82BD
102
}
330
F82BD
100
AcDbDictionary
281
     1
  0
DICTIONARY
  5
F82BE
102
{ACAD_REACTORS
330
F82BD
102
}
330
F82BD
100
AcDbDictionary
281
     1
  3
2014++
350
F82D2
  3
2014+++
350
F82BF
  0
XRECORD
  5
1007CE
102
{ACAD_REACTORS
330
1007CD
102
}
330
1007CD
100
AcDbXrecord
280
     1
290
     1
  0
XRECORD
  5
1007D0
102
{ACAD_REACTORS
330
1007CF
102
}
330
1007CF
100
AcDbXrecord
280
     1
290
     1
  0
XRECORD
  5
1007D2
102
{ACAD_REACTORS
330
1007D1
102
}
330
1007D1
100
AcDbXrecord
280
     1
290
     1
  0
XRECORD
  5
1008D2
102
{ACAD_REACTORS
330
10082F
102
}
330
10082F
100
AcDbXrecord
280
     1
 40
2351.0
  1
\U+220513
  0
XRECORD
  5
1006BE
102
{ACAD_REACTORS
330
1006BD
102
}
330
1006BD
100
AcDbXrecord
280
     1
 90
        1
340
10065A
  0
ACDBDETAILVIEWSTYLE
  5
100670
102
{ACAD_XDICTIONARY
360
1008D0
102
}
102
{ACAD_REACTORS
330
10066F
330
10087C
102
}
330
10066F
100
AcDbModelDocViewStyle
 70
     0
  3
Metric50
290
     0
100
AcDbDetailViewStyle
 70
     0
 71
     0
 90
        3
 71
     1
340
11
 62
   256
 40
5.0
340
0
 62
   256
 40
5.0
300

 40
0.0
280
     1
 71
     2
340
16
 90
       25
 62
   256
 71
     3
340
11
 62
   256
 40
5.0
 90
        0
 40
15.0
 90
        1
300
%<\AcVar ViewDetailId>% (%<\AcVar ViewScale \f "%sn">%)
 71
     4
340
16
 90
       25
 62
   256
340
16
 90
       25
 62
   256
280
     0
  0
LAYOUT
  5
22
102
{ACAD_REACTORS
330
1A
102
}
330
1A
100
AcDbPlotSettings
  1

  2
FUJITSU FAX Print Driver
  4
User261
  6

 40
3.174999952316281
 41
3.174999952316281
 42
3.17498779296875
 43
3.17498779296875
 44
297.0244750976562
 45
419.8775329589842
 46
0.0
 47
0.0
 48
0.0
 49
0.0
140
0.0
141
0.0
142
1.0
143
1.197207273994177
 70
 11952
 72
     1
 73
     1
 74
     0
  7
monochrome.ctb
 75
     0
147
0.8352772504160906
 76
     0
 77
     2
 78
   300
148
-6.027674911478015
149
-7.671586470139232
100
AcDbLayout
  1
Model
 70
     1
 71
     0
 10
0.0
 20
0.0
 11
12.0
 21
9.0
 12
0.0
 22
0.0
 32
0.0
 14
0.0
 24
0.0
 34
0.0
 15
0.0
 25
0.0
 35
0.0
146
0.0
 13
0.0
 23
0.0
 33
0.0
 16
1.0
 26
0.0
 36
0.0
 17
0.0
 27
1.0
 37
0.0
 76
     0
330
1F
331
100624
  0
LAYOUT
  5
1006B4
102
{ACAD_REACTORS
330
1A
102
}
330
1A
100
AcDbPlotSettings
  1

  2
RICOH imagio MP C5001 RPCS
  4
A4
  6

 40
5.873749732971191
 41
5.873748779296875
 42
5.873733520507812
 43
5.873748779296875
 44
209.9733276367186
 45
296.9259948730469
 46
0.0
 47
0.0
 48
0.0
 49
0.0
140
0.0
141
0.0
142
1.0
143
1.0
 70
   688
 72
     1
 73
     1
 74
     5
  7

 75
    16
147
1.0
 76
     0
 77
     2
 78
   300
148
0.0
149
0.0
100
AcDbLayout
  1
レイアウト1
 70
     1
 71
     1
 10
-5.873748779296875
 20
-5.873749732971191
 11
291.05224609375
 21
204.0995779037475
 12
0.0
 22
0.0
 32
0.0
 14
1.000000000000000E+20
 24
1.000000000000000E+20
 34
1.000000000000000E+20
 15
-1.000000000000000E+20
 25
-1.000000000000000E+20
 35
-1.000000000000000E+20
146
0.0
 13
0.0
 23
0.0
 33
0.0
 16
1.0
 26
0.0
 36
0.0
 17
0.0
 27
1.0
 37
0.0
 76
     0
330
1006B3
331
1006BC
1001
ACAD_PSEXT
1000
RICOH imagio MP C5001 RPCS
1000
RICOH imagio MP C5001 RPCS
1000
IP_192.168.13.100
1000
RPCS Driver (For Windows)
1070
     0
  0
MATERIAL
  5
10062E
102
{ACAD_XDICTIONARY
360
10062F
102
}
102
{ACAD_REACTORS
330
8711
102
}
330
8711
100
AcDbMaterial
  1
ByBlock
 72
     0
 43
0.0008202099737533
 43
0.0
 43
0.0
 43
0.0
 43
0.0
 43
0.0008202099737533
 43
0.0
 43
0.0
 43
0.0
 43
0.0
 43
1.0
 43
0.0
 43
0.0
 43
0.0
 43
0.0
 43
1.0
 77
     0
 47
0.0008202099737533
 47
0.0
 47
0.0
 47
0.0
 47
0.0
 47
0.0008202099737533
 47
0.0
 47
0.0
 47
0.0
 47
0.0
 47
1.0
 47
0.0
 47
0.0
 47
0.0
 47
0.0
 47
1.0
171
     0
 49
0.0008202099737533
 49
0.0
 49
0.0
 49
0.0
 49
0.0
 49
0.0008202099737533
 49
0.0
 49
0.0
 49
0.0
 49
0.0
 49
1.0
 49
0.0
 49
0.0
 49
0.0
 49
0.0
 49
1.0
175
     0
142
0.0008202099737533
142
0.0
142
0.0
142
0.0
142
0.0
142
0.0008202099737533
142
0.0
142
0.0
142
0.0
142
0.0
142
1.0
142
0.0
142
0.0
142
0.0
142
0.0
142
1.0
179
     0
144
0.0008202099737533
144
0.0
144
0.0
144
0.0
144
0.0
144
0.0008202099737533
144
0.0
144
0.0
144
0.0
144
0.0
144
1.0
144
0.0
144
0.0
144
0.0
144
0.0
144
1.0
147
0.0008202099737533
147
0.0
147
0.0
147
0.0
147
0.0
147
0.0008202099737533
147
0.0
147
0.0
147
0.0
147
0.0
147
1.0
147
0.0
147
0.0
147
0.0
147
0.0
147
1.0
  0
MATERIAL
  5
100626
102
{ACAD_XDICTIONARY
360
100627
102
}
102
{ACAD_REACTORS
330
8711
102
}
330
8711
100
AcDbMaterial
  1
ByLayer
 72
     0
 43
0.0008202099737533
 43
0.0
 43
0.0
 43
0.0
 43
0.0
 43
0.0008202099737533
 43
0.0
 43
0.0
 43
0.0
 43
0.0
 43
1.0
 43
0.0
 43
0.0
 43
0.0
 43
0.0
 43
1.0
 77
     0
 47
0.0008202099737533
 47
0.0
 47
0.0
 47
0.0
 47
0.0
 47
0.0008202099737533
 47
0.0
 47
0.0
 47
0.0
 47
0.0
 47
1.0
 47
0.0
 47
0.0
 47
0.0
 47
0.0
 47
1.0
171
     0
 49
0.0008202099737533
 49
0.0
 49
0.0
 49
0.0
 49
0.0
 49
0.0008202099737533
 49
0.0
 49
0.0
 49
0.0
 49
0.0
 49
1.0
 49
0.0
 49
0.0
 49
0.0
 49
0.0
 49
1.0
175
     0
142
0.0008202099737533
142
0.0
142
0.0
142
0.0
142
0.0
142
0.0008202099737533
142
0.0
142
0.0
142
0.0
142
0.0
142
1.0
142
0.0
142
0.0
142
0.0
142
0.0
142
1.0
179
     0
144
0.0008202099737533
144
0.0
144
0.0
144
0.0
144
0.0
144
0.0008202099737533
144
0.0
144
0.0
144
0.0
144
0.0
144
1.0
144
0.0
144
0.0
144
0.0
144
0.0
144
1.0
147
0.0008202099737533
147
0.0
147
0.0
147
0.0
147
0.0
147
0.0008202099737533
147
0.0
147
0.0
147
0.0
147
0.0
147
1.0
147
0.0
147
0.0
147
0.0
147
0.0
147
1.0
  0
MATERIAL
  5
100636
102
{ACAD_XDICTIONARY
360
100637
102
}
102
{ACAD_REACTORS
330
8711
102
}
330
8711
100
AcDbMaterial
  1
Global
 72
     0
 43
0.0008202099737533
 43
0.0
 43
0.0
 43
0.0
 43
0.0
 43
0.0008202099737533
 43
0.0
 43
0.0
 43
0.0
 43
0.0
 43
1.0
 43
0.0
 43
0.0
 43
0.0
 43
0.0
 43
1.0
 77
     0
 47
0.0008202099737533
 47
0.0
 47
0.0
 47
0.0
 47
0.0
 47
0.0008202099737533
 47
0.0
 47
0.0
 47
0.0
 47
0.0
 47
1.0
 47
0.0
 47
0.0
 47
0.0
 47
0.0
 47
1.0
171
     0
 49
0.0008202099737533
 49
0.0
 49
0.0
 49
0.0
 49
0.0
 49
0.0008202099737533
 49
0.0
 49
0.0
 49
0.0
 49
0.0
 49
1.0
 49
0.0
 49
0.0
 49
0.0
 49
0.0
 49
1.0
175
     0
142
0.0008202099737533
142
0.0
142
0.0
142
0.0
142
0.0
142
0.0008202099737533
142
0.0
142
0.0
142
0.0
142
0.0
142
1.0
142
0.0
142
0.0
142
0.0
142
0.0
142
1.0
179
     0
144
0.0008202099737533
144
0.0
144
0.0
144
0.0
144
0.0
144
0.0008202099737533
144
0.0
144
0.0
144
0.0
144
0.0
144
1.0
144
0.0
144
0.0
144
0.0
144
0.0
144
1.0
147
0.0008202099737533
147
0.0
147
0.0
147
0.0
147
0.0
147
0.0008202099737533
147
0.0
147
0.0
147
0.0
147
0.0
147
1.0
147
0.0
147
0.0
147
0.0
147
0.0
147
1.0
  0
MLEADERSTYLE
  5
10066C
102
{ACAD_XDICTIONARY
360
1008CC
102
}
102
{ACAD_REACTORS
330
10066B
102
}
330
10066B
100
AcDbMLeaderStyle
170
     2
171
     1
172
     0
 90
        2
 40
0.0
 41
0.0
173
     1
 91
-1056964608
340
14
 92
       -2
290
     1
 42
2.0
291
     1
 43
0.36
  3
Standard
 44
4.0
300

342
11
174
     1
178
     6
175
     1
176
     0
 93
-1056964608
 45
4.0
292
     0
297
     0
 46
4.0
 94
-1056964608
 47
1.0
 49
1.0
140
1.0
293
     1
141
0.0
294
     1
177
     0
142
1.0
295
     0
296
     0
143
0.125
1001
ACAD_MLEADERVER
1070
     2
  0
MLINESTYLE
  5
18
102
{ACAD_REACTORS
330
17
102
}
330
17
100
AcDbMlineStyle
  2
STANDARD
 70
     0
  3

 62
   256
 51
90.0
 52
90.0
 71
     2
 49
0.5
 62
   256
  6
BYLAYER
 49
-0.5
 62
   256
  6
BYLAYER
  0
ACDBPLACEHOLDER
  5
F
102
{ACAD_REACTORS
330
E
102
}
330
E
  0
SCALE
  5
10065A
102
{ACAD_REACTORS
330
100659
102
}
330
100659
100
AcDbScale
 70
     0
300
1:1
140
1.0
141
1.0
290
     1
  0
SCALE
  5
10065B
102
{ACAD_REACTORS
330
100659
102
}
330
100659
100
AcDbScale
 70
     0
300
1:2
140
1.0
141
2.0
290
     0
  0
SCALE
  5
10065C
102
{ACAD_REACTORS
330
100659
102
}
330
100659
100
AcDbScale
 70
     0
300
1:4
140
1.0
141
4.0
290
     0
  0
SCALE
  5
10065D
102
{ACAD_REACTORS
330
100659
102
}
330
100659
100
AcDbScale
 70
     0
300
1:5
140
1.0
141
5.0
290
     0
  0
SCALE
  5
10065E
102
{ACAD_REACTORS
330
100659
102
}
330
100659
100
AcDbScale
 70
     0
300
1:8
140
1.0
141
8.0
290
     0
  0
SCALE
  5
10065F
102
{ACAD_REACTORS
330
100659
102
}
330
100659
100
AcDbScale
 70
     0
300
1:10
140
1.0
141
10.0
290
     0
  0
SCALE
  5
100660
102
{ACAD_REACTORS
330
100659
102
}
330
100659
100
AcDbScale
 70
     0
300
1:16
140
1.0
141
16.0
290
     0
  0
SCALE
  5
100661
102
{ACAD_REACTORS
330
100659
102
}
330
100659
100
AcDbScale
 70
     0
300
1:20
140
1.0
141
20.0
290
     0
  0
SCALE
  5
100662
102
{ACAD_REACTORS
330
100659
102
}
330
100659
100
AcDbScale
 70
     0
300
1:30
140
1.0
141
30.0
290
     0
  0
SCALE
  5
100663
102
{ACAD_REACTORS
330
100659
102
}
330
100659
100
AcDbScale
 70
     0
300
1:40
140
1.0
141
40.0
290
     0
  0
SCALE
  5
100664
102
{ACAD_REACTORS
330
100659
102
}
330
100659
100
AcDbScale
 70
     0
300
1:50
140
1.0
141
50.0
290
     0
  0
SCALE
  5
100665
102
{ACAD_REACTORS
330
100659
102
}
330
100659
100
AcDbScale
 70
     0
300
1:100
140
1.0
141
100.0
290
     0
  0
SCALE
  5
100666
102
{ACAD_REACTORS
330
100659
102
}
330
100659
100
AcDbScale
 70
     0
300
2:1
140
2.0
141
1.0
290
     0
  0
SCALE
  5
100667
102
{ACAD_REACTORS
330
100659
102
}
330
100659
100
AcDbScale
 70
     0
300
4:1
140
4.0
141
1.0
290
     0
  0
SCALE
  5
100668
102
{ACAD_REACTORS
330
100659
102
}
330
100659
100
AcDbScale
 70
     0
300
8:1
140
8.0
141
1.0
290
     0
  0
SCALE
  5
100669
102
{ACAD_REACTORS
330
100659
102
}
330
100659
100
AcDbScale
 70
     0
300
10:1
140
10.0
141
1.0
290
     0
  0
SCALE
  5
10066A
102
{ACAD_REACTORS
330
100659
102
}
330
100659
100
AcDbScale
 70
     0
300
100:1
140
100.0
141
1.0
290
     0
  0
ACDBSECTIONVIEWSTYLE
  5
10066E
102
{ACAD_XDICTIONARY
360
1008CE
102
}
102
{ACAD_REACTORS
330
10066D
330
10087B
102
}
330
10066D
100
AcDbModelDocViewStyle
 70
     0
  3
Metric50
290
     0
100
AcDbSectionViewStyle
 70
     0
 71
     0
 90
      102
 71
     1
340
11
 62
   256
 40
5.0
340
0
340
0
 62
   256
 40
5.0
300
I, O, Q, S, X, Z
 40
10.0
 90
        0
 40
2.5
 90
        0
 71
     2
340
16
 90
       25
 62
   256
340
16
 90
       50
 62
   256
 40
5.0
 40
2.5
 40
5.0
 71
     3
340
11
 62
   256
 40
5.0
 90
        0
 40
15.0
 90
        1
300
%<\AcVar ViewSectionStartId>%-%<\AcVar ViewSectionEndId>% (%<\AcVar ViewScale \f "%sn">%)
 71
     4
 62
   256
 62
   257
300
ANSI31
 40
1.0
 90
        0
290
     0
290
     0
 90
        6
 40
0.0
 40
1.570796326794896
 40
0.2617993877991494
 40
1.308996938995747
 40
-0.2617993877991494
 40
1.832595714594045
  0
TABLESTYLE
  5
100658
102
{ACAD_XDICTIONARY
360
1007D9
102
}
102
{ACAD_REACTORS
330
100657
102
}
330
100657
100
AcDbTableStyle
  3
Standard
 70
     0
 71
     0
 40
1.5
 41
1.5
280
     0
281
     0
  7
STANDARD
140
4.5
170
     2
 62
     0
 63
     7
283
     0
274
    -2
284
     1
 64
     0
275
    -2
285
     1
 65
     0
276
    -2
286
     1
 66
     0
277
    -2
287
     1
 67
     0
278
    -2
288
     1
 68
     0
279
    -2
289
     1
 69
     0
  7
STANDARD
140
6.0
170
     5
 62
     0
 63
     7
283
     0
274
    -2
284
     1
 64
     0
275
    -2
285
     1
 65
     0
276
    -2
286
     1
 66
     0
277
    -2
287
     1
 67
     0
278
    -2
288
     1
 68
     0
279
    -2
289
     1
 69
     0
  7
STANDARD
140
4.5
170
     5
 62
     0
 63
     7
283
     0
274
    -2
284
     1
 64
     0
275
    -2
285
     1
 65
     0
276
    -2
286
     1
 66
     0
277
    -2
287
     1
 67
     0
278
    -2
288
     1
 68
     0
279
    -2
289
     1
 69
     0
  0
VISUALSTYLE
  5
100644
102
{ACAD_XDICTIONARY
360
1008A5
102
}
102
{ACAD_REACTORS
330
10063E
102
}
330
10063E
100
AcDbVisualStyle
  2

 70
     4
 71
     0
 72
     2
 73
     0
 90
        0
 40
-0.6
 41
-30.0
 62
     5
 63
     7
 74
     1
 91
        4
 64
     7
 65
   257
 75
     1
175
     1
 42
1.0
 92
        0
 66
   257
 43
1.0
 76
     1
 77
     6
 78
     2
 67
     7
 79
     5
170
     0
171
     0
290
     0
174
     0
 93
        1
 44
0.0
173
     0
291
     0
 45
0.0
1001
ACAD
1000
AcDbSavedByObjectVersion
1070
     0
  0
VISUALSTYLE
  5
100643
102
{ACAD_XDICTIONARY
360
1008A3
102
}
102
{ACAD_REACTORS
330
10063E
102
}
330
10063E
100
AcDbVisualStyle
  2

 70
     7
 71
     1
 72
     0
 73
     1
 90
        0
 40
-0.6
 41
-30.0
 62
     5
 63
     7
 74
     0
 91
        4
 64
     7
 65
   257
 75
     1
175
     1
 42
1.0
 92
        8
 66
     7
 43
1.0
 76
     1
 77
     6
 78
     2
 67
     7
 79
     5
170
     0
171
     0
290
     0
174
     0
 93
        1
 44
0.0
173
     0
291
     1
 45
0.0
1001
ACAD
1000
AcDbSavedByObjectVersion
1070
     0
  0
VISUALSTYLE
  5
10064A
102
{ACAD_XDICTIONARY
360
1008B1
102
}
102
{ACAD_REACTORS
330
10063E
102
}
330
10063E
100
AcDbVisualStyle
  2

 70
    12
 71
     2
 72
     2
 73
     0
 90
        0
 40
-0.6
 41
-30.0
 62
     5
 63
     7
 74
     1
 91
        4
 64
     7
 65
   257
 75
     1
175
     1
 42
1.0
 92
        8
 66
     7
 43
1.0
 76
     1
 77
     6
 78
     2
 67
     7
 79
     5
170
     0
171
     0
290
     0
174
     0
 93
        1
 44
50.0
173
     0
291
     1
 45
0.0
1001
ACAD
1000
AcDbSavedByObjectVersion
1070
     0
  0
VISUALSTYLE
  5
10064E
102
{ACAD_XDICTIONARY
360
1008B9
102
}
102
{ACAD_REACTORS
330
10063E
102
}
330
10063E
100
AcDbVisualStyle
  2

 70
    16
 71
     2
 72
     2
 73
     3
 90
        0
 40
-0.6
 41
-30.0
 62
     5
 63
     8
 74
     1
 91
        4
 64
     7
 65
   257
 75
     1
175
     1
 42
1.0
 92
        8
 66
     8
 43
1.0
 76
     1
 77
     6
 78
     2
 67
     7
 79
     5
170
     0
171
     0
290
     0
174
     0
 93
        1
 44
0.0
173
     0
291
     1
 45
0.0
1001
ACAD
1000
AcDbSavedByObjectVersion
1070
     0
  0
VISUALSTYLE
  5
100647
102
{ACAD_XDICTIONARY
360
1008AB
102
}
102
{ACAD_REACTORS
330
10063E
102
}
330
10063E
100
AcDbVisualStyle
  2

 70
     9
 71
     3
 72
     2
 73
     0
 90
        0
 40
-0.6
 41
-30.0
 62
     5
 63
     7
 74
     2
 91
        2
 64
     7
 65
   257
 75
     1
175
     1
 42
179.0
 92
        8
 66
     7
 43
1.0
 76
     1
 77
     6
 78
     2
 67
     7
 79
     3
170
     0
171
     0
290
     0
174
     0
 93
        1
 44
0.0
173
     0
291
     0
 45
0.0
1001
ACAD
1000
AcDbSavedByObjectVersion
1070
     0
  0
VISUALSTYLE
  5
100649
102
{ACAD_XDICTIONARY
360
1008AF
102
}
102
{ACAD_REACTORS
330
10063E
102
}
330
10063E
100
AcDbVisualStyle
  2

 70
    11
 71
     2
 72
     2
 73
     0
 90
        0
 40
-0.6
 41
-30.0
 62
     5
 63
     7
 74
     1
 91
        4
 64
     7
 65
   257
 75
     1
175
     1
 42
1.0
 92
        8
 66
     7
 43
1.0
 76
     1
 77
     6
 78
     2
 67
     7
 79
     5
170
     0
171
     0
290
     0
174
     0
 93
        1
 44
-50.0
173
     0
291
     1
 45
0.0
1001
ACAD
1000
AcDbSavedByObjectVersion
1070
     0
  0
VISUALSTYLE
  5
100656
102
{ACAD_XDICTIONARY
360
1008C9
102
}
102
{ACAD_REACTORS
330
10063E
102
}
330
10063E
100
AcDbVisualStyle
  2

 70
    22
 71
     2
 72
     2
 73
     0
 90
        0
 40
-0.6
 41
-30.0
 62
     5
 63
     7
 74
     1
 91
        4
 64
     7
 65
   257
 75
     1
175
     1
 42
1.0
 92
        8
 66
     7
 43
1.0
 76
     1
 77
     6
 78
     2
 67
     7
 79
     5
170
     0
171
     0
290
     0
174
     0
 93
        1
 44
0.0
173
     0
291
     1
 45
0.0
1001
ACAD
1000
AcDbSavedByObjectVersion
1070
     0
  0
VISUALSTYLE
  5
10064D
102
{ACAD_XDICTIONARY
360
1008B7
102
}
102
{ACAD_REACTORS
330
10063E
102
}
330
10063E
100
AcDbVisualStyle
  2

 70
    15
 71
     2
 72
     2
 73
     0
 90
        0
 40
-0.6
 41
-30.0
 62
     5
 63
     7
 74
     1
 91
        4
 64
     7
 65
   257
 75
     1
175
     1
 42
1.0
 92
        8
 66
     7
 43
1.0
 76
     1
 77
     6
 78
     2
 67
     7
 79
     5
170
     0
171
     0
290
     0
174
     0
 93
        1
 44
0.0
173
     0
291
     1
 45
0.0
1001
ACAD
1000
AcDbSavedByObjectVersion
1070
     0
  0
VISUALSTYLE
  5
10063F
102
{ACAD_XDICTIONARY
360
10089B
102
}
102
{ACAD_REACTORS
330
10063E
102
}
330
10063E
100
AcDbVisualStyle
  2

 70
     0
 71
     2
 72
     1
 73
     1
 90
        2
 40
-0.6
 41
30.0
 62
     5
 63
     7
 74
     0
 91
        0
 64
     7
 65
   257
 75
     1
175
     1
 42
1.0
 92
        8
 66
     7
 43
1.0
 76
     1
 77
     6
 78
     2
 67
     7
 79
     5
170
     0
171
     0
290
     0
174
     0
 93
       13
 44
0.0
173
     0
291
     1
 45
0.0
1001
ACAD
1000
AcDbSavedByObjectVersion
1070
     0
  0
VISUALSTYLE
  5
100640
102
{ACAD_XDICTIONARY
360
10089D
102
}
102
{ACAD_REACTORS
330
10063E
102
}
330
10063E
100
AcDbVisualStyle
  2

 70
     1
 71
     2
 72
     1
 73
     1
 90
        2
 40
-0.6
 41
30.0
 62
     5
 63
     7
 74
     1
 91
        0
 64
     7
 65
   257
 75
     1
175
     1
 42
1.0
 92
        0
 66
   257
 43
1.0
 76
     1
 77
     6
 78
     2
 67
     7
 79
     5
170
     0
171
     0
290
     0
174
     0
 93
       13
 44
0.0
173
     0
291
     1
 45
0.0
1001
ACAD
1000
AcDbSavedByObjectVersion
1070
     0
  0
VISUALSTYLE
  5
100641
102
{ACAD_XDICTIONARY
360
10089F
102
}
102
{ACAD_REACTORS
330
10063E
102
}
330
10063E
100
AcDbVisualStyle
  2

 70
     2
 71
     2
 72
     2
 73
     1
 90
        2
 40
-0.6
 41
30.0
 62
     5
 63
     7
 74
     0
 91
        0
 64
     7
 65
   257
 75
     1
175
     1
 42
1.0
 92
        0
 66
     7
 43
1.0
 76
     1
 77
     6
 78
     2
 67
     7
 79
     5
170
     0
171
     0
290
     0
174
     0
 93
       13
 44
0.0
173
     0
291
     1
 45
0.0
1001
ACAD
1000
AcDbSavedByObjectVersion
1070
     0
  0
VISUALSTYLE
  5
100642
102
{ACAD_XDICTIONARY
360
1008A1
102
}
102
{ACAD_REACTORS
330
10063E
102
}
330
10063E
100
AcDbVisualStyle
  2

 70
     3
 71
     2
 72
     2
 73
     1
 90
        2
 40
-0.6
 41
30.0
 62
     5
 63
     7
 74
     1
 91
        0
 64
     7
 65
   257
 75
     1
175
     1
 42
1.0
 92
        0
 66
   257
 43
1.0
 76
     1
 77
     6
 78
     2
 67
     7
 79
     5
170
     0
171
     0
290
     0
174
     0
 93
       13
 44
0.0
173
     0
291
     1
 45
0.0
1001
ACAD
1000
AcDbSavedByObjectVersion
1070
     0
  0
VISUALSTYLE
  5
100646
102
{ACAD_XDICTIONARY
360
1008A9
102
}
102
{ACAD_REACTORS
330
10063E
102
}
330
10063E
100
AcDbVisualStyle
  2

 70
     6
 71
     1
 72
     2
 73
     2
 90
        0
 40
-0.6
 41
-30.0
 62
     5
 63
     7
 74
     2
 91
        2
 64
     7
 65
   257
 75
     2
175
     1
 42
40.0
 92
        0
 66
   257
 43
1.0
 76
     1
 77
     6
 78
     2
 67
     7
 79
     3
170
     0
171
     0
290
     0
174
     0
 93
        1
 44
0.0
173
     0
291
     0
 45
0.0
1001
ACAD
1000
AcDbSavedByObjectVersion
1070
     0
  0
VISUALSTYLE
  5
100654
102
{ACAD_XDICTIONARY
360
1008C5
102
}
102
{ACAD_REACTORS
330
10063E
102
}
330
10063E
100
AcDbVisualStyle
  2

 70
    20
 71
     2
 72
     2
 73
     0
 90
        0
 40
-0.6
 41
-30.0
 62
     5
 63
     7
 74
     1
 91
        4
 64
     7
 65
   257
 75
     1
175
     1
 42
1.0
 92
       10
 66
     7
 43
1.0
 76
     1
 77
     6
 78
     2
 67
     7
 79
     5
170
     0
171
     0
290
     0
174
     0
 93
        1
 44
0.0
173
     0
291
     1
 45
0.0
1001
ACAD
1000
AcDbSavedByObjectVersion
1070
     0
  0
VISUALSTYLE
  5
10064C
102
{ACAD_XDICTIONARY
360
1008B5
102
}
102
{ACAD_REACTORS
330
10063E
102
}
330
10063E
100
AcDbVisualStyle
  2

 70
    14
 71
     2
 72
     2
 73
     0
 90
        0
 40
-0.6
 41
-30.0
 62
     5
 63
     7
 74
     1
 91
        4
 64
     7
 65
   257
 75
     7
175
     7
 42
1.0
 92
        8
 66
     7
 43
1.0
 76
     1
 77
     6
 78
     2
 67
     7
 79
     5
170
     0
171
     0
290
     0
174
     0
 93
        1
 44
0.0
173
     0
291
     1
 45
0.0
1001
ACAD
1000
AcDbSavedByObjectVersion
1070
     0
  0
VISUALSTYLE
  5
100655
102
{ACAD_XDICTIONARY
360
1008C7
102
}
102
{ACAD_REACTORS
330
10063E
102
}
330
10063E
100
AcDbVisualStyle
  2

 70
    21
 71
     2
 72
     2
 73
     0
 90
        0
 40
-0.6
 41
-30.0
 62
     5
 63
     7
 74
     1
 91
        4
 64
     7
 65
   257
 75
     1
175
     1
 42
1.0
 92
        9
 66
     7
 43
1.0
 76
     1
 77
     6
 78
     2
 67
     7
 79
     5
170
     0
171
     0
290
     0
174
     0
 93
        1
 44
0.0
173
     0
291
     1
 45
0.0
1001
ACAD
1000
AcDbSavedByObjectVersion
1070
     0
  0
VISUALSTYLE
  5
100648
102
{ACAD_XDICTIONARY
360
1008AD
102
}
102
{ACAD_REACTORS
330
10063E
102
}
330
10063E
100
AcDbVisualStyle
  2

 70
     8
 71
     2
 72
     3
 73
     0
 90
        2
 40
-0.6
 41
30.0
 62
     5
 63
     7
 74
     0
 91
        0
 64
     7
 65
   257
 75
     1
175
     1
 42
1.0
 92
        8
 66
   257
 43
1.0
 76
     1
 77
     6
 78
     2
 67
     7
 79
     3
170
     0
171
     0
290
     0
174
     0
 93
       13
 44
0.0
173
     0
291
     0
 45
0.0
1001
ACAD
1000
AcDbSavedByObjectVersion
1070
     0
  0
VISUALSTYLE
  5
100653
102
{ACAD_XDICTIONARY
360
1008C3
102
}
102
{ACAD_REACTORS
330
10063E
102
}
330
10063E
100
AcDbVisualStyle
  2

 70
    27
 71
     2
 72
     2
 73
     1
 90
        2
 40
-0.6
 41
30.0
 62
     5
 63
     7
 74
     0
 91
        4
 64
     7
 65
   257
 75
     1
175
     1
 42
1.0
 92
        8
 66
   257
 43
1.0
 76
     1
 77
     6
 78
     2
 67
     8
 79
     3
170
     0
171
     0
290
     0
174
     0
 93
        5
 44
0.0
173
     0
291
     0
 45
0.0
1001
ACAD
1000
AcDbSavedByObjectVersion
1070
     0
  0
VISUALSTYLE
  5
100652
102
{ACAD_XDICTIONARY
360
1008C1
102
}
102
{ACAD_REACTORS
330
10063E
102
}
330
10063E
100
AcDbVisualStyle
  2

 70
    26
 71
     2
 72
     2
 73
     1
 90
        2
 40
-0.6
 41
30.0
 62
     5
 63
     7
 74
     1
 91
       10
 64
     7
 65
   257
 75
     2
175
     1
 42
1.0
 92
        8
 66
   257
 43
1.0
 76
     1
 77
     6
 78
     2
 67
     7
 79
     3
170
     0
171
     0
290
     0
174
     0
 93
        5
 44
0.0
173
     0
291
     0
 45
0.0
1001
ACAD
1000
AcDbSavedByObjectVersion
1070
     0
  0
VISUALSTYLE
  5
10064F
102
{ACAD_XDICTIONARY
360
1008BB
102
}
102
{ACAD_REACTORS
330
10063E
102
}
330
10063E
100
AcDbVisualStyle
  2

 70
    23
 71
     2
 72
     2
 73
     3
 90
        0
 40
-0.6
 41
-30.0
 62
     5
 63
     7
 74
     2
 91
        2
 64
     7
 65
     7
 75
     1
175
     1
 42
40.0
 92
        8
 66
     7
 43
1.0
 76
     1
 77
     6
 78
     2
 67
     7
 79
     3
170
     0
171
     0
290
     0
174
     0
 93
        1
 44
0.0
173
     0
291
     0
 45
0.0
1001
ACAD
1000
AcDbSavedByObjectVersion
1070
     0
  0
VISUALSTYLE
  5
100650
102
{ACAD_XDICTIONARY
360
1008BD
102
}
102
{ACAD_REACTORS
330
10063E
102
}
330
10063E
100
AcDbVisualStyle
  2

 70
    24
 71
     1
 72
     2
 73
     2
 90
        0
 40
-0.6
 41
-30.0
 62
     5
 63
     7
 74
     2
 91
        2
 64
     7
 65
     7
 75
     1
175
     1
 42
40.0
 92
       11
 66
     7
 43
1.0
 76
     1
 77
     6
 78
     2
 67
     7
 79
     6
170
     0
171
     0
290
     0
174
     0
 93
        1
 44
0.0
173
     0
291
     0
 45
0.0
1001
ACAD
1000
AcDbSavedByObjectVersion
1070
     0
  0
VISUALSTYLE
  5
10064B
102
{ACAD_XDICTIONARY
360
1008B3
102
}
102
{ACAD_REACTORS
330
10063E
102
}
330
10063E
100
AcDbVisualStyle
  2

 70
    13
 71
     2
 72
     2
 73
     0
 90
        0
 40
-0.6
 41
-30.0
 62
     5
 63
     7
 74
     1
 91
        4
 64
     7
 65
   257
 75
     1
175
     1
 42
1.0
 92
       12
 66
     7
 43
1.0
 76
     1
 77
     6
 78
     2
 67
     7
 79
     5
170
     0
171
     0
290
     0
174
     0
 93
        1
 44
0.0
173
     0
291
     1
 45
0.0
1001
ACAD
1000
AcDbSavedByObjectVersion
1070
     0
  0
VISUALSTYLE
  5
100645
102
{ACAD_XDICTIONARY
360
1008A7
102
}
102
{ACAD_REACTORS
330
10063E
102
}
330
10063E
100
AcDbVisualStyle
  2

 70
     5
 71
     0
 72
     2
 73
     0
 90
        0
 40
-0.6
 41
-30.0
 62
     5
 63
     7
 74
     1
 91
        4
 64
     7
 65
   257
 75
     1
175
     1
 42
1.0
 92
        0
 66
   257
 43
1.0
 76
     1
 77
     6
 78
     2
 67
     7
 79
     3
170
     0
171
     0
290
     0
174
     0
 93
        1
 44
0.0
173
     0
291
     0
 45
0.0
1001
ACAD
1000
AcDbSavedByObjectVersion
1070
     0
  0
VISUALSTYLE
  5
100651
102
{ACAD_XDICTIONARY
360
1008BF
102
}
102
{ACAD_REACTORS
330
10063E
102
}
330
10063E
100
AcDbVisualStyle
  2

 70
    25
 71
     2
 72
     2
 73
     1
 90
        1
 40
0.5
 41
-30.0
 62
     5
 63
     7
 74
     1
 91
        0
 64
     7
 65
   257
 75
     1
175
     1
 42
1.0
 92
        8
 66
     7
 43
1.0
 76
     1
 77
     6
 78
     2
 67
     7
 79
     3
170
     0
171
     0
290
     0
174
     0
 93
       13
 44
0.0
173
     0
291
     0
 45
0.0
1001
ACAD
1000
AcDbSavedByObjectVersion
1070
     0
  0
DICTIONARYVAR
  5
1007D7
102
{ACAD_REACTORS
330
6B9
102
}
330
6B9
100
DictionaryVariables
280
     0
  1
1:1
  0
DICTIONARYVAR
  5
1007D4
102
{ACAD_REACTORS
330
6B9
102
}
330
6B9
100
DictionaryVariables
280
     0
  1
STANDARD
  0
DICTIONARYVAR
  5
1007D3
102
{ACAD_REACTORS
330
6B9
102
}
330
6B9
100
DictionaryVariables
280
     0
  1
STANDARD
  0
DICTIONARYVAR
  5
1007D5
102
{ACAD_REACTORS
330
6B9
102
}
330
6B9
100
DictionaryVariables
280
     0
  1
Metric50
  0
DICTIONARYVAR
  5
1007D6
102
{ACAD_REACTORS
330
6B9
102
}
330
6B9
100
DictionaryVariables
280
     0
  1
Metric50
  0
DICTIONARYVAR
  5
F4248
102
{ACAD_REACTORS
330
6B9
102
}
330
6B9
100
DictionaryVariables
280
     0
  1
1
  0
DICTIONARYVAR
  5
F4247
102
{ACAD_REACTORS
330
6B9
102
}
330
6B9
100
DictionaryVariables
280
     0
  1
0
  0
DICTIONARYVAR
  5
F4249
102
{ACAD_REACTORS
330
6B9
102
}
330
6B9
100
DictionaryVariables
280
     0
  1

  0
DICTIONARYVAR
  5
6BA
102
{ACAD_REACTORS
330
6B9
102
}
330
6B9
100
DictionaryVariables
280
     0
  1
96
  0
DICTIONARYVAR
  5
100898
102
{ACAD_REACTORS
330
6B9
102
}
330
6B9
100
DictionaryVariables
280
     0
  1
2
  0
DICTIONARY
  5
16D3E
102
{ACAD_REACTORS
330
16D31
102
}
330
16D31
100
AcDbDictionary
281
     1
  0
XRECORD
  5
16DB5
102
{ACAD_REACTORS
330
16D31
102
}
330
16D31
100
AcDbXrecord
280
     1
 90
-1023410169
  0
XRECORD
  5
F4A77
102
{ACAD_REACTORS
330
F4A75
102
}
330
F4A75
100
AcDbXrecord
280
     1
330
0
330
0
330
0
330
0
330
0
330
0
330
0
330
0
330
0
  0
XRECORD
  5
F82D2
102
{ACAD_REACTORS
330
F82BE
102
}
330
F82BE
100
AcDbXrecord
280
     1
 91
      484
330
4C
 90
        8
 62
     2
370
    40
331
16
  1
色_2
330
30
 90
        8
 62
    30
370
     9
331
F3ACE
  1
色_30
330
3AE4
 90
        8
 62
   123
370
     9
331
3AE3
  1
色_123
330
F3AD3
 90
        8
 62
   233
370
     9
331
16CF6
  1
色_233
330
33
 90
        8
 62
     8
370
     9
331
16
  1
色_8
330
86CB
 90
        8
 62
     7
370
    20
331
16
  1
色_7
330
86C9
 90
        8
 62
     4
370
    15
331
16
  1
色_4
330
86C8
 90
        8
 62
   173
370
     9
331
16
  1
色_173
420
-1034792193
330
86CC
 90
        8
 62
     1
370
     5
331
16
  1
色_1
330
548
 90
        0
 62
     6
370
    -3
331
16
  1
色_6
330
86FE
 90
        8
 62
   241
370
     5
331
58DA
  1
色_241
330
54
 90
        0
 62
     7
370
    -3
331
16
  1
色_7
330
F61AE
 90
        0
 62
     1
370
    25
331
16
  1
色_1
330
10
 90
        8
 62
     7
370
    20
331
16
  1
色_7
  0
XRECORD
  5
F82BF
102
{ACAD_REACTORS
330
F82BE
102
}
330
F82BE
100
AcDbXrecord
280
     1
 91
      484
330
4C
 90
        8
 62
     2
370
    40
331
16
  1
色_2
330
30
 90
        8
 62
    30
370
     9
331
F3ACE
  1
色_30
330
3AE4
 90
        8
 62
   123
370
     9
331
3AE3
  1
色_123
330
F3AD3
 90
        8
 62
   233
370
     9
331
16CF6
  1
色_233
330
33
 90
        8
 62
     8
370
     9
331
16
  1
色_8
330
86C8
 90
        8
 62
   173
370
     5
331
16
  1
色_173
420
-1034792193
330
548
 90
        0
 62
     6
370
    -3
331
16
  1
色_6
330
86FE
 90
        8
 62
   241
370
     5
331
58DA
  1
色_241
330
86CC
 90
        8
 62
     1
370
     9
331
16
  1
色_1
330
86CB
 90
        8
 62
     5
370
    20
331
16
  1
色_5
330
86C9
 90
        8
 62
     4
370
    15
331
16
  1
色_4
330
54
 90
        0
 62
     7
370
    -3
331
16
  1
色_7
330
F61AE
 90
        0
 62
     1
370
    25
331
16
  1
色_1
330
10
 90
        8
 62
     7
370
    20
331
16
  1
色_7
  0
DICTIONARY
  5
1008D0
330
100670
100
AcDbDictionary
280
     1
281
     1
  3
ACAD_XREC_ROUNDTRIP
360
1008D1
  0
DICTIONARY
  5
10062F
330
10062E
100
AcDbDictionary
280
     1
281
     1
  3
ACAD_XREC_ROUNDTRIP
360
1007F2
  3
BUMPTILE
360
100631
  3
DIFFUSETILE
360
100630
  3
OPACITYTILE
360
100634
  3
REFLECTIONTILE
360
100633
  3
REFRACTIONTILE
360
100635
  3
SPECULARTILE
360
100632
  0
DICTIONARY
  5
100627
330
100626
100
AcDbDictionary
280
     1
281
     1
  3
ACAD_XREC_ROUNDTRIP
360
1007F1
  3
BUMPTILE
360
100629
  3
DIFFUSETILE
360
100628
  3
OPACITYTILE
360
10062C
  3
REFLECTIONTILE
360
10062B
  3
REFRACTIONTILE
360
10062D
  3
SPECULARTILE
360
10062A
  0
DICTIONARY
  5
100637
330
100636
100
AcDbDictionary
280
     1
281
     1
  3
ACAD_XREC_ROUNDTRIP
360
1007F3
  3
BUMPTILE
360
100639
  3
DIFFUSETILE
360
100638
  3
OPACITYTILE
360
10063C
  3
REFLECTIONTILE
360
10063B
  3
REFRACTIONTILE
360
10063D
  3
SPECULARTILE
360
10063A
  0
DICTIONARY
  5
1008CC
330
10066C
100
AcDbDictionary
280
     1
281
     1
  3
ACAD_XREC_ROUNDTRIP
360
1008CD
  0
DICTIONARY
  5
1008CE
330
10066E
100
AcDbDictionary
280
     1
281
     1
  3
ACAD_XREC_ROUNDTRIP
360
1008CF
  0
DICTIONARY
  5
1007D9
330
100658
100
AcDbDictionary
280
     1
281
     1
  3
ACAD_ROUNDTRIP_2008_TABLESTYLE_CELLSTYLEMAP
360
100899
  3
ACAD_XREC_ROUNDTRIP
360
1008CB
  0
DICTIONARY
  5
1008A5
330
100644
100
AcDbDictionary
280
     1
281
     1
  3
ACAD_XREC_ROUNDTRIP
360
1008A6
  0
DICTIONARY
  5
1008A3
330
100643
100
AcDbDictionary
280
     1
281
     1
  3
ACAD_XREC_ROUNDTRIP
360
1008A4
  0
DICTIONARY
  5
1008B1
330
10064A
100
AcDbDictionary
280
     1
281
     1
  3
ACAD_XREC_ROUNDTRIP
360
1008B2
  0
DICTIONARY
  5
1008B9
330
10064E
100
AcDbDictionary
280
     1
281
     1
  3
ACAD_XREC_ROUNDTRIP
360
1008BA
  0
DICTIONARY
  5
1008AB
330
100647
100
AcDbDictionary
280
     1
281
     1
  3
ACAD_XREC_ROUNDTRIP
360
1008AC
  0
DICTIONARY
  5
1008AF
330
100649
100
AcDbDictionary
280
     1
281
     1
  3
ACAD_XREC_ROUNDTRIP
360
1008B0
  0
DICTIONARY
  5
1008C9
330
100656
100
AcDbDictionary
280
     1
281
     1
  3
ACAD_XREC_ROUNDTRIP
360
1008CA
  0
DICTIONARY
  5
1008B7
330
10064D
100
AcDbDictionary
280
     1
281
     1
  3
ACAD_XREC_ROUNDTRIP
360
1008B8
  0
DICTIONARY
  5
10089B
330
10063F
100
AcDbDictionary
280
     1
281
     1
  3
ACAD_XREC_ROUNDTRIP
360
10089C
  0
DICTIONARY
  5
10089D
330
100640
100
AcDbDictionary
280
     1
281
     1
  3
ACAD_XREC_ROUNDTRIP
360
10089E
  0
DICTIONARY
  5
10089F
330
100641
100
AcDbDictionary
280
     1
281
     1
  3
ACAD_XREC_ROUNDTRIP
360
1008A0
  0
DICTIONARY
  5
1008A1
330
100642
100
AcDbDictionary
280
     1
281
     1
  3
ACAD_XREC_ROUNDTRIP
360
1008A2
  0
DICTIONARY
  5
1008A9
330
100646
100
AcDbDictionary
280
     1
281
     1
  3
ACAD_XREC_ROUNDTRIP
360
1008AA
  0
DICTIONARY
  5
1008C5
330
100654
100
AcDbDictionary
280
     1
281
     1
  3
ACAD_XREC_ROUNDTRIP
360
1008C6
  0
DICTIONARY
  5
1008B5
330
10064C
100
AcDbDictionary
280
     1
281
     1
  3
ACAD_XREC_ROUNDTRIP
360
1008B6
  0
DICTIONARY
  5
1008C7
330
100655
100
AcDbDictionary
280
     1
281
     1
  3
ACAD_XREC_ROUNDTRIP
360
1008C8
  0
DICTIONARY
  5
1008AD
330
100648
100
AcDbDictionary
280
     1
281
     1
  3
ACAD_XREC_ROUNDTRIP
360
1008AE
  0
DICTIONARY
  5
1008C3
330
100653
100
AcDbDictionary
280
     1
281
     1
  3
ACAD_XREC_ROUNDTRIP
360
1008C4
  0
DICTIONARY
  5
1008C1
330
100652
100
AcDbDictionary
280
     1
281
     1
  3
ACAD_XREC_ROUNDTRIP
360
1008C2
  0
DICTIONARY
  5
1008BB
330
10064F
100
AcDbDictionary
280
     1
281
     1
  3
ACAD_XREC_ROUNDTRIP
360
1008BC
  0
DICTIONARY
  5
1008BD
330
100650
100
AcDbDictionary
280
     1
281
     1
  3
ACAD_XREC_ROUNDTRIP
360
1008BE
  0
DICTIONARY
  5
1008B3
330
10064B
100
AcDbDictionary
280
     1
281
     1
  3
ACAD_XREC_ROUNDTRIP
360
1008B4
  0
DICTIONARY
  5
1008A7
330
100645
100
AcDbDictionary
280
     1
281
     1
  3
ACAD_XREC_ROUNDTRIP
360
1008A8
  0
DICTIONARY
  5
1008BF
330
100651
100
AcDbDictionary
280
     1
281
     1
  3
ACAD_XREC_ROUNDTRIP
360
1008C0
  0
XRECORD
  5
1008D1
102
{ACAD_REACTORS
330
1008D0
102
}
330
1008D0
100
AcDbXrecord
280
     1
102
DISPLAYNAME
  1
Metric50
102
FLAGS
 90
        0
  0
XRECORD
  5
1007F2
102
{ACAD_REACTORS
330
10062F
102
}
330
10062F
100
AcDbXrecord
280
     1
102
MATERIAL
148
0.0
149
0.0
149
0.0
 93
        0
 94
      127
282
     0
 72
     0
 77
     0
171
     0
175
     0
179
     0
273
     0
  0
XRECORD
  5
100631
102
{ACAD_REACTORS
330
10062F
102
}
330
10062F
100
AcDbXrecord
280
     1
270
     1
271
     1
  0
XRECORD
  5
100630
102
{ACAD_REACTORS
330
10062F
102
}
330
10062F
100
AcDbXrecord
280
     1
270
     1
271
     1
  0
XRECORD
  5
100634
102
{ACAD_REACTORS
330
10062F
102
}
330
10062F
100
AcDbXrecord
280
     1
270
     1
271
     1
  0
XRECORD
  5
100633
102
{ACAD_REACTORS
330
10062F
102
}
330
10062F
100
AcDbXrecord
280
     1
270
     1
271
     1
  0
XRECORD
  5
100635
102
{ACAD_REACTORS
330
10062F
102
}
330
10062F
100
AcDbXrecord
280
     1
270
     1
271
     1
  0
XRECORD
  5
100632
102
{ACAD_REACTORS
330
10062F
102
}
330
10062F
100
AcDbXrecord
280
     1
270
     1
271
     1
  0
XRECORD
  5
1007F1
102
{ACAD_REACTORS
330
100627
102
}
330
100627
100
AcDbXrecord
280
     1
102
MATERIAL
148
0.0
149
0.0
149
0.0
 93
        0
 94
      127
282
     0
 72
     0
 77
     0
171
     0
175
     0
179
     0
273
     0
  0
XRECORD
  5
100629
102
{ACAD_REACTORS
330
100627
102
}
330
100627
100
AcDbXrecord
280
     1
270
     1
271
     1
  0
XRECORD
  5
100628
102
{ACAD_REACTORS
330
100627
102
}
330
100627
100
AcDbXrecord
280
     1
270
     1
271
     1
  0
XRECORD
  5
10062C
102
{ACAD_REACTORS
330
100627
102
}
330
100627
100
AcDbXrecord
280
     1
270
     1
271
     1
  0
XRECORD
  5
10062B
102
{ACAD_REACTORS
330
100627
102
}
330
100627
100
AcDbXrecord
280
     1
270
     1
271
     1
  0
XRECORD
  5
10062D
102
{ACAD_REACTORS
330
100627
102
}
330
100627
100
AcDbXrecord
280
     1
270
     1
271
     1
  0
XRECORD
  5
10062A
102
{ACAD_REACTORS
330
100627
102
}
330
100627
100
AcDbXrecord
280
     1
270
     1
271
     1
  0
XRECORD
  5
1007F3
102
{ACAD_REACTORS
330
100637
102
}
330
100637
100
AcDbXrecord
280
     1
102
MATERIAL
148
0.0
149
0.0
149
0.0
 93
        0
 94
      127
282
     0
 72
     0
 77
     0
171
     0
175
     0
179
     0
273
     0
  0
XRECORD
  5
100639
102
{ACAD_REACTORS
330
100637
102
}
330
100637
100
AcDbXrecord
280
     1
270
     1
271
     1
  0
XRECORD
  5
100638
102
{ACAD_REACTORS
330
100637
102
}
330
100637
100
AcDbXrecord
280
     1
270
     1
271
     1
  0
XRECORD
  5
10063C
102
{ACAD_REACTORS
330
100637
102
}
330
100637
100
AcDbXrecord
280
     1
270
     1
271
     1
  0
XRECORD
  5
10063B
102
{ACAD_REACTORS
330
100637
102
}
330
100637
100
AcDbXrecord
280
     1
270
     1
271
     1
  0
XRECORD
  5
10063D
102
{ACAD_REACTORS
330
100637
102
}
330
100637
100
AcDbXrecord
280
     1
270
     1
271
     1
  0
XRECORD
  5
10063A
102
{ACAD_REACTORS
330
100637
102
}
330
100637
100
AcDbXrecord
280
     1
270
     1
271
     1
  0
XRECORD
  5
1008CD
102
{ACAD_REACTORS
330
1008CC
102
}
330
1008CC
100
AcDbXrecord
280
     1
102
ACAD_ROUNDTRIP_2012_MLEADER_STYLE
298
     1
  0
XRECORD
  5
1008CF
102
{ACAD_REACTORS
330
1008CE
102
}
330
1008CE
100
AcDbXrecord
280
     1
102
DISPLAYNAME
  1
Metric50
102
FLAGS
 90
        0
  0
CELLSTYLEMAP
  5
100899
102
{ACAD_REACTORS
330
1007D9
102
}
330
1007D9
100
AcDbCellStyleMap
 90
        3
300
CELLSTYLE
  1
TABLEFORMAT_BEGIN
 90
        5
170
     1
 91
        0
 92
    32768
 62
   257
 93
        1
300
CONTENTFORMAT
  1
CONTENTFORMAT_BEGIN
 90
        0
 91
        0
 92
      512
 93
        0
300

 40
0.0
140
1.0
 94
        5
 62
     0
340
11
144
6.0
309
CONTENTFORMAT_END
171
     1
301
MARGIN
  1
CELLMARGIN_BEGIN
 40
1.5
 40
1.5
 40
1.5
 40
1.5
 40
0.18
 40
0.18
309
CELLMARGIN_END
 94
        6
 95
        1
302
GRIDFORMAT
  1
GRIDFORMAT_BEGIN
 90
        0
 91
        1
 62
     0
 92
       -2
340
0
 93
        0
 40
1.125
309
GRIDFORMAT_END
 95
        2
302
GRIDFORMAT
  1
GRIDFORMAT_BEGIN
 90
        0
 91
        1
 62
     0
 92
       -2
340
0
 93
        0
 40
1.125
309
GRIDFORMAT_END
 95
        4
302
GRIDFORMAT
  1
GRIDFORMAT_BEGIN
 90
        0
 91
        1
 62
     0
 92
       -2
340
0
 93
        0
 40
1.125
309
GRIDFORMAT_END
 95
        8
302
GRIDFORMAT
  1
GRIDFORMAT_BEGIN
 90
        0
 91
        1
 62
     0
 92
       -2
340
0
 93
        0
 40
1.125
309
GRIDFORMAT_END
 95
       16
302
GRIDFORMAT
  1
GRIDFORMAT_BEGIN
 90
        0
 91
        1
 62
     0
 92
       -2
340
0
 93
        0
 40
1.125
309
GRIDFORMAT_END
 95
       32
302
GRIDFORMAT
  1
GRIDFORMAT_BEGIN
 90
        0
 91
        1
 62
     0
 92
       -2
340
0
 93
        0
 40
1.125
309
GRIDFORMAT_END
309
TABLEFORMAT_END
  1
CELLSTYLE_BEGIN
 90
        1
 91
        1
300
_TITLE
309
CELLSTYLE_END
300
CELLSTYLE
  1
TABLEFORMAT_BEGIN
 90
        5
170
     1
 91
        0
 92
        0
 62
   257
 93
        1
300
CONTENTFORMAT
  1
CONTENTFORMAT_BEGIN
 90
        0
 91
        0
 92
      512
 93
        0
300

 40
0.0
140
1.0
 94
        5
 62
     0
340
11
144
4.5
309
CONTENTFORMAT_END
171
     1
301
MARGIN
  1
CELLMARGIN_BEGIN
 40
1.5
 40
1.5
 40
1.5
 40
1.5
 40
0.18
 40
0.18
309
CELLMARGIN_END
 94
        6
 95
        1
302
GRIDFORMAT
  1
GRIDFORMAT_BEGIN
 90
        0
 91
        1
 62
     0
 92
       -2
340
0
 93
        0
 40
1.125
309
GRIDFORMAT_END
 95
        2
302
GRIDFORMAT
  1
GRIDFORMAT_BEGIN
 90
        0
 91
        1
 62
     0
 92
       -2
340
0
 93
        0
 40
1.125
309
GRIDFORMAT_END
 95
        4
302
GRIDFORMAT
  1
GRIDFORMAT_BEGIN
 90
        0
 91
        1
 62
     0
 92
       -2
340
0
 93
        0
 40
1.125
309
GRIDFORMAT_END
 95
        8
302
GRIDFORMAT
  1
GRIDFORMAT_BEGIN
 90
        0
 91
        1
 62
     0
 92
       -2
340
0
 93
        0
 40
1.125
309
GRIDFORMAT_END
 95
       16
302
GRIDFORMAT
  1
GRIDFORMAT_BEGIN
 90
        0
 91
        1
 62
     0
 92
       -2
340
0
 93
        0
 40
1.125
309
GRIDFORMAT_END
 95
       32
302
GRIDFORMAT
  1
GRIDFORMAT_BEGIN
 90
        0
 91
        1
 62
     0
 92
       -2
340
0
 93
        0
 40
1.125
309
GRIDFORMAT_END
309
TABLEFORMAT_END
  1
CELLSTYLE_BEGIN
 90
        2
 91
        1
300
_HEADER
309
CELLSTYLE_END
300
CELLSTYLE
  1
TABLEFORMAT_BEGIN
 90
        5
170
     1
 91
        0
 92
        0
 62
   257
 93
        1
300
CONTENTFORMAT
  1
CONTENTFORMAT_BEGIN
 90
        0
 91
        0
 92
      512
 93
        0
300

 40
0.0
140
1.0
 94
        2
 62
     0
340
11
144
4.5
309
CONTENTFORMAT_END
171
     1
301
MARGIN
  1
CELLMARGIN_BEGIN
 40
1.5
 40
1.5
 40
1.5
 40
1.5
 40
0.18
 40
0.18
309
CELLMARGIN_END
 94
        6
 95
        1
302
GRIDFORMAT
  1
GRIDFORMAT_BEGIN
 90
        0
 91
        1
 62
     0
 92
       -2
340
0
 93
        0
 40
1.125
309
GRIDFORMAT_END
 95
        2
302
GRIDFORMAT
  1
GRIDFORMAT_BEGIN
 90
        0
 91
        1
 62
     0
 92
       -2
340
0
 93
        0
 40
1.125
309
GRIDFORMAT_END
 95
        4
302
GRIDFORMAT
  1
GRIDFORMAT_BEGIN
 90
        0
 91
        1
 62
     0
 92
       -2
340
0
 93
        0
 40
1.125
309
GRIDFORMAT_END
 95
        8
302
GRIDFORMAT
  1
GRIDFORMAT_BEGIN
 90
        0
 91
        1
 62
     0
 92
       -2
340
0
 93
        0
 40
1.125
309
GRIDFORMAT_END
 95
       16
302
GRIDFORMAT
  1
GRIDFORMAT_BEGIN
 90
        0
 91
        1
 62
     0
 92
       -2
340
0
 93
        0
 40
1.125
309
GRIDFORMAT_END
 95
       32
302
GRIDFORMAT
  1
GRIDFORMAT_BEGIN
 90
        0
 91
        1
 62
     0
 92
       -2
340
0
 93
        0
 40
1.125
309
GRIDFORMAT_END
309
TABLEFORMAT_END
  1
CELLSTYLE_BEGIN
 90
        3
 91
        2
300
_DATA
309
CELLSTYLE_END
  0
XRECORD
  5
1008CB
102
{ACAD_REACTORS
330
1007D9
102
}
330
1007D9
100
AcDbXrecord
280
     1
102
ACAD_ROUNDTRIP_PRE2007_TABLESTYLE
 90
      512
 91
        0
  1

 92
      512
 93
        0
  2

 94
      512
 95
        0
  3

  0
XRECORD
  5
1008A6
102
{ACAD_REACTORS
330
1008A5
102
}
330
1008A5
100
AcDbXrecord
280
     1
102
RTVSPost2010Prop28
280
     1
102
RTVSPost2010PropOp28
 70
     1
102
RTVSPost2010Prop29
280
     1
102
RTVSPost2010PropOp29
 70
     1
102
RTVSPost2010Prop30
280
     0
102
RTVSPost2010PropOp30
 70
     1
102
RTVSPost2010Prop31
280
     0
102
RTVSPost2010PropOp31
 70
     1
102
RTVSPost2010Prop32
280
     0
102
RTVSPost2010PropOp32
 70
     1
102
RTVSPost2010Prop33
280
     0
102
RTVSPost2010PropOp33
 70
     1
102
RTVSPost2010Prop34
280
     0
102
RTVSPost2010PropOp34
 70
     1
102
RTVSPost2010Prop35
280
     0
102
RTVSPost2010PropOp35
 70
     1
102
RTVSPost2010Prop36
280
     0
102
RTVSPost2010PropOp36
 70
     1
102
RTVSPost2010Prop37
 90
       50
102
RTVSPost2010PropOp37
 70
     1
102
RTVSPost2010Prop38
140
0.0
102
RTVSPost2010PropOp38
 70
     1
102
RTVSPost2010Prop39
140
1.0
102
RTVSPost2010PropOp39
 70
     1
102
RTVSPost2010Prop40
 90
        0
102
RTVSPost2010PropOp40
 70
     1
102
RTVSPost2010Prop41ColorIndex
 90
       18
102
RTVSPost2010Prop41ColorRGB
 90
        0
102
RTVSPost2010PropOp41
 70
     1
102
RTVSPost2010Prop42
 90
       50
102
RTVSPost2010PropOp42
 70
     1
102
RTVSPost2010Prop43
 90
        3
102
RTVSPost2010PropOp43
 70
     1
102
RTVSPost2010Prop44ColorIndex
 90
        5
102
RTVSPost2010Prop44ColorRGB
 90
      255
102
RTVSPost2010PropOp44
 70
     1
102
RTVSPost2010Prop45
280
     0
102
RTVSPost2010PropOp45
 70
     1
102
RTVSPost2010Prop46
 90
       50
102
RTVSPost2010PropOp46
 70
     1
102
RTVSPost2010Prop47
 90
       50
102
RTVSPost2010PropOp47
 70
     1
102
RTVSPost2010Prop48
 90
       50
102
RTVSPost2010PropOp48
 70
     1
102
RTVSPost2010Prop49
280
     0
102
RTVSPost2010PropOp49
 70
     1
102
RTVSPost2010Prop50
 90
       50
102
RTVSPost2010PropOp50
 70
     1
102
RTVSPost2010Prop51ColorIndex
 90
      256
102
RTVSPost2010Prop51ColorRGB
 90
-16777216
102
RTVSPost2010PropOp51
 70
     0
102
RTVSPost2010Prop52
140
1.0
102
RTVSPost2010PropOp52
 70
     0
102
RTVSPost2010Prop53
 90
        2
102
RTVSPost2010PropOp53
 70
     1
102
RTVSPost2010Prop54
  1
strokes_ogs.tif
102
RTVSPost2010PropOp54
 70
     1
102
RTVSPost2010Prop55
280
     0
102
RTVSPost2010PropOp55
 70
     1
102
RTVSPost2010Prop56
140
1.0
102
RTVSPost2010PropOp56
 70
     1
102
RTVSPost2010Prop57
140
1.0
102
RTVSPost2010PropOp57
 70
     1
102
RTVSPropertyOp0
 70
     1
102
RTVSPropertyOp1
 70
     1
102
RTVSPropertyOp2
 70
     1
102
RTVSPropertyOp3
 70
     1
102
RTVSPropertyOp4
 70
     1
102
RTVSPropertyOp5
 70
     1
102
RTVSPropertyOp6
 70
     1
102
RTVSPropertyOp7
 70
     1
102
RTVSPropertyOp8
 70
     1
102
RTVSPropertyOp9
 70
     1
102
RTVSPropertyOp10
 70
     1
102
RTVSPropertyOp11
 70
     1
102
RTVSPropertyOp12
 70
     1
102
RTVSPropertyOp13
 70
     1
102
RTVSPropertyOp14
 70
     1
102
RTVSPropertyOp15
 70
     1
102
RTVSPropertyOp16
 70
     1
102
RTVSPropertyOp17
 70
     1
102
RTVSPropertyOp18
 70
     1
102
RTVSPropertyOp19
 70
     1
102
RTVSPropertyOp20
 70
     1
102
RTVSPropertyOp21
 70
     1
102
RTVSPropertyOp22
 70
     1
102
RTVSPropertyOp23
 70
     1
102
RTVSPropertyOp24
 70
     1
102
RTVSPropertyOp25
 70
     1
102
RTVSPropertyOp26
 70
     1
102
RTVSPropertyOp27
 70
     1
102
RTVSPropertyOp28
 70
     1
102
RTVSPropertyOp29
 70
     1
102
RTVSPropertyOp30
 70
     1
102
RTVSPropertyOp31
 70
     1
102
RTVSPropertyOp32
 70
     1
102
RTVSPropertyOp33
 70
     1
102
RTVSPropertyOp34
 70
     1
102
RTVSPropertyOp35
 70
     1
102
RTVSPropertyOp36
 70
     1
102
RTVSPropertyOp37
 70
     1
102
RTVSPropertyOp38
 70
     1
102
RTVSPropertyOp39
 70
     1
102
RTVSPropertyOp40
 70
     1
102
RTVSPropertyOp41
 70
     1
102
RTVSPropertyOp42
 70
     1
102
RTVSPropertyOp43
 70
     1
102
RTVSPropertyOp44
 70
     1
102
RTVSPropertyOp45
 70
     1
102
RTVSPropertyOp46
 70
     1
102
RTVSPropertyOp47
 70
     1
102
RTVSPropertyOp48
 70
     1
102
RTVSPropertyOp49
 70
     1
102
RTVSPropertyOp50
 70
     1
102
RTVSPropertyOp51
 70
     0
102
RTVSPropertyOp52
 70
     0
102
RTVSPropertyOp53
 70
     1
102
RTVSPropertyOp54
 70
     1
102
RTVSPropertyOp55
 70
     1
102
RTVSPropertyOp56
 70
     1
102
RTVSPropertyOp57
 70
     1
102
RTVSPropertyOp58
 70
     1
102
RTVSPropertyOp59
 70
     1
102
RTVSPropertyOp60
 70
     1
102
RTVSPropertyOp61
 70
     1
102
RTVSPropertyOp62
 70
     1
  0
XRECORD
  5
1008A4
102
{ACAD_REACTORS
330
1008A3
102
}
330
1008A3
100
AcDbXrecord
280
     1
102
RTVSPost2010Prop28
280
     0
102
RTVSPost2010PropOp28
 70
     1
102
RTVSPost2010Prop29
280
     1
102
RTVSPost2010PropOp29
 70
     1
102
RTVSPost2010Prop30
280
     1
102
RTVSPost2010PropOp30
 70
     1
102
RTVSPost2010Prop31
280
     0
102
RTVSPost2010PropOp31
 70
     1
102
RTVSPost2010Prop32
280
     0
102
RTVSPost2010PropOp32
 70
     1
102
RTVSPost2010Prop33
280
     0
102
RTVSPost2010PropOp33
 70
     1
102
RTVSPost2010Prop34
280
     0
102
RTVSPost2010PropOp34
 70
     1
102
RTVSPost2010Prop35
280
     0
102
RTVSPost2010PropOp35
 70
     1
102
RTVSPost2010Prop36
280
     0
102
RTVSPost2010PropOp36
 70
     1
102
RTVSPost2010Prop37
 90
       50
102
RTVSPost2010PropOp37
 70
     1
102
RTVSPost2010Prop38
140
0.0
102
RTVSPost2010PropOp38
 70
     1
102
RTVSPost2010Prop39
140
1.0
102
RTVSPost2010PropOp39
 70
     1
102
RTVSPost2010Prop40
 90
        0
102
RTVSPost2010PropOp40
 70
     1
102
RTVSPost2010Prop41ColorIndex
 90
       18
102
RTVSPost2010Prop41ColorRGB
 90
        0
102
RTVSPost2010PropOp41
 70
     1
102
RTVSPost2010Prop42
 90
       50
102
RTVSPost2010PropOp42
 70
     1
102
RTVSPost2010Prop43
 90
        3
102
RTVSPost2010PropOp43
 70
     1
102
RTVSPost2010Prop44ColorIndex
 90
        5
102
RTVSPost2010Prop44ColorRGB
 90
      255
102
RTVSPost2010PropOp44
 70
     1
102
RTVSPost2010Prop45
280
     0
102
RTVSPost2010PropOp45
 70
     1
102
RTVSPost2010Prop46
 90
       50
102
RTVSPost2010PropOp46
 70
     1
102
RTVSPost2010Prop47
 90
       50
102
RTVSPost2010PropOp47
 70
     1
102
RTVSPost2010Prop48
 90
       50
102
RTVSPost2010PropOp48
 70
     1
102
RTVSPost2010Prop49
280
     0
102
RTVSPost2010PropOp49
 70
     1
102
RTVSPost2010Prop50
 90
       50
102
RTVSPost2010PropOp50
 70
     1
102
RTVSPost2010Prop51ColorIndex
 90
      256
102
RTVSPost2010Prop51ColorRGB
 90
-16777216
102
RTVSPost2010PropOp51
 70
     0
102
RTVSPost2010Prop52
140
1.0
102
RTVSPost2010PropOp52
 70
     0
102
RTVSPost2010Prop53
 90
        2
102
RTVSPost2010PropOp53
 70
     1
102
RTVSPost2010Prop54
  1
strokes_ogs.tif
102
RTVSPost2010PropOp54
 70
     1
102
RTVSPost2010Prop55
280
     0
102
RTVSPost2010PropOp55
 70
     1
102
RTVSPost2010Prop56
140
1.0
102
RTVSPost2010PropOp56
 70
     1
102
RTVSPost2010Prop57
140
1.0
102
RTVSPost2010PropOp57
 70
     1
102
RTVSPropertyOp0
 70
     1
102
RTVSPropertyOp1
 70
     1
102
RTVSPropertyOp2
 70
     1
102
RTVSPropertyOp3
 70
     1
102
RTVSPropertyOp4
 70
     1
102
RTVSPropertyOp5
 70
     1
102
RTVSPropertyOp6
 70
     1
102
RTVSPropertyOp7
 70
     1
102
RTVSPropertyOp8
 70
     1
102
RTVSPropertyOp9
 70
     1
102
RTVSPropertyOp10
 70
     1
102
RTVSPropertyOp11
 70
     1
102
RTVSPropertyOp12
 70
     1
102
RTVSPropertyOp13
 70
     1
102
RTVSPropertyOp14
 70
     1
102
RTVSPropertyOp15
 70
     1
102
RTVSPropertyOp16
 70
     1
102
RTVSPropertyOp17
 70
     1
102
RTVSPropertyOp18
 70
     1
102
RTVSPropertyOp19
 70
     1
102
RTVSPropertyOp20
 70
     1
102
RTVSPropertyOp21
 70
     1
102
RTVSPropertyOp22
 70
     1
102
RTVSPropertyOp23
 70
     1
102
RTVSPropertyOp24
 70
     1
102
RTVSPropertyOp25
 70
     1
102
RTVSPropertyOp26
 70
     1
102
RTVSPropertyOp27
 70
     1
102
RTVSPropertyOp28
 70
     1
102
RTVSPropertyOp29
 70
     1
102
RTVSPropertyOp30
 70
     1
102
RTVSPropertyOp31
 70
     1
102
RTVSPropertyOp32
 70
     1
102
RTVSPropertyOp33
 70
     1
102
RTVSPropertyOp34
 70
     1
102
RTVSPropertyOp35
 70
     1
102
RTVSPropertyOp36
 70
     1
102
RTVSPropertyOp37
 70
     1
102
RTVSPropertyOp38
 70
     1
102
RTVSPropertyOp39
 70
     1
102
RTVSPropertyOp40
 70
     1
102
RTVSPropertyOp41
 70
     1
102
RTVSPropertyOp42
 70
     1
102
RTVSPropertyOp43
 70
     1
102
RTVSPropertyOp44
 70
     1
102
RTVSPropertyOp45
 70
     1
102
RTVSPropertyOp46
 70
     1
102
RTVSPropertyOp47
 70
     1
102
RTVSPropertyOp48
 70
     1
102
RTVSPropertyOp49
 70
     1
102
RTVSPropertyOp50
 70
     1
102
RTVSPropertyOp51
 70
     0
102
RTVSPropertyOp52
 70
     0
102
RTVSPropertyOp53
 70
     1
102
RTVSPropertyOp54
 70
     1
102
RTVSPropertyOp55
 70
     1
102
RTVSPropertyOp56
 70
     1
102
RTVSPropertyOp57
 70
     1
102
RTVSPropertyOp58
 70
     1
102
RTVSPropertyOp59
 70
     1
102
RTVSPropertyOp60
 70
     1
102
RTVSPropertyOp61
 70
     1
102
RTVSPropertyOp62
 70
     1
  0
XRECORD
  5
1008B2
102
{ACAD_REACTORS
330
1008B1
102
}
330
1008B1
100
AcDbXrecord
280
     1
102
RTVSPost2010Prop28
280
     0
102
RTVSPost2010PropOp28
 70
     1
102
RTVSPost2010Prop29
280
     1
102
RTVSPost2010PropOp29
 70
     1
102
RTVSPost2010Prop30
280
     1
102
RTVSPost2010PropOp30
 70
     1
102
RTVSPost2010Prop31
280
     0
102
RTVSPost2010PropOp31
 70
     1
102
RTVSPost2010Prop32
280
     0
102
RTVSPost2010PropOp32
 70
     1
102
RTVSPost2010Prop33
280
     0
102
RTVSPost2010PropOp33
 70
     1
102
RTVSPost2010Prop34
280
     0
102
RTVSPost2010PropOp34
 70
     1
102
RTVSPost2010Prop35
280
     0
102
RTVSPost2010PropOp35
 70
     1
102
RTVSPost2010Prop36
280
     0
102
RTVSPost2010PropOp36
 70
     1
102
RTVSPost2010Prop37
 90
       50
102
RTVSPost2010PropOp37
 70
     1
102
RTVSPost2010Prop38
140
0.0
102
RTVSPost2010PropOp38
 70
     1
102
RTVSPost2010Prop39
140
1.0
102
RTVSPost2010PropOp39
 70
     1
102
RTVSPost2010Prop40
 90
        0
102
RTVSPost2010PropOp40
 70
     1
102
RTVSPost2010Prop41ColorIndex
 90
       18
102
RTVSPost2010Prop41ColorRGB
 90
        0
102
RTVSPost2010PropOp41
 70
     1
102
RTVSPost2010Prop42
 90
       50
102
RTVSPost2010PropOp42
 70
     1
102
RTVSPost2010Prop43
 90
        3
102
RTVSPost2010PropOp43
 70
     1
102
RTVSPost2010Prop44ColorIndex
 90
        5
102
RTVSPost2010Prop44ColorRGB
 90
      255
102
RTVSPost2010PropOp44
 70
     1
102
RTVSPost2010Prop45
280
     0
102
RTVSPost2010PropOp45
 70
     1
102
RTVSPost2010Prop46
 90
       50
102
RTVSPost2010PropOp46
 70
     1
102
RTVSPost2010Prop47
 90
       50
102
RTVSPost2010PropOp47
 70
     1
102
RTVSPost2010Prop48
 90
       50
102
RTVSPost2010PropOp48
 70
     1
102
RTVSPost2010Prop49
280
     0
102
RTVSPost2010PropOp49
 70
     1
102
RTVSPost2010Prop50
 90
       50
102
RTVSPost2010PropOp50
 70
     1
102
RTVSPost2010Prop51ColorIndex
 90
      256
102
RTVSPost2010Prop51ColorRGB
 90
-16777216
102
RTVSPost2010PropOp51
 70
     0
102
RTVSPost2010Prop52
140
1.0
102
RTVSPost2010PropOp52
 70
     0
102
RTVSPost2010Prop53
 90
        2
102
RTVSPost2010PropOp53
 70
     1
102
RTVSPost2010Prop54
  1
strokes_ogs.tif
102
RTVSPost2010PropOp54
 70
     1
102
RTVSPost2010Prop55
280
     0
102
RTVSPost2010PropOp55
 70
     1
102
RTVSPost2010Prop56
140
1.0
102
RTVSPost2010PropOp56
 70
     1
102
RTVSPost2010Prop57
140
1.0
102
RTVSPost2010PropOp57
 70
     1
102
RTVSPropertyOp0
 70
     1
102
RTVSPropertyOp1
 70
     1
102
RTVSPropertyOp2
 70
     1
102
RTVSPropertyOp3
 70
     1
102
RTVSPropertyOp4
 70
     1
102
RTVSPropertyOp5
 70
     1
102
RTVSPropertyOp6
 70
     1
102
RTVSPropertyOp7
 70
     1
102
RTVSPropertyOp8
 70
     1
102
RTVSPropertyOp9
 70
     1
102
RTVSPropertyOp10
 70
     1
102
RTVSPropertyOp11
 70
     1
102
RTVSPropertyOp12
 70
     1
102
RTVSPropertyOp13
 70
     1
102
RTVSPropertyOp14
 70
     1
102
RTVSPropertyOp15
 70
     1
102
RTVSPropertyOp16
 70
     1
102
RTVSPropertyOp17
 70
     1
102
RTVSPropertyOp18
 70
     1
102
RTVSPropertyOp19
 70
     1
102
RTVSPropertyOp20
 70
     1
102
RTVSPropertyOp21
 70
     1
102
RTVSPropertyOp22
 70
     1
102
RTVSPropertyOp23
 70
     1
102
RTVSPropertyOp24
 70
     1
102
RTVSPropertyOp25
 70
     1
102
RTVSPropertyOp26
 70
     1
102
RTVSPropertyOp27
 70
     1
102
RTVSPropertyOp28
 70
     1
102
RTVSPropertyOp29
 70
     1
102
RTVSPropertyOp30
 70
     1
102
RTVSPropertyOp31
 70
     1
102
RTVSPropertyOp32
 70
     1
102
RTVSPropertyOp33
 70
     1
102
RTVSPropertyOp34
 70
     1
102
RTVSPropertyOp35
 70
     1
102
RTVSPropertyOp36
 70
     1
102
RTVSPropertyOp37
 70
     1
102
RTVSPropertyOp38
 70
     1
102
RTVSPropertyOp39
 70
     1
102
RTVSPropertyOp40
 70
     1
102
RTVSPropertyOp41
 70
     1
102
RTVSPropertyOp42
 70
     1
102
RTVSPropertyOp43
 70
     1
102
RTVSPropertyOp44
 70
     1
102
RTVSPropertyOp45
 70
     1
102
RTVSPropertyOp46
 70
     1
102
RTVSPropertyOp47
 70
     1
102
RTVSPropertyOp48
 70
     1
102
RTVSPropertyOp49
 70
     1
102
RTVSPropertyOp50
 70
     1
102
RTVSPropertyOp51
 70
     0
102
RTVSPropertyOp52
 70
     0
102
RTVSPropertyOp53
 70
     1
102
RTVSPropertyOp54
 70
     1
102
RTVSPropertyOp55
 70
     1
102
RTVSPropertyOp56
 70
     1
102
RTVSPropertyOp57
 70
     1
102
RTVSPropertyOp58
 70
     1
102
RTVSPropertyOp59
 70
     1
102
RTVSPropertyOp60
 70
     1
102
RTVSPropertyOp61
 70
     1
102
RTVSPropertyOp62
 70
     1
  0
XRECORD
  5
1008BA
102
{ACAD_REACTORS
330
1008B9
102
}
330
1008B9
100
AcDbXrecord
280
     1
102
RTVSPost2010Prop28
280
     0
102
RTVSPost2010PropOp28
 70
     1
102
RTVSPost2010Prop29
280
     1
102
RTVSPost2010PropOp29
 70
     1
102
RTVSPost2010Prop30
280
     1
102
RTVSPost2010PropOp30
 70
     1
102
RTVSPost2010Prop31
280
     0
102
RTVSPost2010PropOp31
 70
     1
102
RTVSPost2010Prop32
280
     0
102
RTVSPost2010PropOp32
 70
     1
102
RTVSPost2010Prop33
280
     0
102
RTVSPost2010PropOp33
 70
     1
102
RTVSPost2010Prop34
280
     0
102
RTVSPost2010PropOp34
 70
     1
102
RTVSPost2010Prop35
280
     0
102
RTVSPost2010PropOp35
 70
     1
102
RTVSPost2010Prop36
280
     0
102
RTVSPost2010PropOp36
 70
     1
102
RTVSPost2010Prop37
 90
       50
102
RTVSPost2010PropOp37
 70
     1
102
RTVSPost2010Prop38
140
0.0
102
RTVSPost2010PropOp38
 70
     1
102
RTVSPost2010Prop39
140
1.0
102
RTVSPost2010PropOp39
 70
     1
102
RTVSPost2010Prop40
 90
        0
102
RTVSPost2010PropOp40
 70
     1
102
RTVSPost2010Prop41ColorIndex
 90
       18
102
RTVSPost2010Prop41ColorRGB
 90
        0
102
RTVSPost2010PropOp41
 70
     1
102
RTVSPost2010Prop42
 90
       50
102
RTVSPost2010PropOp42
 70
     1
102
RTVSPost2010Prop43
 90
        3
102
RTVSPost2010PropOp43
 70
     1
102
RTVSPost2010Prop44ColorIndex
 90
        5
102
RTVSPost2010Prop44ColorRGB
 90
      255
102
RTVSPost2010PropOp44
 70
     1
102
RTVSPost2010Prop45
280
     0
102
RTVSPost2010PropOp45
 70
     1
102
RTVSPost2010Prop46
 90
       50
102
RTVSPost2010PropOp46
 70
     1
102
RTVSPost2010Prop47
 90
       50
102
RTVSPost2010PropOp47
 70
     1
102
RTVSPost2010Prop48
 90
       50
102
RTVSPost2010PropOp48
 70
     1
102
RTVSPost2010Prop49
280
     0
102
RTVSPost2010PropOp49
 70
     1
102
RTVSPost2010Prop50
 90
       50
102
RTVSPost2010PropOp50
 70
     1
102
RTVSPost2010Prop51ColorIndex
 90
      256
102
RTVSPost2010Prop51ColorRGB
 90
-16777216
102
RTVSPost2010PropOp51
 70
     0
102
RTVSPost2010Prop52
140
1.0
102
RTVSPost2010PropOp52
 70
     0
102
RTVSPost2010Prop53
 90
        2
102
RTVSPost2010PropOp53
 70
     1
102
RTVSPost2010Prop54
  1
strokes_ogs.tif
102
RTVSPost2010PropOp54
 70
     1
102
RTVSPost2010Prop55
280
     0
102
RTVSPost2010PropOp55
 70
     1
102
RTVSPost2010Prop56
140
1.0
102
RTVSPost2010PropOp56
 70
     1
102
RTVSPost2010Prop57
140
1.0
102
RTVSPost2010PropOp57
 70
     1
102
RTVSPropertyOp0
 70
     1
102
RTVSPropertyOp1
 70
     1
102
RTVSPropertyOp2
 70
     1
102
RTVSPropertyOp3
 70
     1
102
RTVSPropertyOp4
 70
     1
102
RTVSPropertyOp5
 70
     1
102
RTVSPropertyOp6
 70
     1
102
RTVSPropertyOp7
 70
     1
102
RTVSPropertyOp8
 70
     1
102
RTVSPropertyOp9
 70
     1
102
RTVSPropertyOp10
 70
     1
102
RTVSPropertyOp11
 70
     1
102
RTVSPropertyOp12
 70
     1
102
RTVSPropertyOp13
 70
     1
102
RTVSPropertyOp14
 70
     1
102
RTVSPropertyOp15
 70
     1
102
RTVSPropertyOp16
 70
     1
102
RTVSPropertyOp17
 70
     1
102
RTVSPropertyOp18
 70
     1
102
RTVSPropertyOp19
 70
     1
102
RTVSPropertyOp20
 70
     1
102
RTVSPropertyOp21
 70
     1
102
RTVSPropertyOp22
 70
     1
102
RTVSPropertyOp23
 70
     1
102
RTVSPropertyOp24
 70
     1
102
RTVSPropertyOp25
 70
     1
102
RTVSPropertyOp26
 70
     1
102
RTVSPropertyOp27
 70
     1
102
RTVSPropertyOp28
 70
     1
102
RTVSPropertyOp29
 70
     1
102
RTVSPropertyOp30
 70
     1
102
RTVSPropertyOp31
 70
     1
102
RTVSPropertyOp32
 70
     1
102
RTVSPropertyOp33
 70
     1
102
RTVSPropertyOp34
 70
     1
102
RTVSPropertyOp35
 70
     1
102
RTVSPropertyOp36
 70
     1
102
RTVSPropertyOp37
 70
     1
102
RTVSPropertyOp38
 70
     1
102
RTVSPropertyOp39
 70
     1
102
RTVSPropertyOp40
 70
     1
102
RTVSPropertyOp41
 70
     1
102
RTVSPropertyOp42
 70
     1
102
RTVSPropertyOp43
 70
     1
102
RTVSPropertyOp44
 70
     1
102
RTVSPropertyOp45
 70
     1
102
RTVSPropertyOp46
 70
     1
102
RTVSPropertyOp47
 70
     1
102
RTVSPropertyOp48
 70
     1
102
RTVSPropertyOp49
 70
     1
102
RTVSPropertyOp50
 70
     1
102
RTVSPropertyOp51
 70
     0
102
RTVSPropertyOp52
 70
     0
102
RTVSPropertyOp53
 70
     1
102
RTVSPropertyOp54
 70
     1
102
RTVSPropertyOp55
 70
     1
102
RTVSPropertyOp56
 70
     1
102
RTVSPropertyOp57
 70
     1
102
RTVSPropertyOp58
 70
     1
102
RTVSPropertyOp59
 70
     1
102
RTVSPropertyOp60
 70
     1
102
RTVSPropertyOp61
 70
     1
102
RTVSPropertyOp62
 70
     1
  0
XRECORD
  5
1008AC
102
{ACAD_REACTORS
330
1008AB
102
}
330
1008AB
100
AcDbXrecord
280
     1
102
RTVSPost2010Prop28
280
     0
102
RTVSPost2010PropOp28
 70
     1
102
RTVSPost2010Prop29
280
     1
102
RTVSPost2010PropOp29
 70
     1
102
RTVSPost2010Prop30
280
     1
102
RTVSPost2010PropOp30
 70
     1
102
RTVSPost2010Prop31
280
     0
102
RTVSPost2010PropOp31
 70
     1
102
RTVSPost2010Prop32
280
     0
102
RTVSPost2010PropOp32
 70
     1
102
RTVSPost2010Prop33
280
     0
102
RTVSPost2010PropOp33
 70
     1
102
RTVSPost2010Prop34
280
     0
102
RTVSPost2010PropOp34
 70
     1
102
RTVSPost2010Prop35
280
     0
102
RTVSPost2010PropOp35
 70
     1
102
RTVSPost2010Prop36
280
     0
102
RTVSPost2010PropOp36
 70
     1
102
RTVSPost2010Prop37
 90
       50
102
RTVSPost2010PropOp37
 70
     1
102
RTVSPost2010Prop38
140
0.0
102
RTVSPost2010PropOp38
 70
     1
102
RTVSPost2010Prop39
140
1.0
102
RTVSPost2010PropOp39
 70
     1
102
RTVSPost2010Prop40
 90
        0
102
RTVSPost2010PropOp40
 70
     1
102
RTVSPost2010Prop41ColorIndex
 90
       18
102
RTVSPost2010Prop41ColorRGB
 90
        0
102
RTVSPost2010PropOp41
 70
     1
102
RTVSPost2010Prop42
 90
       50
102
RTVSPost2010PropOp42
 70
     1
102
RTVSPost2010Prop43
 90
        3
102
RTVSPost2010PropOp43
 70
     1
102
RTVSPost2010Prop44ColorIndex
 90
        5
102
RTVSPost2010Prop44ColorRGB
 90
      255
102
RTVSPost2010PropOp44
 70
     1
102
RTVSPost2010Prop45
280
     0
102
RTVSPost2010PropOp45
 70
     1
102
RTVSPost2010Prop46
 90
       50
102
RTVSPost2010PropOp46
 70
     1
102
RTVSPost2010Prop47
 90
       50
102
RTVSPost2010PropOp47
 70
     1
102
RTVSPost2010Prop48
 90
       50
102
RTVSPost2010PropOp48
 70
     1
102
RTVSPost2010Prop49
280
     0
102
RTVSPost2010PropOp49
 70
     1
102
RTVSPost2010Prop50
 90
       50
102
RTVSPost2010PropOp50
 70
     1
102
RTVSPost2010Prop51ColorIndex
 90
      256
102
RTVSPost2010Prop51ColorRGB
 90
-16777216
102
RTVSPost2010PropOp51
 70
     0
102
RTVSPost2010Prop52
140
1.0
102
RTVSPost2010PropOp52
 70
     0
102
RTVSPost2010Prop53
 90
        2
102
RTVSPost2010PropOp53
 70
     1
102
RTVSPost2010Prop54
  1
strokes_ogs.tif
102
RTVSPost2010PropOp54
 70
     1
102
RTVSPost2010Prop55
280
     0
102
RTVSPost2010PropOp55
 70
     1
102
RTVSPost2010Prop56
140
1.0
102
RTVSPost2010PropOp56
 70
     1
102
RTVSPost2010Prop57
140
1.0
102
RTVSPost2010PropOp57
 70
     1
102
RTVSPropertyOp0
 70
     1
102
RTVSPropertyOp1
 70
     1
102
RTVSPropertyOp2
 70
     1
102
RTVSPropertyOp3
 70
     1
102
RTVSPropertyOp4
 70
     1
102
RTVSPropertyOp5
 70
     1
102
RTVSPropertyOp6
 70
     1
102
RTVSPropertyOp7
 70
     1
102
RTVSPropertyOp8
 70
     1
102
RTVSPropertyOp9
 70
     1
102
RTVSPropertyOp10
 70
     1
102
RTVSPropertyOp11
 70
     1
102
RTVSPropertyOp12
 70
     1
102
RTVSPropertyOp13
 70
     1
102
RTVSPropertyOp14
 70
     1
102
RTVSPropertyOp15
 70
     1
102
RTVSPropertyOp16
 70
     1
102
RTVSPropertyOp17
 70
     1
102
RTVSPropertyOp18
 70
     1
102
RTVSPropertyOp19
 70
     1
102
RTVSPropertyOp20
 70
     1
102
RTVSPropertyOp21
 70
     1
102
RTVSPropertyOp22
 70
     1
102
RTVSPropertyOp23
 70
     1
102
RTVSPropertyOp24
 70
     1
102
RTVSPropertyOp25
 70
     1
102
RTVSPropertyOp26
 70
     1
102
RTVSPropertyOp27
 70
     1
102
RTVSPropertyOp28
 70
     1
102
RTVSPropertyOp29
 70
     1
102
RTVSPropertyOp30
 70
     1
102
RTVSPropertyOp31
 70
     1
102
RTVSPropertyOp32
 70
     1
102
RTVSPropertyOp33
 70
     1
102
RTVSPropertyOp34
 70
     1
102
RTVSPropertyOp35
 70
     1
102
RTVSPropertyOp36
 70
     1
102
RTVSPropertyOp37
 70
     1
102
RTVSPropertyOp38
 70
     1
102
RTVSPropertyOp39
 70
     1
102
RTVSPropertyOp40
 70
     1
102
RTVSPropertyOp41
 70
     1
102
RTVSPropertyOp42
 70
     1
102
RTVSPropertyOp43
 70
     1
102
RTVSPropertyOp44
 70
     1
102
RTVSPropertyOp45
 70
     1
102
RTVSPropertyOp46
 70
     1
102
RTVSPropertyOp47
 70
     1
102
RTVSPropertyOp48
 70
     1
102
RTVSPropertyOp49
 70
     1
102
RTVSPropertyOp50
 70
     1
102
RTVSPropertyOp51
 70
     0
102
RTVSPropertyOp52
 70
     0
102
RTVSPropertyOp53
 70
     1
102
RTVSPropertyOp54
 70
     1
102
RTVSPropertyOp55
 70
     1
102
RTVSPropertyOp56
 70
     1
102
RTVSPropertyOp57
 70
     1
102
RTVSPropertyOp58
 70
     1
102
RTVSPropertyOp59
 70
     1
102
RTVSPropertyOp60
 70
     1
102
RTVSPropertyOp61
 70
     1
102
RTVSPropertyOp62
 70
     1
  0
XRECORD
  5
1008B0
102
{ACAD_REACTORS
330
1008AF
102
}
330
1008AF
100
AcDbXrecord
280
     1
102
RTVSPost2010Prop28
280
     0
102
RTVSPost2010PropOp28
 70
     1
102
RTVSPost2010Prop29
280
     1
102
RTVSPost2010PropOp29
 70
     1
102
RTVSPost2010Prop30
280
     1
102
RTVSPost2010PropOp30
 70
     1
102
RTVSPost2010Prop31
280
     0
102
RTVSPost2010PropOp31
 70
     1
102
RTVSPost2010Prop32
280
     0
102
RTVSPost2010PropOp32
 70
     1
102
RTVSPost2010Prop33
280
     0
102
RTVSPost2010PropOp33
 70
     1
102
RTVSPost2010Prop34
280
     0
102
RTVSPost2010PropOp34
 70
     1
102
RTVSPost2010Prop35
280
     0
102
RTVSPost2010PropOp35
 70
     1
102
RTVSPost2010Prop36
280
     0
102
RTVSPost2010PropOp36
 70
     1
102
RTVSPost2010Prop37
 90
       50
102
RTVSPost2010PropOp37
 70
     1
102
RTVSPost2010Prop38
140
0.0
102
RTVSPost2010PropOp38
 70
     1
102
RTVSPost2010Prop39
140
1.0
102
RTVSPost2010PropOp39
 70
     1
102
RTVSPost2010Prop40
 90
        0
102
RTVSPost2010PropOp40
 70
     1
102
RTVSPost2010Prop41ColorIndex
 90
       18
102
RTVSPost2010Prop41ColorRGB
 90
        0
102
RTVSPost2010PropOp41
 70
     1
102
RTVSPost2010Prop42
 90
       50
102
RTVSPost2010PropOp42
 70
     1
102
RTVSPost2010Prop43
 90
        3
102
RTVSPost2010PropOp43
 70
     1
102
RTVSPost2010Prop44ColorIndex
 90
        5
102
RTVSPost2010Prop44ColorRGB
 90
      255
102
RTVSPost2010PropOp44
 70
     1
102
RTVSPost2010Prop45
280
     0
102
RTVSPost2010PropOp45
 70
     1
102
RTVSPost2010Prop46
 90
       50
102
RTVSPost2010PropOp46
 70
     1
102
RTVSPost2010Prop47
 90
       50
102
RTVSPost2010PropOp47
 70
     1
102
RTVSPost2010Prop48
 90
       50
102
RTVSPost2010PropOp48
 70
     1
102
RTVSPost2010Prop49
280
     0
102
RTVSPost2010PropOp49
 70
     1
102
RTVSPost2010Prop50
 90
       50
102
RTVSPost2010PropOp50
 70
     1
102
RTVSPost2010Prop51ColorIndex
 90
      256
102
RTVSPost2010Prop51ColorRGB
 90
-16777216
102
RTVSPost2010PropOp51
 70
     0
102
RTVSPost2010Prop52
140
1.0
102
RTVSPost2010PropOp52
 70
     0
102
RTVSPost2010Prop53
 90
        2
102
RTVSPost2010PropOp53
 70
     1
102
RTVSPost2010Prop54
  1
strokes_ogs.tif
102
RTVSPost2010PropOp54
 70
     1
102
RTVSPost2010Prop55
280
     0
102
RTVSPost2010PropOp55
 70
     1
102
RTVSPost2010Prop56
140
1.0
102
RTVSPost2010PropOp56
 70
     1
102
RTVSPost2010Prop57
140
1.0
102
RTVSPost2010PropOp57
 70
     1
102
RTVSPropertyOp0
 70
     1
102
RTVSPropertyOp1
 70
     1
102
RTVSPropertyOp2
 70
     1
102
RTVSPropertyOp3
 70
     1
102
RTVSPropertyOp4
 70
     1
102
RTVSPropertyOp5
 70
     1
102
RTVSPropertyOp6
 70
     1
102
RTVSPropertyOp7
 70
     1
102
RTVSPropertyOp8
 70
     1
102
RTVSPropertyOp9
 70
     1
102
RTVSPropertyOp10
 70
     1
102
RTVSPropertyOp11
 70
     1
102
RTVSPropertyOp12
 70
     1
102
RTVSPropertyOp13
 70
     1
102
RTVSPropertyOp14
 70
     1
102
RTVSPropertyOp15
 70
     1
102
RTVSPropertyOp16
 70
     1
102
RTVSPropertyOp17
 70
     1
102
RTVSPropertyOp18
 70
     1
102
RTVSPropertyOp19
 70
     1
102
RTVSPropertyOp20
 70
     1
102
RTVSPropertyOp21
 70
     1
102
RTVSPropertyOp22
 70
     1
102
RTVSPropertyOp23
 70
     1
102
RTVSPropertyOp24
 70
     1
102
RTVSPropertyOp25
 70
     1
102
RTVSPropertyOp26
 70
     1
102
RTVSPropertyOp27
 70
     1
102
RTVSPropertyOp28
 70
     1
102
RTVSPropertyOp29
 70
     1
102
RTVSPropertyOp30
 70
     1
102
RTVSPropertyOp31
 70
     1
102
RTVSPropertyOp32
 70
     1
102
RTVSPropertyOp33
 70
     1
102
RTVSPropertyOp34
 70
     1
102
RTVSPropertyOp35
 70
     1
102
RTVSPropertyOp36
 70
     1
102
RTVSPropertyOp37
 70
     1
102
RTVSPropertyOp38
 70
     1
102
RTVSPropertyOp39
 70
     1
102
RTVSPropertyOp40
 70
     1
102
RTVSPropertyOp41
 70
     1
102
RTVSPropertyOp42
 70
     1
102
RTVSPropertyOp43
 70
     1
102
RTVSPropertyOp44
 70
     1
102
RTVSPropertyOp45
 70
     1
102
RTVSPropertyOp46
 70
     1
102
RTVSPropertyOp47
 70
     1
102
RTVSPropertyOp48
 70
     1
102
RTVSPropertyOp49
 70
     1
102
RTVSPropertyOp50
 70
     1
102
RTVSPropertyOp51
 70
     0
102
RTVSPropertyOp52
 70
     0
102
RTVSPropertyOp53
 70
     1
102
RTVSPropertyOp54
 70
     1
102
RTVSPropertyOp55
 70
     1
102
RTVSPropertyOp56
 70
     1
102
RTVSPropertyOp57
 70
     1
102
RTVSPropertyOp58
 70
     1
102
RTVSPropertyOp59
 70
     1
102
RTVSPropertyOp60
 70
     1
102
RTVSPropertyOp61
 70
     1
102
RTVSPropertyOp62
 70
     1
  0
XRECORD
  5
1008CA
102
{ACAD_REACTORS
330
1008C9
102
}
330
1008C9
100
AcDbXrecord
280
     1
102
RTVSPost2010Prop28
280
     0
102
RTVSPost2010PropOp28
 70
     0
102
RTVSPost2010Prop29
280
     1
102
RTVSPost2010PropOp29
 70
     0
102
RTVSPost2010Prop30
280
     1
102
RTVSPost2010PropOp30
 70
     0
102
RTVSPost2010Prop31
280
     0
102
RTVSPost2010PropOp31
 70
     0
102
RTVSPost2010Prop32
280
     0
102
RTVSPost2010PropOp32
 70
     0
102
RTVSPost2010Prop33
280
     0
102
RTVSPost2010PropOp33
 70
     0
102
RTVSPost2010Prop34
280
     0
102
RTVSPost2010PropOp34
 70
     0
102
RTVSPost2010Prop35
280
     0
102
RTVSPost2010PropOp35
 70
     0
102
RTVSPost2010Prop36
280
     0
102
RTVSPost2010PropOp36
 70
     0
102
RTVSPost2010Prop37
 90
       50
102
RTVSPost2010PropOp37
 70
     0
102
RTVSPost2010Prop38
140
0.0
102
RTVSPost2010PropOp38
 70
     0
102
RTVSPost2010Prop39
140
1.0
102
RTVSPost2010PropOp39
 70
     0
102
RTVSPost2010Prop40
 90
        0
102
RTVSPost2010PropOp40
 70
     0
102
RTVSPost2010Prop41ColorIndex
 90
       18
102
RTVSPost2010Prop41ColorRGB
 90
        0
102
RTVSPost2010PropOp41
 70
     0
102
RTVSPost2010Prop42
 90
       50
102
RTVSPost2010PropOp42
 70
     0
102
RTVSPost2010Prop43
 90
        3
102
RTVSPost2010PropOp43
 70
     0
102
RTVSPost2010Prop44ColorIndex
 90
        5
102
RTVSPost2010Prop44ColorRGB
 90
      255
102
RTVSPost2010PropOp44
 70
     0
102
RTVSPost2010Prop45
280
     0
102
RTVSPost2010PropOp45
 70
     0
102
RTVSPost2010Prop46
 90
       50
102
RTVSPost2010PropOp46
 70
     0
102
RTVSPost2010Prop47
 90
       50
102
RTVSPost2010PropOp47
 70
     0
102
RTVSPost2010Prop48
 90
       50
102
RTVSPost2010PropOp48
 70
     0
102
RTVSPost2010Prop49
280
     0
102
RTVSPost2010PropOp49
 70
     0
102
RTVSPost2010Prop50
 90
       50
102
RTVSPost2010PropOp50
 70
     0
102
RTVSPost2010Prop51ColorIndex
 90
      256
102
RTVSPost2010Prop51ColorRGB
 90
-16777216
102
RTVSPost2010PropOp51
 70
     0
102
RTVSPost2010Prop52
140
1.0
102
RTVSPost2010PropOp52
 70
     0
102
RTVSPost2010Prop53
 90
        2
102
RTVSPost2010PropOp53
 70
     0
102
RTVSPost2010Prop54
  1
strokes_ogs.tif
102
RTVSPost2010PropOp54
 70
     0
102
RTVSPost2010Prop55
280
     0
102
RTVSPost2010PropOp55
 70
     0
102
RTVSPost2010Prop56
140
1.0
102
RTVSPost2010PropOp56
 70
     0
102
RTVSPost2010Prop57
140
1.0
102
RTVSPost2010PropOp57
 70
     0
102
RTVSPropertyOp0
 70
     0
102
RTVSPropertyOp1
 70
     0
102
RTVSPropertyOp2
 70
     0
102
RTVSPropertyOp3
 70
     0
102
RTVSPropertyOp4
 70
     0
102
RTVSPropertyOp5
 70
     0
102
RTVSPropertyOp6
 70
     0
102
RTVSPropertyOp7
 70
     0
102
RTVSPropertyOp8
 70
     0
102
RTVSPropertyOp9
 70
     0
102
RTVSPropertyOp10
 70
     0
102
RTVSPropertyOp11
 70
     0
102
RTVSPropertyOp12
 70
     0
102
RTVSPropertyOp13
 70
     0
102
RTVSPropertyOp14
 70
     2
102
RTVSPropertyOp15
 70
     0
102
RTVSPropertyOp16
 70
     0
102
RTVSPropertyOp17
 70
     0
102
RTVSPropertyOp18
 70
     0
102
RTVSPropertyOp19
 70
     0
102
RTVSPropertyOp20
 70
     0
102
RTVSPropertyOp21
 70
     0
102
RTVSPropertyOp22
 70
     0
102
RTVSPropertyOp23
 70
     0
102
RTVSPropertyOp24
 70
     0
102
RTVSPropertyOp25
 70
     0
102
RTVSPropertyOp26
 70
     0
102
RTVSPropertyOp27
 70
     0
102
RTVSPropertyOp28
 70
     0
102
RTVSPropertyOp29
 70
     0
102
RTVSPropertyOp30
 70
     0
102
RTVSPropertyOp31
 70
     0
102
RTVSPropertyOp32
 70
     0
102
RTVSPropertyOp33
 70
     0
102
RTVSPropertyOp34
 70
     0
102
RTVSPropertyOp35
 70
     0
102
RTVSPropertyOp36
 70
     0
102
RTVSPropertyOp37
 70
     0
102
RTVSPropertyOp38
 70
     0
102
RTVSPropertyOp39
 70
     0
102
RTVSPropertyOp40
 70
     0
102
RTVSPropertyOp41
 70
     0
102
RTVSPropertyOp42
 70
     0
102
RTVSPropertyOp43
 70
     0
102
RTVSPropertyOp44
 70
     0
102
RTVSPropertyOp45
 70
     0
102
RTVSPropertyOp46
 70
     0
102
RTVSPropertyOp47
 70
     0
102
RTVSPropertyOp48
 70
     0
102
RTVSPropertyOp49
 70
     0
102
RTVSPropertyOp50
 70
     0
102
RTVSPropertyOp51
 70
     0
102
RTVSPropertyOp52
 70
     0
102
RTVSPropertyOp53
 70
     0
102
RTVSPropertyOp54
 70
     0
102
RTVSPropertyOp55
 70
     0
102
RTVSPropertyOp56
 70
     0
102
RTVSPropertyOp57
 70
     0
102
RTVSPropertyOp58
 70
     0
102
RTVSPropertyOp59
 70
     0
102
RTVSPropertyOp60
 70
     0
102
RTVSPropertyOp61
 70
     0
102
RTVSPropertyOp62
 70
     0
  0
XRECORD
  5
1008B8
102
{ACAD_REACTORS
330
1008B7
102
}
330
1008B7
100
AcDbXrecord
280
     1
102
RTVSPost2010Prop28
280
     0
102
RTVSPost2010PropOp28
 70
     1
102
RTVSPost2010Prop29
280
     1
102
RTVSPost2010PropOp29
 70
     1
102
RTVSPost2010Prop30
280
     1
102
RTVSPost2010PropOp30
 70
     1
102
RTVSPost2010Prop31
280
     0
102
RTVSPost2010PropOp31
 70
     1
102
RTVSPost2010Prop32
280
     0
102
RTVSPost2010PropOp32
 70
     1
102
RTVSPost2010Prop33
280
     0
102
RTVSPost2010PropOp33
 70
     1
102
RTVSPost2010Prop34
280
     0
102
RTVSPost2010PropOp34
 70
     1
102
RTVSPost2010Prop35
280
     0
102
RTVSPost2010PropOp35
 70
     1
102
RTVSPost2010Prop36
280
     0
102
RTVSPost2010PropOp36
 70
     1
102
RTVSPost2010Prop37
 90
       50
102
RTVSPost2010PropOp37
 70
     1
102
RTVSPost2010Prop38
140
0.0
102
RTVSPost2010PropOp38
 70
     1
102
RTVSPost2010Prop39
140
1.0
102
RTVSPost2010PropOp39
 70
     1
102
RTVSPost2010Prop40
 90
        0
102
RTVSPost2010PropOp40
 70
     1
102
RTVSPost2010Prop41ColorIndex
 90
       18
102
RTVSPost2010Prop41ColorRGB
 90
        0
102
RTVSPost2010PropOp41
 70
     1
102
RTVSPost2010Prop42
 90
       50
102
RTVSPost2010PropOp42
 70
     1
102
RTVSPost2010Prop43
 90
        3
102
RTVSPost2010PropOp43
 70
     1
102
RTVSPost2010Prop44ColorIndex
 90
        5
102
RTVSPost2010Prop44ColorRGB
 90
      255
102
RTVSPost2010PropOp44
 70
     1
102
RTVSPost2010Prop45
280
     0
102
RTVSPost2010PropOp45
 70
     1
102
RTVSPost2010Prop46
 90
       50
102
RTVSPost2010PropOp46
 70
     1
102
RTVSPost2010Prop47
 90
       50
102
RTVSPost2010PropOp47
 70
     1
102
RTVSPost2010Prop48
 90
       50
102
RTVSPost2010PropOp48
 70
     1
102
RTVSPost2010Prop49
280
     0
102
RTVSPost2010PropOp49
 70
     1
102
RTVSPost2010Prop50
 90
       50
102
RTVSPost2010PropOp50
 70
     1
102
RTVSPost2010Prop51ColorIndex
 90
      256
102
RTVSPost2010Prop51ColorRGB
 90
-16777216
102
RTVSPost2010PropOp51
 70
     0
102
RTVSPost2010Prop52
140
1.0
102
RTVSPost2010PropOp52
 70
     0
102
RTVSPost2010Prop53
 90
        2
102
RTVSPost2010PropOp53
 70
     1
102
RTVSPost2010Prop54
  1
strokes_ogs.tif
102
RTVSPost2010PropOp54
 70
     1
102
RTVSPost2010Prop55
280
     0
102
RTVSPost2010PropOp55
 70
     1
102
RTVSPost2010Prop56
140
1.0
102
RTVSPost2010PropOp56
 70
     1
102
RTVSPost2010Prop57
140
1.0
102
RTVSPost2010PropOp57
 70
     1
102
RTVSPropertyOp0
 70
     1
102
RTVSPropertyOp1
 70
     1
102
RTVSPropertyOp2
 70
     1
102
RTVSPropertyOp3
 70
     1
102
RTVSPropertyOp4
 70
     1
102
RTVSPropertyOp5
 70
     1
102
RTVSPropertyOp6
 70
     1
102
RTVSPropertyOp7
 70
     1
102
RTVSPropertyOp8
 70
     1
102
RTVSPropertyOp9
 70
     1
102
RTVSPropertyOp10
 70
     1
102
RTVSPropertyOp11
 70
     1
102
RTVSPropertyOp12
 70
     1
102
RTVSPropertyOp13
 70
     1
102
RTVSPropertyOp14
 70
     1
102
RTVSPropertyOp15
 70
     1
102
RTVSPropertyOp16
 70
     1
102
RTVSPropertyOp17
 70
     1
102
RTVSPropertyOp18
 70
     1
102
RTVSPropertyOp19
 70
     1
102
RTVSPropertyOp20
 70
     1
102
RTVSPropertyOp21
 70
     1
102
RTVSPropertyOp22
 70
     1
102
RTVSPropertyOp23
 70
     1
102
RTVSPropertyOp24
 70
     1
102
RTVSPropertyOp25
 70
     1
102
RTVSPropertyOp26
 70
     1
102
RTVSPropertyOp27
 70
     1
102
RTVSPropertyOp28
 70
     1
102
RTVSPropertyOp29
 70
     1
102
RTVSPropertyOp30
 70
     1
102
RTVSPropertyOp31
 70
     1
102
RTVSPropertyOp32
 70
     1
102
RTVSPropertyOp33
 70
     1
102
RTVSPropertyOp34
 70
     1
102
RTVSPropertyOp35
 70
     1
102
RTVSPropertyOp36
 70
     1
102
RTVSPropertyOp37
 70
     1
102
RTVSPropertyOp38
 70
     1
102
RTVSPropertyOp39
 70
     1
102
RTVSPropertyOp40
 70
     1
102
RTVSPropertyOp41
 70
     1
102
RTVSPropertyOp42
 70
     1
102
RTVSPropertyOp43
 70
     1
102
RTVSPropertyOp44
 70
     1
102
RTVSPropertyOp45
 70
     1
102
RTVSPropertyOp46
 70
     1
102
RTVSPropertyOp47
 70
     1
102
RTVSPropertyOp48
 70
     1
102
RTVSPropertyOp49
 70
     1
102
RTVSPropertyOp50
 70
     1
102
RTVSPropertyOp51
 70
     0
102
RTVSPropertyOp52
 70
     0
102
RTVSPropertyOp53
 70
     1
102
RTVSPropertyOp54
 70
     1
102
RTVSPropertyOp55
 70
     1
102
RTVSPropertyOp56
 70
     1
102
RTVSPropertyOp57
 70
     1
102
RTVSPropertyOp58
 70
     1
102
RTVSPropertyOp59
 70
     1
102
RTVSPropertyOp60
 70
     1
102
RTVSPropertyOp61
 70
     1
102
RTVSPropertyOp62
 70
     1
  0
XRECORD
  5
10089C
102
{ACAD_REACTORS
330
10089B
102
}
330
10089B
100
AcDbXrecord
280
     1
102
RTVSPost2010Prop28
280
     0
102
RTVSPost2010PropOp28
 70
     1
102
RTVSPost2010Prop29
280
     1
102
RTVSPost2010PropOp29
 70
     1
102
RTVSPost2010Prop30
280
     1
102
RTVSPost2010PropOp30
 70
     1
102
RTVSPost2010Prop31
280
     0
102
RTVSPost2010PropOp31
 70
     1
102
RTVSPost2010Prop32
280
     0
102
RTVSPost2010PropOp32
 70
     1
102
RTVSPost2010Prop33
280
     0
102
RTVSPost2010PropOp33
 70
     1
102
RTVSPost2010Prop34
280
     0
102
RTVSPost2010PropOp34
 70
     1
102
RTVSPost2010Prop35
280
     0
102
RTVSPost2010PropOp35
 70
     1
102
RTVSPost2010Prop36
280
     0
102
RTVSPost2010PropOp36
 70
     1
102
RTVSPost2010Prop37
 90
       50
102
RTVSPost2010PropOp37
 70
     1
102
RTVSPost2010Prop38
140
0.0
102
RTVSPost2010PropOp38
 70
     1
102
RTVSPost2010Prop39
140
1.0
102
RTVSPost2010PropOp39
 70
     1
102
RTVSPost2010Prop40
 90
        0
102
RTVSPost2010PropOp40
 70
     1
102
RTVSPost2010Prop41ColorIndex
 90
       18
102
RTVSPost2010Prop41ColorRGB
 90
        0
102
RTVSPost2010PropOp41
 70
     1
102
RTVSPost2010Prop42
 90
       50
102
RTVSPost2010PropOp42
 70
     1
102
RTVSPost2010Prop43
 90
        3
102
RTVSPost2010PropOp43
 70
     1
102
RTVSPost2010Prop44ColorIndex
 90
        5
102
RTVSPost2010Prop44ColorRGB
 90
      255
102
RTVSPost2010PropOp44
 70
     1
102
RTVSPost2010Prop45
280
     0
102
RTVSPost2010PropOp45
 70
     1
102
RTVSPost2010Prop46
 90
       50
102
RTVSPost2010PropOp46
 70
     1
102
RTVSPost2010Prop47
 90
       50
102
RTVSPost2010PropOp47
 70
     1
102
RTVSPost2010Prop48
 90
       50
102
RTVSPost2010PropOp48
 70
     1
102
RTVSPost2010Prop49
280
     0
102
RTVSPost2010PropOp49
 70
     1
102
RTVSPost2010Prop50
 90
       50
102
RTVSPost2010PropOp50
 70
     1
102
RTVSPost2010Prop51ColorIndex
 90
      256
102
RTVSPost2010Prop51ColorRGB
 90
-16777216
102
RTVSPost2010PropOp51
 70
     0
102
RTVSPost2010Prop52
140
1.0
102
RTVSPost2010PropOp52
 70
     0
102
RTVSPost2010Prop53
 90
        2
102
RTVSPost2010PropOp53
 70
     1
102
RTVSPost2010Prop54
  1
strokes_ogs.tif
102
RTVSPost2010PropOp54
 70
     1
102
RTVSPost2010Prop55
280
     0
102
RTVSPost2010PropOp55
 70
     1
102
RTVSPost2010Prop56
140
1.0
102
RTVSPost2010PropOp56
 70
     1
102
RTVSPost2010Prop57
140
1.0
102
RTVSPost2010PropOp57
 70
     1
102
RTVSPropertyOp0
 70
     1
102
RTVSPropertyOp1
 70
     1
102
RTVSPropertyOp2
 70
     1
102
RTVSPropertyOp3
 70
     1
102
RTVSPropertyOp4
 70
     1
102
RTVSPropertyOp5
 70
     1
102
RTVSPropertyOp6
 70
     1
102
RTVSPropertyOp7
 70
     1
102
RTVSPropertyOp8
 70
     1
102
RTVSPropertyOp9
 70
     1
102
RTVSPropertyOp10
 70
     1
102
RTVSPropertyOp11
 70
     1
102
RTVSPropertyOp12
 70
     1
102
RTVSPropertyOp13
 70
     1
102
RTVSPropertyOp14
 70
     1
102
RTVSPropertyOp15
 70
     1
102
RTVSPropertyOp16
 70
     1
102
RTVSPropertyOp17
 70
     1
102
RTVSPropertyOp18
 70
     1
102
RTVSPropertyOp19
 70
     1
102
RTVSPropertyOp20
 70
     1
102
RTVSPropertyOp21
 70
     1
102
RTVSPropertyOp22
 70
     1
102
RTVSPropertyOp23
 70
     1
102
RTVSPropertyOp24
 70
     1
102
RTVSPropertyOp25
 70
     1
102
RTVSPropertyOp26
 70
     1
102
RTVSPropertyOp27
 70
     1
102
RTVSPropertyOp28
 70
     1
102
RTVSPropertyOp29
 70
     1
102
RTVSPropertyOp30
 70
     1
102
RTVSPropertyOp31
 70
     1
102
RTVSPropertyOp32
 70
     1
102
RTVSPropertyOp33
 70
     1
102
RTVSPropertyOp34
 70
     1
102
RTVSPropertyOp35
 70
     1
102
RTVSPropertyOp36
 70
     1
102
RTVSPropertyOp37
 70
     1
102
RTVSPropertyOp38
 70
     1
102
RTVSPropertyOp39
 70
     1
102
RTVSPropertyOp40
 70
     1
102
RTVSPropertyOp41
 70
     1
102
RTVSPropertyOp42
 70
     1
102
RTVSPropertyOp43
 70
     1
102
RTVSPropertyOp44
 70
     1
102
RTVSPropertyOp45
 70
     1
102
RTVSPropertyOp46
 70
     1
102
RTVSPropertyOp47
 70
     1
102
RTVSPropertyOp48
 70
     1
102
RTVSPropertyOp49
 70
     1
102
RTVSPropertyOp50
 70
     1
102
RTVSPropertyOp51
 70
     0
102
RTVSPropertyOp52
 70
     0
102
RTVSPropertyOp53
 70
     1
102
RTVSPropertyOp54
 70
     1
102
RTVSPropertyOp55
 70
     1
102
RTVSPropertyOp56
 70
     1
102
RTVSPropertyOp57
 70
     1
102
RTVSPropertyOp58
 70
     1
102
RTVSPropertyOp59
 70
     1
102
RTVSPropertyOp60
 70
     1
102
RTVSPropertyOp61
 70
     1
102
RTVSPropertyOp62
 70
     1
  0
XRECORD
  5
10089E
102
{ACAD_REACTORS
330
10089D
102
}
330
10089D
100
AcDbXrecord
280
     1
102
RTVSPost2010Prop28
280
     0
102
RTVSPost2010PropOp28
 70
     1
102
RTVSPost2010Prop29
280
     1
102
RTVSPost2010PropOp29
 70
     1
102
RTVSPost2010Prop30
280
     1
102
RTVSPost2010PropOp30
 70
     1
102
RTVSPost2010Prop31
280
     0
102
RTVSPost2010PropOp31
 70
     1
102
RTVSPost2010Prop32
280
     0
102
RTVSPost2010PropOp32
 70
     1
102
RTVSPost2010Prop33
280
     0
102
RTVSPost2010PropOp33
 70
     1
102
RTVSPost2010Prop34
280
     0
102
RTVSPost2010PropOp34
 70
     1
102
RTVSPost2010Prop35
280
     0
102
RTVSPost2010PropOp35
 70
     1
102
RTVSPost2010Prop36
280
     0
102
RTVSPost2010PropOp36
 70
     1
102
RTVSPost2010Prop37
 90
       50
102
RTVSPost2010PropOp37
 70
     1
102
RTVSPost2010Prop38
140
0.0
102
RTVSPost2010PropOp38
 70
     1
102
RTVSPost2010Prop39
140
1.0
102
RTVSPost2010PropOp39
 70
     1
102
RTVSPost2010Prop40
 90
        0
102
RTVSPost2010PropOp40
 70
     1
102
RTVSPost2010Prop41ColorIndex
 90
       18
102
RTVSPost2010Prop41ColorRGB
 90
        0
102
RTVSPost2010PropOp41
 70
     1
102
RTVSPost2010Prop42
 90
       50
102
RTVSPost2010PropOp42
 70
     1
102
RTVSPost2010Prop43
 90
        3
102
RTVSPost2010PropOp43
 70
     1
102
RTVSPost2010Prop44ColorIndex
 90
        5
102
RTVSPost2010Prop44ColorRGB
 90
      255
102
RTVSPost2010PropOp44
 70
     1
102
RTVSPost2010Prop45
280
     0
102
RTVSPost2010PropOp45
 70
     1
102
RTVSPost2010Prop46
 90
       50
102
RTVSPost2010PropOp46
 70
     1
102
RTVSPost2010Prop47
 90
       50
102
RTVSPost2010PropOp47
 70
     1
102
RTVSPost2010Prop48
 90
       50
102
RTVSPost2010PropOp48
 70
     1
102
RTVSPost2010Prop49
280
     0
102
RTVSPost2010PropOp49
 70
     1
102
RTVSPost2010Prop50
 90
       50
102
RTVSPost2010PropOp50
 70
     1
102
RTVSPost2010Prop51ColorIndex
 90
      256
102
RTVSPost2010Prop51ColorRGB
 90
-16777216
102
RTVSPost2010PropOp51
 70
     0
102
RTVSPost2010Prop52
140
1.0
102
RTVSPost2010PropOp52
 70
     0
102
RTVSPost2010Prop53
 90
        2
102
RTVSPost2010PropOp53
 70
     1
102
RTVSPost2010Prop54
  1
strokes_ogs.tif
102
RTVSPost2010PropOp54
 70
     1
102
RTVSPost2010Prop55
280
     0
102
RTVSPost2010PropOp55
 70
     1
102
RTVSPost2010Prop56
140
1.0
102
RTVSPost2010PropOp56
 70
     1
102
RTVSPost2010Prop57
140
1.0
102
RTVSPost2010PropOp57
 70
     1
102
RTVSPropertyOp0
 70
     1
102
RTVSPropertyOp1
 70
     1
102
RTVSPropertyOp2
 70
     1
102
RTVSPropertyOp3
 70
     1
102
RTVSPropertyOp4
 70
     1
102
RTVSPropertyOp5
 70
     1
102
RTVSPropertyOp6
 70
     1
102
RTVSPropertyOp7
 70
     1
102
RTVSPropertyOp8
 70
     1
102
RTVSPropertyOp9
 70
     1
102
RTVSPropertyOp10
 70
     1
102
RTVSPropertyOp11
 70
     1
102
RTVSPropertyOp12
 70
     1
102
RTVSPropertyOp13
 70
     1
102
RTVSPropertyOp14
 70
     1
102
RTVSPropertyOp15
 70
     1
102
RTVSPropertyOp16
 70
     1
102
RTVSPropertyOp17
 70
     1
102
RTVSPropertyOp18
 70
     1
102
RTVSPropertyOp19
 70
     1
102
RTVSPropertyOp20
 70
     1
102
RTVSPropertyOp21
 70
     1
102
RTVSPropertyOp22
 70
     1
102
RTVSPropertyOp23
 70
     1
102
RTVSPropertyOp24
 70
     1
102
RTVSPropertyOp25
 70
     1
102
RTVSPropertyOp26
 70
     1
102
RTVSPropertyOp27
 70
     1
102
RTVSPropertyOp28
 70
     1
102
RTVSPropertyOp29
 70
     1
102
RTVSPropertyOp30
 70
     1
102
RTVSPropertyOp31
 70
     1
102
RTVSPropertyOp32
 70
     1
102
RTVSPropertyOp33
 70
     1
102
RTVSPropertyOp34
 70
     1
102
RTVSPropertyOp35
 70
     1
102
RTVSPropertyOp36
 70
     1
102
RTVSPropertyOp37
 70
     1
102
RTVSPropertyOp38
 70
     1
102
RTVSPropertyOp39
 70
     1
102
RTVSPropertyOp40
 70
     1
102
RTVSPropertyOp41
 70
     1
102
RTVSPropertyOp42
 70
     1
102
RTVSPropertyOp43
 70
     1
102
RTVSPropertyOp44
 70
     1
102
RTVSPropertyOp45
 70
     1
102
RTVSPropertyOp46
 70
     1
102
RTVSPropertyOp47
 70
     1
102
RTVSPropertyOp48
 70
     1
102
RTVSPropertyOp49
 70
     1
102
RTVSPropertyOp50
 70
     1
102
RTVSPropertyOp51
 70
     0
102
RTVSPropertyOp52
 70
     0
102
RTVSPropertyOp53
 70
     1
102
RTVSPropertyOp54
 70
     1
102
RTVSPropertyOp55
 70
     1
102
RTVSPropertyOp56
 70
     1
102
RTVSPropertyOp57
 70
     1
102
RTVSPropertyOp58
 70
     1
102
RTVSPropertyOp59
 70
     1
102
RTVSPropertyOp60
 70
     1
102
RTVSPropertyOp61
 70
     1
102
RTVSPropertyOp62
 70
     1
  0
XRECORD
  5
1008A0
102
{ACAD_REACTORS
330
10089F
102
}
330
10089F
100
AcDbXrecord
280
     1
102
RTVSPost2010Prop28
280
     0
102
RTVSPost2010PropOp28
 70
     1
102
RTVSPost2010Prop29
280
     1
102
RTVSPost2010PropOp29
 70
     1
102
RTVSPost2010Prop30
280
     1
102
RTVSPost2010PropOp30
 70
     1
102
RTVSPost2010Prop31
280
     0
102
RTVSPost2010PropOp31
 70
     1
102
RTVSPost2010Prop32
280
     0
102
RTVSPost2010PropOp32
 70
     1
102
RTVSPost2010Prop33
280
     0
102
RTVSPost2010PropOp33
 70
     1
102
RTVSPost2010Prop34
280
     0
102
RTVSPost2010PropOp34
 70
     1
102
RTVSPost2010Prop35
280
     0
102
RTVSPost2010PropOp35
 70
     1
102
RTVSPost2010Prop36
280
     0
102
RTVSPost2010PropOp36
 70
     1
102
RTVSPost2010Prop37
 90
       50
102
RTVSPost2010PropOp37
 70
     1
102
RTVSPost2010Prop38
140
0.0
102
RTVSPost2010PropOp38
 70
     1
102
RTVSPost2010Prop39
140
1.0
102
RTVSPost2010PropOp39
 70
     1
102
RTVSPost2010Prop40
 90
        0
102
RTVSPost2010PropOp40
 70
     1
102
RTVSPost2010Prop41ColorIndex
 90
       18
102
RTVSPost2010Prop41ColorRGB
 90
        0
102
RTVSPost2010PropOp41
 70
     1
102
RTVSPost2010Prop42
 90
       50
102
RTVSPost2010PropOp42
 70
     1
102
RTVSPost2010Prop43
 90
        3
102
RTVSPost2010PropOp43
 70
     1
102
RTVSPost2010Prop44ColorIndex
 90
        5
102
RTVSPost2010Prop44ColorRGB
 90
      255
102
RTVSPost2010PropOp44
 70
     1
102
RTVSPost2010Prop45
280
     0
102
RTVSPost2010PropOp45
 70
     1
102
RTVSPost2010Prop46
 90
       50
102
RTVSPost2010PropOp46
 70
     1
102
RTVSPost2010Prop47
 90
       50
102
RTVSPost2010PropOp47
 70
     1
102
RTVSPost2010Prop48
 90
       50
102
RTVSPost2010PropOp48
 70
     1
102
RTVSPost2010Prop49
280
     0
102
RTVSPost2010PropOp49
 70
     1
102
RTVSPost2010Prop50
 90
       50
102
RTVSPost2010PropOp50
 70
     1
102
RTVSPost2010Prop51ColorIndex
 90
      256
102
RTVSPost2010Prop51ColorRGB
 90
-16777216
102
RTVSPost2010PropOp51
 70
     0
102
RTVSPost2010Prop52
140
1.0
102
RTVSPost2010PropOp52
 70
     0
102
RTVSPost2010Prop53
 90
        2
102
RTVSPost2010PropOp53
 70
     1
102
RTVSPost2010Prop54
  1
strokes_ogs.tif
102
RTVSPost2010PropOp54
 70
     1
102
RTVSPost2010Prop55
280
     0
102
RTVSPost2010PropOp55
 70
     1
102
RTVSPost2010Prop56
140
1.0
102
RTVSPost2010PropOp56
 70
     1
102
RTVSPost2010Prop57
140
1.0
102
RTVSPost2010PropOp57
 70
     1
102
RTVSPropertyOp0
 70
     1
102
RTVSPropertyOp1
 70
     1
102
RTVSPropertyOp2
 70
     1
102
RTVSPropertyOp3
 70
     1
102
RTVSPropertyOp4
 70
     1
102
RTVSPropertyOp5
 70
     1
102
RTVSPropertyOp6
 70
     1
102
RTVSPropertyOp7
 70
     1
102
RTVSPropertyOp8
 70
     1
102
RTVSPropertyOp9
 70
     1
102
RTVSPropertyOp10
 70
     1
102
RTVSPropertyOp11
 70
     1
102
RTVSPropertyOp12
 70
     1
102
RTVSPropertyOp13
 70
     1
102
RTVSPropertyOp14
 70
     1
102
RTVSPropertyOp15
 70
     1
102
RTVSPropertyOp16
 70
     1
102
RTVSPropertyOp17
 70
     1
102
RTVSPropertyOp18
 70
     1
102
RTVSPropertyOp19
 70
     1
102
RTVSPropertyOp20
 70
     1
102
RTVSPropertyOp21
 70
     1
102
RTVSPropertyOp22
 70
     1
102
RTVSPropertyOp23
 70
     1
102
RTVSPropertyOp24
 70
     1
102
RTVSPropertyOp25
 70
     1
102
RTVSPropertyOp26
 70
     1
102
RTVSPropertyOp27
 70
     1
102
RTVSPropertyOp28
 70
     1
102
RTVSPropertyOp29
 70
     1
102
RTVSPropertyOp30
 70
     1
102
RTVSPropertyOp31
 70
     1
102
RTVSPropertyOp32
 70
     1
102
RTVSPropertyOp33
 70
     1
102
RTVSPropertyOp34
 70
     1
102
RTVSPropertyOp35
 70
     1
102
RTVSPropertyOp36
 70
     1
102
RTVSPropertyOp37
 70
     1
102
RTVSPropertyOp38
 70
     1
102
RTVSPropertyOp39
 70
     1
102
RTVSPropertyOp40
 70
     1
102
RTVSPropertyOp41
 70
     1
102
RTVSPropertyOp42
 70
     1
102
RTVSPropertyOp43
 70
     1
102
RTVSPropertyOp44
 70
     1
102
RTVSPropertyOp45
 70
     1
102
RTVSPropertyOp46
 70
     1
102
RTVSPropertyOp47
 70
     1
102
RTVSPropertyOp48
 70
     1
102
RTVSPropertyOp49
 70
     1
102
RTVSPropertyOp50
 70
     1
102
RTVSPropertyOp51
 70
     0
102
RTVSPropertyOp52
 70
     0
102
RTVSPropertyOp53
 70
     1
102
RTVSPropertyOp54
 70
     1
102
RTVSPropertyOp55
 70
     1
102
RTVSPropertyOp56
 70
     1
102
RTVSPropertyOp57
 70
     1
102
RTVSPropertyOp58
 70
     1
102
RTVSPropertyOp59
 70
     1
102
RTVSPropertyOp60
 70
     1
102
RTVSPropertyOp61
 70
     1
102
RTVSPropertyOp62
 70
     1
  0
XRECORD
  5
1008A2
102
{ACAD_REACTORS
330
1008A1
102
}
330
1008A1
100
AcDbXrecord
280
     1
102
RTVSPost2010Prop28
280
     0
102
RTVSPost2010PropOp28
 70
     1
102
RTVSPost2010Prop29
280
     1
102
RTVSPost2010PropOp29
 70
     1
102
RTVSPost2010Prop30
280
     1
102
RTVSPost2010PropOp30
 70
     1
102
RTVSPost2010Prop31
280
     0
102
RTVSPost2010PropOp31
 70
     1
102
RTVSPost2010Prop32
280
     0
102
RTVSPost2010PropOp32
 70
     1
102
RTVSPost2010Prop33
280
     0
102
RTVSPost2010PropOp33
 70
     1
102
RTVSPost2010Prop34
280
     0
102
RTVSPost2010PropOp34
 70
     1
102
RTVSPost2010Prop35
280
     0
102
RTVSPost2010PropOp35
 70
     1
102
RTVSPost2010Prop36
280
     0
102
RTVSPost2010PropOp36
 70
     1
102
RTVSPost2010Prop37
 90
       50
102
RTVSPost2010PropOp37
 70
     1
102
RTVSPost2010Prop38
140
0.0
102
RTVSPost2010PropOp38
 70
     1
102
RTVSPost2010Prop39
140
1.0
102
RTVSPost2010PropOp39
 70
     1
102
RTVSPost2010Prop40
 90
        0
102
RTVSPost2010PropOp40
 70
     1
102
RTVSPost2010Prop41ColorIndex
 90
       18
102
RTVSPost2010Prop41ColorRGB
 90
        0
102
RTVSPost2010PropOp41
 70
     1
102
RTVSPost2010Prop42
 90
       50
102
RTVSPost2010PropOp42
 70
     1
102
RTVSPost2010Prop43
 90
        3
102
RTVSPost2010PropOp43
 70
     1
102
RTVSPost2010Prop44ColorIndex
 90
        5
102
RTVSPost2010Prop44ColorRGB
 90
      255
102
RTVSPost2010PropOp44
 70
     1
102
RTVSPost2010Prop45
280
     0
102
RTVSPost2010PropOp45
 70
     1
102
RTVSPost2010Prop46
 90
       50
102
RTVSPost2010PropOp46
 70
     1
102
RTVSPost2010Prop47
 90
       50
102
RTVSPost2010PropOp47
 70
     1
102
RTVSPost2010Prop48
 90
       50
102
RTVSPost2010PropOp48
 70
     1
102
RTVSPost2010Prop49
280
     0
102
RTVSPost2010PropOp49
 70
     1
102
RTVSPost2010Prop50
 90
       50
102
RTVSPost2010PropOp50
 70
     1
102
RTVSPost2010Prop51ColorIndex
 90
      256
102
RTVSPost2010Prop51ColorRGB
 90
-16777216
102
RTVSPost2010PropOp51
 70
     0
102
RTVSPost2010Prop52
140
1.0
102
RTVSPost2010PropOp52
 70
     0
102
RTVSPost2010Prop53
 90
        2
102
RTVSPost2010PropOp53
 70
     1
102
RTVSPost2010Prop54
  1
strokes_ogs.tif
102
RTVSPost2010PropOp54
 70
     1
102
RTVSPost2010Prop55
280
     0
102
RTVSPost2010PropOp55
 70
     1
102
RTVSPost2010Prop56
140
1.0
102
RTVSPost2010PropOp56
 70
     1
102
RTVSPost2010Prop57
140
1.0
102
RTVSPost2010PropOp57
 70
     1
102
RTVSPropertyOp0
 70
     1
102
RTVSPropertyOp1
 70
     1
102
RTVSPropertyOp2
 70
     1
102
RTVSPropertyOp3
 70
     1
102
RTVSPropertyOp4
 70
     1
102
RTVSPropertyOp5
 70
     1
102
RTVSPropertyOp6
 70
     1
102
RTVSPropertyOp7
 70
     1
102
RTVSPropertyOp8
 70
     1
102
RTVSPropertyOp9
 70
     1
102
RTVSPropertyOp10
 70
     1
102
RTVSPropertyOp11
 70
     1
102
RTVSPropertyOp12
 70
     1
102
RTVSPropertyOp13
 70
     1
102
RTVSPropertyOp14
 70
     1
102
RTVSPropertyOp15
 70
     1
102
RTVSPropertyOp16
 70
     1
102
RTVSPropertyOp17
 70
     1
102
RTVSPropertyOp18
 70
     1
102
RTVSPropertyOp19
 70
     1
102
RTVSPropertyOp20
 70
     1
102
RTVSPropertyOp21
 70
     1
102
RTVSPropertyOp22
 70
     1
102
RTVSPropertyOp23
 70
     1
102
RTVSPropertyOp24
 70
     1
102
RTVSPropertyOp25
 70
     1
102
RTVSPropertyOp26
 70
     1
102
RTVSPropertyOp27
 70
     1
102
RTVSPropertyOp28
 70
     1
102
RTVSPropertyOp29
 70
     1
102
RTVSPropertyOp30
 70
     1
102
RTVSPropertyOp31
 70
     1
102
RTVSPropertyOp32
 70
     1
102
RTVSPropertyOp33
 70
     1
102
RTVSPropertyOp34
 70
     1
102
RTVSPropertyOp35
 70
     1
102
RTVSPropertyOp36
 70
     1
102
RTVSPropertyOp37
 70
     1
102
RTVSPropertyOp38
 70
     1
102
RTVSPropertyOp39
 70
     1
102
RTVSPropertyOp40
 70
     1
102
RTVSPropertyOp41
 70
     1
102
RTVSPropertyOp42
 70
     1
102
RTVSPropertyOp43
 70
     1
102
RTVSPropertyOp44
 70
     1
102
RTVSPropertyOp45
 70
     1
102
RTVSPropertyOp46
 70
     1
102
RTVSPropertyOp47
 70
     1
102
RTVSPropertyOp48
 70
     1
102
RTVSPropertyOp49
 70
     1
102
RTVSPropertyOp50
 70
     1
102
RTVSPropertyOp51
 70
     0
102
RTVSPropertyOp52
 70
     0
102
RTVSPropertyOp53
 70
     1
102
RTVSPropertyOp54
 70
     1
102
RTVSPropertyOp55
 70
     1
102
RTVSPropertyOp56
 70
     1
102
RTVSPropertyOp57
 70
     1
102
RTVSPropertyOp58
 70
     1
102
RTVSPropertyOp59
 70
     1
102
RTVSPropertyOp60
 70
     1
102
RTVSPropertyOp61
 70
     1
102
RTVSPropertyOp62
 70
     1
  0
XRECORD
  5
1008AA
102
{ACAD_REACTORS
330
1008A9
102
}
330
1008A9
100
AcDbXrecord
280
     1
102
RTVSPost2010Prop28
280
     0
102
RTVSPost2010PropOp28
 70
     1
102
RTVSPost2010Prop29
280
     1
102
RTVSPost2010PropOp29
 70
     1
102
RTVSPost2010Prop30
280
     1
102
RTVSPost2010PropOp30
 70
     1
102
RTVSPost2010Prop31
280
     0
102
RTVSPost2010PropOp31
 70
     1
102
RTVSPost2010Prop32
280
     0
102
RTVSPost2010PropOp32
 70
     1
102
RTVSPost2010Prop33
280
     0
102
RTVSPost2010PropOp33
 70
     1
102
RTVSPost2010Prop34
280
     0
102
RTVSPost2010PropOp34
 70
     1
102
RTVSPost2010Prop35
280
     0
102
RTVSPost2010PropOp35
 70
     1
102
RTVSPost2010Prop36
280
     0
102
RTVSPost2010PropOp36
 70
     1
102
RTVSPost2010Prop37
 90
       50
102
RTVSPost2010PropOp37
 70
     1
102
RTVSPost2010Prop38
140
0.0
102
RTVSPost2010PropOp38
 70
     1
102
RTVSPost2010Prop39
140
1.0
102
RTVSPost2010PropOp39
 70
     1
102
RTVSPost2010Prop40
 90
        0
102
RTVSPost2010PropOp40
 70
     1
102
RTVSPost2010Prop41ColorIndex
 90
       18
102
RTVSPost2010Prop41ColorRGB
 90
        0
102
RTVSPost2010PropOp41
 70
     1
102
RTVSPost2010Prop42
 90
       50
102
RTVSPost2010PropOp42
 70
     1
102
RTVSPost2010Prop43
 90
        3
102
RTVSPost2010PropOp43
 70
     1
102
RTVSPost2010Prop44ColorIndex
 90
        5
102
RTVSPost2010Prop44ColorRGB
 90
      255
102
RTVSPost2010PropOp44
 70
     1
102
RTVSPost2010Prop45
280
     0
102
RTVSPost2010PropOp45
 70
     1
102
RTVSPost2010Prop46
 90
       50
102
RTVSPost2010PropOp46
 70
     1
102
RTVSPost2010Prop47
 90
       50
102
RTVSPost2010PropOp47
 70
     1
102
RTVSPost2010Prop48
 90
       50
102
RTVSPost2010PropOp48
 70
     1
102
RTVSPost2010Prop49
280
     0
102
RTVSPost2010PropOp49
 70
     1
102
RTVSPost2010Prop50
 90
       50
102
RTVSPost2010PropOp50
 70
     1
102
RTVSPost2010Prop51ColorIndex
 90
      256
102
RTVSPost2010Prop51ColorRGB
 90
-16777216
102
RTVSPost2010PropOp51
 70
     0
102
RTVSPost2010Prop52
140
1.0
102
RTVSPost2010PropOp52
 70
     0
102
RTVSPost2010Prop53
 90
        2
102
RTVSPost2010PropOp53
 70
     1
102
RTVSPost2010Prop54
  1
strokes_ogs.tif
102
RTVSPost2010PropOp54
 70
     1
102
RTVSPost2010Prop55
280
     0
102
RTVSPost2010PropOp55
 70
     1
102
RTVSPost2010Prop56
140
1.0
102
RTVSPost2010PropOp56
 70
     1
102
RTVSPost2010Prop57
140
1.0
102
RTVSPost2010PropOp57
 70
     1
102
RTVSPropertyOp0
 70
     1
102
RTVSPropertyOp1
 70
     1
102
RTVSPropertyOp2
 70
     1
102
RTVSPropertyOp3
 70
     1
102
RTVSPropertyOp4
 70
     1
102
RTVSPropertyOp5
 70
     1
102
RTVSPropertyOp6
 70
     1
102
RTVSPropertyOp7
 70
     1
102
RTVSPropertyOp8
 70
     1
102
RTVSPropertyOp9
 70
     1
102
RTVSPropertyOp10
 70
     1
102
RTVSPropertyOp11
 70
     1
102
RTVSPropertyOp12
 70
     1
102
RTVSPropertyOp13
 70
     1
102
RTVSPropertyOp14
 70
     1
102
RTVSPropertyOp15
 70
     1
102
RTVSPropertyOp16
 70
     1
102
RTVSPropertyOp17
 70
     1
102
RTVSPropertyOp18
 70
     1
102
RTVSPropertyOp19
 70
     1
102
RTVSPropertyOp20
 70
     1
102
RTVSPropertyOp21
 70
     1
102
RTVSPropertyOp22
 70
     1
102
RTVSPropertyOp23
 70
     1
102
RTVSPropertyOp24
 70
     1
102
RTVSPropertyOp25
 70
     1
102
RTVSPropertyOp26
 70
     1
102
RTVSPropertyOp27
 70
     1
102
RTVSPropertyOp28
 70
     1
102
RTVSPropertyOp29
 70
     1
102
RTVSPropertyOp30
 70
     1
102
RTVSPropertyOp31
 70
     1
102
RTVSPropertyOp32
 70
     1
102
RTVSPropertyOp33
 70
     1
102
RTVSPropertyOp34
 70
     1
102
RTVSPropertyOp35
 70
     1
102
RTVSPropertyOp36
 70
     1
102
RTVSPropertyOp37
 70
     1
102
RTVSPropertyOp38
 70
     1
102
RTVSPropertyOp39
 70
     1
102
RTVSPropertyOp40
 70
     1
102
RTVSPropertyOp41
 70
     1
102
RTVSPropertyOp42
 70
     1
102
RTVSPropertyOp43
 70
     1
102
RTVSPropertyOp44
 70
     1
102
RTVSPropertyOp45
 70
     1
102
RTVSPropertyOp46
 70
     1
102
RTVSPropertyOp47
 70
     1
102
RTVSPropertyOp48
 70
     1
102
RTVSPropertyOp49
 70
     1
102
RTVSPropertyOp50
 70
     1
102
RTVSPropertyOp51
 70
     0
102
RTVSPropertyOp52
 70
     0
102
RTVSPropertyOp53
 70
     1
102
RTVSPropertyOp54
 70
     1
102
RTVSPropertyOp55
 70
     1
102
RTVSPropertyOp56
 70
     1
102
RTVSPropertyOp57
 70
     1
102
RTVSPropertyOp58
 70
     1
102
RTVSPropertyOp59
 70
     1
102
RTVSPropertyOp60
 70
     1
102
RTVSPropertyOp61
 70
     1
102
RTVSPropertyOp62
 70
     1
  0
XRECORD
  5
1008C6
102
{ACAD_REACTORS
330
1008C5
102
}
330
1008C5
100
AcDbXrecord
280
     1
102
RTVSPost2010Prop28
280
     0
102
RTVSPost2010PropOp28
 70
     0
102
RTVSPost2010Prop29
280
     1
102
RTVSPost2010PropOp29
 70
     0
102
RTVSPost2010Prop30
280
     1
102
RTVSPost2010PropOp30
 70
     0
102
RTVSPost2010Prop31
280
     0
102
RTVSPost2010PropOp31
 70
     0
102
RTVSPost2010Prop32
280
     0
102
RTVSPost2010PropOp32
 70
     0
102
RTVSPost2010Prop33
280
     0
102
RTVSPost2010PropOp33
 70
     0
102
RTVSPost2010Prop34
280
     0
102
RTVSPost2010PropOp34
 70
     0
102
RTVSPost2010Prop35
280
     0
102
RTVSPost2010PropOp35
 70
     0
102
RTVSPost2010Prop36
280
     0
102
RTVSPost2010PropOp36
 70
     0
102
RTVSPost2010Prop37
 90
       50
102
RTVSPost2010PropOp37
 70
     0
102
RTVSPost2010Prop38
140
0.0
102
RTVSPost2010PropOp38
 70
     0
102
RTVSPost2010Prop39
140
1.0
102
RTVSPost2010PropOp39
 70
     0
102
RTVSPost2010Prop40
 90
        0
102
RTVSPost2010PropOp40
 70
     0
102
RTVSPost2010Prop41ColorIndex
 90
       18
102
RTVSPost2010Prop41ColorRGB
 90
        0
102
RTVSPost2010PropOp41
 70
     0
102
RTVSPost2010Prop42
 90
       50
102
RTVSPost2010PropOp42
 70
     0
102
RTVSPost2010Prop43
 90
        3
102
RTVSPost2010PropOp43
 70
     0
102
RTVSPost2010Prop44ColorIndex
 90
        5
102
RTVSPost2010Prop44ColorRGB
 90
      255
102
RTVSPost2010PropOp44
 70
     0
102
RTVSPost2010Prop45
280
     0
102
RTVSPost2010PropOp45
 70
     0
102
RTVSPost2010Prop46
 90
       50
102
RTVSPost2010PropOp46
 70
     0
102
RTVSPost2010Prop47
 90
       50
102
RTVSPost2010PropOp47
 70
     0
102
RTVSPost2010Prop48
 90
       50
102
RTVSPost2010PropOp48
 70
     0
102
RTVSPost2010Prop49
280
     0
102
RTVSPost2010PropOp49
 70
     0
102
RTVSPost2010Prop50
 90
       50
102
RTVSPost2010PropOp50
 70
     0
102
RTVSPost2010Prop51ColorIndex
 90
      256
102
RTVSPost2010Prop51ColorRGB
 90
-16777216
102
RTVSPost2010PropOp51
 70
     0
102
RTVSPost2010Prop52
140
1.0
102
RTVSPost2010PropOp52
 70
     0
102
RTVSPost2010Prop53
 90
        2
102
RTVSPost2010PropOp53
 70
     0
102
RTVSPost2010Prop54
  1
strokes_ogs.tif
102
RTVSPost2010PropOp54
 70
     0
102
RTVSPost2010Prop55
280
     0
102
RTVSPost2010PropOp55
 70
     0
102
RTVSPost2010Prop56
140
1.0
102
RTVSPost2010PropOp56
 70
     0
102
RTVSPost2010Prop57
140
1.0
102
RTVSPost2010PropOp57
 70
     0
102
RTVSPropertyOp0
 70
     0
102
RTVSPropertyOp1
 70
     0
102
RTVSPropertyOp2
 70
     0
102
RTVSPropertyOp3
 70
     0
102
RTVSPropertyOp4
 70
     0
102
RTVSPropertyOp5
 70
     0
102
RTVSPropertyOp6
 70
     0
102
RTVSPropertyOp7
 70
     0
102
RTVSPropertyOp8
 70
     0
102
RTVSPropertyOp9
 70
     0
102
RTVSPropertyOp10
 70
     0
102
RTVSPropertyOp11
 70
     0
102
RTVSPropertyOp12
 70
     0
102
RTVSPropertyOp13
 70
     0
102
RTVSPropertyOp14
 70
     2
102
RTVSPropertyOp15
 70
     0
102
RTVSPropertyOp16
 70
     0
102
RTVSPropertyOp17
 70
     0
102
RTVSPropertyOp18
 70
     0
102
RTVSPropertyOp19
 70
     0
102
RTVSPropertyOp20
 70
     0
102
RTVSPropertyOp21
 70
     0
102
RTVSPropertyOp22
 70
     0
102
RTVSPropertyOp23
 70
     0
102
RTVSPropertyOp24
 70
     0
102
RTVSPropertyOp25
 70
     0
102
RTVSPropertyOp26
 70
     0
102
RTVSPropertyOp27
 70
     0
102
RTVSPropertyOp28
 70
     0
102
RTVSPropertyOp29
 70
     0
102
RTVSPropertyOp30
 70
     0
102
RTVSPropertyOp31
 70
     0
102
RTVSPropertyOp32
 70
     0
102
RTVSPropertyOp33
 70
     0
102
RTVSPropertyOp34
 70
     0
102
RTVSPropertyOp35
 70
     0
102
RTVSPropertyOp36
 70
     0
102
RTVSPropertyOp37
 70
     0
102
RTVSPropertyOp38
 70
     0
102
RTVSPropertyOp39
 70
     0
102
RTVSPropertyOp40
 70
     0
102
RTVSPropertyOp41
 70
     0
102
RTVSPropertyOp42
 70
     0
102
RTVSPropertyOp43
 70
     0
102
RTVSPropertyOp44
 70
     0
102
RTVSPropertyOp45
 70
     0
102
RTVSPropertyOp46
 70
     0
102
RTVSPropertyOp47
 70
     0
102
RTVSPropertyOp48
 70
     0
102
RTVSPropertyOp49
 70
     0
102
RTVSPropertyOp50
 70
     0
102
RTVSPropertyOp51
 70
     0
102
RTVSPropertyOp52
 70
     0
102
RTVSPropertyOp53
 70
     0
102
RTVSPropertyOp54
 70
     0
102
RTVSPropertyOp55
 70
     0
102
RTVSPropertyOp56
 70
     0
102
RTVSPropertyOp57
 70
     0
102
RTVSPropertyOp58
 70
     0
102
RTVSPropertyOp59
 70
     0
102
RTVSPropertyOp60
 70
     0
102
RTVSPropertyOp61
 70
     0
102
RTVSPropertyOp62
 70
     0
  0
XRECORD
  5
1008B6
102
{ACAD_REACTORS
330
1008B5
102
}
330
1008B5
100
AcDbXrecord
280
     1
102
RTVSPost2010Prop28
280
     0
102
RTVSPost2010PropOp28
 70
     1
102
RTVSPost2010Prop29
280
     1
102
RTVSPost2010PropOp29
 70
     1
102
RTVSPost2010Prop30
280
     1
102
RTVSPost2010PropOp30
 70
     1
102
RTVSPost2010Prop31
280
     0
102
RTVSPost2010PropOp31
 70
     1
102
RTVSPost2010Prop32
280
     0
102
RTVSPost2010PropOp32
 70
     1
102
RTVSPost2010Prop33
280
     0
102
RTVSPost2010PropOp33
 70
     1
102
RTVSPost2010Prop34
280
     0
102
RTVSPost2010PropOp34
 70
     1
102
RTVSPost2010Prop35
280
     0
102
RTVSPost2010PropOp35
 70
     1
102
RTVSPost2010Prop36
280
     0
102
RTVSPost2010PropOp36
 70
     1
102
RTVSPost2010Prop37
 90
       50
102
RTVSPost2010PropOp37
 70
     1
102
RTVSPost2010Prop38
140
0.0
102
RTVSPost2010PropOp38
 70
     1
102
RTVSPost2010Prop39
140
1.0
102
RTVSPost2010PropOp39
 70
     1
102
RTVSPost2010Prop40
 90
        0
102
RTVSPost2010PropOp40
 70
     1
102
RTVSPost2010Prop41ColorIndex
 90
       18
102
RTVSPost2010Prop41ColorRGB
 90
        0
102
RTVSPost2010PropOp41
 70
     1
102
RTVSPost2010Prop42
 90
       50
102
RTVSPost2010PropOp42
 70
     1
102
RTVSPost2010Prop43
 90
        3
102
RTVSPost2010PropOp43
 70
     1
102
RTVSPost2010Prop44ColorIndex
 90
        5
102
RTVSPost2010Prop44ColorRGB
 90
      255
102
RTVSPost2010PropOp44
 70
     1
102
RTVSPost2010Prop45
280
     0
102
RTVSPost2010PropOp45
 70
     1
102
RTVSPost2010Prop46
 90
       50
102
RTVSPost2010PropOp46
 70
     1
102
RTVSPost2010Prop47
 90
       50
102
RTVSPost2010PropOp47
 70
     1
102
RTVSPost2010Prop48
 90
       50
102
RTVSPost2010PropOp48
 70
     1
102
RTVSPost2010Prop49
280
     0
102
RTVSPost2010PropOp49
 70
     1
102
RTVSPost2010Prop50
 90
       50
102
RTVSPost2010PropOp50
 70
     1
102
RTVSPost2010Prop51ColorIndex
 90
      256
102
RTVSPost2010Prop51ColorRGB
 90
-16777216
102
RTVSPost2010PropOp51
 70
     0
102
RTVSPost2010Prop52
140
1.0
102
RTVSPost2010PropOp52
 70
     0
102
RTVSPost2010Prop53
 90
        2
102
RTVSPost2010PropOp53
 70
     1
102
RTVSPost2010Prop54
  1
strokes_ogs.tif
102
RTVSPost2010PropOp54
 70
     1
102
RTVSPost2010Prop55
280
     0
102
RTVSPost2010PropOp55
 70
     1
102
RTVSPost2010Prop56
140
1.0
102
RTVSPost2010PropOp56
 70
     1
102
RTVSPost2010Prop57
140
1.0
102
RTVSPost2010PropOp57
 70
     1
102
RTVSPropertyOp0
 70
     1
102
RTVSPropertyOp1
 70
     1
102
RTVSPropertyOp2
 70
     1
102
RTVSPropertyOp3
 70
     1
102
RTVSPropertyOp4
 70
     1
102
RTVSPropertyOp5
 70
     1
102
RTVSPropertyOp6
 70
     1
102
RTVSPropertyOp7
 70
     1
102
RTVSPropertyOp8
 70
     1
102
RTVSPropertyOp9
 70
     1
102
RTVSPropertyOp10
 70
     1
102
RTVSPropertyOp11
 70
     1
102
RTVSPropertyOp12
 70
     1
102
RTVSPropertyOp13
 70
     1
102
RTVSPropertyOp14
 70
     1
102
RTVSPropertyOp15
 70
     1
102
RTVSPropertyOp16
 70
     1
102
RTVSPropertyOp17
 70
     1
102
RTVSPropertyOp18
 70
     1
102
RTVSPropertyOp19
 70
     1
102
RTVSPropertyOp20
 70
     1
102
RTVSPropertyOp21
 70
     1
102
RTVSPropertyOp22
 70
     1
102
RTVSPropertyOp23
 70
     1
102
RTVSPropertyOp24
 70
     1
102
RTVSPropertyOp25
 70
     1
102
RTVSPropertyOp26
 70
     1
102
RTVSPropertyOp27
 70
     1
102
RTVSPropertyOp28
 70
     1
102
RTVSPropertyOp29
 70
     1
102
RTVSPropertyOp30
 70
     1
102
RTVSPropertyOp31
 70
     1
102
RTVSPropertyOp32
 70
     1
102
RTVSPropertyOp33
 70
     1
102
RTVSPropertyOp34
 70
     1
102
RTVSPropertyOp35
 70
     1
102
RTVSPropertyOp36
 70
     1
102
RTVSPropertyOp37
 70
     1
102
RTVSPropertyOp38
 70
     1
102
RTVSPropertyOp39
 70
     1
102
RTVSPropertyOp40
 70
     1
102
RTVSPropertyOp41
 70
     1
102
RTVSPropertyOp42
 70
     1
102
RTVSPropertyOp43
 70
     1
102
RTVSPropertyOp44
 70
     1
102
RTVSPropertyOp45
 70
     1
102
RTVSPropertyOp46
 70
     1
102
RTVSPropertyOp47
 70
     1
102
RTVSPropertyOp48
 70
     1
102
RTVSPropertyOp49
 70
     1
102
RTVSPropertyOp50
 70
     1
102
RTVSPropertyOp51
 70
     0
102
RTVSPropertyOp52
 70
     0
102
RTVSPropertyOp53
 70
     1
102
RTVSPropertyOp54
 70
     1
102
RTVSPropertyOp55
 70
     1
102
RTVSPropertyOp56
 70
     1
102
RTVSPropertyOp57
 70
     1
102
RTVSPropertyOp58
 70
     1
102
RTVSPropertyOp59
 70
     1
102
RTVSPropertyOp60
 70
     1
102
RTVSPropertyOp61
 70
     1
102
RTVSPropertyOp62
 70
     1
  0
XRECORD
  5
1008C8
102
{ACAD_REACTORS
330
1008C7
102
}
330
1008C7
100
AcDbXrecord
280
     1
102
RTVSPost2010Prop28
280
     0
102
RTVSPost2010PropOp28
 70
     0
102
RTVSPost2010Prop29
280
     1
102
RTVSPost2010PropOp29
 70
     0
102
RTVSPost2010Prop30
280
     1
102
RTVSPost2010PropOp30
 70
     0
102
RTVSPost2010Prop31
280
     0
102
RTVSPost2010PropOp31
 70
     0
102
RTVSPost2010Prop32
280
     0
102
RTVSPost2010PropOp32
 70
     0
102
RTVSPost2010Prop33
280
     0
102
RTVSPost2010PropOp33
 70
     0
102
RTVSPost2010Prop34
280
     0
102
RTVSPost2010PropOp34
 70
     0
102
RTVSPost2010Prop35
280
     0
102
RTVSPost2010PropOp35
 70
     0
102
RTVSPost2010Prop36
280
     0
102
RTVSPost2010PropOp36
 70
     0
102
RTVSPost2010Prop37
 90
       50
102
RTVSPost2010PropOp37
 70
     0
102
RTVSPost2010Prop38
140
0.0
102
RTVSPost2010PropOp38
 70
     0
102
RTVSPost2010Prop39
140
1.0
102
RTVSPost2010PropOp39
 70
     0
102
RTVSPost2010Prop40
 90
        0
102
RTVSPost2010PropOp40
 70
     0
102
RTVSPost2010Prop41ColorIndex
 90
       18
102
RTVSPost2010Prop41ColorRGB
 90
        0
102
RTVSPost2010PropOp41
 70
     0
102
RTVSPost2010Prop42
 90
       50
102
RTVSPost2010PropOp42
 70
     0
102
RTVSPost2010Prop43
 90
        3
102
RTVSPost2010PropOp43
 70
     0
102
RTVSPost2010Prop44ColorIndex
 90
        5
102
RTVSPost2010Prop44ColorRGB
 90
      255
102
RTVSPost2010PropOp44
 70
     0
102
RTVSPost2010Prop45
280
     0
102
RTVSPost2010PropOp45
 70
     0
102
RTVSPost2010Prop46
 90
       50
102
RTVSPost2010PropOp46
 70
     0
102
RTVSPost2010Prop47
 90
       50
102
RTVSPost2010PropOp47
 70
     0
102
RTVSPost2010Prop48
 90
       50
102
RTVSPost2010PropOp48
 70
     0
102
RTVSPost2010Prop49
280
     0
102
RTVSPost2010PropOp49
 70
     0
102
RTVSPost2010Prop50
 90
       50
102
RTVSPost2010PropOp50
 70
     0
102
RTVSPost2010Prop51ColorIndex
 90
      256
102
RTVSPost2010Prop51ColorRGB
 90
-16777216
102
RTVSPost2010PropOp51
 70
     0
102
RTVSPost2010Prop52
140
1.0
102
RTVSPost2010PropOp52
 70
     0
102
RTVSPost2010Prop53
 90
        2
102
RTVSPost2010PropOp53
 70
     0
102
RTVSPost2010Prop54
  1
strokes_ogs.tif
102
RTVSPost2010PropOp54
 70
     0
102
RTVSPost2010Prop55
280
     0
102
RTVSPost2010PropOp55
 70
     0
102
RTVSPost2010Prop56
140
1.0
102
RTVSPost2010PropOp56
 70
     0
102
RTVSPost2010Prop57
140
1.0
102
RTVSPost2010PropOp57
 70
     0
102
RTVSPropertyOp0
 70
     0
102
RTVSPropertyOp1
 70
     0
102
RTVSPropertyOp2
 70
     0
102
RTVSPropertyOp3
 70
     0
102
RTVSPropertyOp4
 70
     0
102
RTVSPropertyOp5
 70
     0
102
RTVSPropertyOp6
 70
     0
102
RTVSPropertyOp7
 70
     0
102
RTVSPropertyOp8
 70
     0
102
RTVSPropertyOp9
 70
     0
102
RTVSPropertyOp10
 70
     0
102
RTVSPropertyOp11
 70
     0
102
RTVSPropertyOp12
 70
     0
102
RTVSPropertyOp13
 70
     0
102
RTVSPropertyOp14
 70
     2
102
RTVSPropertyOp15
 70
     0
102
RTVSPropertyOp16
 70
     0
102
RTVSPropertyOp17
 70
     0
102
RTVSPropertyOp18
 70
     0
102
RTVSPropertyOp19
 70
     0
102
RTVSPropertyOp20
 70
     0
102
RTVSPropertyOp21
 70
     0
102
RTVSPropertyOp22
 70
     0
102
RTVSPropertyOp23
 70
     0
102
RTVSPropertyOp24
 70
     0
102
RTVSPropertyOp25
 70
     0
102
RTVSPropertyOp26
 70
     0
102
RTVSPropertyOp27
 70
     0
102
RTVSPropertyOp28
 70
     0
102
RTVSPropertyOp29
 70
     0
102
RTVSPropertyOp30
 70
     0
102
RTVSPropertyOp31
 70
     0
102
RTVSPropertyOp32
 70
     0
102
RTVSPropertyOp33
 70
     0
102
RTVSPropertyOp34
 70
     0
102
RTVSPropertyOp35
 70
     0
102
RTVSPropertyOp36
 70
     0
102
RTVSPropertyOp37
 70
     0
102
RTVSPropertyOp38
 70
     0
102
RTVSPropertyOp39
 70
     0
102
RTVSPropertyOp40
 70
     0
102
RTVSPropertyOp41
 70
     0
102
RTVSPropertyOp42
 70
     0
102
RTVSPropertyOp43
 70
     0
102
RTVSPropertyOp44
 70
     0
102
RTVSPropertyOp45
 70
     0
102
RTVSPropertyOp46
 70
     0
102
RTVSPropertyOp47
 70
     0
102
RTVSPropertyOp48
 70
     0
102
RTVSPropertyOp49
 70
     0
102
RTVSPropertyOp50
 70
     0
102
RTVSPropertyOp51
 70
     0
102
RTVSPropertyOp52
 70
     0
102
RTVSPropertyOp53
 70
     0
102
RTVSPropertyOp54
 70
     0
102
RTVSPropertyOp55
 70
     0
102
RTVSPropertyOp56
 70
     0
102
RTVSPropertyOp57
 70
     0
102
RTVSPropertyOp58
 70
     0
102
RTVSPropertyOp59
 70
     0
102
RTVSPropertyOp60
 70
     0
102
RTVSPropertyOp61
 70
     0
102
RTVSPropertyOp62
 70
     0
  0
XRECORD
  5
1008AE
102
{ACAD_REACTORS
330
1008AD
102
}
330
1008AD
100
AcDbXrecord
280
     1
102
RTVSPost2010Prop28
280
     0
102
RTVSPost2010PropOp28
 70
     1
102
RTVSPost2010Prop29
280
     1
102
RTVSPost2010PropOp29
 70
     1
102
RTVSPost2010Prop30
280
     1
102
RTVSPost2010PropOp30
 70
     1
102
RTVSPost2010Prop31
280
     0
102
RTVSPost2010PropOp31
 70
     1
102
RTVSPost2010Prop32
280
     0
102
RTVSPost2010PropOp32
 70
     1
102
RTVSPost2010Prop33
280
     0
102
RTVSPost2010PropOp33
 70
     1
102
RTVSPost2010Prop34
280
     0
102
RTVSPost2010PropOp34
 70
     1
102
RTVSPost2010Prop35
280
     0
102
RTVSPost2010PropOp35
 70
     1
102
RTVSPost2010Prop36
280
     0
102
RTVSPost2010PropOp36
 70
     1
102
RTVSPost2010Prop37
 90
       50
102
RTVSPost2010PropOp37
 70
     1
102
RTVSPost2010Prop38
140
0.0
102
RTVSPost2010PropOp38
 70
     1
102
RTVSPost2010Prop39
140
1.0
102
RTVSPost2010PropOp39
 70
     1
102
RTVSPost2010Prop40
 90
        0
102
RTVSPost2010PropOp40
 70
     1
102
RTVSPost2010Prop41ColorIndex
 90
       18
102
RTVSPost2010Prop41ColorRGB
 90
        0
102
RTVSPost2010PropOp41
 70
     1
102
RTVSPost2010Prop42
 90
       50
102
RTVSPost2010PropOp42
 70
     1
102
RTVSPost2010Prop43
 90
        3
102
RTVSPost2010PropOp43
 70
     1
102
RTVSPost2010Prop44ColorIndex
 90
        5
102
RTVSPost2010Prop44ColorRGB
 90
      255
102
RTVSPost2010PropOp44
 70
     1
102
RTVSPost2010Prop45
280
     0
102
RTVSPost2010PropOp45
 70
     1
102
RTVSPost2010Prop46
 90
       50
102
RTVSPost2010PropOp46
 70
     1
102
RTVSPost2010Prop47
 90
       50
102
RTVSPost2010PropOp47
 70
     1
102
RTVSPost2010Prop48
 90
       50
102
RTVSPost2010PropOp48
 70
     1
102
RTVSPost2010Prop49
280
     0
102
RTVSPost2010PropOp49
 70
     1
102
RTVSPost2010Prop50
 90
       50
102
RTVSPost2010PropOp50
 70
     1
102
RTVSPost2010Prop51ColorIndex
 90
      256
102
RTVSPost2010Prop51ColorRGB
 90
-16777216
102
RTVSPost2010PropOp51
 70
     0
102
RTVSPost2010Prop52
140
1.0
102
RTVSPost2010PropOp52
 70
     0
102
RTVSPost2010Prop53
 90
        2
102
RTVSPost2010PropOp53
 70
     1
102
RTVSPost2010Prop54
  1
strokes_ogs.tif
102
RTVSPost2010PropOp54
 70
     1
102
RTVSPost2010Prop55
280
     0
102
RTVSPost2010PropOp55
 70
     1
102
RTVSPost2010Prop56
140
1.0
102
RTVSPost2010PropOp56
 70
     1
102
RTVSPost2010Prop57
140
1.0
102
RTVSPost2010PropOp57
 70
     1
102
RTVSPropertyOp0
 70
     1
102
RTVSPropertyOp1
 70
     1
102
RTVSPropertyOp2
 70
     1
102
RTVSPropertyOp3
 70
     1
102
RTVSPropertyOp4
 70
     1
102
RTVSPropertyOp5
 70
     1
102
RTVSPropertyOp6
 70
     1
102
RTVSPropertyOp7
 70
     1
102
RTVSPropertyOp8
 70
     1
102
RTVSPropertyOp9
 70
     1
102
RTVSPropertyOp10
 70
     1
102
RTVSPropertyOp11
 70
     1
102
RTVSPropertyOp12
 70
     1
102
RTVSPropertyOp13
 70
     1
102
RTVSPropertyOp14
 70
     1
102
RTVSPropertyOp15
 70
     1
102
RTVSPropertyOp16
 70
     1
102
RTVSPropertyOp17
 70
     1
102
RTVSPropertyOp18
 70
     1
102
RTVSPropertyOp19
 70
     1
102
RTVSPropertyOp20
 70
     1
102
RTVSPropertyOp21
 70
     1
102
RTVSPropertyOp22
 70
     1
102
RTVSPropertyOp23
 70
     1
102
RTVSPropertyOp24
 70
     1
102
RTVSPropertyOp25
 70
     1
102
RTVSPropertyOp26
 70
     1
102
RTVSPropertyOp27
 70
     1
102
RTVSPropertyOp28
 70
     1
102
RTVSPropertyOp29
 70
     1
102
RTVSPropertyOp30
 70
     1
102
RTVSPropertyOp31
 70
     1
102
RTVSPropertyOp32
 70
     1
102
RTVSPropertyOp33
 70
     1
102
RTVSPropertyOp34
 70
     1
102
RTVSPropertyOp35
 70
     1
102
RTVSPropertyOp36
 70
     1
102
RTVSPropertyOp37
 70
     1
102
RTVSPropertyOp38
 70
     1
102
RTVSPropertyOp39
 70
     1
102
RTVSPropertyOp40
 70
     1
102
RTVSPropertyOp41
 70
     1
102
RTVSPropertyOp42
 70
     1
102
RTVSPropertyOp43
 70
     1
102
RTVSPropertyOp44
 70
     1
102
RTVSPropertyOp45
 70
     1
102
RTVSPropertyOp46
 70
     1
102
RTVSPropertyOp47
 70
     1
102
RTVSPropertyOp48
 70
     1
102
RTVSPropertyOp49
 70
     1
102
RTVSPropertyOp50
 70
     1
102
RTVSPropertyOp51
 70
     0
102
RTVSPropertyOp52
 70
     0
102
RTVSPropertyOp53
 70
     1
102
RTVSPropertyOp54
 70
     1
102
RTVSPropertyOp55
 70
     1
102
RTVSPropertyOp56
 70
     1
102
RTVSPropertyOp57
 70
     1
102
RTVSPropertyOp58
 70
     1
102
RTVSPropertyOp59
 70
     1
102
RTVSPropertyOp60
 70
     1
102
RTVSPropertyOp61
 70
     1
102
RTVSPropertyOp62
 70
     1
  0
XRECORD
  5
1008C4
102
{ACAD_REACTORS
330
1008C3
102
}
330
1008C3
100
AcDbXrecord
280
     1
102
RTVSPost2010Prop28
280
     0
102
RTVSPost2010PropOp28
 70
     1
102
RTVSPost2010Prop29
280
     1
102
RTVSPost2010PropOp29
 70
     1
102
RTVSPost2010Prop30
280
     1
102
RTVSPost2010PropOp30
 70
     1
102
RTVSPost2010Prop31
280
     0
102
RTVSPost2010PropOp31
 70
     1
102
RTVSPost2010Prop32
280
     0
102
RTVSPost2010PropOp32
 70
     1
102
RTVSPost2010Prop33
280
     0
102
RTVSPost2010PropOp33
 70
     1
102
RTVSPost2010Prop34
280
     0
102
RTVSPost2010PropOp34
 70
     1
102
RTVSPost2010Prop35
280
     0
102
RTVSPost2010PropOp35
 70
     1
102
RTVSPost2010Prop36
280
     0
102
RTVSPost2010PropOp36
 70
     1
102
RTVSPost2010Prop37
 90
       50
102
RTVSPost2010PropOp37
 70
     1
102
RTVSPost2010Prop38
140
0.0
102
RTVSPost2010PropOp38
 70
     1
102
RTVSPost2010Prop39
140
1.0
102
RTVSPost2010PropOp39
 70
     1
102
RTVSPost2010Prop40
 90
        0
102
RTVSPost2010PropOp40
 70
     1
102
RTVSPost2010Prop41ColorIndex
 90
       18
102
RTVSPost2010Prop41ColorRGB
 90
        0
102
RTVSPost2010PropOp41
 70
     1
102
RTVSPost2010Prop42
 90
       50
102
RTVSPost2010PropOp42
 70
     1
102
RTVSPost2010Prop43
 90
        3
102
RTVSPost2010PropOp43
 70
     1
102
RTVSPost2010Prop44ColorIndex
 90
        5
102
RTVSPost2010Prop44ColorRGB
 90
      255
102
RTVSPost2010PropOp44
 70
     1
102
RTVSPost2010Prop45
280
     0
102
RTVSPost2010PropOp45
 70
     1
102
RTVSPost2010Prop46
 90
       50
102
RTVSPost2010PropOp46
 70
     1
102
RTVSPost2010Prop47
 90
       50
102
RTVSPost2010PropOp47
 70
     1
102
RTVSPost2010Prop48
 90
       50
102
RTVSPost2010PropOp48
 70
     1
102
RTVSPost2010Prop49
280
     0
102
RTVSPost2010PropOp49
 70
     1
102
RTVSPost2010Prop50
 90
       50
102
RTVSPost2010PropOp50
 70
     1
102
RTVSPost2010Prop51ColorIndex
 90
      256
102
RTVSPost2010Prop51ColorRGB
 90
-16777216
102
RTVSPost2010PropOp51
 70
     0
102
RTVSPost2010Prop52
140
1.0
102
RTVSPost2010PropOp52
 70
     0
102
RTVSPost2010Prop53
 90
        2
102
RTVSPost2010PropOp53
 70
     1
102
RTVSPost2010Prop54
  1
strokes_ogs.tif
102
RTVSPost2010PropOp54
 70
     1
102
RTVSPost2010Prop55
280
     0
102
RTVSPost2010PropOp55
 70
     1
102
RTVSPost2010Prop56
140
1.0
102
RTVSPost2010PropOp56
 70
     1
102
RTVSPost2010Prop57
140
1.0
102
RTVSPost2010PropOp57
 70
     1
102
RTVSPropertyOp0
 70
     1
102
RTVSPropertyOp1
 70
     1
102
RTVSPropertyOp2
 70
     1
102
RTVSPropertyOp3
 70
     1
102
RTVSPropertyOp4
 70
     1
102
RTVSPropertyOp5
 70
     1
102
RTVSPropertyOp6
 70
     1
102
RTVSPropertyOp7
 70
     1
102
RTVSPropertyOp8
 70
     1
102
RTVSPropertyOp9
 70
     1
102
RTVSPropertyOp10
 70
     1
102
RTVSPropertyOp11
 70
     1
102
RTVSPropertyOp12
 70
     1
102
RTVSPropertyOp13
 70
     1
102
RTVSPropertyOp14
 70
     1
102
RTVSPropertyOp15
 70
     1
102
RTVSPropertyOp16
 70
     1
102
RTVSPropertyOp17
 70
     1
102
RTVSPropertyOp18
 70
     1
102
RTVSPropertyOp19
 70
     1
102
RTVSPropertyOp20
 70
     1
102
RTVSPropertyOp21
 70
     1
102
RTVSPropertyOp22
 70
     1
102
RTVSPropertyOp23
 70
     1
102
RTVSPropertyOp24
 70
     1
102
RTVSPropertyOp25
 70
     1
102
RTVSPropertyOp26
 70
     1
102
RTVSPropertyOp27
 70
     1
102
RTVSPropertyOp28
 70
     1
102
RTVSPropertyOp29
 70
     1
102
RTVSPropertyOp30
 70
     1
102
RTVSPropertyOp31
 70
     1
102
RTVSPropertyOp32
 70
     1
102
RTVSPropertyOp33
 70
     1
102
RTVSPropertyOp34
 70
     1
102
RTVSPropertyOp35
 70
     1
102
RTVSPropertyOp36
 70
     1
102
RTVSPropertyOp37
 70
     1
102
RTVSPropertyOp38
 70
     1
102
RTVSPropertyOp39
 70
     1
102
RTVSPropertyOp40
 70
     1
102
RTVSPropertyOp41
 70
     1
102
RTVSPropertyOp42
 70
     1
102
RTVSPropertyOp43
 70
     1
102
RTVSPropertyOp44
 70
     1
102
RTVSPropertyOp45
 70
     1
102
RTVSPropertyOp46
 70
     1
102
RTVSPropertyOp47
 70
     1
102
RTVSPropertyOp48
 70
     1
102
RTVSPropertyOp49
 70
     1
102
RTVSPropertyOp50
 70
     1
102
RTVSPropertyOp51
 70
     0
102
RTVSPropertyOp52
 70
     0
102
RTVSPropertyOp53
 70
     1
102
RTVSPropertyOp54
 70
     1
102
RTVSPropertyOp55
 70
     1
102
RTVSPropertyOp56
 70
     1
102
RTVSPropertyOp57
 70
     1
102
RTVSPropertyOp58
 70
     1
102
RTVSPropertyOp59
 70
     1
102
RTVSPropertyOp60
 70
     1
102
RTVSPropertyOp61
 70
     1
102
RTVSPropertyOp62
 70
     1
  0
XRECORD
  5
1008C2
102
{ACAD_REACTORS
330
1008C1
102
}
330
1008C1
100
AcDbXrecord
280
     1
102
RTVSPost2010Prop28
280
     0
102
RTVSPost2010PropOp28
 70
     1
102
RTVSPost2010Prop29
280
     1
102
RTVSPost2010PropOp29
 70
     1
102
RTVSPost2010Prop30
280
     1
102
RTVSPost2010PropOp30
 70
     1
102
RTVSPost2010Prop31
280
     0
102
RTVSPost2010PropOp31
 70
     1
102
RTVSPost2010Prop32
280
     0
102
RTVSPost2010PropOp32
 70
     1
102
RTVSPost2010Prop33
280
     0
102
RTVSPost2010PropOp33
 70
     1
102
RTVSPost2010Prop34
280
     0
102
RTVSPost2010PropOp34
 70
     1
102
RTVSPost2010Prop35
280
     0
102
RTVSPost2010PropOp35
 70
     1
102
RTVSPost2010Prop36
280
     0
102
RTVSPost2010PropOp36
 70
     1
102
RTVSPost2010Prop37
 90
       50
102
RTVSPost2010PropOp37
 70
     1
102
RTVSPost2010Prop38
140
0.0
102
RTVSPost2010PropOp38
 70
     1
102
RTVSPost2010Prop39
140
1.0
102
RTVSPost2010PropOp39
 70
     1
102
RTVSPost2010Prop40
 90
        0
102
RTVSPost2010PropOp40
 70
     1
102
RTVSPost2010Prop41ColorIndex
 90
       18
102
RTVSPost2010Prop41ColorRGB
 90
        0
102
RTVSPost2010PropOp41
 70
     1
102
RTVSPost2010Prop42
 90
       50
102
RTVSPost2010PropOp42
 70
     1
102
RTVSPost2010Prop43
 90
        3
102
RTVSPost2010PropOp43
 70
     1
102
RTVSPost2010Prop44ColorIndex
 90
        5
102
RTVSPost2010Prop44ColorRGB
 90
      255
102
RTVSPost2010PropOp44
 70
     1
102
RTVSPost2010Prop45
280
     0
102
RTVSPost2010PropOp45
 70
     1
102
RTVSPost2010Prop46
 90
       50
102
RTVSPost2010PropOp46
 70
     1
102
RTVSPost2010Prop47
 90
       50
102
RTVSPost2010PropOp47
 70
     1
102
RTVSPost2010Prop48
 90
       50
102
RTVSPost2010PropOp48
 70
     1
102
RTVSPost2010Prop49
280
     0
102
RTVSPost2010PropOp49
 70
     1
102
RTVSPost2010Prop50
 90
       50
102
RTVSPost2010PropOp50
 70
     1
102
RTVSPost2010Prop51ColorIndex
 90
      256
102
RTVSPost2010Prop51ColorRGB
 90
-16777216
102
RTVSPost2010PropOp51
 70
     0
102
RTVSPost2010Prop52
140
1.0
102
RTVSPost2010PropOp52
 70
     0
102
RTVSPost2010Prop53
 90
        2
102
RTVSPost2010PropOp53
 70
     1
102
RTVSPost2010Prop54
  1
strokes_ogs.tif
102
RTVSPost2010PropOp54
 70
     1
102
RTVSPost2010Prop55
280
     0
102
RTVSPost2010PropOp55
 70
     1
102
RTVSPost2010Prop56
140
1.0
102
RTVSPost2010PropOp56
 70
     1
102
RTVSPost2010Prop57
140
1.0
102
RTVSPost2010PropOp57
 70
     1
102
RTVSPropertyOp0
 70
     1
102
RTVSPropertyOp1
 70
     1
102
RTVSPropertyOp2
 70
     1
102
RTVSPropertyOp3
 70
     1
102
RTVSPropertyOp4
 70
     1
102
RTVSPropertyOp5
 70
     1
102
RTVSPropertyOp6
 70
     1
102
RTVSPropertyOp7
 70
     1
102
RTVSPropertyOp8
 70
     1
102
RTVSPropertyOp9
 70
     1
102
RTVSPropertyOp10
 70
     1
102
RTVSPropertyOp11
 70
     1
102
RTVSPropertyOp12
 70
     1
102
RTVSPropertyOp13
 70
     1
102
RTVSPropertyOp14
 70
     1
102
RTVSPropertyOp15
 70
     1
102
RTVSPropertyOp16
 70
     1
102
RTVSPropertyOp17
 70
     1
102
RTVSPropertyOp18
 70
     1
102
RTVSPropertyOp19
 70
     1
102
RTVSPropertyOp20
 70
     1
102
RTVSPropertyOp21
 70
     1
102
RTVSPropertyOp22
 70
     1
102
RTVSPropertyOp23
 70
     1
102
RTVSPropertyOp24
 70
     1
102
RTVSPropertyOp25
 70
     1
102
RTVSPropertyOp26
 70
     1
102
RTVSPropertyOp27
 70
     1
102
RTVSPropertyOp28
 70
     1
102
RTVSPropertyOp29
 70
     1
102
RTVSPropertyOp30
 70
     1
102
RTVSPropertyOp31
 70
     1
102
RTVSPropertyOp32
 70
     1
102
RTVSPropertyOp33
 70
     1
102
RTVSPropertyOp34
 70
     1
102
RTVSPropertyOp35
 70
     1
102
RTVSPropertyOp36
 70
     1
102
RTVSPropertyOp37
 70
     1
102
RTVSPropertyOp38
 70
     1
102
RTVSPropertyOp39
 70
     1
102
RTVSPropertyOp40
 70
     1
102
RTVSPropertyOp41
 70
     1
102
RTVSPropertyOp42
 70
     1
102
RTVSPropertyOp43
 70
     1
102
RTVSPropertyOp44
 70
     1
102
RTVSPropertyOp45
 70
     1
102
RTVSPropertyOp46
 70
     1
102
RTVSPropertyOp47
 70
     1
102
RTVSPropertyOp48
 70
     1
102
RTVSPropertyOp49
 70
     1
102
RTVSPropertyOp50
 70
     1
102
RTVSPropertyOp51
 70
     0
102
RTVSPropertyOp52
 70
     0
102
RTVSPropertyOp53
 70
     1
102
RTVSPropertyOp54
 70
     1
102
RTVSPropertyOp55
 70
     1
102
RTVSPropertyOp56
 70
     1
102
RTVSPropertyOp57
 70
     1
102
RTVSPropertyOp58
 70
     1
102
RTVSPropertyOp59
 70
     1
102
RTVSPropertyOp60
 70
     1
102
RTVSPropertyOp61
 70
     1
102
RTVSPropertyOp62
 70
     1
  0
XRECORD
  5
1008BC
102
{ACAD_REACTORS
330
1008BB
102
}
330
1008BB
100
AcDbXrecord
280
     1
102
RTVSPost2010Prop28
280
     0
102
RTVSPost2010PropOp28
 70
     1
102
RTVSPost2010Prop29
280
     1
102
RTVSPost2010PropOp29
 70
     1
102
RTVSPost2010Prop30
280
     1
102
RTVSPost2010PropOp30
 70
     1
102
RTVSPost2010Prop31
280
     0
102
RTVSPost2010PropOp31
 70
     1
102
RTVSPost2010Prop32
280
     0
102
RTVSPost2010PropOp32
 70
     1
102
RTVSPost2010Prop33
280
     0
102
RTVSPost2010PropOp33
 70
     1
102
RTVSPost2010Prop34
280
     0
102
RTVSPost2010PropOp34
 70
     1
102
RTVSPost2010Prop35
280
     0
102
RTVSPost2010PropOp35
 70
     1
102
RTVSPost2010Prop36
280
     0
102
RTVSPost2010PropOp36
 70
     1
102
RTVSPost2010Prop37
 90
       50
102
RTVSPost2010PropOp37
 70
     1
102
RTVSPost2010Prop38
140
0.0
102
RTVSPost2010PropOp38
 70
     1
102
RTVSPost2010Prop39
140
1.0
102
RTVSPost2010PropOp39
 70
     1
102
RTVSPost2010Prop40
 90
        0
102
RTVSPost2010PropOp40
 70
     1
102
RTVSPost2010Prop41ColorIndex
 90
       18
102
RTVSPost2010Prop41ColorRGB
 90
        0
102
RTVSPost2010PropOp41
 70
     1
102
RTVSPost2010Prop42
 90
       50
102
RTVSPost2010PropOp42
 70
     1
102
RTVSPost2010Prop43
 90
        3
102
RTVSPost2010PropOp43
 70
     1
102
RTVSPost2010Prop44ColorIndex
 90
        5
102
RTVSPost2010Prop44ColorRGB
 90
      255
102
RTVSPost2010PropOp44
 70
     1
102
RTVSPost2010Prop45
280
     0
102
RTVSPost2010PropOp45
 70
     1
102
RTVSPost2010Prop46
 90
       50
102
RTVSPost2010PropOp46
 70
     1
102
RTVSPost2010Prop47
 90
       50
102
RTVSPost2010PropOp47
 70
     1
102
RTVSPost2010Prop48
 90
       50
102
RTVSPost2010PropOp48
 70
     1
102
RTVSPost2010Prop49
280
     0
102
RTVSPost2010PropOp49
 70
     1
102
RTVSPost2010Prop50
 90
       50
102
RTVSPost2010PropOp50
 70
     1
102
RTVSPost2010Prop51ColorIndex
 90
      256
102
RTVSPost2010Prop51ColorRGB
 90
-16777216
102
RTVSPost2010PropOp51
 70
     0
102
RTVSPost2010Prop52
140
1.0
102
RTVSPost2010PropOp52
 70
     0
102
RTVSPost2010Prop53
 90
        2
102
RTVSPost2010PropOp53
 70
     1
102
RTVSPost2010Prop54
  1
strokes_ogs.tif
102
RTVSPost2010PropOp54
 70
     1
102
RTVSPost2010Prop55
280
     0
102
RTVSPost2010PropOp55
 70
     1
102
RTVSPost2010Prop56
140
1.0
102
RTVSPost2010PropOp56
 70
     1
102
RTVSPost2010Prop57
140
1.0
102
RTVSPost2010PropOp57
 70
     1
102
RTVSPropertyOp0
 70
     1
102
RTVSPropertyOp1
 70
     1
102
RTVSPropertyOp2
 70
     1
102
RTVSPropertyOp3
 70
     1
102
RTVSPropertyOp4
 70
     1
102
RTVSPropertyOp5
 70
     1
102
RTVSPropertyOp6
 70
     1
102
RTVSPropertyOp7
 70
     1
102
RTVSPropertyOp8
 70
     1
102
RTVSPropertyOp9
 70
     1
102
RTVSPropertyOp10
 70
     1
102
RTVSPropertyOp11
 70
     1
102
RTVSPropertyOp12
 70
     1
102
RTVSPropertyOp13
 70
     1
102
RTVSPropertyOp14
 70
     1
102
RTVSPropertyOp15
 70
     1
102
RTVSPropertyOp16
 70
     1
102
RTVSPropertyOp17
 70
     1
102
RTVSPropertyOp18
 70
     1
102
RTVSPropertyOp19
 70
     1
102
RTVSPropertyOp20
 70
     1
102
RTVSPropertyOp21
 70
     1
102
RTVSPropertyOp22
 70
     1
102
RTVSPropertyOp23
 70
     1
102
RTVSPropertyOp24
 70
     1
102
RTVSPropertyOp25
 70
     1
102
RTVSPropertyOp26
 70
     1
102
RTVSPropertyOp27
 70
     1
102
RTVSPropertyOp28
 70
     1
102
RTVSPropertyOp29
 70
     1
102
RTVSPropertyOp30
 70
     1
102
RTVSPropertyOp31
 70
     1
102
RTVSPropertyOp32
 70
     1
102
RTVSPropertyOp33
 70
     1
102
RTVSPropertyOp34
 70
     1
102
RTVSPropertyOp35
 70
     1
102
RTVSPropertyOp36
 70
     1
102
RTVSPropertyOp37
 70
     1
102
RTVSPropertyOp38
 70
     1
102
RTVSPropertyOp39
 70
     1
102
RTVSPropertyOp40
 70
     1
102
RTVSPropertyOp41
 70
     1
102
RTVSPropertyOp42
 70
     1
102
RTVSPropertyOp43
 70
     1
102
RTVSPropertyOp44
 70
     1
102
RTVSPropertyOp45
 70
     1
102
RTVSPropertyOp46
 70
     1
102
RTVSPropertyOp47
 70
     1
102
RTVSPropertyOp48
 70
     1
102
RTVSPropertyOp49
 70
     1
102
RTVSPropertyOp50
 70
     1
102
RTVSPropertyOp51
 70
     0
102
RTVSPropertyOp52
 70
     0
102
RTVSPropertyOp53
 70
     1
102
RTVSPropertyOp54
 70
     1
102
RTVSPropertyOp55
 70
     1
102
RTVSPropertyOp56
 70
     1
102
RTVSPropertyOp57
 70
     1
102
RTVSPropertyOp58
 70
     1
102
RTVSPropertyOp59
 70
     1
102
RTVSPropertyOp60
 70
     1
102
RTVSPropertyOp61
 70
     1
102
RTVSPropertyOp62
 70
     1
  0
XRECORD
  5
1008BE
102
{ACAD_REACTORS
330
1008BD
102
}
330
1008BD
100
AcDbXrecord
280
     1
102
RTVSPost2010Prop28
280
     0
102
RTVSPost2010PropOp28
 70
     1
102
RTVSPost2010Prop29
280
     1
102
RTVSPost2010PropOp29
 70
     1
102
RTVSPost2010Prop30
280
     1
102
RTVSPost2010PropOp30
 70
     1
102
RTVSPost2010Prop31
280
     0
102
RTVSPost2010PropOp31
 70
     1
102
RTVSPost2010Prop32
280
     0
102
RTVSPost2010PropOp32
 70
     1
102
RTVSPost2010Prop33
280
     0
102
RTVSPost2010PropOp33
 70
     1
102
RTVSPost2010Prop34
280
     0
102
RTVSPost2010PropOp34
 70
     1
102
RTVSPost2010Prop35
280
     0
102
RTVSPost2010PropOp35
 70
     1
102
RTVSPost2010Prop36
280
     0
102
RTVSPost2010PropOp36
 70
     1
102
RTVSPost2010Prop37
 90
       50
102
RTVSPost2010PropOp37
 70
     1
102
RTVSPost2010Prop38
140
0.0
102
RTVSPost2010PropOp38
 70
     1
102
RTVSPost2010Prop39
140
1.0
102
RTVSPost2010PropOp39
 70
     1
102
RTVSPost2010Prop40
 90
        0
102
RTVSPost2010PropOp40
 70
     1
102
RTVSPost2010Prop41ColorIndex
 90
       18
102
RTVSPost2010Prop41ColorRGB
 90
        0
102
RTVSPost2010PropOp41
 70
     1
102
RTVSPost2010Prop42
 90
       50
102
RTVSPost2010PropOp42
 70
     1
102
RTVSPost2010Prop43
 90
        3
102
RTVSPost2010PropOp43
 70
     1
102
RTVSPost2010Prop44ColorIndex
 90
        5
102
RTVSPost2010Prop44ColorRGB
 90
      255
102
RTVSPost2010PropOp44
 70
     1
102
RTVSPost2010Prop45
280
     0
102
RTVSPost2010PropOp45
 70
     1
102
RTVSPost2010Prop46
 90
       50
102
RTVSPost2010PropOp46
 70
     1
102
RTVSPost2010Prop47
 90
       50
102
RTVSPost2010PropOp47
 70
     1
102
RTVSPost2010Prop48
 90
       50
102
RTVSPost2010PropOp48
 70
     1
102
RTVSPost2010Prop49
280
     0
102
RTVSPost2010PropOp49
 70
     1
102
RTVSPost2010Prop50
 90
       50
102
RTVSPost2010PropOp50
 70
     1
102
RTVSPost2010Prop51ColorIndex
 90
      256
102
RTVSPost2010Prop51ColorRGB
 90
-16777216
102
RTVSPost2010PropOp51
 70
     0
102
RTVSPost2010Prop52
140
1.0
102
RTVSPost2010PropOp52
 70
     0
102
RTVSPost2010Prop53
 90
        2
102
RTVSPost2010PropOp53
 70
     1
102
RTVSPost2010Prop54
  1
strokes_ogs.tif
102
RTVSPost2010PropOp54
 70
     1
102
RTVSPost2010Prop55
280
     0
102
RTVSPost2010PropOp55
 70
     1
102
RTVSPost2010Prop56
140
1.0
102
RTVSPost2010PropOp56
 70
     1
102
RTVSPost2010Prop57
140
1.0
102
RTVSPost2010PropOp57
 70
     1
102
RTVSPropertyOp0
 70
     1
102
RTVSPropertyOp1
 70
     1
102
RTVSPropertyOp2
 70
     1
102
RTVSPropertyOp3
 70
     1
102
RTVSPropertyOp4
 70
     1
102
RTVSPropertyOp5
 70
     1
102
RTVSPropertyOp6
 70
     1
102
RTVSPropertyOp7
 70
     1
102
RTVSPropertyOp8
 70
     1
102
RTVSPropertyOp9
 70
     1
102
RTVSPropertyOp10
 70
     1
102
RTVSPropertyOp11
 70
     1
102
RTVSPropertyOp12
 70
     1
102
RTVSPropertyOp13
 70
     1
102
RTVSPropertyOp14
 70
     1
102
RTVSPropertyOp15
 70
     1
102
RTVSPropertyOp16
 70
     1
102
RTVSPropertyOp17
 70
     1
102
RTVSPropertyOp18
 70
     1
102
RTVSPropertyOp19
 70
     1
102
RTVSPropertyOp20
 70
     1
102
RTVSPropertyOp21
 70
     1
102
RTVSPropertyOp22
 70
     1
102
RTVSPropertyOp23
 70
     1
102
RTVSPropertyOp24
 70
     1
102
RTVSPropertyOp25
 70
     1
102
RTVSPropertyOp26
 70
     1
102
RTVSPropertyOp27
 70
     1
102
RTVSPropertyOp28
 70
     1
102
RTVSPropertyOp29
 70
     1
102
RTVSPropertyOp30
 70
     1
102
RTVSPropertyOp31
 70
     1
102
RTVSPropertyOp32
 70
     1
102
RTVSPropertyOp33
 70
     1
102
RTVSPropertyOp34
 70
     1
102
RTVSPropertyOp35
 70
     1
102
RTVSPropertyOp36
 70
     1
102
RTVSPropertyOp37
 70
     1
102
RTVSPropertyOp38
 70
     1
102
RTVSPropertyOp39
 70
     1
102
RTVSPropertyOp40
 70
     1
102
RTVSPropertyOp41
 70
     1
102
RTVSPropertyOp42
 70
     1
102
RTVSPropertyOp43
 70
     1
102
RTVSPropertyOp44
 70
     1
102
RTVSPropertyOp45
 70
     1
102
RTVSPropertyOp46
 70
     1
102
RTVSPropertyOp47
 70
     1
102
RTVSPropertyOp48
 70
     1
102
RTVSPropertyOp49
 70
     1
102
RTVSPropertyOp50
 70
     1
102
RTVSPropertyOp51
 70
     0
102
RTVSPropertyOp52
 70
     0
102
RTVSPropertyOp53
 70
     1
102
RTVSPropertyOp54
 70
     1
102
RTVSPropertyOp55
 70
     1
102
RTVSPropertyOp56
 70
     1
102
RTVSPropertyOp57
 70
     1
102
RTVSPropertyOp58
 70
     1
102
RTVSPropertyOp59
 70
     1
102
RTVSPropertyOp60
 70
     1
102
RTVSPropertyOp61
 70
     1
102
RTVSPropertyOp62
 70
     1
  0
XRECORD
  5
1008B4
102
{ACAD_REACTORS
330
1008B3
102
}
330
1008B3
100
AcDbXrecord
280
     1
102
RTVSPost2010Prop28
280
     0
102
RTVSPost2010PropOp28
 70
     1
102
RTVSPost2010Prop29
280
     1
102
RTVSPost2010PropOp29
 70
     1
102
RTVSPost2010Prop30
280
     1
102
RTVSPost2010PropOp30
 70
     1
102
RTVSPost2010Prop31
280
     0
102
RTVSPost2010PropOp31
 70
     1
102
RTVSPost2010Prop32
280
     0
102
RTVSPost2010PropOp32
 70
     1
102
RTVSPost2010Prop33
280
     0
102
RTVSPost2010PropOp33
 70
     1
102
RTVSPost2010Prop34
280
     0
102
RTVSPost2010PropOp34
 70
     1
102
RTVSPost2010Prop35
280
     0
102
RTVSPost2010PropOp35
 70
     1
102
RTVSPost2010Prop36
280
     0
102
RTVSPost2010PropOp36
 70
     1
102
RTVSPost2010Prop37
 90
       50
102
RTVSPost2010PropOp37
 70
     1
102
RTVSPost2010Prop38
140
0.0
102
RTVSPost2010PropOp38
 70
     1
102
RTVSPost2010Prop39
140
1.0
102
RTVSPost2010PropOp39
 70
     1
102
RTVSPost2010Prop40
 90
        0
102
RTVSPost2010PropOp40
 70
     1
102
RTVSPost2010Prop41ColorIndex
 90
       18
102
RTVSPost2010Prop41ColorRGB
 90
        0
102
RTVSPost2010PropOp41
 70
     1
102
RTVSPost2010Prop42
 90
       50
102
RTVSPost2010PropOp42
 70
     1
102
RTVSPost2010Prop43
 90
        3
102
RTVSPost2010PropOp43
 70
     1
102
RTVSPost2010Prop44ColorIndex
 90
        5
102
RTVSPost2010Prop44ColorRGB
 90
      255
102
RTVSPost2010PropOp44
 70
     1
102
RTVSPost2010Prop45
280
     0
102
RTVSPost2010PropOp45
 70
     1
102
RTVSPost2010Prop46
 90
       50
102
RTVSPost2010PropOp46
 70
     1
102
RTVSPost2010Prop47
 90
       50
102
RTVSPost2010PropOp47
 70
     1
102
RTVSPost2010Prop48
 90
       50
102
RTVSPost2010PropOp48
 70
     1
102
RTVSPost2010Prop49
280
     0
102
RTVSPost2010PropOp49
 70
     1
102
RTVSPost2010Prop50
 90
       50
102
RTVSPost2010PropOp50
 70
     1
102
RTVSPost2010Prop51ColorIndex
 90
      256
102
RTVSPost2010Prop51ColorRGB
 90
-16777216
102
RTVSPost2010PropOp51
 70
     0
102
RTVSPost2010Prop52
140
1.0
102
RTVSPost2010PropOp52
 70
     0
102
RTVSPost2010Prop53
 90
        2
102
RTVSPost2010PropOp53
 70
     1
102
RTVSPost2010Prop54
  1
strokes_ogs.tif
102
RTVSPost2010PropOp54
 70
     1
102
RTVSPost2010Prop55
280
     0
102
RTVSPost2010PropOp55
 70
     1
102
RTVSPost2010Prop56
140
1.0
102
RTVSPost2010PropOp56
 70
     1
102
RTVSPost2010Prop57
140
1.0
102
RTVSPost2010PropOp57
 70
     1
102
RTVSPropertyOp0
 70
     1
102
RTVSPropertyOp1
 70
     1
102
RTVSPropertyOp2
 70
     1
102
RTVSPropertyOp3
 70
     1
102
RTVSPropertyOp4
 70
     1
102
RTVSPropertyOp5
 70
     1
102
RTVSPropertyOp6
 70
     1
102
RTVSPropertyOp7
 70
     1
102
RTVSPropertyOp8
 70
     1
102
RTVSPropertyOp9
 70
     1
102
RTVSPropertyOp10
 70
     1
102
RTVSPropertyOp11
 70
     1
102
RTVSPropertyOp12
 70
     1
102
RTVSPropertyOp13
 70
     1
102
RTVSPropertyOp14
 70
     1
102
RTVSPropertyOp15
 70
     1
102
RTVSPropertyOp16
 70
     1
102
RTVSPropertyOp17
 70
     1
102
RTVSPropertyOp18
 70
     1
102
RTVSPropertyOp19
 70
     1
102
RTVSPropertyOp20
 70
     1
102
RTVSPropertyOp21
 70
     1
102
RTVSPropertyOp22
 70
     1
102
RTVSPropertyOp23
 70
     1
102
RTVSPropertyOp24
 70
     1
102
RTVSPropertyOp25
 70
     1
102
RTVSPropertyOp26
 70
     1
102
RTVSPropertyOp27
 70
     1
102
RTVSPropertyOp28
 70
     1
102
RTVSPropertyOp29
 70
     1
102
RTVSPropertyOp30
 70
     1
102
RTVSPropertyOp31
 70
     1
102
RTVSPropertyOp32
 70
     1
102
RTVSPropertyOp33
 70
     1
102
RTVSPropertyOp34
 70
     1
102
RTVSPropertyOp35
 70
     1
102
RTVSPropertyOp36
 70
     1
102
RTVSPropertyOp37
 70
     1
102
RTVSPropertyOp38
 70
     1
102
RTVSPropertyOp39
 70
     1
102
RTVSPropertyOp40
 70
     1
102
RTVSPropertyOp41
 70
     1
102
RTVSPropertyOp42
 70
     1
102
RTVSPropertyOp43
 70
     1
102
RTVSPropertyOp44
 70
     1
102
RTVSPropertyOp45
 70
     1
102
RTVSPropertyOp46
 70
     1
102
RTVSPropertyOp47
 70
     1
102
RTVSPropertyOp48
 70
     1
102
RTVSPropertyOp49
 70
     1
102
RTVSPropertyOp50
 70
     1
102
RTVSPropertyOp51
 70
     0
102
RTVSPropertyOp52
 70
     0
102
RTVSPropertyOp53
 70
     1
102
RTVSPropertyOp54
 70
     1
102
RTVSPropertyOp55
 70
     1
102
RTVSPropertyOp56
 70
     1
102
RTVSPropertyOp57
 70
     1
102
RTVSPropertyOp58
 70
     1
102
RTVSPropertyOp59
 70
     1
102
RTVSPropertyOp60
 70
     1
102
RTVSPropertyOp61
 70
     1
102
RTVSPropertyOp62
 70
     1
  0
XRECORD
  5
1008A8
102
{ACAD_REACTORS
330
1008A7
102
}
330
1008A7
100
AcDbXrecord
280
     1
102
RTVSPost2010Prop28
280
     0
102
RTVSPost2010PropOp28
 70
     1
102
RTVSPost2010Prop29
280
     1
102
RTVSPost2010PropOp29
 70
     1
102
RTVSPost2010Prop30
280
     1
102
RTVSPost2010PropOp30
 70
     1
102
RTVSPost2010Prop31
280
     0
102
RTVSPost2010PropOp31
 70
     1
102
RTVSPost2010Prop32
280
     0
102
RTVSPost2010PropOp32
 70
     1
102
RTVSPost2010Prop33
280
     0
102
RTVSPost2010PropOp33
 70
     1
102
RTVSPost2010Prop34
280
     0
102
RTVSPost2010PropOp34
 70
     1
102
RTVSPost2010Prop35
280
     0
102
RTVSPost2010PropOp35
 70
     1
102
RTVSPost2010Prop36
280
     0
102
RTVSPost2010PropOp36
 70
     1
102
RTVSPost2010Prop37
 90
       50
102
RTVSPost2010PropOp37
 70
     1
102
RTVSPost2010Prop38
140
0.0
102
RTVSPost2010PropOp38
 70
     1
102
RTVSPost2010Prop39
140
1.0
102
RTVSPost2010PropOp39
 70
     1
102
RTVSPost2010Prop40
 90
        0
102
RTVSPost2010PropOp40
 70
     1
102
RTVSPost2010Prop41ColorIndex
 90
       18
102
RTVSPost2010Prop41ColorRGB
 90
        0
102
RTVSPost2010PropOp41
 70
     1
102
RTVSPost2010Prop42
 90
       50
102
RTVSPost2010PropOp42
 70
     1
102
RTVSPost2010Prop43
 90
        3
102
RTVSPost2010PropOp43
 70
     1
102
RTVSPost2010Prop44ColorIndex
 90
        5
102
RTVSPost2010Prop44ColorRGB
 90
      255
102
RTVSPost2010PropOp44
 70
     1
102
RTVSPost2010Prop45
280
     0
102
RTVSPost2010PropOp45
 70
     1
102
RTVSPost2010Prop46
 90
       50
102
RTVSPost2010PropOp46
 70
     1
102
RTVSPost2010Prop47
 90
       50
102
RTVSPost2010PropOp47
 70
     1
102
RTVSPost2010Prop48
 90
       50
102
RTVSPost2010PropOp48
 70
     1
102
RTVSPost2010Prop49
280
     0
102
RTVSPost2010PropOp49
 70
     1
102
RTVSPost2010Prop50
 90
       50
102
RTVSPost2010PropOp50
 70
     1
102
RTVSPost2010Prop51ColorIndex
 90
      256
102
RTVSPost2010Prop51ColorRGB
 90
-16777216
102
RTVSPost2010PropOp51
 70
     0
102
RTVSPost2010Prop52
140
1.0
102
RTVSPost2010PropOp52
 70
     0
102
RTVSPost2010Prop53
 90
        2
102
RTVSPost2010PropOp53
 70
     1
102
RTVSPost2010Prop54
  1
strokes_ogs.tif
102
RTVSPost2010PropOp54
 70
     1
102
RTVSPost2010Prop55
280
     0
102
RTVSPost2010PropOp55
 70
     1
102
RTVSPost2010Prop56
140
1.0
102
RTVSPost2010PropOp56
 70
     1
102
RTVSPost2010Prop57
140
1.0
102
RTVSPost2010PropOp57
 70
     1
102
RTVSPropertyOp0
 70
     1
102
RTVSPropertyOp1
 70
     1
102
RTVSPropertyOp2
 70
     1
102
RTVSPropertyOp3
 70
     1
102
RTVSPropertyOp4
 70
     1
102
RTVSPropertyOp5
 70
     1
102
RTVSPropertyOp6
 70
     1
102
RTVSPropertyOp7
 70
     1
102
RTVSPropertyOp8
 70
     1
102
RTVSPropertyOp9
 70
     1
102
RTVSPropertyOp10
 70
     1
102
RTVSPropertyOp11
 70
     1
102
RTVSPropertyOp12
 70
     1
102
RTVSPropertyOp13
 70
     1
102
RTVSPropertyOp14
 70
     1
102
RTVSPropertyOp15
 70
     1
102
RTVSPropertyOp16
 70
     1
102
RTVSPropertyOp17
 70
     1
102
RTVSPropertyOp18
 70
     1
102
RTVSPropertyOp19
 70
     1
102
RTVSPropertyOp20
 70
     1
102
RTVSPropertyOp21
 70
     1
102
RTVSPropertyOp22
 70
     1
102
RTVSPropertyOp23
 70
     1
102
RTVSPropertyOp24
 70
     1
102
RTVSPropertyOp25
 70
     1
102
RTVSPropertyOp26
 70
     1
102
RTVSPropertyOp27
 70
     1
102
RTVSPropertyOp28
 70
     1
102
RTVSPropertyOp29
 70
     1
102
RTVSPropertyOp30
 70
     1
102
RTVSPropertyOp31
 70
     1
102
RTVSPropertyOp32
 70
     1
102
RTVSPropertyOp33
 70
     1
102
RTVSPropertyOp34
 70
     1
102
RTVSPropertyOp35
 70
     1
102
RTVSPropertyOp36
 70
     1
102
RTVSPropertyOp37
 70
     1
102
RTVSPropertyOp38
 70
     1
102
RTVSPropertyOp39
 70
     1
102
RTVSPropertyOp40
 70
     1
102
RTVSPropertyOp41
 70
     1
102
RTVSPropertyOp42
 70
     1
102
RTVSPropertyOp43
 70
     1
102
RTVSPropertyOp44
 70
     1
102
RTVSPropertyOp45
 70
     1
102
RTVSPropertyOp46
 70
     1
102
RTVSPropertyOp47
 70
     1
102
RTVSPropertyOp48
 70
     1
102
RTVSPropertyOp49
 70
     1
102
RTVSPropertyOp50
 70
     1
102
RTVSPropertyOp51
 70
     0
102
RTVSPropertyOp52
 70
     0
102
RTVSPropertyOp53
 70
     1
102
RTVSPropertyOp54
 70
     1
102
RTVSPropertyOp55
 70
     1
102
RTVSPropertyOp56
 70
     1
102
RTVSPropertyOp57
 70
     1
102
RTVSPropertyOp58
 70
     1
102
RTVSPropertyOp59
 70
     1
102
RTVSPropertyOp60
 70
     1
102
RTVSPropertyOp61
 70
     1
102
RTVSPropertyOp62
 70
     1
  0
XRECORD
  5
1008C0
102
{ACAD_REACTORS
330
1008BF
102
}
330
1008BF
100
AcDbXrecord
280
     1
102
RTVSPost2010Prop28
280
     0
102
RTVSPost2010PropOp28
 70
     1
102
RTVSPost2010Prop29
280
     1
102
RTVSPost2010PropOp29
 70
     1
102
RTVSPost2010Prop30
280
     1
102
RTVSPost2010PropOp30
 70
     1
102
RTVSPost2010Prop31
280
     0
102
RTVSPost2010PropOp31
 70
     1
102
RTVSPost2010Prop32
280
     0
102
RTVSPost2010PropOp32
 70
     1
102
RTVSPost2010Prop33
280
     0
102
RTVSPost2010PropOp33
 70
     1
102
RTVSPost2010Prop34
280
     0
102
RTVSPost2010PropOp34
 70
     1
102
RTVSPost2010Prop35
280
     0
102
RTVSPost2010PropOp35
 70
     1
102
RTVSPost2010Prop36
280
     0
102
RTVSPost2010PropOp36
 70
     1
102
RTVSPost2010Prop37
 90
       50
102
RTVSPost2010PropOp37
 70
     1
102
RTVSPost2010Prop38
140
0.0
102
RTVSPost2010PropOp38
 70
     1
102
RTVSPost2010Prop39
140
1.0
102
RTVSPost2010PropOp39
 70
     1
102
RTVSPost2010Prop40
 90
        0
102
RTVSPost2010PropOp40
 70
     1
102
RTVSPost2010Prop41ColorIndex
 90
       18
102
RTVSPost2010Prop41ColorRGB
 90
        0
102
RTVSPost2010PropOp41
 70
     1
102
RTVSPost2010Prop42
 90
       50
102
RTVSPost2010PropOp42
 70
     1
102
RTVSPost2010Prop43
 90
        3
102
RTVSPost2010PropOp43
 70
     1
102
RTVSPost2010Prop44ColorIndex
 90
        5
102
RTVSPost2010Prop44ColorRGB
 90
      255
102
RTVSPost2010PropOp44
 70
     1
102
RTVSPost2010Prop45
280
     0
102
RTVSPost2010PropOp45
 70
     1
102
RTVSPost2010Prop46
 90
       50
102
RTVSPost2010PropOp46
 70
     1
102
RTVSPost2010Prop47
 90
       50
102
RTVSPost2010PropOp47
 70
     1
102
RTVSPost2010Prop48
 90
       50
102
RTVSPost2010PropOp48
 70
     1
102
RTVSPost2010Prop49
280
     0
102
RTVSPost2010PropOp49
 70
     1
102
RTVSPost2010Prop50
 90
       50
102
RTVSPost2010PropOp50
 70
     1
102
RTVSPost2010Prop51ColorIndex
 90
      256
102
RTVSPost2010Prop51ColorRGB
 90
-16777216
102
RTVSPost2010PropOp51
 70
     0
102
RTVSPost2010Prop52
140
1.0
102
RTVSPost2010PropOp52
 70
     0
102
RTVSPost2010Prop53
 90
        2
102
RTVSPost2010PropOp53
 70
     1
102
RTVSPost2010Prop54
  1
strokes_ogs.tif
102
RTVSPost2010PropOp54
 70
     1
102
RTVSPost2010Prop55
280
     0
102
RTVSPost2010PropOp55
 70
     1
102
RTVSPost2010Prop56
140
1.0
102
RTVSPost2010PropOp56
 70
     1
102
RTVSPost2010Prop57
140
1.0
102
RTVSPost2010PropOp57
 70
     1
102
RTVSPropertyOp0
 70
     1
102
RTVSPropertyOp1
 70
     1
102
RTVSPropertyOp2
 70
     1
102
RTVSPropertyOp3
 70
     1
102
RTVSPropertyOp4
 70
     1
102
RTVSPropertyOp5
 70
     1
102
RTVSPropertyOp6
 70
     1
102
RTVSPropertyOp7
 70
     1
102
RTVSPropertyOp8
 70
     1
102
RTVSPropertyOp9
 70
     1
102
RTVSPropertyOp10
 70
     1
102
RTVSPropertyOp11
 70
     1
102
RTVSPropertyOp12
 70
     1
102
RTVSPropertyOp13
 70
     1
102
RTVSPropertyOp14
 70
     1
102
RTVSPropertyOp15
 70
     1
102
RTVSPropertyOp16
 70
     1
102
RTVSPropertyOp17
 70
     1
102
RTVSPropertyOp18
 70
     1
102
RTVSPropertyOp19
 70
     1
102
RTVSPropertyOp20
 70
     1
102
RTVSPropertyOp21
 70
     1
102
RTVSPropertyOp22
 70
     1
102
RTVSPropertyOp23
 70
     1
102
RTVSPropertyOp24
 70
     1
102
RTVSPropertyOp25
 70
     1
102
RTVSPropertyOp26
 70
     1
102
RTVSPropertyOp27
 70
     1
102
RTVSPropertyOp28
 70
     1
102
RTVSPropertyOp29
 70
     1
102
RTVSPropertyOp30
 70
     1
102
RTVSPropertyOp31
 70
     1
102
RTVSPropertyOp32
 70
     1
102
RTVSPropertyOp33
 70
     1
102
RTVSPropertyOp34
 70
     1
102
RTVSPropertyOp35
 70
     1
102
RTVSPropertyOp36
 70
     1
102
RTVSPropertyOp37
 70
     1
102
RTVSPropertyOp38
 70
     1
102
RTVSPropertyOp39
 70
     1
102
RTVSPropertyOp40
 70
     1
102
RTVSPropertyOp41
 70
     1
102
RTVSPropertyOp42
 70
     1
102
RTVSPropertyOp43
 70
     1
102
RTVSPropertyOp44
 70
     1
102
RTVSPropertyOp45
 70
     1
102
RTVSPropertyOp46
 70
     1
102
RTVSPropertyOp47
 70
     1
102
RTVSPropertyOp48
 70
     1
102
RTVSPropertyOp49
 70
     1
102
RTVSPropertyOp50
 70
     1
102
RTVSPropertyOp51
 70
     0
102
RTVSPropertyOp52
 70
     0
102
RTVSPropertyOp53
 70
     1
102
RTVSPropertyOp54
 70
     1
102
RTVSPropertyOp55
 70
     1
102
RTVSPropertyOp56
 70
     1
102
RTVSPropertyOp57
 70
     1
102
RTVSPropertyOp58
 70
     1
102
RTVSPropertyOp59
 70
     1
102
RTVSPropertyOp60
 70
     1
102
RTVSPropertyOp61
 70
     1
102
RTVSPropertyOp62
 70
     1
  0
ENDSEC
  0
EOF
