  0
SECTION
  2
HEADER
  9
$ACADVER
  1
AC1018
  9
$ACADMAINTVER
 70
   104
  9
$DWGCODEPAGE
  3
ANSI_932
  9
$LASTSAVEDBY
  1
開発
  9
$INSBASE
 10
0.0
 20
0.0
 30
0.0
  9
$EXTMIN
 10
15.23986915969283
 20
29.28490788420766
 30
-0.0000000349181948
  9
$EXTMAX
 10
223.0416877603179
 20
367.8179837150037
 30
0.0000000814935747
  9
$LIMMIN
 10
0.0
 20
0.0
  9
$LIMMAX
 10
420.0
 20
297.0
  9
$ORTHOMODE
 70
     0
  9
$REGENMODE
 70
     1
  9
$FILLMODE
 70
     1
  9
$QTEXTMODE
 70
     0
  9
$MIRRTEXT
 70
     0
  9
$LTSCALE
 40
0.25
  9
$ATTMODE
 70
     1
  9
$TEXTSIZE
 40
2.5
  9
$TRACEWID
 40
1.0
  9
$TEXTSTYLE
  7
2014++
  9
$CLAYER
  8
04_ele1_0.15
  9
$CELTYPE
  6
ByLayer
  9
$CECOLOR
 62
   256
  9
$CELTSCALE
 40
1.0
  9
$DISPSILH
 70
     0
  9
$DIMSCALE
 40
0.0
  9
$DIMASZ
 40
2.0
  9
$DIMEXO
 40
2.0
  9
$DIMDLI
 40
3.75
  9
$DIMRND
 40
0.0
  9
$DIMDLE
 40
0.0
  9
$DIMEXE
 40
1.0
  9
$DIMTP
 40
0.0
  9
$DIMTM
 40
0.0
  9
$DIMTXT
 40
2.0
  9
$DIMCEN
 40
2.5
  9
$DIMTSZ
 40
0.0
  9
$DIMTOL
 70
     0
  9
$DIMLIM
 70
     0
  9
$DIMTIH
 70
     0
  9
$DIMTOH
 70
     0
  9
$DIMSE1
 70
     0
  9
$DIMSE2
 70
     0
  9
$DIMTAD
 70
     3
  9
$DIMZIN
 70
     8
  9
$DIMBLK
  1

  9
$DIMASO
 70
     1
  9
$DIMSHO
 70
     1
  9
$DIMPOST
  1

  9
$DIMAPOST
  1

  9
$DIMALT
 70
     0
  9
$DIMALTD
 70
     3
  9
$DIMALTF
 40
0.03937007874016
  9
$DIMLFAC
 40
1.0
  9
$DIMTOFL
 70
     1
  9
$DIMTVP
 40
0.0
  9
$DIMTIX
 70
     0
  9
$DIMSOXD
 70
     1
  9
$DIMSAH
 70
     0
  9
$DIMBLK1
  1

  9
$DIMBLK2
  1

  9
$DIMSTYLE
  2
2014+
  9
$DIMCLRD
 70
   256
  9
$DIMCLRE
 70
   256
  9
$DIMCLRT
 70
   256
  9
$DIMTFAC
 40
1.0
  9
$DIMGAP
 40
0.75
  9
$DIMJUST
 70
     0
  9
$DIMSD1
 70
     0
  9
$DIMSD2
 70
     0
  9
$DIMTOLJ
 70
     0
  9
$DIMTZIN
 70
     8
  9
$DIMALTZ
 70
     0
  9
$DIMALTTZ
 70
     0
  9
$DIMUPT
 70
     0
  9
$DIMDEC
 70
     2
  9
$DIMTDEC
 70
     2
  9
$DIMALTU
 70
     2
  9
$DIMALTTD
 70
     3
  9
$DIMTXSTY
  7
2014++
  9
$DIMAUNIT
 70
     0
  9
$DIMADEC
 70
     0
  9
$DIMALTRND
 40
0.0
  9
$DIMAZIN
 70
     0
  9
$DIMDSEP
 70
    46
  9
$DIMATFIT
 70
     3
  9
$DIMFRAC
 70
     0
  9
$DIMLDRBLK
  1

  9
$DIMLUNIT
 70
     2
  9
$DIMLWD
 70
    -1
  9
$DIMLWE
 70
    -1
  9
$DIMTMOVE
 70
     0
  9
$LUNITS
 70
     2
  9
$LUPREC
 70
     2
  9
$SKETCHINC
 40
1.0
  9
$FILLETRAD
 40
2.5
  9
$AUNITS
 70
     0
  9
$AUPREC
 70
     0
  9
$MENU
  1
.
  9
$ELEVATION
 40
0.0
  9
$PELEVATION
 40
0.0
  9
$THICKNESS
 40
0.0
  9
$LIMCHECK
 70
     0
  9
$CHAMFERA
 40
2.5
  9
$CHAMFERB
 40
2.5
  9
$CHAMFERC
 40
20.0
  9
$CHAMFERD
 40
0.0
  9
$SKPOLY
 70
     0
  9
$TDCREATE
 40
2457116.762643761
  9
$TDUCREATE
 40
2457116.387643762
  9
$TDUPDATE
 40
2458410.547997315
  9
$TDUUPDATE
 40
2458410.172997315
  9
$TDINDWG
 40
0.0109859144
  9
$TDUSRTIMER
 40
0.0109859028
  9
$USRTIMER
 70
     1
  9
$ANGBASE
 50
0.0
  9
$ANGDIR
 70
     0
  9
$PDMODE
 70
     0
  9
$PDSIZE
 40
0.0
  9
$PLINEWID
 40
0.0
  9
$SPLFRAME
 70
     0
  9
$SPLINETYPE
 70
     6
  9
$SPLINESEGS
 70
     8
  9
$HANDSEED
  5
FAF63
  9
$SURFTAB1
 70
     6
  9
$SURFTAB2
 70
     6
  9
$SURFTYPE
 70
     6
  9
$SURFU
 70
     6
  9
$SURFV
 70
     6
  9
$UCSBASE
  2

  9
$UCSNAME
  2

  9
$UCSORG
 10
0.0
 20
0.0
 30
0.0
  9
$UCSXDIR
 10
1.0
 20
0.0
 30
0.0
  9
$UCSYDIR
 10
0.0
 20
1.0
 30
0.0
  9
$UCSORTHOREF
  2

  9
$UCSORTHOVIEW
 70
     0
  9
$UCSORGTOP
 10
0.0
 20
0.0
 30
0.0
  9
$UCSORGBOTTOM
 10
0.0
 20
0.0
 30
0.0
  9
$UCSORGLEFT
 10
0.0
 20
0.0
 30
0.0
  9
$UCSORGRIGHT
 10
0.0
 20
0.0
 30
0.0
  9
$UCSORGFRONT
 10
0.0
 20
0.0
 30
0.0
  9
$UCSORGBACK
 10
0.0
 20
0.0
 30
0.0
  9
$PUCSBASE
  2

  9
$PUCSNAME
  2

  9
$PUCSORG
 10
0.0
 20
0.0
 30
0.0
  9
$PUCSXDIR
 10
1.0
 20
0.0
 30
0.0
  9
$PUCSYDIR
 10
0.0
 20
1.0
 30
0.0
  9
$PUCSORTHOREF
  2

  9
$PUCSORTHOVIEW
 70
     0
  9
$PUCSORGTOP
 10
0.0
 20
0.0
 30
0.0
  9
$PUCSORGBOTTOM
 10
0.0
 20
0.0
 30
0.0
  9
$PUCSORGLEFT
 10
0.0
 20
0.0
 30
0.0
  9
$PUCSORGRIGHT
 10
0.0
 20
0.0
 30
0.0
  9
$PUCSORGFRONT
 10
0.0
 20
0.0
 30
0.0
  9
$PUCSORGBACK
 10
0.0
 20
0.0
 30
0.0
  9
$USERI1
 70
     0
  9
$USERI2
 70
     0
  9
$USERI3
 70
     0
  9
$USERI4
 70
     0
  9
$USERI5
 70
     0
  9
$USERR1
 40
0.0
  9
$USERR2
 40
0.0
  9
$USERR3
 40
0.0
  9
$USERR4
 40
0.0
  9
$USERR5
 40
0.0
  9
$WORLDVIEW
 70
     1
  9
$SHADEDGE
 70
     3
  9
$SHADEDIF
 70
    70
  9
$TILEMODE
 70
     1
  9
$MAXACTVP
 70
    64
  9
$PINSBASE
 10
0.0
 20
0.0
 30
0.0
  9
$PLIMCHECK
 70
     0
  9
$PEXTMIN
 10
1.000000000000000E+20
 20
1.000000000000000E+20
 30
1.000000000000000E+20
  9
$PEXTMAX
 10
-1.000000000000000E+20
 20
-1.000000000000000E+20
 30
-1.000000000000000E+20
  9
$PLIMMIN
 10
-5.873748779296875
 20
-5.873749732971191
  9
$PLIMMAX
 10
291.05224609375
 20
204.0995779037475
  9
$UNITMODE
 70
     0
  9
$VISRETAIN
 70
     1
  9
$PLINEGEN
 70
     0
  9
$PSLTSCALE
 70
     1
  9
$TREEDEPTH
 70
  3020
  9
$CMLSTYLE
  2
Standard
  9
$CMLJUST
 70
     0
  9
$CMLSCALE
 40
20.0
  9
$PROXYGRAPHICS
 70
     1
  9
$MEASUREMENT
 70
     1
  9
$CELWEIGHT
370
    -1
  9
$ENDCAPS
280
     0
  9
$JOINSTYLE
280
     0
  9
$LWDISPLAY
290
     0
  9
$INSUNITS
 70
     4
  9
$HYPERLINKBASE
  1

  9
$STYLESHEET
  1
MONOCHROME.CTB
  9
$XEDIT
290
     1
  9
$CEPSNTYPE
380
     0
  9
$PSTYLEMODE
290
     1
  9
$FINGERPRINTGUID
  2
{50BE1C40-7876-4AFD-8770-B7778E71A178}
  9
$VERSIONGUID
  2
{B465FF99-641B-474D-9769-BEABBDBCB818}
  9
$EXTNAMES
290
     1
  9
$PSVPSCALE
 40
0.0
  9
$OLESTARTUP
290
     0
  9
$SORTENTS
280
    96
  9
$INDEXCTL
280
     0
  9
$HIDETEXT
280
     0
  9
$XCLIPFRAME
290
     0
  9
$HALOGAP
280
     0
  9
$OBSCOLOR
 70
   257
  9
$OBSLTYPE
280
     0
  9
$INTERSECTIONDISPLAY
280
     0
  9
$INTERSECTIONCOLOR
 70
   257
  9
$DIMASSOC
280
     1
  9
$PROJECTNAME
  1

  0
ENDSEC
  0
SECTION
  2
CLASSES
  0
CLASS
  1
ACDBDICTIONARYWDFLT
  2
AcDbDictionaryWithDefault
  3
ObjectDBX Classes
 90
        0
 91
        1
280
     0
281
     0
  0
CLASS
  1
DICTIONARYVAR
  2
AcDbDictionaryVar
  3
ObjectDBX Classes
 90
        0
 91
       12
280
     0
281
     0
  0
CLASS
  1
ACME_DOCUMENT
  2
AcMeDbDoc
  3
AcMeServices
 90
     1024
 91
        1
280
     0
281
     0
  0
CLASS
  1
ACMESCOPE
  2
AcMeScope
  3
AcMeServices
 90
     1024
 91
        1
280
     0
281
     0
  0
CLASS
  1
ACMECOMMANDHISTORY
  2
AcMeCommandHistory
  3
AcMeServices
 90
     1024
 91
        1
280
     0
281
     0
  0
CLASS
  1
ACIMSYSVARMAN
  2
AcImSysVarManager
  3
AcMeServices
 90
     1024
 91
        3
280
     0
281
     0
  0
CLASS
  1
ACIMINTSYSVAR
  2
AcImIntSysVar
  3
AcMeServices
 90
     1024
 91
        2
280
     0
281
     0
  0
CLASS
  1
ACMEDRAWINGMAN
  2
AcMeDrawingMan
  3
AcMeServices
 90
     1024
 91
        0
280
     0
281
     0
  0
CLASS
  1
ACMEVIEW
  2
AcMeView
  3
AcMeServices
 90
     1024
 91
        0
280
     0
281
     0
  0
CLASS
  1
ACDBENTITYCACHE
  2
AcMeEntityCache
  3
AcMeServices
 90
     1024
 91
        1
280
     0
281
     0
  0
CLASS
  1
GSMANAGER
  2
AcMeGSManager
  3
AcMeServices
 90
        0
 91
        0
280
     0
281
     0
  0
CLASS
  1
AMDTINTERNALREACTOR
  2
AmdtInternalReactor
  3
AcMeServices
 90
     1024
 91
        0
280
     0
281
     0
  0
CLASS
  1
ACMESTATEMGR
  2
AcMeStateMgr
  3
AcMeServices
 90
     1024
 91
        1
280
     0
281
     0
  0
CLASS
  1
ACGREFMASTER
  2
AcGrefMaster
  3
AcAttribServices
 90
     1024
 91
        1
280
     0
281
     0
  0
CLASS
  1
AM_DRAWING_MGR
  2
AcDmDwgMgr
  3
AcMechDwgViewMgmt
 90
     1024
 91
        0
280
     0
281
     0
  0
CLASS
  1
AM_DWG_DOCUMENT
  2
AcDmDwgDocument
  3
AcMechDwgViewMgmt
 90
     1024
 91
        0
280
     0
281
     0
  0
CLASS
  1
AM_DWG_SHEET
  2
AcDmSheet
  3
AcMechDwgViewMgmt
 90
     1024
 91
        0
280
     0
281
     0
  0
CLASS
  1
AM_VIEWDIMPARMAP
  2
AcDmViewDimParMap
  3
AcMechDwgViewMgmt
 90
     1024
 91
        0
280
     0
281
     0
  0
CLASS
  1
ACIMREALSYSVAR
  2
AcImRealSysVar
  3
AcMeServices
 90
     1024
 91
        0
280
     0
281
     0
  0
CLASS
  1
AM_DWGMGR_NAME
  2
AcDmDwgMgrName
  3
AcMechDwgViewMgmt
 90
     1024
 91
        0
280
     0
281
     0
  0
CLASS
  1
ACME_DATABASE
  2
AcMeDbDatabase
  3
AcMeServices
 90
     1024
 91
        1
280
     0
281
     0
  0
CLASS
  1
ACRFINSADJUSTERMGR
  2
AcRfInsAdjusterMgr
  3
AcMeServices
 90
     1024
 91
        1
280
     0
281
     0
  0
CLASS
  1
ACGREFACADMASTER
  2
AcGrefacadMaster
  3
AcGrefServices
 90
     1024
 91
        1
280
     0
281
     0
  0
CLASS
  1
AMDTMENUSTATEMGR
  2
AmdtMenuStateMgr
  3
McadcomServices
 90
     1024
 91
        1
280
     0
281
     0
  0
CLASS
  1
AMDTMCOMMENUSTATE
  2
AmdtMcomMenuState
  3
McadcomServices
 90
     1024
 91
        1
280
     0
281
     0
  0
CLASS
  1
AMIMASTER
  2
AmiMaster
  3
AmiServices
 90
     1024
 91
        1
280
     0
281
     0
  0
CLASS
  1
AMGSETTINGSOBJ
  2
AmgSettingsObj
  3
"AcadM|Product Description: AutoCAD Mechanical|Company: Autodesk, Inc."
 90
     1024
 91
        2
280
     0
281
     0
  0
CLASS
  1
MAPIAMMOUDLE
  2
MApiAmModule
  3
MApiAmServices
 90
     1024
 91
        1
280
     0
281
     0
  0
CLASS
  1
AMDTADMENUSTATE
  2
AmdtAdMenuState
  3
DesignerServices
 90
        0
 91
        0
280
     0
281
     0
  0
CLASS
  1
ADAPPL
  2
AcAdAppl
  3
DesignerAssemblies
 90
     1024
 91
        0
280
     0
281
     0
  0
CLASS
  1
DEPMGR
  2
AcAdDepMgr
  3
DesignerAssemblies
 90
     1024
 91
        0
280
     0
281
     0
  0
CLASS
  1
PARAMMGR
  2
AcAdParamMgr
  3
DesignerAssemblies
 90
     1024
 91
        0
280
     0
281
     0
  0
CLASS
  1
PARAMSCOPE
  2
AcAdParamScope
  3
DesignerAssemblies
 90
     1024
 91
        0
280
     0
281
     0
  0
CLASS
  1
NAMEDAPPL
  2
AcAdNamedAppl
  3
DesignerAssemblies
 90
     1024
 91
        0
280
     0
281
     0
  0
CLASS
  1
AMDTDMMENUSTATE
  2
AmdtDmMenuState
  3
AcMechDwgViewMgmt
 90
        0
 91
        0
280
     0
281
     0
  0
CLASS
  1
AMDTAMMENUSTATE
  2
AmdtAmMenuState
  3
DesignerAssemblies
 90
     1024
 91
        1
280
     0
281
     0
  0
CLASS
  1
ACIMSTRSYSVAR
  2
AcImStrSysVar
  3
AcMeServices
 90
     1024
 91
        5
280
     0
281
     0
  0
CLASS
  1
ACAMPROJECT
  2
AcAmProject
  3
DesignerAssemblies
 90
     1024
 91
        1
280
     0
281
     0
  0
CLASS
  1
ACAMGRCOMPDEF
  2
AcAmGrCompDef
  3
DesignerAssemblies
 90
     1024
 91
        1
280
     0
281
     0
  0
CLASS
  1
ACCMCONTEXT
  2
AcCmContext
  3
DesignerAssemblies
 90
     1024
 91
        0
280
     0
281
     0
  0
CLASS
  1
ACAMCOMPDEF
  2
AcAmCompDef
  3
DesignerAssemblies
 90
     1024
 91
        1
280
     0
281
     0
  0
CLASS
  1
ACAMCOMPDEFMGR
  2
AcAmCompDefMgr
  3
DesignerAssemblies
 90
     1024
 91
        1
280
     0
281
     0
  0
CLASS
  1
AMCONTEXTMGR
  2
AcAmContextMgr
  3
DesignerAssemblies
 90
     1024
 91
        1
280
     0
281
     0
  0
CLASS
  1
ACAMCONTEXTMODELER
  2
AcAmContextModeler
  3
DesignerAssemblies
 90
     1024
 91
        1
280
     0
281
     0
  0
CLASS
  1
ACMDATADICTIONARY
  2
AcmDataDictionary
  3
"AcmSymBB|Product Description: AutoCAD Mechanical|Company: Autodesk, Inc."
 90
     1024
 91
        1
280
     0
281
     0
  0
CLASS
  1
CATALOGSTATE
  2
AcAmCatalogState
  3
DesignerAssemblies
 90
     1024
 91
        0
280
     0
281
     0
  0
CLASS
  1
ACAMGRCOMPDEFSET
  2
AcAmGrCompDefSet
  3
DesignerAssemblies
 90
     1024
 91
        1
280
     0
281
     0
  0
CLASS
  1
AMDTBROWSERDBTAB
  2
AmdtBrowserDbTab
  3
McadcomServices
 90
     1024
 91
        1
280
     0
281
     0
  0
CLASS
  1
CBROWSERAPPOBJECT
  2
CBrowserAppObject
  3
McadcomServices
 90
     1024
 91
        2
280
     0
281
     0
  0
CLASS
  1
DM_PLACEHOLDER
  2
AcDmSelsetPlaceholder
  3
McadcomServices
 90
     1024
 91
        1
280
     0
281
     0
  0
CLASS
  1
ACMSTANDARDISO
  2
AcmStandardISO
  3
"Amdt_StdImp|Product Description: AutoCAD Mechanical|Company: Autodesk, Inc."
 90
     1024
 91
        1
280
     0
281
     0
  0
CLASS
  1
AMGOBJPROPCFG
  2
AmgObjPropCfg
  3
"AmgLay|Product Description: AutoCAD Mechanical|Company: Autodesk, Inc."
 90
     1024
 91
        1
280
     0
281
     0
  0
CLASS
  1
AMDTEDGESTANDARDISO
  2
AmdtEdgeStdISO
  3
"Amdt_StdImp|Product Description: AutoCAD Mechanical|Company: Autodesk, Inc."
 90
     1024
 91
        0
280
     0
281
     0
  0
CLASS
  1
ACMSURFSTANDARDISO
  2
AcmSurfTextStdISO
  3
"Amdt_StdImp|Product Description: AutoCAD Mechanical|Company: Autodesk, Inc."
 90
     1024
 91
        0
280
     0
281
     0
  0
CLASS
  1
ACMFCFSTANDARDISO
  2
AcmFCFStdISO
  3
"Amdt_StdImp|Product Description: AutoCAD Mechanical|Company: Autodesk, Inc."
 90
     1024
 91
        0
280
     0
281
     0
  0
CLASS
  1
ACMWELDSTANDARDISO
  2
AcmWeldingStdISO
  3
"Amdt_StdImp|Product Description: AutoCAD Mechanical|Company: Autodesk, Inc."
 90
     1024
 91
        1
280
     0
281
     0
  0
CLASS
  1
ACMIDSTANDARDISO
  2
AcmIdStdISO
  3
"Amdt_StdImp|Product Description: AutoCAD Mechanical|Company: Autodesk, Inc."
 90
     1024
 91
        0
280
     0
281
     0
  0
CLASS
  1
ACMDATUMSTANDARDISO
  2
AcmDatumStdISO
  3
"Amdt_StdImp|Product Description: AutoCAD Mechanical|Company: Autodesk, Inc."
 90
     1024
 91
        0
280
     0
281
     0
  0
CLASS
  1
ACMBOMSTANDARDISO
  2
AcmBOMStdISO
  3
"Amdt_StdImp|Product Description: AutoCAD Mechanical|Company: Autodesk, Inc."
 90
     1024
 91
        1
280
     0
281
     0
  0
CLASS
  1
ACMDETAILSTANDARDISO
  2
AmdtDetailSymStdISO
  3
"Amdt_StdImp|Product Description: AutoCAD Mechanical|Company: Autodesk, Inc."
 90
     1024
 91
        1
280
     0
281
     0
  0
CLASS
  1
ACMSECTIONSTANDARDISO
  2
AmdtSectionSymStdISO
  3
"Amdt_StdImp|Product Description: AutoCAD Mechanical|Company: Autodesk, Inc."
 90
     1024
 91
        0
280
     0
281
     0
  0
CLASS
  1
ACMCENTERLINESTANDARDISO
  2
AmdtCenterLineStdISO
  3
"Amdt_StdImp|Product Description: AutoCAD Mechanical|Company: Autodesk, Inc."
 90
     1024
 91
        1
280
     0
281
     0
  0
CLASS
  1
ACMTHREADLINESTANDARDISO
  2
AmdtThreadLineStdISO
  3
"Amdt_StdImp|Product Description: AutoCAD Mechanical|Company: Autodesk, Inc."
 90
     1024
 91
        1
280
     0
281
     0
  0
CLASS
  1
ACMNOTESTANDARDISO
  2
AmdtNoteStdISO
  3
"Amdt_StdImp|Product Description: AutoCAD Mechanical|Company: Autodesk, Inc."
 90
     1024
 91
        1
280
     0
281
     0
  0
CLASS
  1
AMDTNOTETEMPLATEDB
  2
AmdtNoteTemplateDB
  3
AcmSymBB|Product Description: AutoCAD Mechanical|Company: Autodesk, Inc.
 90
     1024
 91
        7
280
     0
281
     0
  0
CLASS
  1
ACAMGLAYSTD
  2
AcAmgLayStd
  3
"AmgLay|Product Description: AutoCAD Mechanical|Company: Autodesk, Inc."
 90
     1024
 91
        1
280
     0
281
     0
  0
CLASS
  1
ACAMGDIMSTD
  2
AcAmgDimStd
  3
"AmgDim|Product Description: AutoCAD Mechanical|Company: Autodesk, Inc."
 90
     1024
 91
        1
280
     0
281
     0
  0
CLASS
  1
ACAMGHOLECHARTSTDISO
  2
AcAmgHoleChartStdISO
  3
AmgDim|Product Description: AutoCAD Mechanical|Company: Autodesk, Inc.
 90
     1024
 91
        1
280
     0
281
     0
  0
CLASS
  1
ACAMGTITLESTD
  2
AcAmgTitleStd
  3
"AmgTitle|Product Description: AutoCAD Mechanical|Company: Autodesk, Inc."
 90
     1024
 91
        1
280
     0
281
     0
  0
CLASS
  1
LAYER_INDEX
  2
AcDbLayerIndex
  3
ObjectDBX Classes
 90
        0
 91
        0
280
     0
281
     0
  0
CLASS
  1
IDBUFFER
  2
AcDbIdBuffer
  3
ObjectDBX Classes
 90
        0
 91
        0
280
     0
281
     0
  0
CLASS
  1
ACMSTANDARDANSI
  2
AcmStandardANSI
  3
"Amdt_StdImp|Product Description: AutoCAD Mechanical|Company: Autodesk, Inc."
 90
     1024
 91
        0
280
     0
281
     0
  0
CLASS
  1
ACMSURFSTANDARDANSI
  2
AcmSurfTextStdANSI
  3
"Amdt_StdImp|Product Description: AutoCAD Mechanical|Company: Autodesk, Inc."
 90
     1024
 91
        0
280
     0
281
     0
  0
CLASS
  1
ACMFCFSTANDARDANSI
  2
AcmFCFStdANSI
  3
"Amdt_StdImp|Product Description: AutoCAD Mechanical|Company: Autodesk, Inc."
 90
     1024
 91
        0
280
     0
281
     0
  0
CLASS
  1
ACMWELDSTANDARDANSI
  2
AcmWeldingStdANSI
  3
"Amdt_StdImp|Product Description: AutoCAD Mechanical|Company: Autodesk, Inc."
 90
     1024
 91
        0
280
     0
281
     0
  0
CLASS
  1
ACMIDSTANDARDANSI
  2
AcmIdStdANSI
  3
"Amdt_StdImp|Product Description: AutoCAD Mechanical|Company: Autodesk, Inc."
 90
     1024
 91
        0
280
     0
281
     0
  0
CLASS
  1
ACMDATUMSTANDARDANSI
  2
AcmDatumStdANSI
  3
"Amdt_StdImp|Product Description: AutoCAD Mechanical|Company: Autodesk, Inc."
 90
     1024
 91
        0
280
     0
281
     0
  0
CLASS
  1
ACMBOMSTANDARDANSI
  2
AcmBOMStdANSI
  3
"Amdt_StdImp|Product Description: AutoCAD Mechanical|Company: Autodesk, Inc."
 90
     1024
 91
        0
280
     0
281
     0
  0
CLASS
  1
ACMDETAILSTANDARDANSI
  2
AmdtDetailSymStdANSI
  3
"Amdt_StdImp|Product Description: AutoCAD Mechanical|Company: Autodesk, Inc."
 90
     1024
 91
        0
280
     0
281
     0
  0
CLASS
  1
ACMSECTIONSTANDARDANSI
  2
AmdtSectionSymStdANSI
  3
"Amdt_StdImp|Product Description: AutoCAD Mechanical|Company: Autodesk, Inc."
 90
     1024
 91
        0
280
     0
281
     0
  0
CLASS
  1
ACMCENTERLINESTANDARDANSI
  2
AmdtCenterLineStdANSI
  3
"Amdt_StdImp|Product Description: AutoCAD Mechanical|Company: Autodesk, Inc."
 90
     1024
 91
        0
280
     0
281
     0
  0
CLASS
  1
ACMTHREADLINESTANDARDANSI
  2
AmdtThreadLineStdANSI
  3
"Amdt_StdImp|Product Description: AutoCAD Mechanical|Company: Autodesk, Inc."
 90
     1024
 91
        0
280
     0
281
     0
  0
CLASS
  1
ACMNOTESTANDARDANSI
  2
AmdtNoteStdANSI
  3
"Amdt_StdImp|Product Description: AutoCAD Mechanical|Company: Autodesk, Inc."
 90
     1024
 91
        0
280
     0
281
     0
  0
CLASS
  1
ACAMGHOLECHARTSTDANSI
  2
AcAmgHoleChartStdANSI
  3
AmgDim|Product Description: AutoCAD Mechanical|Company: Autodesk, Inc.
 90
     1024
 91
        0
280
     0
281
     0
  0
CLASS
  1
ACAMGFILTERDAT
  2
AcAmgFilterDat
  3
"AcadM|Product Description: AutoCAD Mechanical|Company: Autodesk, Inc."
 90
     1024
 91
        0
280
     0
281
     0
  0
CLASS
  1
ACRFATTGENMGR
  2
AcRfAttGeneralMgr
  3
AcAttribServices
 90
     1024
 91
        0
280
     0
281
     0
  0
CLASS
  1
MATERIAL
  2
AcDbMaterial
  3
ObjectDBX Classes
 90
     1153
 91
        3
280
     0
281
     0
  0
CLASS
  1
VISUALSTYLE
  2
AcDbVisualStyle
  3
ObjectDBX Classes
 90
     4095
 91
       24
280
     0
281
     0
  0
CLASS
  1
TABLESTYLE
  2
AcDbTableStyle
  3
ObjectDBX Classes
 90
     4095
 91
        1
280
     0
281
     0
  0
CLASS
  1
SCALE
  2
AcDbScale
  3
ObjectDBX Classes
 90
     1153
 91
       17
280
     0
281
     0
  0
CLASS
  1
MLEADERSTYLE
  2
AcDbMLeaderStyle
  3
ACDB_MLEADERSTYLE_CLASS
 90
     4095
 91
        1
280
     0
281
     0
  0
CLASS
  1
ACDBSECTIONVIEWSTYLE
  2
AcDbSectionViewStyle
  3
ObjectDBX Classes
 90
     1025
 91
        2
280
     0
281
     0
  0
CLASS
  1
ACDBDETAILVIEWSTYLE
  2
AcDbDetailViewStyle
  3
ObjectDBX Classes
 90
     1025
 91
        2
280
     0
281
     0
  0
CLASS
  1
ACMTAPERSTANDARDISO
  2
AcmTaperStdISO
  3
"Amdt_StdImp|Product Description: AutoCAD Mechanical|Company: Autodesk, Inc."
 90
     1024
 91
        1
280
     0
281
     0
  0
CLASS
  1
ACMANOOTATIONVIEWSTANDARDISO
  2
AmdtAnViewStdISO
  3
"Amdt_StdImp|Product Description: AutoCAD Mechanical|Company: Autodesk, Inc."
 90
     1024
 91
        1
280
     0
281
     0
  0
CLASS
  1
ACMSECTIONSTANDARDCUSTOM
  2
AmdtSectionSymStdCustom
  3
"Amdt_StdImp|Product Description: AutoCAD Mechanical|Company: Autodesk, Inc."
 90
     1024
 91
        1
280
     0
281
     0
  0
CLASS
  1
ACMDETAILTANDARDCUSTOM
  2
AmdtDetailSymStdCustom
  3
"Amdt_StdImp|Product Description: AutoCAD Mechanical|Company: Autodesk, Inc."
 90
     1024
 91
        1
280
     0
281
     0
  0
CLASS
  1
FIELD
  2
AcDbField
  3
ObjectDBX Classes
 90
     1152
 91
        3
280
     0
281
     0
  0
CLASS
  1
FIELDLIST
  2
AcDbFieldList
  3
ObjectDBX Classes
 90
     1152
 91
        1
280
     0
281
     0
  0
CLASS
  1
CELLSTYLEMAP
  2
AcDbCellStyleMap
  3
ObjectDBX Classes
 90
     1152
 91
        3
280
     0
281
     0
  0
CLASS
  1
AMDTEDGESTANDARDISO13715
  2
AmdtEdgeStdISO13715
  3
"Amdt_StdImp|Product Description: AutoCAD Mechanical|Company: Autodesk, Inc."
 90
     1024
 91
        1
280
     0
281
     0
  0
CLASS
  1
ACMSURFSTANDARDISO2002
  2
AcmSurfTextStdISO2002
  3
"Amdt_StdImp|Product Description: AutoCAD Mechanical|Company: Autodesk, Inc."
 90
     1024
 91
        1
280
     0
281
     0
  0
CLASS
  1
ACMFCFSTANDARDISO2012
  2
AcmFCFStdISO2012
  3
"Amdt_StdImp|Product Description: AutoCAD Mechanical|Company: Autodesk, Inc."
 90
     1024
 91
        1
280
     0
281
     0
  0
CLASS
  1
ACMIDSTANDARDISO2012
  2
AcmIdStdISO2012
  3
"Amdt_StdImp|Product Description: AutoCAD Mechanical|Company: Autodesk, Inc."
 90
     1024
 91
        1
280
     0
281
     0
  0
CLASS
  1
ACMDATUMSTANDARDISO2012
  2
AcmDatumStdISO2012
  3
"Amdt_StdImp|Product Description: AutoCAD Mechanical|Company: Autodesk, Inc."
 90
     1024
 91
        1
280
     0
281
     0
  0
CLASS
  1
ACMSECTIONSTANDARDISO2001
  2
AmdtSectionSymStdISO2001
  3
"Amdt_StdImp|Product Description: AutoCAD Mechanical|Company: Autodesk, Inc."
 90
     1024
 91
        1
280
     0
281
     0
  0
ENDSEC
  0
SECTION
  2
TABLES
  0
TABLE
  2
VPORT
  5
8
330
0
100
AcDbSymbolTable
 70
     1
  0
VPORT
  5
FABD9
330
8
100
AcDbSymbolTableRecord
100
AcDbViewportTableRecord
  2
*Active
 70
     0
 10
0.0
 20
0.0
 11
1.0
 21
1.0
 12
119.1407784600054
 22
198.5514457996057
 13
0.0
 23
0.0
 14
2.5
 24
2.5
 15
10.0
 25
10.0
 16
0.0
 26
0.0
 36
1.0
 17
0.0
 27
0.0
 37
0.0
 40
340.9032023827036
 41
1.807242990654205
 42
50.0
 43
0.0
 44
0.0
 50
0.0
 51
0.0
 71
     0
 72
   100
 73
     1
 74
     3
 75
     0
 76
     0
 77
     0
 78
     0
281
     0
 65
     0
110
0.0
120
0.0
130
0.0
111
1.0
121
0.0
131
0.0
112
0.0
122
1.0
132
0.0
 79
     0
146
0.0
1001
ACAD_NAV_VCDISPLAY
1070
     3
  0
ENDTAB
  0
TABLE
  2
LTYPE
  5
5
330
0
100
AcDbSymbolTable
 70
    15
  0
LTYPE
  5
14
330
5
100
AcDbSymbolTableRecord
100
AcDbLinetypeTableRecord
  2
ByBlock
 70
     0
  3

 72
    65
 73
     0
 40
0.0
  0
LTYPE
  5
15
330
5
100
AcDbSymbolTableRecord
100
AcDbLinetypeTableRecord
  2
ByLayer
 70
     0
  3

 72
    65
 73
     0
 40
0.0
  0
LTYPE
  5
16
330
5
100
AcDbSymbolTableRecord
100
AcDbLinetypeTableRecord
  2
Continuous
 70
     0
  3
Solid line
 72
    65
 73
     0
 40
0.0
  0
LTYPE
  5
16D41
330
5
100
AcDbSymbolTableRecord
100
AcDbLinetypeTableRecord
  2
AM_ISO02W050
 70
     0
  3
__ __ __ __ __ __ __ __ __ __ __ __ __ __ __
 72
    65
 73
     2
 40
7.5
 49
6.0
 74
     0
 49
-1.5
 74
     0
  0
LTYPE
  5
16D42
330
5
100
AcDbSymbolTableRecord
100
AcDbLinetypeTableRecord
  2
AM_ISO08W050
 70
     0
  3
____ . ____ . ____ . ____ . ____ . ____ . ____
 72
    65
 73
     4
 40
18.0
 49
12.0
 74
     0
 49
-1.5
 74
     0
 49
3.0
 74
     0
 49
-1.5
 74
     0
  0
LTYPE
  5
16D43
330
5
100
AcDbSymbolTableRecord
100
AcDbLinetypeTableRecord
  2
AM_ISO09W050
 70
     0
  3
_____ . . _____ . . _____ . . ____ .. ____
 72
    65
 73
     6
 40
22.5
 49
12.0
 74
     0
 49
-1.5
 74
     0
 49
3.0
 74
     0
 49
-1.5
 74
     0
 49
3.0
 74
     0
 49
-1.5
 74
     0
  0
LTYPE
  5
16D44
330
5
100
AcDbSymbolTableRecord
100
AcDbLinetypeTableRecord
  2
Amconstr
 70
     0
  3
_______________________
 72
    65
 73
     2
 40
9999.0
 49
9999.0
 74
     0
 49
0.0
 74
     0
  0
LTYPE
  5
16D45
330
5
100
AcDbSymbolTableRecord
100
AcDbLinetypeTableRecord
  2
AM_ISO08W050x2
 70
     0
  3
__ . __ . __ . __ . __ . __
 72
    65
 73
     4
 40
9.0
 49
6.0
 74
     0
 49
-0.75
 74
     0
 49
1.5
 74
     0
 49
-0.75
 74
     0
  0
LTYPE
  5
16D46
330
5
100
AcDbSymbolTableRecord
100
AcDbLinetypeTableRecord
  2
AM_ISO02W050x2
 70
     0
  3
 _ _ _ _ _ _ _ _ _ _ _ _
 72
    65
 73
     2
 40
3.75
 49
3.0
 74
     0
 49
-0.75
 74
     0
  0
LTYPE
  5
16D47
330
5
100
AcDbSymbolTableRecord
100
AcDbLinetypeTableRecord
  2
Amzigzag
 70
     0
  3
/\/-/\/-/\/-/\/-/\/-/\/
 72
    65
 73
     2
 40
11.0001
 49
0.0001
 74
     4
 75
   135
340
3AE2
 46
0.04
 50
0.0
 44
0.0
 45
0.0
 49
-11.0
 74
     0
  0
LTYPE
  5
16D56
330
5
100
AcDbSymbolTableRecord
100
AcDbLinetypeTableRecord
  2
ACISOWELD
 70
     0
  3
_ _ _ _ _
 72
    65
 73
     2
 40
2.0
 49
2.0
 74
     0
 49
-1.0
 74
     0
  0
LTYPE
  5
16D57
330
5
100
AcDbSymbolTableRecord
100
AcDbLinetypeTableRecord
  2
ACISOTGB
 70
     0
  3
__ . . __ . .
 72
    65
 73
     6
 40
9.0
 49
4.0
 74
     0
 49
-1.0
 74
     0
 49
1.0
 74
     0
 49
-1.0
 74
     0
 49
1.0
 74
     0
 49
-1.0
 74
     0
  0
LTYPE
  5
16D58
330
5
100
AcDbSymbolTableRecord
100
AcDbLinetypeTableRecord
  2
ACISOTGL
 70
     0
  3
_ _ _ _ _
 72
    65
 73
     2
 40
3.0
 49
2.0
 74
     0
 49
-1.0
 74
     0
  0
ENDTAB
  0
TABLE
  2
LAYER
  5
2
102
{ACAD_XDICTIONARY
360
F82BD
102
}
330
0
100
AcDbSymbolTable
 70
     4
  0
LAYER
  5
10
102
{ACAD_XDICTIONARY
360
FAE0D
102
}
330
2
100
AcDbSymbolTableRecord
100
AcDbLayerTableRecord
  2
0
 70
     0
 62
     7
  6
Continuous
370
    20
390
F
  0
LAYER
  5
54
330
2
100
AcDbSymbolTableRecord
100
AcDbLayerTableRecord
  2
Defpoints
 70
     0
 62
     7
  6
Continuous
290
     0
370
    -3
390
F
  0
LAYER
  5
86C9
102
{ACAD_XDICTIONARY
360
FAE0F
102
}
330
2
100
AcDbSymbolTableRecord
100
AcDbLayerTableRecord
  2
04_ele1_0.15
 70
     0
 62
     4
  6
Continuous
370
    15
390
F
  0
LAYER
  5
FAD41
102
{ACAD_XDICTIONARY
360
FAE11
102
}
330
2
100
AcDbSymbolTableRecord
100
AcDbLayerTableRecord
  2
AM_5
 70
     0
 62
     3
  6
Continuous
370
    25
390
F
1001
AcAecLayerStandard
1000

1000

  0
ENDTAB
  0
TABLE
  2
STYLE
  5
3
330
0
100
AcDbSymbolTable
 70
     6
  0
STYLE
  5
11
330
3
100
AcDbSymbolTableRecord
100
AcDbTextStyleTableRecord
  2
STANDARD
 70
     0
 40
0.0
 41
1.0
 50
0.0
 71
     0
 42
2.5
  3
ISOCP.SHX
  4
EXTFONT.SHX
  0
STYLE
  5
3AE2
330
3
100
AcDbSymbolTableRecord
100
AcDbTextStyleTableRecord
  2

 70
     1
 40
0.0
 41
1.0
 50
0.0
 71
     0
 42
2.5
  3
ltypeshp.shx
  4

  0
STYLE
  5
16D55
330
3
100
AcDbSymbolTableRecord
100
AcDbTextStyleTableRecord
  2
ACISOGDT
 70
     0
 40
0.0
 41
1.0
 50
0.0
 71
     0
 42
2.5
  3
amgdt.shx
  4

  0
STYLE
  5
F51B8
330
3
100
AcDbSymbolTableRecord
100
AcDbTextStyleTableRecord
  2
acad
 70
     0
 40
0.0
 41
1.0
 50
0.0
 71
     0
 42
2.5
  3
txt.shx
  4
extfont.shx
  0
STYLE
  5
F61F9
330
3
100
AcDbSymbolTableRecord
100
AcDbTextStyleTableRecord
  2
2014++
 70
     0
 40
0.0
 41
0.8
 50
0.0
 71
     0
 42
2.5
  3
simplex.shx
  4
bigfont.shx
  0
ENDTAB
  0
TABLE
  2
VIEW
  5
6
330
0
100
AcDbSymbolTable
 70
     0
  0
ENDTAB
  0
TABLE
  2
UCS
  5
7
330
0
100
AcDbSymbolTable
 70
     0
  0
ENDTAB
  0
TABLE
  2
APPID
  5
9
330
0
100
AcDbSymbolTable
 70
    21
  0
APPID
  5
12
330
9
100
AcDbSymbolTableRecord
100
AcDbRegAppTableRecord
  2
ACAD
 70
     0
  0
APPID
  5
16CD8
330
9
100
AcDbSymbolTableRecord
100
AcDbRegAppTableRecord
  2
MCAD_NO_VIS
 70
     0
  0
APPID
  5
16CD9
330
9
100
AcDbSymbolTableRecord
100
AcDbRegAppTableRecord
  2
ACAD_TEMP_GRAPHIC
 70
     0
  0
APPID
  5
16D0B
330
9
100
AcDbSymbolTableRecord
100
AcDbRegAppTableRecord
  2
AD_DRAW
 70
     0
  0
APPID
  5
16D0E
330
9
100
AcDbSymbolTableRecord
100
AcDbRegAppTableRecord
  2
ACATTRIBSERVICES
 70
     0
  0
APPID
  5
16D30
330
9
100
AcDbSymbolTableRecord
100
AcDbRegAppTableRecord
  2
DESIGNERASSEMBLIES
 70
     0
  0
APPID
  5
16D36
330
9
100
AcDbSymbolTableRecord
100
AcDbRegAppTableRecord
  2
ACADM_DIM_EDIT
 70
     0
  0
APPID
  5
16D37
330
9
100
AcDbSymbolTableRecord
100
AcDbRegAppTableRecord
  2
AMDT_DM_ADJ
 70
     0
  0
APPID
  5
16D6D
330
9
100
AcDbSymbolTableRecord
100
AcDbRegAppTableRecord
  2
GENIUS_GENSCREG_15
 70
     0
  0
APPID
  5
16D6E
330
9
100
AcDbSymbolTableRecord
100
AcDbRegAppTableRecord
  2
GENIUS_GENOBJ-N-SDF_13
 70
     0
  0
APPID
  5
16D6F
330
9
100
AcDbSymbolTableRecord
100
AcDbRegAppTableRecord
  2
GENIUS_GENODEF_13
 70
     0
  0
APPID
  5
ADC12
330
9
100
AcDbSymbolTableRecord
100
AcDbRegAppTableRecord
  2
GENIUS_GENDTOL_13
 70
     0
  0
APPID
  5
BA934
330
9
100
AcDbSymbolTableRecord
100
AcDbRegAppTableRecord
  2
GENIUS_GENOBJ-N-FIL_13
 70
     0
  0
APPID
  5
F4A76
330
9
100
AcDbSymbolTableRecord
100
AcDbRegAppTableRecord
  2
DCO15
 70
     0
  0
APPID
  5
FAC73
330
9
100
AcDbSymbolTableRecord
100
AcDbRegAppTableRecord
  2
ACAD_PSEXT
 70
     0
  0
APPID
  5
FAC7B
330
9
100
AcDbSymbolTableRecord
100
AcDbRegAppTableRecord
  2
ACAD_NAV_VCDISPLAY
 70
     0
  0
APPID
  5
FAC7C
330
9
100
AcDbSymbolTableRecord
100
AcDbRegAppTableRecord
  2
ACAD_DSTYLE_DIMINSPECT
 70
     0
  0
APPID
  5
FAD42
330
9
100
AcDbSymbolTableRecord
100
AcDbRegAppTableRecord
  2
AcAecLayerStandard
 70
     0
  0
APPID
  5
FAD46
330
9
100
AcDbSymbolTableRecord
100
AcDbRegAppTableRecord
  2
ACAD_DSTYLE_DIMBREAK
 70
     0
  0
APPID
  5
FAD47
330
9
100
AcDbSymbolTableRecord
100
AcDbRegAppTableRecord
  2
ACAD_DSTYLE_DIMJAG
 70
     0
  0
APPID
  5
FAE61
330
9
100
AcDbSymbolTableRecord
100
AcDbRegAppTableRecord
  2
ACAD_MLEADERVER
 70
     0
  0
ENDTAB
  0
TABLE
  2
DIMSTYLE
  5
A
330
0
100
AcDbSymbolTable
 70
    10
100
AcDbDimStyleTable
 71
     3
340
F65ED
340
16D6A
340
16D65
  0
DIMSTYLE
105
16D60
102
{ACAD_REACTORS
330
FAEA1
102
}
330
A
100
AcDbSymbolTableRecord
100
AcDbDimStyleTableRecord
  2
AM_ISO
 70
     0
  4
"
 41
2.5
 42
1.0
 43
10.0
 44
1.0
 47
0.1
 48
0.1
 73
     0
 74
     0
 77
     1
 78
     8
 79
     2
140
3.5
141
0.0
143
0.0393701
146
0.71
147
1.5
172
     1
176
   256
177
   256
178
     2
271
     2
272
     3
274
     4
283
     0
284
     8
340
11
371
    -1
372
    -1
  0
DIMSTYLE
105
16D61
330
A
100
AcDbSymbolTableRecord
100
AcDbDimStyleTableRecord
  2
AM_ISO$3
 70
     0
  4
"
 41
2.5
 42
1.0
 43
10.0
 44
1.0
 47
0.1
 48
0.1
 73
     0
 77
     1
 78
     8
 79
     2
140
3.5
141
0.0
143
0.0393701
146
0.71
147
1.5
176
   256
177
   256
178
     2
271
     2
272
     3
274
     4
283
     0
284
     8
288
     1
289
     0
340
11
371
    -1
372
    -1
  0
DIMSTYLE
105
16D62
330
A
100
AcDbSymbolTableRecord
100
AcDbDimStyleTableRecord
  2
AM_ISO$4
 70
     0
  4
"
 41
2.5
 42
1.0
 43
10.0
 44
1.0
 47
0.1
 48
0.1
 73
     0
 77
     1
 78
     8
 79
     2
140
3.5
141
0.0
143
0.0393701
146
0.71
147
1.5
176
   256
177
   256
178
     2
271
     2
272
     3
274
     4
283
     0
284
     8
288
     1
289
     0
340
11
371
    -1
372
    -1
  0
DIMSTYLE
105
16D63
330
A
100
AcDbSymbolTableRecord
100
AcDbDimStyleTableRecord
  2
AM_ISO$6
 70
     0
  4
"
 41
2.5
 42
1.0
 43
10.0
 44
1.0
 47
0.1
 48
0.1
 73
     0
 74
     0
 78
     8
 79
     2
140
3.5
141
0.0
143
0.0393701
146
0.71
147
1.5
172
     1
176
   256
177
   256
178
     2
271
     2
272
     3
274
     4
283
     0
284
     8
340
11
371
    -1
372
    -1
  0
DIMSTYLE
105
16D64
330
A
100
AcDbSymbolTableRecord
100
AcDbDimStyleTableRecord
  2
AM_ISO$7
 70
     0
  4
"
 41
2.5
 42
1.0
 43
10.0
 44
1.0
 47
0.1
 48
0.1
 73
     0
 74
     0
 77
     1
 78
     8
 79
     2
140
5.0
141
0.0
143
0.0393701
146
0.71
147
1.5
172
     1
176
   256
177
   256
178
     2
271
     2
272
     3
274
     4
283
     0
284
     8
340
11
371
    -1
372
    -1
  0
DIMSTYLE
105
16D65
330
A
100
AcDbSymbolTableRecord
100
AcDbDimStyleTableRecord
  2
AM_ISO$SF
 70
     0
  4
"
 41
2.5
 42
1.0
 43
10.0
 44
1.0
 47
0.1
 48
0.1
 73
     0
 74
     0
 75
     1
 76
     1
 77
     1
 78
     8
 79
     2
140
3.5
141
0.0
143
0.0393701
146
0.71
147
1.5
172
     1
176
   256
177
   256
178
     2
271
     2
272
     3
274
     4
283
     0
284
     8
340
11
371
    -1
372
    -1
  0
DIMSTYLE
105
16D6A
330
A
100
AcDbSymbolTableRecord
100
AcDbDimStyleTableRecord
  2
AM_ISO$SH
 70
     0
  4
"
 41
2.5
 42
1.0
 43
10.0
 44
1.0
 47
0.1
 48
0.1
 73
     0
 74
     0
 75
     1
 76
     1
 77
     1
 78
     8
 79
     2
140
3.5
141
0.0
143
0.0393701
144
2.0
146
0.71
147
1.5
172
     1
173
     1
176
   256
177
   256
178
     2
271
     2
272
     3
274
     4
283
     0
284
     8
340
11
343
16D66
371
    -1
372
    -1
  0
DIMSTYLE
105
F65ED
102
{ACAD_REACTORS
330
FA79F
330
FA79E
330
FA8F3
102
}
330
A
100
AcDbSymbolTableRecord
100
AcDbDimStyleTableRecord
  2
2014+
 70
     0
 40
0.0
 41
2.0
 42
2.0
 43
3.75
 44
1.0
 73
     0
 74
     0
 77
     3
 78
     8
140
2.0
141
2.5
143
0.03937007874016
147
0.75
171
     3
172
     1
175
     1
176
   256
177
   256
178
   256
271
     2
272
     2
274
     3
283
     0
284
     8
340
F61F9
371
    -1
372
    -1
  0
DIMSTYLE
105
FAD48
102
{ACAD_REACTORS
330
FA799
330
FA795
330
FA75A
330
FA762
330
FA75B
330
FA7A5
330
FA7D5
330
FA768
330
FA75D
102
}
330
A
100
AcDbSymbolTableRecord
100
AcDbDimStyleTableRecord
  2
2014+$0
 70
     0
 40
0.0
 41
2.0
 42
2.0
 43
3.75
 44
1.0
 73
     0
 74
     0
 77
     3
 78
     8
140
2.0
141
2.5
143
0.03937007874016
147
0.75
171
     3
172
     1
175
     1
176
   256
177
   256
178
   256
271
     2
272
     2
274
     3
283
     0
284
     8
340
F61F9
371
    -1
372
    -1
1001
ACAD_DSTYLE_DIMBREAK
1070
   391
1040
3.75
1001
ACAD_DSTYLE_DIMJAG
1070
   388
1040
1.5
  0
ENDTAB
  0
TABLE
  2
BLOCK_RECORD
  5
1
330
0
100
AcDbSymbolTable
 70
    20
  0
BLOCK_RECORD
  5
1F
102
{ACAD_XDICTIONARY
360
16D78
102
}
330
1
100
AcDbSymbolTableRecord
100
AcDbBlockTableRecord
  2
*Model_Space
340
22
  0
BLOCK_RECORD
  5
FAC67
330
1
100
AcDbSymbolTableRecord
100
AcDbBlockTableRecord
  2
*Paper_Space
340
FAC68
  0
BLOCK_RECORD
  5
16D66
330
1
100
AcDbSymbolTableRecord
100
AcDbBlockTableRecord
  2
GENAXEH
340
0
  0
BLOCK_RECORD
  5
FA941
330
1
100
AcDbSymbolTableRecord
100
AcDbBlockTableRecord
  2
*D3
340
0
  0
BLOCK_RECORD
  5
FA94D
330
1
100
AcDbSymbolTableRecord
100
AcDbBlockTableRecord
  2
*D4
340
0
  0
BLOCK_RECORD
  5
FA965
330
1
100
AcDbSymbolTableRecord
100
AcDbBlockTableRecord
  2
*D6
340
0
  0
BLOCK_RECORD
  5
FA97D
330
1
100
AcDbSymbolTableRecord
100
AcDbBlockTableRecord
  2
*D8
340
0
  0
BLOCK_RECORD
  5
FA998
330
1
100
AcDbSymbolTableRecord
100
AcDbBlockTableRecord
  2
*D10
340
0
  0
BLOCK_RECORD
  5
FA9B0
330
1
100
AcDbSymbolTableRecord
100
AcDbBlockTableRecord
  2
*D12
340
0
  0
BLOCK_RECORD
  5
FA9C8
330
1
100
AcDbSymbolTableRecord
100
AcDbBlockTableRecord
  2
*D14
340
0
  0
BLOCK_RECORD
  5
FA9D4
330
1
100
AcDbSymbolTableRecord
100
AcDbBlockTableRecord
  2
*D15
340
0
  0
BLOCK_RECORD
  5
FA9E2
330
1
100
AcDbSymbolTableRecord
100
AcDbBlockTableRecord
  2
*D16
340
0
  0
ENDTAB
  0
ENDSEC
  0
SECTION
  2
BLOCKS
  0
BLOCK
  5
20
330
1F
100
AcDbEntity
  8
0
100
AcDbBlockBegin
  2
*Model_Space
 70
     0
 10
0.0
 20
0.0
 30
0.0
  3
*Model_Space
  1

  0
ENDBLK
  5
21
330
1F
100
AcDbEntity
  8
0
100
AcDbBlockEnd
  0
BLOCK
  5
FAC69
330
FAC67
100
AcDbEntity
 67
     1
  8
0
100
AcDbBlockBegin
  2
*Paper_Space
 70
     0
 10
0.0
 20
0.0
 30
0.0
  3
*Paper_Space
  1

  0
ENDBLK
  5
FAC6A
330
FAC67
100
AcDbEntity
 67
     1
  8
0
100
AcDbBlockEnd
  0
BLOCK
  5
16D68
330
16D66
100
AcDbEntity
  8
0
100
AcDbBlockBegin
  2
GENAXEH
 70
     0
 10
0.0
 20
0.0
 30
0.0
  3
GENAXEH
  1

  0
LINE
  5
16D67
330
16D66
100
AcDbEntity
  8
0
100
AcDbLine
 10
-1.0
 20
0.0
 30
0.0
 11
1.0
 21
0.0
 31
0.0
  0
ENDBLK
  5
16D69
330
16D66
100
AcDbEntity
  8
0
100
AcDbBlockEnd
  0
BLOCK
  5
FA94B
330
FA941
100
AcDbEntity
  8
0
100
AcDbBlockBegin
  2
*D3
 70
     1
 10
0.0
 20
0.0
 30
0.0
  3
*D3
  1

  0
LINE
  5
FADA9
330
FA941
100
AcDbEntity
  8
AM_5
440
 16777216
100
AcDbLine
 10
92.56304880565927
 20
60.20440187757866
 30
0.0
 11
130.6642561034975
 21
60.20440187757866
 31
0.0
  0
LINE
  5
FADAA
330
FA941
100
AcDbEntity
  8
AM_5
440
 16777216
100
AcDbLine
 10
92.56304880565927
 20
340.2044018775809
 30
0.0
 11
130.6642561034976
 21
340.2044018775809
 31
0.0
  0
LINE
  5
FADAB
330
FA941
100
AcDbEntity
  8
AM_5
440
 16777216
100
AcDbLine
 10
129.6642561034975
 20
62.20440187757867
 30
0.0
 11
129.6642561034976
 21
338.2044018775809
 31
0.0
  0
SOLID
  5
FADAC
330
FA941
100
AcDbEntity
  8
AM_5
440
 16777216
100
AcDbTrace
 10
129.3309227701642
 20
62.20440187757867
 30
0.0
 11
129.9975894368309
 21
62.20440187757867
 31
0.0
 12
129.6642561034975
 22
60.20440187757866
 32
0.0
 13
129.6642561034975
 23
60.20440187757866
 33
0.0
  0
SOLID
  5
FADAD
330
FA941
100
AcDbEntity
  8
AM_5
440
 16777216
100
AcDbTrace
 10
129.3309227701643
 20
338.2044018775809
 30
0.0
 11
129.997589436831
 21
338.2044018775809
 31
0.0
 12
129.6642561034976
 22
340.2044018775809
 32
0.0
 13
129.6642561034976
 23
340.2044018775809
 33
0.0
  0
MTEXT
  5
FADAE
330
FA941
100
AcDbEntity
  8
AM_5
440
 16777216
100
AcDbMText
 10
127.9142561034976
 20
200.2044018775798
 30
0.0
 40
2.0
 41
0.0
 71
     5
 72
     1
  1
280
  7
2014++
 11
0.0000000000000001
 21
1.0
 31
0.0
 73
     1
 44
1.0
1001
ACAD
1000
MTEXTBEGIN
1070
    73
1070
     1
1070
    44
1040
1.0
1070
    74
1070
     0
1000
MTEXTEND
  0
POINT
  5
FADAF
330
FA941
100
AcDbEntity
  8
Defpoints
 62
     0
440
 16777216
100
AcDbPoint
 10
90.56304880565928
 20
60.20440187757866
 30
0.0
  0
POINT
  5
FADB0
330
FA941
100
AcDbEntity
  8
Defpoints
 62
     0
440
 16777216
100
AcDbPoint
 10
90.56304880565928
 20
340.2044018775809
 30
0.0
  0
POINT
  5
FADB1
330
FA941
100
AcDbEntity
  8
Defpoints
 62
     0
440
 16777216
100
AcDbPoint
 10
129.6642561034976
 20
340.2044018775809
 30
0.0
  0
ENDBLK
  5
FA94C
330
FA941
100
AcDbEntity
  8
0
100
AcDbBlockEnd
  0
BLOCK
  5
FA957
330
FA94D
100
AcDbEntity
  8
0
100
AcDbBlockBegin
  2
*D4
 70
     1
 10
0.0
 20
0.0
 30
0.0
  3
*D4
  1

  0
LINE
  5
FAEE0
330
FA94D
100
AcDbEntity
  8
AM_5
440
 16777216
100
AcDbLine
 10
52.10736004959153
 20
91.70440187758106
 30
0.0
 11
29.99177868291124
 21
91.70440187758108
 31
0.0
  0
LINE
  5
FAEE1
330
FA94D
100
AcDbEntity
  8
AM_5
440
 16777216
100
AcDbLine
 10
52.10736004959153
 20
78.70440187758096
 30
0.0
 11
29.99177868291123
 21
78.70440187758098
 31
0.0
  0
LINE
  5
FAEE2
330
FA94D
100
AcDbEntity
  8
AM_5
440
 16777216
100
AcDbLine
 10
30.99177868291123
 20
89.70440187758107
 30
0.0
 11
30.99177868291123
 21
80.70440187758098
 31
0.0
  0
SOLID
  5
FAEE3
330
FA94D
100
AcDbEntity
  8
AM_5
440
 16777216
100
AcDbTrace
 10
30.6584453495779
 20
89.70440187758107
 30
0.0
 11
31.32511201624457
 21
89.70440187758107
 31
0.0
 12
30.99177868291123
 22
91.70440187758108
 32
0.0
 13
30.99177868291123
 23
91.70440187758108
 33
0.0
  0
SOLID
  5
FAEE4
330
FA94D
100
AcDbEntity
  8
AM_5
440
 16777216
100
AcDbTrace
 10
30.6584453495779
 20
80.70440187758098
 30
0.0
 11
31.32511201624457
 21
80.70440187758098
 31
0.0
 12
30.99177868291123
 22
78.70440187758098
 32
0.0
 13
30.99177868291123
 23
78.70440187758098
 33
0.0
  0
MTEXT
  5
FAEE5
330
FA94D
100
AcDbEntity
  8
AM_5
440
 16777216
100
AcDbMText
 10
29.24177868291122
 20
84.97023306907818
 30
0.0
 40
2.0
 41
0.0
 71
     5
 72
     1
  1
13
  7
2014++
 11
0.0000000000000001
 21
1.0
 31
0.0
 73
     1
 44
1.0
  0
POINT
  5
FAEE6
330
FA94D
100
AcDbEntity
  8
Defpoints
 62
     0
440
 16777216
100
AcDbPoint
 10
54.10736004959153
 20
91.70440187758106
 30
0.0
  0
POINT
  5
FAEE7
330
FA94D
100
AcDbEntity
  8
Defpoints
 62
     0
440
 16777216
100
AcDbPoint
 10
54.10736004959153
 20
78.70440187758096
 30
0.0
  0
POINT
  5
FAEE8
330
FA94D
100
AcDbEntity
  8
Defpoints
 62
     0
440
 16777216
100
AcDbPoint
 10
30.99177868291123
 20
78.70440187758098
 30
0.0
  0
ENDBLK
  5
FA958
330
FA94D
100
AcDbEntity
  8
0
100
AcDbBlockEnd
  0
BLOCK
  5
FA96F
330
FA965
100
AcDbEntity
  8
0
100
AcDbBlockBegin
  2
*D6
 70
     1
 10
0.0
 20
0.0
 30
0.0
  3
*D6
  1

  0
LINE
  5
FADB2
330
FA965
100
AcDbEntity
  8
AM_5
440
 16777216
100
AcDbLine
 10
66.60735928595068
 20
340.2044018775809
 30
0.0
 11
114.7029034821456
 21
340.2044018775809
 31
0.0
  0
LINE
  5
FADB3
330
FA965
100
AcDbEntity
  8
AM_5
440
 16777216
100
AcDbLine
 10
68.10736004959061
 20
85.20440187758095
 30
0.0
 11
114.7029034821455
 21
85.20440187758094
 31
0.0
  0
LINE
  5
FADB4
330
FA965
100
AcDbEntity
  8
AM_5
440
 16777216
100
AcDbLine
 10
113.7029034821456
 20
338.2044018775809
 30
0.0
 11
113.7029034821455
 21
87.20440187758093
 31
0.0
  0
SOLID
  5
FADB5
330
FA965
100
AcDbEntity
  8
AM_5
440
 16777216
100
AcDbTrace
 10
113.3695701488122
 20
338.2044018775809
 30
0.0
 11
114.0362368154789
 21
338.2044018775809
 31
0.0
 12
113.7029034821456
 22
340.2044018775809
 32
0.0
 13
113.7029034821456
 23
340.2044018775809
 33
0.0
  0
SOLID
  5
FADB6
330
FA965
100
AcDbEntity
  8
AM_5
440
 16777216
100
AcDbTrace
 10
113.3695701488122
 20
87.20440187758093
 30
0.0
 11
114.0362368154788
 21
87.20440187758093
 31
0.0
 12
113.7029034821455
 22
85.20440187758094
 32
0.0
 13
113.7029034821455
 23
85.20440187758094
 33
0.0
  0
MTEXT
  5
FADB7
330
FA965
100
AcDbEntity
  8
AM_5
440
 16777216
100
AcDbMText
 10
111.9529034821455
 20
212.7044018775809
 30
0.0
 40
2.0
 41
0.0
 71
     5
 72
     1
  1
255
  7
2014++
 11
0.0000000000000001
 21
1.0
 31
0.0
 73
     1
 44
1.0
1001
ACAD
1000
MTEXTBEGIN
1070
    73
1070
     1
1070
    44
1040
1.0
1070
    74
1070
     0
1000
MTEXTEND
  0
POINT
  5
FADB8
330
FA965
100
AcDbEntity
  8
Defpoints
 62
     0
440
 16777216
100
AcDbPoint
 10
64.60735928595068
 20
340.2044018775809
 30
0.0
  0
POINT
  5
FADB9
330
FA965
100
AcDbEntity
  8
Defpoints
 62
     0
440
 16777216
100
AcDbPoint
 10
66.10736004959061
 20
85.20440187758095
 30
0.0
  0
POINT
  5
FADBA
330
FA965
100
AcDbEntity
  8
Defpoints
 62
     0
440
 16777216
100
AcDbPoint
 10
113.7029034821455
 20
85.20440187758094
 30
0.0
  0
ENDBLK
  5
FA970
330
FA965
100
AcDbEntity
  8
0
100
AcDbBlockEnd
  0
BLOCK
  5
FA987
330
FA97D
100
AcDbEntity
  8
0
100
AcDbBlockBegin
  2
*D8
 70
     1
 10
0.0
 20
0.0
 30
0.0
  3
*D8
  1

  0
LINE
  5
FADD6
330
FA97D
100
AcDbEntity
  8
AM_5
440
 16777216
100
AcDbLine
 10
39.60735928595068
 20
58.20440187758094
 30
0.0
 11
39.60735928595068
 21
29.30516844555802
 31
0.0
  0
LINE
  5
FADD7
330
FA97D
100
AcDbEntity
  8
AM_5
440
 16777216
100
AcDbLine
 10
79.60734992232073
 20
58.20440187758094
 30
0.0
 11
79.60734992232073
 21
29.30516844555802
 31
0.0
  0
LINE
  5
FADD8
330
FA97D
100
AcDbEntity
  8
AM_5
440
 16777216
100
AcDbLine
 10
41.60735928595068
 20
30.30516844555803
 30
0.0
 11
77.60734992232073
 21
30.30516844555803
 31
0.0
  0
SOLID
  5
FADD9
330
FA97D
100
AcDbEntity
  8
AM_5
440
 16777216
100
AcDbTrace
 10
41.60735928595068
 20
30.63850177889136
 30
0.0
 11
41.60735928595068
 21
29.97183511222469
 31
0.0
 12
39.60735928595068
 22
30.30516844555803
 32
0.0
 13
39.60735928595068
 23
30.30516844555803
 33
0.0
  0
SOLID
  5
FADDA
330
FA97D
100
AcDbEntity
  8
AM_5
440
 16777216
100
AcDbTrace
 10
77.60734992232073
 20
30.63850177889136
 30
0.0
 11
77.60734992232073
 21
29.97183511222469
 31
0.0
 12
79.60734992232073
 22
30.30516844555803
 32
0.0
 13
79.60734992232073
 23
30.30516844555803
 33
0.0
  0
MTEXT
  5
FADDB
330
FA97D
100
AcDbEntity
  8
AM_5
440
 16777216
100
AcDbMText
 10
59.6073546041357
 20
32.05516844555802
 30
0.0
 40
2.0
 41
0.0
 71
     5
 72
     1
  1
40
  7
2014++
 73
     1
 44
1.0
1001
ACAD
1000
MTEXTBEGIN
1070
    73
1070
     1
1070
    44
1040
1.0
1070
    74
1070
     0
1000
MTEXTEND
  0
POINT
  5
FADDC
330
FA97D
100
AcDbEntity
  8
Defpoints
 62
     0
440
 16777216
100
AcDbPoint
 10
39.60735928595068
 20
60.20440187758095
 30
0.0
  0
POINT
  5
FADDD
330
FA97D
100
AcDbEntity
  8
Defpoints
 62
     0
440
 16777216
100
AcDbPoint
 10
79.60734992232073
 20
60.20440187758095
 30
0.0
  0
POINT
  5
FADDE
330
FA97D
100
AcDbEntity
  8
Defpoints
 62
     0
440
 16777216
100
AcDbPoint
 10
79.60734992232073
 20
30.30516844555803
 30
0.0
  0
ENDBLK
  5
FA988
330
FA97D
100
AcDbEntity
  8
0
100
AcDbBlockEnd
  0
BLOCK
  5
FA9A2
330
FA998
100
AcDbEntity
  8
0
100
AcDbBlockBegin
  2
*D10
 70
     1
 10
0.0
 20
0.0
 30
0.0
  3
*D10
  1

  0
LINE
  5
FADBB
330
FA998
100
AcDbEntity
  8
AM_5
440
 16777216
100
AcDbLine
 10
81.6073553768706
 20
60.20440187757866
 30
0.0
 11
114.7029034821455
 21
60.20440187757866
 31
0.0
  0
LINE
  5
FADBC
330
FA998
100
AcDbEntity
  8
AM_5
440
 16777216
100
AcDbLine
 10
68.10736004959061
 20
85.20440187758095
 30
0.0
 11
114.7029034821455
 21
85.20440187758094
 31
0.0
  0
LINE
  5
FADBD
330
FA998
100
AcDbEntity
  8
AM_5
440
 16777216
100
AcDbLine
 10
113.7029034821455
 20
62.20440187757866
 30
0.0
 11
113.7029034821455
 21
83.20440187758093
 31
0.0
  0
SOLID
  5
FADBE
330
FA998
100
AcDbEntity
  8
AM_5
440
 16777216
100
AcDbTrace
 10
113.3695701488122
 20
62.20440187757866
 30
0.0
 11
114.0362368154788
 21
62.20440187757866
 31
0.0
 12
113.7029034821455
 22
60.20440187757866
 32
0.0
 13
113.7029034821455
 23
60.20440187757866
 33
0.0
  0
SOLID
  5
FADBF
330
FA998
100
AcDbEntity
  8
AM_5
440
 16777216
100
AcDbTrace
 10
113.3695701488122
 20
83.20440187758093
 30
0.0
 11
114.0362368154788
 21
83.20440187758093
 31
0.0
 12
113.7029034821455
 22
85.20440187758094
 32
0.0
 13
113.7029034821455
 23
85.20440187758094
 33
0.0
  0
MTEXT
  5
FADC0
330
FA998
100
AcDbEntity
  8
AM_5
440
 16777216
100
AcDbMText
 10
111.9529034821455
 20
72.70440187757983
 30
0.0
 40
2.0
 41
0.0
 71
     5
 72
     1
  1
25
  7
2014++
 11
0.0000000000000001
 21
1.0
 31
0.0
 73
     1
 44
1.0
1001
ACAD
1000
MTEXTBEGIN
1070
    73
1070
     1
1070
    44
1040
1.0
1070
    74
1070
     0
1000
MTEXTEND
  0
POINT
  5
FADC1
330
FA998
100
AcDbEntity
  8
Defpoints
 62
     0
440
 16777216
100
AcDbPoint
 10
79.6073553768706
 20
60.20440187757866
 30
0.0
  0
POINT
  5
FADC2
330
FA998
100
AcDbEntity
  8
Defpoints
 62
     0
440
 16777216
100
AcDbPoint
 10
66.10736004959061
 20
85.20440187758095
 30
0.0
  0
POINT
  5
FADC3
330
FA998
100
AcDbEntity
  8
Defpoints
 62
     0
440
 16777216
100
AcDbPoint
 10
113.7029034821455
 20
85.20440187758094
 30
0.0
  0
ENDBLK
  5
FA9A3
330
FA998
100
AcDbEntity
  8
0
100
AcDbBlockEnd
  0
BLOCK
  5
FA9BA
330
FA9B0
100
AcDbEntity
  8
0
100
AcDbBlockBegin
  2
*D12
 70
     1
 10
0.0
 20
0.0
 30
0.0
  3
*D12
  1

  0
LINE
  5
FADA0
330
FA9B0
100
AcDbEntity
  8
AM_5
440
 16777216
100
AcDbLine
 10
69.10735928595157
 20
180.2044018775808
 30
0.0
 11
98.76874223444792
 21
180.2044018775808
 31
0.0
  0
LINE
  5
FADA1
330
FA9B0
100
AcDbEntity
  8
AM_5
440
 16777216
100
AcDbLine
 10
66.90735928595177
 20
280.0528405754299
 30
0.0
 11
98.76874223444794
 21
280.0528405754299
 31
0.0
  0
LINE
  5
FADA2
330
FA9B0
100
AcDbEntity
  8
AM_5
440
 16777216
100
AcDbLine
 10
97.76874223444792
 20
182.2044018775808
 30
0.0
 11
97.76874223444792
 21
278.0528405754298
 31
0.0
  0
SOLID
  5
FADA3
330
FA9B0
100
AcDbEntity
  8
AM_5
440
 16777216
100
AcDbTrace
 10
97.43540890111461
 20
182.2044018775808
 30
0.0
 11
98.10207556778124
 21
182.2044018775808
 31
0.0
 12
97.76874223444792
 22
180.2044018775808
 32
0.0
 13
97.76874223444792
 23
180.2044018775808
 33
0.0
  0
SOLID
  5
FADA4
330
FA9B0
100
AcDbEntity
  8
AM_5
440
 16777216
100
AcDbTrace
 10
97.43540890111461
 20
278.0528405754298
 30
0.0
 11
98.10207556778124
 21
278.0528405754298
 31
0.0
 12
97.76874223444792
 22
280.0528405754299
 32
0.0
 13
97.76874223444792
 23
280.0528405754299
 33
0.0
  0
MTEXT
  5
FADA5
330
FA9B0
100
AcDbEntity
  8
AM_5
440
 16777216
100
AcDbMText
 10
96.01874223444788
 20
230.1286212265054
 30
0.0
 40
2.0
 41
0.0
 71
     5
 72
     1
  1
100
  7
2014++
 11
0.0000000000000001
 21
1.0
 31
0.0
 73
     1
 44
1.0
1001
ACAD
1000
MTEXTBEGIN
1070
    73
1070
     1
1070
    44
1040
1.0
1070
    74
1070
     0
1000
MTEXTEND
  0
POINT
  5
FADA6
330
FA9B0
100
AcDbEntity
  8
Defpoints
 62
     0
440
 16777216
100
AcDbPoint
 10
67.10735928595159
 20
180.2044018775808
 30
0.0
  0
POINT
  5
FADA7
330
FA9B0
100
AcDbEntity
  8
Defpoints
 62
     0
440
 16777216
100
AcDbPoint
 10
64.90735928595177
 20
280.0528405754299
 30
0.0
  0
POINT
  5
FADA8
330
FA9B0
100
AcDbEntity
  8
Defpoints
 62
     0
440
 16777216
100
AcDbPoint
 10
97.76874223444792
 20
280.0528405754299
 30
0.0
  0
ENDBLK
  5
FA9BB
330
FA9B0
100
AcDbEntity
  8
0
100
AcDbBlockEnd
  0
BLOCK
  5
FA9D2
330
FA9C8
100
AcDbEntity
  8
0
100
AcDbBlockBegin
  2
*D14
 70
     1
 10
0.0
 20
0.0
 30
0.0
  3
*D14
  1

  0
LINE
  5
FAD7A
330
FA9C8
100
AcDbEntity
  8
AM_5
440
 16777216
100
AcDbLine
 10
201.0367372909986
 20
348.1029431835743
 30
0.0
 11
201.0367372909986
 21
366.0515322949124
 31
0.0
  0
LINE
  5
FAD7B
330
FA9C8
100
AcDbEntity
  8
AM_5
440
 16777216
100
AcDbLine
 10
223.0367372909987
 20
182.1877275133408
 30
0.0
 11
223.0367372909987
 21
366.0515322949124
 31
0.0
  0
LINE
  5
FAD7C
330
FA9C8
100
AcDbEntity
  8
AM_5
440
 16777216
100
AcDbLine
 10
203.0367372909986
 20
365.0515322949124
 30
0.0
 11
221.0367372909987
 21
365.0515322949124
 31
0.0
  0
SOLID
  5
FAD7D
330
FA9C8
100
AcDbEntity
  8
AM_5
440
 16777216
100
AcDbTrace
 10
203.0367372909986
 20
365.3848656282457
 30
0.0
 11
203.0367372909986
 21
364.718198961579
 31
0.0
 12
201.0367372909986
 22
365.0515322949124
 32
0.0
 13
201.0367372909986
 23
365.0515322949124
 33
0.0
  0
SOLID
  5
FAD7E
330
FA9C8
100
AcDbEntity
  8
AM_5
440
 16777216
100
AcDbTrace
 10
221.0367372909987
 20
365.3848656282457
 30
0.0
 11
221.0367372909987
 21
364.718198961579
 31
0.0
 12
223.0367372909987
 22
365.0515322949124
 32
0.0
 13
223.0367372909987
 23
365.0515322949124
 33
0.0
  0
MTEXT
  5
FAD7F
330
FA9C8
100
AcDbEntity
  8
AM_5
440
 16777216
100
AcDbMText
 10
212.0367372909986
 20
366.8015322949124
 30
0.0
 40
2.0
 41
0.0
 71
     5
 72
     1
  1
22
  7
2014++
 73
     1
 44
1.0
1001
ACAD
1000
MTEXTBEGIN
1070
    73
1070
     1
1070
    44
1040
1.0
1070
    74
1070
     0
1000
MTEXTEND
  0
POINT
  5
FAD80
330
FA9C8
100
AcDbEntity
  8
Defpoints
 62
     0
440
 16777216
100
AcDbPoint
 10
201.0367372909986
 20
346.1029431835743
 30
0.0
  0
POINT
  5
FAD81
330
FA9C8
100
AcDbEntity
  8
Defpoints
 62
     0
440
 16777216
100
AcDbPoint
 10
223.0367372909987
 20
180.1877275133408
 30
0.0
  0
POINT
  5
FAD82
330
FA9C8
100
AcDbEntity
  8
Defpoints
 62
     0
440
 16777216
100
AcDbPoint
 10
223.0367372909987
 20
365.0515322949124
 30
0.0
  0
ENDBLK
  5
FA9D3
330
FA9C8
100
AcDbEntity
  8
0
100
AcDbBlockEnd
  0
BLOCK
  5
FA9E0
330
FA9D4
100
AcDbEntity
  8
0
100
AcDbBlockBegin
  2
*D15
 70
     1
 10
0.0
 20
0.0
 30
0.0
  3
*D15
  1

  0
LINE
  5
FAED7
330
FA9D4
100
AcDbEntity
  8
AM_5
440
 16777216
100
AcDbLine
 10
66.10736004959061
 20
92.70440187758094
 30
0.0
 11
66.10736004959061
 21
101.8481661462309
 31
0.0
  0
LINE
  5
FAED8
330
FA9D4
100
AcDbEntity
  8
AM_5
440
 16777216
100
AcDbLine
 10
53.10736004959061
 20
92.70440187758094
 30
0.0
 11
53.10736004959061
 21
101.8481661462309
 31
0.0
  0
LINE
  5
FAED9
330
FA9D4
100
AcDbEntity
  8
AM_5
440
 16777216
100
AcDbLine
 10
64.10736004959061
 20
100.8481661462309
 30
0.0
 11
55.10736004959062
 21
100.8481661462309
 31
0.0
  0
SOLID
  5
FAEDA
330
FA9D4
100
AcDbEntity
  8
AM_5
440
 16777216
100
AcDbTrace
 10
64.10736004959061
 20
101.1814994795642
 30
0.0
 11
64.10736004959061
 21
100.5148328128976
 31
0.0
 12
66.10736004959061
 22
100.8481661462309
 32
0.0
 13
66.10736004959061
 23
100.8481661462309
 33
0.0
  0
SOLID
  5
FAEDB
330
FA9D4
100
AcDbEntity
  8
AM_5
440
 16777216
100
AcDbTrace
 10
55.10736004959062
 20
101.1814994795642
 30
0.0
 11
55.10736004959062
 21
100.5148328128976
 31
0.0
 12
53.10736004959061
 22
100.8481661462309
 32
0.0
 13
53.10736004959061
 23
100.8481661462309
 33
0.0
  0
MTEXT
  5
FAEDC
330
FA9D4
100
AcDbEntity
  8
AM_5
440
 16777216
100
AcDbMText
 10
59.60736004959063
 20
102.5981661462309
 30
0.0
 40
2.0
 41
0.0
 71
     5
 72
     1
  1
13
  7
2014++
 73
     1
 44
1.0
  0
POINT
  5
FAEDD
330
FA9D4
100
AcDbEntity
  8
Defpoints
 62
     0
440
 16777216
100
AcDbPoint
 10
66.10736004959061
 20
90.70440187758093
 30
0.0
  0
POINT
  5
FAEDE
330
FA9D4
100
AcDbEntity
  8
Defpoints
 62
     0
440
 16777216
100
AcDbPoint
 10
53.10736004959061
 20
90.70440187758093
 30
0.0
  0
POINT
  5
FAEDF
330
FA9D4
100
AcDbEntity
  8
Defpoints
 62
     0
440
 16777216
100
AcDbPoint
 10
53.10736004959061
 20
100.8481661462309
 30
0.0
  0
ENDBLK
  5
FA9E1
330
FA9D4
100
AcDbEntity
  8
0
100
AcDbBlockEnd
  0
BLOCK
  5
FA9EC
330
FA9E2
100
AcDbEntity
  8
0
100
AcDbBlockBegin
  2
*D16
 70
     1
 10
0.0
 20
0.0
 30
0.0
  3
*D16
  1

  0
LINE
  5
FADFB
330
FA9E2
100
AcDbEntity
  8
AM_5
440
 16777216
100
AcDbLine
 10
66.60735928595068
 20
340.2044018775809
 30
0.0
 11
98.76874223444794
 21
340.2044018775809
 31
0.0
  0
LINE
  5
FADFC
330
FA9E2
100
AcDbEntity
  8
AM_5
440
 16777216
100
AcDbLine
 10
66.90735928595177
 20
280.0528405754299
 30
0.0
 11
98.76874223444794
 21
280.0528405754299
 31
0.0
  0
LINE
  5
FADFD
330
FA9E2
100
AcDbEntity
  8
AM_5
440
 16777216
100
AcDbLine
 10
97.76874223444794
 20
338.2044018775809
 30
0.0
 11
97.76874223444792
 21
282.0528405754298
 31
0.0
  0
SOLID
  5
FADFE
330
FA9E2
100
AcDbEntity
  8
AM_5
440
 16777216
100
AcDbTrace
 10
97.43540890111461
 20
338.2044018775809
 30
0.0
 11
98.10207556778127
 21
338.2044018775809
 31
0.0
 12
97.76874223444794
 22
340.2044018775809
 32
0.0
 13
97.76874223444794
 23
340.2044018775809
 33
0.0
  0
SOLID
  5
FADFF
330
FA9E2
100
AcDbEntity
  8
AM_5
440
 16777216
100
AcDbTrace
 10
97.43540890111461
 20
282.0528405754298
 30
0.0
 11
98.10207556778124
 21
282.0528405754298
 31
0.0
 12
97.76874223444792
 22
280.0528405754299
 32
0.0
 13
97.76874223444792
 23
280.0528405754299
 33
0.0
  0
MTEXT
  5
FAE00
330
FA9E2
100
AcDbEntity
  8
AM_5
440
 16777216
100
AcDbMText
 10
96.01874223444788
 20
310.1286212265054
 30
0.0
 40
2.0
 41
0.0
 71
     5
 72
     1
  1
60
  7
2014++
 11
0.0000000000000001
 21
1.0
 31
0.0
 73
     1
 44
1.0
1001
ACAD
1000
MTEXTBEGIN
1070
    73
1070
     1
1070
    44
1040
1.0
1070
    74
1070
     0
1000
MTEXTEND
  0
POINT
  5
FAE01
330
FA9E2
100
AcDbEntity
  8
Defpoints
 62
     0
440
 16777216
100
AcDbPoint
 10
64.60735928595068
 20
340.2044018775809
 30
0.0
  0
POINT
  5
FAE02
330
FA9E2
100
AcDbEntity
  8
Defpoints
 62
     0
440
 16777216
100
AcDbPoint
 10
64.90735928595177
 20
280.0528405754299
 30
0.0
  0
POINT
  5
FAE03
330
FA9E2
100
AcDbEntity
  8
Defpoints
 62
     0
440
 16777216
100
AcDbPoint
 10
97.76874223444792
 20
280.0528405754299
 30
0.0
  0
ENDBLK
  5
FA9ED
330
FA9E2
100
AcDbEntity
  8
0
100
AcDbBlockEnd
  0
ENDSEC
  0
SECTION
  2
ENTITIES
  0
LINE
  5
FA752
330
1F
100
AcDbEntity
  8
AM_5
100
AcDbLine
 10
223.0367372909986
 20
60.18772751334085
 30
0.0
 11
223.0367372909987
 21
122.584133627804
 31
0.0
  0
LINE
  5
FA753
330
1F
100
AcDbEntity
  8
AM_5
100
AcDbLine
 10
219.8367372909988
 20
60.18772751334085
 30
0.0
 11
219.8367372909988
 21
122.584133627804
 31
0.0
  0
LINE
  5
FA754
330
1F
100
AcDbEntity
  8
AM_5
100
AcDbLine
 10
79.6073553768706
 20
60.20440187757866
 30
0.0
 11
79.60737255869069
 21
123.2044018775749
 31
0.0
  0
LINE
  5
FA755
330
1F
100
AcDbEntity
  8
AM_5
100
AcDbLine
 10
39.60735928595068
 20
60.20440187758095
 30
0.0
 11
39.60735928595068
 21
123.2044018775808
 31
0.0
  0
LINE
  5
FA756
330
1F
100
AcDbEntity
  8
AM_5
100
AcDbLine
 10
66.10736004959061
 20
79.70440187758097
 30
0.0
 11
66.10736004959061
 21
90.70440187758093
 31
0.0
  0
LINE
  5
FA757
330
1F
100
AcDbEntity
  8
AM_5
100
AcDbLine
 10
53.10736004959061
 20
79.70440187758097
 30
0.0
 11
53.10736004959061
 21
90.70440187758093
 31
0.0
  0
DIMENSION
  5
FA75A
330
1F
100
AcDbEntity
  8
AM_5
100
AcDbDimension
  2
*D3
 10
129.6642561034976
 20
340.2044018775809
 30
0.0
 11
129.6642561034975
 21
200.2044018775798
 31
0.0
 70
   160
  1
280
 71
     5
 42
280.0000000000023
  3
2014+$0
100
AcDbAlignedDimension
 13
90.56304880565928
 23
60.20440187757866
 33
0.0
 14
90.56304880565928
 24
340.2044018775809
 34
0.0
 50
90.0
100
AcDbRotatedDimension
1001
ACAD
1000
DSTYLE
1002
{
1070
    40
1040
1.0
1002
}
1001
ACAD_DSTYLE_DIMINSPECT
1070
   396
1000
100%
1070
   395
1000

1070
   394
1070
    33
1070
   393
1070
     0
  0
DIMENSION
  5
FA75B
330
1F
100
AcDbEntity
  8
AM_5
100
AcDbDimension
  2
*D4
 10
30.99177868291123
 20
78.70440187758098
 30
0.0
 11
30.99177868291122
 21
84.97023306907818
 31
0.0
 70
   160
 71
     5
 42
13.0000000000001
  3
2014+$0
100
AcDbAlignedDimension
 13
54.10736004959153
 23
91.70440187758106
 33
0.0
 14
54.10736004959153
 24
78.70440187758096
 34
0.0
 50
90.0
100
AcDbRotatedDimension
1001
ACAD_DSTYLE_DIMINSPECT
1070
   396
1000
100%
1070
   395
1000

1070
   394
1070
    33
1070
   393
1070
     0
1001
ACAD
1000
DSTYLE
1002
{
1070
    40
1040
1.0
1002
}
  0
DIMENSION
  5
FA75D
330
1F
100
AcDbEntity
  8
AM_5
100
AcDbDimension
  2
*D6
 10
113.7029034821455
 20
85.20440187758094
 30
0.0
 11
111.9529034821455
 21
212.7044018775809
 31
0.0
 70
    32
  1
<>
 71
     5
 42
255.0
  3
2014+$0
100
AcDbAlignedDimension
 13
64.60735928595068
 23
340.2044018775809
 33
0.0
 14
66.10736004959061
 24
85.20440187758095
 34
0.0
 50
90.0
100
AcDbRotatedDimension
1001
ACAD
1000
DSTYLE
1002
{
1070
    40
1040
1.0
1002
}
1001
ACAD_DSTYLE_DIMINSPECT
1070
   396
1000
100%
1070
   395
1000

1070
   394
1070
    33
1070
   393
1070
     0
  0
LINE
  5
FA75E
330
1F
100
AcDbEntity
  8
AM_5
100
AcDbLine
 10
65.10736004959063
 20
78.70440187758096
 30
0.0
 11
54.10736004959153
 21
78.70440187758096
 31
0.0
  0
DIMENSION
  5
FA762
330
1F
100
AcDbEntity
  8
AM_5
100
AcDbDimension
  2
*D8
 10
79.60734992232073
 20
30.30516844555803
 30
0.0
 11
59.6073546041357
 21
32.05516844555802
 31
0.0
 70
    32
  1
<>
 71
     5
 42
39.99999063637007
  3
2014+$0
100
AcDbAlignedDimension
 13
39.60735928595068
 23
60.20440187758095
 33
0.0
 14
79.60734992232073
 24
60.20440187758095
 34
0.0
 50
180.0
100
AcDbRotatedDimension
1001
ACAD
1000
DSTYLE
1002
{
1070
    40
1040
1.0
1002
}
1001
ACAD_DSTYLE_DIMINSPECT
1070
   396
1000
100%
1070
   395
1000

1070
   394
1070
    33
1070
   393
1070
     0
  0
LINE
  5
FA764
330
1F
100
AcDbEntity
  8
AM_5
100
AcDbLine
 10
79.60734992232073
 20
60.20440187758095
 30
0.0
 11
39.60735928595068
 21
60.20440187758095
 31
0.0
  0
LINE
  5
FA766
330
1F
100
AcDbEntity
  8
AM_5
100
AcDbLine
 10
219.8367372909988
 20
60.18772751334085
 30
0.0
 11
223.0367372909986
 21
60.18772751334085
 31
0.0
  0
LINE
  5
FA767
330
1F
100
AcDbEntity
  8
AM_5
100
AcDbLine
 10
219.8367372909988
 20
78.07940187758096
 30
0.0
 11
223.0367372909987
 21
78.07940187758096
 31
0.0
  0
DIMENSION
  5
FA768
330
1F
100
AcDbEntity
  8
AM_5
100
AcDbDimension
  2
*D10
 10
113.7029034821455
 20
85.20440187758094
 30
0.0
 11
111.9529034821455
 21
72.70440187757983
 31
0.0
 70
    32
 71
     5
 42
25.00000000000227
  3
2014+$0
100
AcDbAlignedDimension
 13
79.6073553768706
 23
60.20440187757866
 33
0.0
 14
66.10736004959061
 24
85.20440187758095
 34
0.0
 50
90.0
100
AcDbRotatedDimension
1001
ACAD
1000
DSTYLE
1002
{
1070
    40
1040
1.0
1002
}
1001
ACAD_DSTYLE_DIMINSPECT
1070
   396
1000
100%
1070
   395
1000

1070
   394
1070
    33
1070
   393
1070
     0
  0
ARC
  5
FA76D
330
1F
100
AcDbEntity
  8
AM_5
100
AcDbCircle
 10
65.10736004959063
 20
79.70440187758097
 30
0.0
 40
1.0
100
AcDbArc
 50
270.0
 51
0.0
  0
ARC
  5
FA790
330
1F
100
AcDbEntity
  8
AM_5
100
AcDbCircle
 10
54.10736004959153
 20
79.70440187758097
 30
0.0
 40
1.0
100
AcDbArc
 50
180.0
 51
270.0
  0
LINE
  5
FA791
330
1F
100
AcDbEntity
  8
AM_5
100
AcDbLine
 10
64.90735928595177
 20
150.2044018775809
 30
0.0
 11
64.90735928595177
 21
280.0528405754299
 31
0.0
  0
LINE
  5
FA792
330
1F
100
AcDbEntity
  8
AM_5
100
AcDbLine
 10
54.3073592859505
 20
150.2044018775809
 30
0.0
 11
54.3073592859505
 21
280.0534315754898
 31
0.0
  0
LINE
  5
FA793
330
1F
100
AcDbEntity
  8
AM_5
100
AcDbLine
 10
196.4884840136392
 20
150.1877275133408
 30
0.0
 11
196.4884840136392
 21
280.1877275133409
 31
0.0
  0
LINE
  5
FA794
330
1F
100
AcDbEntity
  8
AM_5
100
AcDbLine
 10
207.0884840136393
 20
180.1877275133408
 30
0.0
 11
207.0884840136393
 21
280.187727513341
 31
0.0
  0
DIMENSION
  5
FA795
330
1F
100
AcDbEntity
  8
AM_5
100
AcDbDimension
  2
*D12
 10
97.76874223444792
 20
280.0528405754299
 30
0.0
 11
96.01874223444788
 21
230.1286212265054
 31
0.0
 70
    32
  1
100
 71
     5
 42
99.84843869784901
  3
2014+$0
100
AcDbAlignedDimension
 13
67.10735928595159
 23
180.2044018775808
 33
0.0
 14
64.90735928595177
 24
280.0528405754299
 34
0.0
 50
90.0
100
AcDbRotatedDimension
1001
ACAD
1000
DSTYLE
1002
{
1070
    40
1040
1.0
1002
}
1001
ACAD_DSTYLE_DIMINSPECT
1070
   396
1000
100%
1070
   395
1000

1070
   394
1070
    33
1070
   393
1070
     0
  0
LINE
  5
FA797
330
1F
100
AcDbEntity
  8
AM_5
100
AcDbLine
 10
59.60735928595114
 20
144.2725118431078
 30
0.0
 11
59.60735928595114
 21
346.1029431835743
 31
0.0
  0
LINE
  5
FA798
330
1F
100
AcDbEntity
  8
AM_5
100
AcDbLine
 10
201.0367372909986
 20
144.2725118431078
 30
0.0
 11
201.0367372909986
 21
346.1029431835743
 31
0.0
  0
DIMENSION
  5
FA799
330
1F
100
AcDbEntity
  8
AM_5
100
AcDbDimension
  2
*D14
 10
223.0367372909987
 20
365.0515322949124
 30
0.0
 11
212.0367372909986
 21
365.0515322949124
 31
0.0
 70
   160
 71
     5
 42
22.0
  3
2014+$0
100
AcDbAlignedDimension
 13
201.0367372909986
 23
346.1029431835743
 33
0.0
 14
223.0367372909987
 24
180.1877275133408
 34
0.0
 50
180.0
100
AcDbRotatedDimension
1001
ACAD
1000
DSTYLE
1002
{
1070
    40
1040
1.0
1002
}
1001
ACAD_DSTYLE_DIMINSPECT
1070
   396
1000
100%
1070
   395
1000

1070
   394
1070
    33
1070
   393
1070
     0
  0
LINE
  5
FA79A
330
1F
100
AcDbEntity
  8
AM_5
100
AcDbLine
 10
223.0367372909987
 20
122.584133627804
 30
0.0
 11
223.0367372909987
 21
180.1877275133408
 31
0.0
  0
LINE
  5
FA79B
330
1F
100
AcDbEntity
  8
AM_5
100
AcDbLine
 10
219.8367372909988
 20
126.3177302109128
 30
0.0
 11
219.8367372909988
 21
180.1877275133408
 31
0.0
  0
LINE
  5
FA79C
330
1F
100
AcDbEntity
  8
AM_5
100
AcDbLine
 10
204.8404757734988
 20
150.1877275133408
 30
0.0
 11
204.8404757734988
 21
180.1877275133408
 31
0.0
  0
LINE
  5
FA79D
330
1F
100
AcDbEntity
  8
AM_5
100
AcDbLine
 10
207.0884840136393
 20
150.1877275133408
 30
0.0
 11
207.0884840136393
 21
180.1877275133408
 31
0.0
  0
LINE
  5
FA7A0
330
1F
100
AcDbEntity
  8
AM_5
100
AcDbLine
 10
67.10735928595159
 20
151.6714985077598
 30
0.0
 11
67.10735928595159
 21
180.2044018775808
 31
0.0
  0
LINE
  5
FA7A1
330
1F
100
AcDbEntity
  8
AM_5
100
AcDbLine
 10
52.10735928595068
 20
151.2144018775809
 30
0.0
 11
52.10735928595068
 21
180.2044018775808
 31
0.0
  0
LINE
  5
FA7A2
330
1F
100
AcDbEntity
  8
AM_5
100
AcDbLine
 10
54.3073592859505
 20
150.2044018775809
 30
0.0
 11
64.90735928595177
 21
150.2044018775809
 31
0.0
  0
LINE
  5
FA7A3
330
1F
100
AcDbEntity
  8
AM_5
100
AcDbLine
 10
65.10736004959063
 20
91.70440187758094
 30
0.0
 11
54.10736004959153
 21
91.70440187758094
 31
0.0
  0
ARC
  5
FA7A4
330
1F
100
AcDbEntity
  8
AM_5
100
AcDbCircle
 10
109.4018900595606
 20
155.3362366284441
 30
0.0
 40
45.0
100
AcDbArc
 50
186.5483013642081
 51
228.5397196584529
  0
DIMENSION
  5
FA7A5
330
1F
100
AcDbEntity
  8
AM_5
100
AcDbDimension
  2
*D15
 10
53.10736004959061
 20
100.8481661462309
 30
0.0
 11
59.60736004959063
 21
100.8481661462309
 31
0.0
 70
   160
 71
     5
 42
12.99999999999999
  3
2014+$0
100
AcDbAlignedDimension
 13
66.10736004959061
 23
90.70440187758093
 33
0.0
 14
53.10736004959061
 24
90.70440187758093
 34
0.0
 50
180.0
100
AcDbRotatedDimension
1001
ACAD_DSTYLE_DIMINSPECT
1070
   396
1000
100%
1070
   395
1000

1070
   394
1070
    33
1070
   393
1070
     0
1001
ACAD
1000
DSTYLE
1002
{
1070
    40
1040
1.0
1002
}
  0
ARC
  5
FA7A7
330
1F
100
AcDbEntity
  8
AM_5
100
AcDbCircle
 10
249.3233681126489
 20
157.0877302109129
 30
0.0
 40
45.0
100
AcDbArc
 50
188.6943800765738
 51
229.2326757560159
  0
ARC
  5
FA7A8
330
1F
100
AcDbEntity
  8
AM_5
100
AcDbCircle
 10
245.1733678094688
 20
163.5877329084839
 30
0.0
 40
45.0
100
AcDbArc
 50
217.4721970451515
 51
238.2875688287595
  0
ARC
  5
FA7A9
330
1F
100
AcDbEntity
  8
AM_5
100
AcDbCircle
 10
112.0357181227409
 20
154.4037758433808
 30
0.0
 40
45.0
100
AcDbArc
 50
183.1895658322091
 51
223.8934476503256
  0
LINE
  5
FA7AA
330
1F
100
AcDbEntity
  8
AM_5
100
AcDbLine
 10
219.8367372909988
 20
91.70440187758094
 30
0.0
 11
223.0367372909987
 21
91.70440187758094
 31
0.0
  0
ARC
  5
FA7AB
330
1F
100
AcDbEntity
  8
AM_5
100
AcDbCircle
 10
219.8367372909988
 20
122.584133627804
 30
0.0
 40
3.2
100
AcDbArc
 50
0.0
 51
58.28756882875953
  0
ARC
  5
FA7AC
330
1F
100
AcDbEntity
  8
AM_5
100
AcDbCircle
 10
65.10736004959063
 20
90.704401877581
 30
0.0
 40
1.0
100
AcDbArc
 50
0.0
 51
90.0
  0
LINE
  5
FA7AD
330
1F
100
AcDbEntity
  8
AM_5
100
AcDbLine
 10
204.8404757734988
 20
150.1877275133408
 30
0.0
 11
196.4884840136392
 21
150.1877275133408
 31
0.0
  0
LINE
  5
FA7AE
330
1F
100
AcDbEntity
  8
AM_5
100
AcDbLine
 10
207.0884840136393
 20
150.1877275133408
 30
0.0
 11
204.8404757734988
 21
150.1877275133408
 31
0.0
  0
ARC
  5
FA7AF
330
1F
100
AcDbEntity
  8
AM_5
100
AcDbCircle
 10
7.179000449170416
 20
154.4037758433808
 30
0.0
 40
45.0
100
AcDbArc
 50
316.1065523496743
 51
356.8104341677909
  0
ARC
  5
FA7B0
330
1F
100
AcDbEntity
  8
AM_5
100
AcDbCircle
 10
9.812828512350732
 20
155.3362366284441
 30
0.0
 40
45.0
100
AcDbArc
 50
311.4602803415471
 51
353.4516986357918
  0
ARC
  5
FA7B1
330
1F
100
AcDbEntity
  8
AM_5
100
AcDbCircle
 10
54.10736004959153
 20
90.704401877581
 30
0.0
 40
1.0
100
AcDbArc
 50
90.0
 51
180.0
  0
LINE
  5
FA7B2
330
1F
100
AcDbEntity
  8
AM_5
100
AcDbLine
 10
223.0367372909987
 20
180.1877275133408
 30
0.0
 11
204.8404757734988
 21
180.1877275133408
 31
0.0
  0
LINE
  5
FA7B3
330
1F
100
AcDbEntity
  8
AM_5
100
AcDbLine
 10
67.10735928595159
 20
180.2044018775808
 30
0.0
 11
64.90735928595177
 21
180.2044018775808
 31
0.0
  0
LINE
  5
FA7B5
330
1F
100
AcDbEntity
  8
AM_5
100
AcDbLine
 10
54.3073592859505
 20
180.2044018775808
 30
0.0
 11
52.10735928595068
 21
180.2044018775808
 31
0.0
  0
LINE
  5
FA7B6
330
1F
100
AcDbEntity
  8
AM_5
100
AcDbLine
 10
65.91639628595157
 20
339.5498918775809
 30
0.0
 11
53.2983542859506
 21
339.5498918775809
 31
0.0
  0
LINE
  5
FA7B7
330
1F
100
AcDbEntity
  8
AM_5
100
AcDbLine
 10
64.60735928595068
 20
340.2044018775809
 30
0.0
 11
54.60735928595159
 21
340.2044018775809
 31
0.0
  0
LINE
  5
FA7B8
330
1F
100
AcDbEntity
  8
AM_5
100
AcDbLine
 10
65.91639628595157
 20
337.5498918775809
 30
0.0
 11
53.2983542859506
 21
337.5498918775809
 31
0.0
  0
LINE
  5
FA7B9
330
1F
100
AcDbEntity
  8
AM_5
100
AcDbLine
 10
65.91639628595157
 20
335.5498608775811
 30
0.0
 11
53.2983542859506
 21
335.5498608775811
 31
0.0
  0
LINE
  5
FA7BA
330
1F
100
AcDbEntity
  8
AM_5
100
AcDbLine
 10
65.91639628595157
 20
329.5498918775809
 30
0.0
 11
53.2983542859506
 21
329.5498918775809
 31
0.0
  0
LINE
  5
FA7BB
330
1F
100
AcDbEntity
  8
AM_5
100
AcDbLine
 10
65.91639628595157
 20
333.5498918775809
 30
0.0
 11
53.2983542859506
 21
333.5498918775809
 31
0.0
  0
LINE
  5
FA7BC
330
1F
100
AcDbEntity
  8
AM_5
100
AcDbLine
 10
65.91639628595157
 20
331.5498608775811
 30
0.0
 11
53.2983542859506
 21
331.5498608775811
 31
0.0
  0
LINE
  5
FA7BD
330
1F
100
AcDbEntity
  8
AM_5
100
AcDbLine
 10
65.91639628595157
 20
323.5498918775809
 30
0.0
 11
53.2983542859506
 21
323.5498918775809
 31
0.0
  0
LINE
  5
FA7BE
330
1F
100
AcDbEntity
  8
AM_5
100
AcDbLine
 10
65.91639628595157
 20
327.5498918775809
 30
0.0
 11
53.2983542859506
 21
327.5498918775809
 31
0.0
  0
LINE
  5
FA7BF
330
1F
100
AcDbEntity
  8
AM_5
100
AcDbLine
 10
65.91639628595157
 20
325.5498608775811
 30
0.0
 11
53.2983542859506
 21
325.5498608775811
 31
0.0
  0
LINE
  5
FA7C0
330
1F
100
AcDbEntity
  8
AM_5
100
AcDbLine
 10
65.91639628595157
 20
305.5498608775811
 30
0.0
 11
53.2983542859506
 21
305.5498608775811
 31
0.0
  0
LINE
  5
FA7C1
330
1F
100
AcDbEntity
  8
AM_5
100
AcDbLine
 10
65.91639628595157
 20
309.5498608775811
 30
0.0
 11
53.2983542859506
 21
309.5498608775811
 31
0.0
  0
LINE
  5
FA7C2
330
1F
100
AcDbEntity
  8
AM_5
100
AcDbLine
 10
65.91639628595157
 20
307.5498918775809
 30
0.0
 11
53.2983542859506
 21
307.5498918775809
 31
0.0
  0
LINE
  5
FA7C3
330
1F
100
AcDbEntity
  8
AM_5
100
AcDbLine
 10
65.91639628595157
 20
299.5498608775811
 30
0.0
 11
53.2983542859506
 21
299.5498608775811
 31
0.0
  0
LINE
  5
FA7C4
330
1F
100
AcDbEntity
  8
AM_5
100
AcDbLine
 10
65.91639628595157
 20
303.5498918775809
 30
0.0
 11
53.2983542859506
 21
303.5498918775809
 31
0.0
  0
LINE
  5
FA7C5
330
1F
100
AcDbEntity
  8
AM_5
100
AcDbLine
 10
65.91639628595157
 20
301.5498608775811
 30
0.0
 11
53.2983542859506
 21
301.5498608775811
 31
0.0
  0
LINE
  5
FA7C6
330
1F
100
AcDbEntity
  8
AM_5
100
AcDbLine
 10
65.91639628595157
 20
295.549860877581
 30
0.0
 11
53.2983542859506
 21
295.549860877581
 31
0.0
  0
LINE
  5
FA7C7
330
1F
100
AcDbEntity
  8
AM_5
100
AcDbLine
 10
65.91639628595157
 20
297.5498918775809
 30
0.0
 11
53.2983542859506
 21
297.5498918775809
 31
0.0
  0
LINE
  5
FA7C8
330
1F
100
AcDbEntity
  8
AM_5
100
AcDbLine
 10
65.9164342859508
 20
289.5486398775812
 30
0.0
 11
53.29839228595075
 21
289.5486398775812
 31
0.0
  0
LINE
  5
FA7C9
330
1F
100
AcDbEntity
  8
AM_5
100
AcDbLine
 10
65.9164342859508
 20
291.5486708775809
 30
0.0
 11
53.29839228595075
 21
291.5486708775809
 31
0.0
  0
LINE
  5
FA7CA
330
1F
100
AcDbEntity
  8
AM_5
100
AcDbLine
 10
65.91639628595157
 20
293.5498918775809
 30
0.0
 11
53.2983542859506
 21
293.5498918775809
 31
0.0
  0
LINE
  5
FA7CB
330
1F
100
AcDbEntity
  8
AM_5
100
AcDbLine
 10
65.9164342859508
 20
283.5486398775811
 30
0.0
 11
53.29839228595075
 21
283.5486398775811
 31
0.0
  0
LINE
  5
FA7CC
330
1F
100
AcDbEntity
  8
AM_5
100
AcDbLine
 10
65.9164342859508
 20
287.5486708775809
 30
0.0
 11
53.29839228595075
 21
287.5486708775809
 31
0.0
  0
LINE
  5
FA7CD
330
1F
100
AcDbEntity
  8
AM_5
100
AcDbLine
 10
65.9164342859508
 20
285.5486398775811
 30
0.0
 11
53.29839228595075
 21
285.5486398775811
 31
0.0
  0
LINE
  5
FA7CE
330
1F
100
AcDbEntity
  8
AM_5
100
AcDbLine
 10
64.60735928595068
 20
280.2044018775809
 30
0.0
 11
54.60735928595159
 21
280.2044018775809
 31
0.0
  0
LINE
  5
FA7CF
330
1F
100
AcDbEntity
  8
AM_5
100
AcDbLine
 10
65.9164342859508
 20
281.5486708775809
 30
0.0
 11
53.29839228595075
 21
281.5486708775809
 31
0.0
  0
LINE
  5
FA7D0
330
1F
100
AcDbEntity
  8
AM_5
100
AcDbLine
 10
73.46378228595084
 20
311.5498608775811
 30
0.0
 11
45.75096828595087
 21
311.5498608775811
 31
0.0
  0
LINE
  5
FA7D1
330
1F
100
AcDbEntity
  8
AM_5
100
AcDbLine
 10
73.46378228595084
 20
321.5498608775811
 30
0.0
 11
45.75096828595087
 21
321.5498608775811
 31
0.0
  0
LINE
  5
FA7D2
330
1F
100
AcDbEntity
  8
AM_5
100
AcDbLine
 10
213.7884840136392
 20
311.5338885133408
 30
0.0
 11
213.7884840136392
 21
321.5338885133408
 31
0.0
  0
LINE
  5
FA7D3
330
1F
100
AcDbEntity
  8
AM_5
100
AcDbLine
 10
201.7884840136392
 20
311.5338885133408
 30
0.0
 11
201.7884840136392
 21
321.5338885133408
 31
0.0
  0
LINE
  5
FA7D4
330
1F
100
AcDbEntity
  8
AM_5
100
AcDbLine
 10
189.7884840136391
 20
311.5338885133408
 30
0.0
 11
189.7884840136391
 21
321.5338885133408
 31
0.0
  0
DIMENSION
  5
FA7D5
330
1F
100
AcDbEntity
  8
AM_5
100
AcDbDimension
  2
*D16
 10
97.76874223444792
 20
280.0528405754299
 30
0.0
 11
96.01874223444788
 21
310.1286212265054
 31
0.0
 70
    32
  1
60
 71
     5
 42
60.1515613021511
  3
2014+$0
100
AcDbAlignedDimension
 13
64.60735928595068
 23
340.2044018775809
 33
0.0
 14
64.90735928595177
 24
280.0528405754299
 34
0.0
 50
90.0
100
AcDbRotatedDimension
1001
ACAD
1000
DSTYLE
1002
{
1070
    40
1040
1.0
1002
}
1001
ACAD_DSTYLE_DIMINSPECT
1070
   396
1000
100%
1070
   395
1000

1070
   394
1070
    33
1070
   393
1070
     0
  0
LINE
  5
FA7D6
330
1F
100
AcDbEntity
  8
AM_5
100
AcDbLine
 10
73.46378228595084
 20
311.5498608775811
 30
0.0
 11
73.46378228595084
 21
321.5498608775811
 31
0.0
  0
LINE
  5
FA7D7
330
1F
100
AcDbEntity
  8
AM_5
100
AcDbLine
 10
66.53558228595056
 20
311.5498608775811
 30
0.0
 11
66.53558228595056
 21
321.5498608775811
 31
0.0
  0
LINE
  5
FA7D8
330
1F
100
AcDbEntity
  8
AM_5
100
AcDbLine
 10
213.7884840136392
 20
311.5338885133408
 30
0.0
 11
189.7884840136391
 21
311.5338885133408
 31
0.0
  0
LINE
  5
FA7D9
330
1F
100
AcDbEntity
  8
AM_5
100
AcDbLine
 10
208.0975050136392
 20
295.5338885133408
 30
0.0
 11
195.4794550136394
 21
295.5338885133408
 31
0.0
  0
LINE
  5
FA7DA
330
1F
100
AcDbEntity
  8
AM_5
100
AcDbLine
 10
208.0975050136392
 20
299.5338885133399
 30
0.0
 11
195.4794550136394
 21
299.5338885133399
 31
0.0
  0
LINE
  5
FA7DB
330
1F
100
AcDbEntity
  8
AM_5
100
AcDbLine
 10
208.0975050136392
 20
297.5339195133397
 30
0.0
 11
195.4794550136394
 21
297.5339195133397
 31
0.0
  0
LINE
  5
FA7DC
330
1F
100
AcDbEntity
  8
AM_5
100
AcDbLine
 10
208.0975050136392
 20
303.5339195133408
 30
0.0
 11
195.4794550136394
 21
303.5339195133408
 31
0.0
  0
LINE
  5
FA7DD
330
1F
100
AcDbEntity
  8
AM_5
100
AcDbLine
 10
208.0975050136392
 20
301.5338885133408
 30
0.0
 11
195.4794550136394
 21
301.5338885133408
 31
0.0
  0
LINE
  5
FA7DE
330
1F
100
AcDbEntity
  8
AM_5
100
AcDbLine
 10
208.0975050136392
 20
305.5338885133408
 30
0.0
 11
195.4794550136394
 21
305.5338885133408
 31
0.0
  0
LINE
  5
FA7DF
330
1F
100
AcDbEntity
  8
AM_5
100
AcDbLine
 10
208.0975050136392
 20
309.5338885133408
 30
0.0
 11
195.4794550136394
 21
309.5338885133408
 31
0.0
  0
LINE
  5
FA7E0
330
1F
100
AcDbEntity
  8
AM_5
100
AcDbLine
 10
208.0975050136392
 20
307.5339195133397
 30
0.0
 11
195.4794550136394
 21
307.5339195133397
 31
0.0
  0
LINE
  5
FA7E1
330
1F
100
AcDbEntity
  8
AM_5
100
AcDbLine
 10
208.0975360136392
 20
281.5326075133409
 30
0.0
 11
195.4794860136392
 21
281.5326075133409
 31
0.0
  0
LINE
  5
FA7E2
330
1F
100
AcDbEntity
  8
AM_5
100
AcDbLine
 10
207.0884840136393
 20
280.1877275133409
 30
0.0
 11
196.4884840136392
 21
280.1877275133409
 31
0.0
  0
LINE
  5
FA7E3
330
1F
100
AcDbEntity
  8
AM_5
100
AcDbLine
 10
208.0975360136392
 20
283.5325765133409
 30
0.0
 11
195.4794860136392
 21
283.5325765133409
 31
0.0
  0
LINE
  5
FA7E4
330
1F
100
AcDbEntity
  8
AM_5
100
AcDbLine
 10
208.0975360136392
 20
287.5326075133409
 30
0.0
 11
195.4794860136392
 21
287.5326075133409
 31
0.0
  0
LINE
  5
FA7E5
330
1F
100
AcDbEntity
  8
AM_5
100
AcDbLine
 10
208.0975360136392
 20
285.5325765133409
 30
0.0
 11
195.4794860136392
 21
285.5325765133409
 31
0.0
  0
LINE
  5
FA7E6
330
1F
100
AcDbEntity
  8
AM_5
100
AcDbLine
 10
208.0975360136392
 20
289.5325765133409
 30
0.0
 11
195.4794860136392
 21
289.5325765133409
 31
0.0
  0
LINE
  5
FA7E7
330
1F
100
AcDbEntity
  8
AM_5
100
AcDbLine
 10
208.0975360136392
 20
293.5325765133409
 30
0.0
 11
195.4794860136392
 21
293.5325765133409
 31
0.0
  0
LINE
  5
FA7E8
330
1F
100
AcDbEntity
  8
AM_5
100
AcDbLine
 10
208.0975360136392
 20
291.532607513341
 30
0.0
 11
195.4794860136392
 21
291.532607513341
 31
0.0
  0
LINE
  5
FA7E9
330
1F
100
AcDbEntity
  8
AM_5
100
AcDbLine
 10
208.0975050136392
 20
293.5339195133408
 30
0.0
 11
195.4794550136394
 21
293.5339195133408
 31
0.0
  0
LINE
  5
FA7EA
330
1F
100
AcDbEntity
  8
AM_5
100
AcDbLine
 10
208.0975050136392
 20
293.5338885133408
 30
0.0
 11
206.7885150136392
 21
294.1884295133409
 31
0.0
  0
LINE
  5
FA7EB
330
1F
100
AcDbEntity
  8
AM_5
100
AcDbLine
 10
206.7885150136392
 20
282.1871785133398
 30
0.0
 11
206.7885150136392
 21
282.8787375133408
 31
0.0
  0
LINE
  5
FA7EC
330
1F
100
AcDbEntity
  8
AM_5
100
AcDbLine
 10
208.0975820136393
 20
281.5323935133408
 30
0.0
 11
207.0884840136393
 21
281.027920829581
 31
0.0
  0
LINE
  5
FA7ED
330
1F
100
AcDbEntity
  8
AM_5
100
AcDbLine
 10
208.0975050136392
 20
281.532515513341
 30
0.0
 11
206.7885000136393
 21
282.1869955133409
 31
0.0
  0
LINE
  5
FA7EE
330
1F
100
AcDbEntity
  8
AM_5
100
AcDbLine
 10
207.0884840136393
 20
280.187727513341
 30
0.0
 11
207.0884840136393
 21
281.027920829581
 31
0.0
  0
LINE
  5
FA7EF
330
1F
100
AcDbEntity
  8
AM_5
100
AcDbLine
 10
208.0974440136392
 20
287.5323325133408
 30
0.0
 11
206.7884840136392
 21
288.1869645133408
 31
0.0
  0
LINE
  5
FA7F0
330
1F
100
AcDbEntity
  8
AM_5
100
AcDbLine
 10
208.0975820136393
 20
287.5325765133409
 30
0.0
 11
206.7885000136393
 21
286.8781885133408
 31
0.0
  0
LINE
  5
FA7F1
330
1F
100
AcDbEntity
  8
AM_5
100
AcDbLine
 10
208.0974900136405
 20
285.5328515133399
 30
0.0
 11
206.7885000136393
 21
284.8782795133398
 31
0.0
  0
LINE
  5
FA7F2
330
1F
100
AcDbEntity
  8
AM_5
100
AcDbLine
 10
208.0975510136393
 20
283.5324855133408
 30
0.0
 11
206.7885300136393
 21
282.8780055133409
 31
0.0
  0
LINE
  5
FA7F3
330
1F
100
AcDbEntity
  8
AM_5
100
AcDbLine
 10
208.0975210136405
 20
285.5324855133397
 30
0.0
 11
206.7885150136392
 21
286.1869955133409
 31
0.0
  0
LINE
  5
FA7F4
330
1F
100
AcDbEntity
  8
AM_5
100
AcDbLine
 10
208.0974750136393
 20
283.5323015133397
 30
0.0
 11
206.7886070136392
 21
284.1873315133398
 31
0.0
  0
LINE
  5
FA7F5
330
1F
100
AcDbEntity
  8
AM_5
100
AcDbLine
 10
206.7885150136392
 20
284.187941513341
 30
0.0
 11
206.7885150136392
 21
284.8795005133409
 31
0.0
  0
LINE
  5
FA7F6
330
1F
100
AcDbEntity
  8
AM_5
100
AcDbLine
 10
206.7885150136392
 20
286.1887045133398
 30
0.0
 11
206.7885150136392
 21
286.8769065133408
 31
0.0
  0
LINE
  5
FA7F7
330
1F
100
AcDbEntity
  8
AM_5
100
AcDbLine
 10
208.0975360136392
 20
293.5326685133409
 30
0.0
 11
206.7885300136393
 21
292.8781885133408
 31
0.0
  0
LINE
  5
FA7F8
330
1F
100
AcDbEntity
  8
AM_5
100
AcDbLine
 10
208.0975050136392
 20
291.532607513341
 30
0.0
 11
206.7885000136393
 21
290.8780965133399
 31
0.0
  0
LINE
  5
FA7F9
330
1F
100
AcDbEntity
  8
AM_5
100
AcDbLine
 10
208.0974900136405
 20
289.5326985133408
 30
0.0
 11
206.7884690136393
 21
288.8781885133408
 31
0.0
  0
LINE
  5
FA7FA
330
1F
100
AcDbEntity
  8
AM_5
100
AcDbLine
 10
208.0974750136393
 20
291.5324545133399
 30
0.0
 11
206.7885300136393
 21
292.1869645133408
 31
0.0
  0
LINE
  5
FA7FB
330
1F
100
AcDbEntity
  8
AM_5
100
AcDbLine
 10
208.0975360136392
 20
289.5324855133408
 30
0.0
 11
206.7885150136392
 21
290.1869955133409
 31
0.0
  0
LINE
  5
FA7FC
330
1F
100
AcDbEntity
  8
AM_5
100
AcDbLine
 10
208.0974590136393
 20
293.534041513341
 30
0.0
 11
207.0884840136393
 21
293.0296006458909
 31
0.0
  0
LINE
  5
FA7FD
330
1F
100
AcDbEntity
  8
AM_5
100
AcDbLine
 10
206.7885150136392
 20
288.186110513341
 30
0.0
 11
206.7885150136392
 21
288.8776695133408
 31
0.0
  0
LINE
  5
FA7FE
330
1F
100
AcDbEntity
  8
AM_5
100
AcDbLine
 10
206.7885150136392
 20
290.186873513341
 30
0.0
 11
206.7885150136392
 21
290.8784325133408
 31
0.0
  0
LINE
  5
FA7FF
330
1F
100
AcDbEntity
  8
AM_5
100
AcDbLine
 10
206.7885150136392
 20
292.1876365133398
 30
0.0
 11
206.7885150136392
 21
292.8791955133409
 31
0.0
  0
LINE
  5
FA800
330
1F
100
AcDbEntity
  8
AM_5
100
AcDbLine
 10
208.0974590136393
 20
305.534010513341
 30
0.0
 11
206.7884380136393
 21
304.8795005133397
 31
0.0
  0
LINE
  5
FA801
330
1F
100
AcDbEntity
  8
AM_5
100
AcDbLine
 10
208.0975200136393
 20
299.5337975133398
 30
0.0
 11
206.7884990136392
 21
298.879317513341
 31
0.0
  0
LINE
  5
FA802
330
1F
100
AcDbEntity
  8
AM_5
100
AcDbLine
 10
208.0975510136393
 20
297.5337055133407
 30
0.0
 11
206.7885150136392
 21
296.8792865133409
 31
0.0
  0
LINE
  5
FA803
330
1F
100
AcDbEntity
  8
AM_5
100
AcDbLine
 10
208.0974740136394
 20
295.534010513341
 30
0.0
 11
206.7884840136392
 21
294.8794395133398
 31
0.0
  0
LINE
  5
FA804
330
1F
100
AcDbEntity
  8
AM_5
100
AcDbLine
 10
208.0974740136394
 20
297.5338275133408
 30
0.0
 11
206.7884690136393
 21
298.188307513341
 31
0.0
  0
LINE
  5
FA805
330
1F
100
AcDbEntity
  8
AM_5
100
AcDbLine
 10
208.0975970136392
 20
295.5342545133399
 30
0.0
 11
206.7885760136405
 21
296.1886125133399
 31
0.0
  0
LINE
  5
FA806
330
1F
100
AcDbEntity
  8
AM_5
100
AcDbLine
 10
206.7884840136392
 20
296.1877275133409
 30
0.0
 11
206.7884840136392
 21
296.8792865133409
 31
0.0
  0
LINE
  5
FA807
330
1F
100
AcDbEntity
  8
AM_5
100
AcDbLine
 10
206.7884840136392
 20
294.1869645133408
 30
0.0
 11
206.7884840136392
 21
294.878523513341
 31
0.0
  0
LINE
  5
FA808
330
1F
100
AcDbEntity
  8
AM_5
100
AcDbLine
 10
206.7884840136392
 20
298.1884905133409
 30
0.0
 11
206.7884840136392
 21
298.880049513341
 31
0.0
  0
LINE
  5
FA809
330
1F
100
AcDbEntity
  8
AM_5
100
AcDbLine
 10
208.0975510136393
 20
303.5338885133408
 30
0.0
 11
206.7884690136393
 21
302.8795005133409
 31
0.0
  0
LINE
  5
FA80A
330
1F
100
AcDbEntity
  8
AM_5
100
AcDbLine
 10
208.0974590136393
 20
301.5341635133409
 30
0.0
 11
206.7884690136393
 21
300.879591513341
 31
0.0
  0
LINE
  5
FA80B
330
1F
100
AcDbEntity
  8
AM_5
100
AcDbLine
 10
208.0974130136392
 20
303.533644513341
 30
0.0
 11
206.7884530136394
 21
304.188276513341
 31
0.0
  0
LINE
  5
FA80C
330
1F
100
AcDbEntity
  8
AM_5
100
AcDbLine
 10
208.0974900136405
 20
301.5337975133398
 30
0.0
 11
206.7884840136392
 21
302.188307513341
 31
0.0
  0
LINE
  5
FA80D
330
1F
100
AcDbEntity
  8
AM_5
100
AcDbLine
 10
208.0974440136392
 20
299.5336135133398
 30
0.0
 11
206.7885760136405
 21
300.1886435133408
 31
0.0
  0
LINE
  5
FA80E
330
1F
100
AcDbEntity
  8
AM_5
100
AcDbLine
 10
206.7884840136392
 20
300.1892535133397
 30
0.0
 11
206.7884840136392
 21
300.8808125133398
 31
0.0
  0
LINE
  5
FA80F
330
1F
100
AcDbEntity
  8
AM_5
100
AcDbLine
 10
206.7884840136392
 20
302.1900165133398
 30
0.0
 11
206.7884840136392
 21
302.8782185133409
 31
0.0
  0
LINE
  5
FA810
330
1F
100
AcDbEntity
  8
AM_5
100
AcDbLine
 10
206.7884840136392
 20
304.1874225133408
 30
0.0
 11
206.7884840136392
 21
304.8789815133398
 31
0.0
  0
LINE
  5
FA811
330
1F
100
AcDbEntity
  8
AM_5
100
AcDbLine
 10
206.7884840136392
 20
310.1897115133409
 30
0.0
 11
206.7884840136392
 21
310.8779135133409
 31
0.0
  0
LINE
  5
FA812
330
1F
100
AcDbEntity
  8
AM_5
100
AcDbLine
 10
208.0975050136392
 20
309.5339805133408
 30
0.0
 11
206.7884990136392
 21
308.8795005133397
 31
0.0
  0
LINE
  5
FA813
330
1F
100
AcDbEntity
  8
AM_5
100
AcDbLine
 10
208.0974740136394
 20
307.5339195133397
 30
0.0
 11
206.7884690136393
 21
306.8794085133409
 31
0.0
  0
LINE
  5
FA814
330
1F
100
AcDbEntity
  8
AM_5
100
AcDbLine
 10
208.0974440136392
 20
309.5337975133398
 30
0.0
 11
206.7884530136394
 21
310.188276513341
 31
0.0
  0
LINE
  5
FA815
330
1F
100
AcDbEntity
  8
AM_5
100
AcDbLine
 10
208.0974440136392
 20
307.5337665133409
 30
0.0
 11
206.7884990136392
 21
308.188276513341
 31
0.0
  0
LINE
  5
FA816
330
1F
100
AcDbEntity
  8
AM_5
100
AcDbLine
 10
208.0975050136392
 20
305.5337975133398
 30
0.0
 11
206.7884840136392
 21
306.188307513341
 31
0.0
  0
LINE
  5
FA817
330
1F
100
AcDbEntity
  8
AM_5
100
AcDbLine
 10
206.7884840136392
 20
306.1881855133397
 30
0.0
 11
206.7884840136392
 21
306.8797445133409
 31
0.0
  0
LINE
  5
FA818
330
1F
100
AcDbEntity
  8
AM_5
100
AcDbLine
 10
206.7884840136392
 20
308.1889485133397
 30
0.0
 11
206.7884840136392
 21
308.8805075133409
 31
0.0
  0
LINE
  5
FA819
330
1F
100
AcDbEntity
  8
AM_5
100
AcDbLine
 10
208.0974890136392
 20
311.532423513341
 30
0.0
 11
206.7884840136392
 21
310.8779135133409
 31
0.0
  0
LINE
  5
FA81A
330
1F
100
AcDbEntity
  8
AM_5
100
AcDbLine
 10
65.91639628595157
 20
293.5497998775799
 30
0.0
 11
64.60735228595149
 21
294.2042188775811
 31
0.0
  0
LINE
  5
FA81B
330
1F
100
AcDbEntity
  8
AM_5
100
AcDbLine
 10
196.7884690136393
 20
294.1885825133409
 30
0.0
 11
195.4794940136391
 21
293.5339195133408
 31
0.0
  0
LINE
  5
FA81C
330
1F
100
AcDbEntity
  8
AM_5
100
AcDbLine
 10
196.7885150136391
 20
282.1872095133399
 30
0.0
 11
196.7885150136391
 21
282.8787375133408
 31
0.0
  0
LINE
  5
FA81D
330
1F
100
AcDbEntity
  8
AM_5
100
AcDbLine
 10
196.7885300136392
 20
282.1870565133409
 30
0.0
 11
195.4795250136392
 21
281.532515513341
 31
0.0
  0
LINE
  5
FA81E
330
1F
100
AcDbEntity
  8
AM_5
100
AcDbLine
 10
196.4884840136392
 20
281.0279921605308
 30
0.0
 11
195.4794940136391
 21
281.5325465133408
 31
0.0
  0
LINE
  5
FA81F
330
1F
100
AcDbEntity
  8
AM_5
100
AcDbLine
 10
196.4884840136392
 20
280.1877275133409
 30
0.0
 11
196.4884840136392
 21
281.0279921605308
 31
0.0
  0
LINE
  5
FA820
330
1F
100
AcDbEntity
  8
AM_5
100
AcDbLine
 10
196.7884690136393
 20
288.1873315133398
 30
0.0
 11
195.4794790136393
 21
287.5327595133408
 31
0.0
  0
LINE
  5
FA821
330
1F
100
AcDbEntity
  8
AM_5
100
AcDbLine
 10
196.7885150136391
 20
286.1887045133398
 30
0.0
 11
196.7885150136391
 21
286.8769065133408
 31
0.0
  0
LINE
  5
FA822
330
1F
100
AcDbEntity
  8
AM_5
100
AcDbLine
 10
196.7885150136391
 20
284.187941513341
 30
0.0
 11
196.7885150136391
 21
284.8795005133409
 31
0.0
  0
LINE
  5
FA823
330
1F
100
AcDbEntity
  8
AM_5
100
AcDbLine
 10
196.7885530136393
 20
286.1870565133397
 30
0.0
 11
195.4795090136392
 21
285.532515513341
 31
0.0
  0
LINE
  5
FA824
330
1F
100
AcDbEntity
  8
AM_5
100
AcDbLine
 10
196.7885000136393
 20
284.1870875133409
 30
0.0
 11
195.4794940136391
 21
283.5325765133409
 31
0.0
  0
LINE
  5
FA825
330
1F
100
AcDbEntity
  8
AM_5
100
AcDbLine
 10
196.7884460136392
 20
286.8779135133409
 30
0.0
 11
195.4795470136394
 21
287.5327595133408
 31
0.0
  0
LINE
  5
FA826
330
1F
100
AcDbEntity
  8
AM_5
100
AcDbLine
 10
196.7884840136392
 20
284.8780965133398
 30
0.0
 11
195.4795090136392
 21
285.5326985133397
 31
0.0
  0
LINE
  5
FA827
330
1F
100
AcDbEntity
  8
AM_5
100
AcDbLine
 10
196.7884540136392
 20
282.8778215133409
 30
0.0
 11
195.4795090136392
 21
283.532515513341
 31
0.0
  0
LINE
  5
FA828
330
1F
100
AcDbEntity
  8
AM_5
100
AcDbLine
 10
196.7885150136391
 20
292.1876365133398
 30
0.0
 11
196.7885150136391
 21
292.8791955133409
 31
0.0
  0
LINE
  5
FA829
330
1F
100
AcDbEntity
  8
AM_5
100
AcDbLine
 10
196.7885150136391
 20
290.186873513341
 30
0.0
 11
196.7885150136391
 21
290.8784325133408
 31
0.0
  0
LINE
  5
FA82A
330
1F
100
AcDbEntity
  8
AM_5
100
AcDbLine
 10
196.7885150136391
 20
288.186141513341
 30
0.0
 11
196.7885150136391
 21
288.8776695133408
 31
0.0
  0
LINE
  5
FA82B
330
1F
100
AcDbEntity
  8
AM_5
100
AcDbLine
 10
196.7884840136392
 20
292.1871785133399
 30
0.0
 11
195.4794330136392
 21
291.5328515133408
 31
0.0
  0
LINE
  5
FA82C
330
1F
100
AcDbEntity
  8
AM_5
100
AcDbLine
 10
196.7885150136391
 20
290.1870565133397
 30
0.0
 11
195.4794790136393
 21
289.5326375133397
 31
0.0
  0
LINE
  5
FA82D
330
1F
100
AcDbEntity
  8
AM_5
100
AcDbLine
 10
196.7884840136392
 20
292.8780355133408
 30
0.0
 11
195.4794790136393
 21
293.5325765133409
 31
0.0
  0
LINE
  5
FA82E
330
1F
100
AcDbEntity
  8
AM_5
100
AcDbLine
 10
196.7884770136393
 20
290.8779445133409
 30
0.0
 11
195.4794860136392
 21
291.5325765133409
 31
0.0
  0
LINE
  5
FA82F
330
1F
100
AcDbEntity
  8
AM_5
100
AcDbLine
 10
196.7885000136393
 20
288.8779135133409
 30
0.0
 11
195.4794940136391
 21
289.5325765133409
 31
0.0
  0
LINE
  5
FA830
330
1F
100
AcDbEntity
  8
AM_5
100
AcDbLine
 10
196.4884840136392
 20
293.0293258780409
 30
0.0
 11
195.4794630136393
 21
293.5338275133397
 31
0.0
  0
LINE
  5
FA831
330
1F
100
AcDbEntity
  8
AM_5
100
AcDbLine
 10
64.60741328595076
 20
282.2032728775809
 30
0.0
 11
64.60741328595076
 21
282.894800877581
 31
0.0
  0
LINE
  5
FA832
330
1F
100
AcDbEntity
  8
AM_5
100
AcDbLine
 10
64.60735228595149
 20
280.894464877581
 30
0.0
 11
65.91644928595179
 21
281.5489758775809
 31
0.0
  0
LINE
  5
FA833
330
1F
100
AcDbEntity
  8
AM_5
100
AcDbLine
 10
65.91642628595081
 20
281.5486708775809
 30
0.0
 11
64.60741328595076
 21
282.203180877581
 31
0.0
  0
LINE
  5
FA834
330
1F
100
AcDbEntity
  8
AM_5
100
AcDbLine
 10
64.60741328595076
 20
280.2024788775809
 30
0.0
 11
64.60741328595076
 21
280.894037877581
 31
0.0
  0
LINE
  5
FA835
330
1F
100
AcDbEntity
  8
AM_5
100
AcDbLine
 10
64.90735928595177
 20
280.0528405754299
 30
0.0
 11
64.60735228595149
 21
280.2028448775809
 31
0.0
  0
LINE
  5
FA836
330
1F
100
AcDbEntity
  8
AM_5
100
AcDbLine
 10
65.91638828595069
 20
287.5484868775809
 30
0.0
 11
64.60739028595071
 21
288.203027877581
 31
0.0
  0
LINE
  5
FA837
330
1F
100
AcDbEntity
  8
AM_5
100
AcDbLine
 10
64.60740528595079
 20
286.894434877581
 30
0.0
 11
65.91645728595175
 21
287.5489448775809
 31
0.0
  0
LINE
  5
FA838
330
1F
100
AcDbEntity
  8
AM_5
100
AcDbLine
 10
64.60736728595064
 20
284.894495877581
 30
0.0
 11
65.91641828595084
 21
285.5489758775809
 31
0.0
  0
LINE
  5
FA839
330
1F
100
AcDbEntity
  8
AM_5
100
AcDbLine
 10
64.60742828595084
 20
282.8944648775808
 30
0.0
 11
65.91644128595182
 21
283.549005877581
 31
0.0
  0
LINE
  5
FA83A
330
1F
100
AcDbEntity
  8
AM_5
100
AcDbLine
 10
65.91644128595182
 20
285.5486708775809
 30
0.0
 11
64.60742028595086
 21
286.2031498775809
 31
0.0
  0
LINE
  5
FA83B
330
1F
100
AcDbEntity
  8
AM_5
100
AcDbLine
 10
65.91642628595081
 20
283.5486708775809
 30
0.0
 11
64.60744328595047
 21
284.2033028775809
 31
0.0
  0
LINE
  5
FA83C
330
1F
100
AcDbEntity
  8
AM_5
100
AcDbLine
 10
64.60741328595076
 20
286.2047678775809
 30
0.0
 11
64.60741328595076
 21
286.892969877581
 31
0.0
  0
LINE
  5
FA83D
330
1F
100
AcDbEntity
  8
AM_5
100
AcDbLine
 10
64.60741328595076
 20
284.2040048775809
 30
0.0
 11
64.60741328595076
 21
284.895563877581
 31
0.0
  0
LINE
  5
FA83E
330
1F
100
AcDbEntity
  8
AM_5
100
AcDbLine
 10
64.60743628595174
 20
290.894403877581
 30
0.0
 11
65.91644928595179
 21
291.5489758775809
 31
0.0
  0
LINE
  5
FA83F
330
1F
100
AcDbEntity
  8
AM_5
100
AcDbLine
 10
64.60742028595086
 20
288.894403877581
 30
0.0
 11
65.91640328595075
 21
289.5489448775809
 31
0.0
  0
LINE
  5
FA840
330
1F
100
AcDbEntity
  8
AM_5
100
AcDbLine
 10
65.91644128595182
 20
291.5486088775812
 30
0.0
 11
64.60737528595064
 21
292.2031423775982
 31
0.0
  0
LINE
  5
FA841
330
1F
100
AcDbEntity
  8
AM_5
100
AcDbLine
 10
65.91644928595179
 20
289.5486398775812
 30
0.0
 11
64.60742028595086
 21
290.2031498775809
 31
0.0
  0
LINE
  5
FA842
330
1F
100
AcDbEntity
  8
AM_5
100
AcDbLine
 10
64.60748228595048
 20
292.8956558775809
 30
0.0
 11
65.91640328595075
 21
293.550287877581
 31
0.0
  0
LINE
  5
FA843
330
1F
100
AcDbEntity
  8
AM_5
100
AcDbLine
 10
64.60741328595076
 20
290.2029368775809
 30
0.0
 11
64.60741328595076
 21
290.894495877581
 31
0.0
  0
LINE
  5
FA844
330
1F
100
AcDbEntity
  8
AM_5
100
AcDbLine
 10
64.60741328595076
 20
288.2022038775811
 30
0.0
 11
64.60741328595076
 21
288.893732877581
 31
0.0
  0
LINE
  5
FA845
330
1F
100
AcDbEntity
  8
AM_5
100
AcDbLine
 10
64.60737528595064
 20
292.2031423775982
 30
0.0
 11
64.60737528595064
 21
292.893732877581
 31
0.0
  0
LINE
  5
FA846
330
1F
100
AcDbEntity
  8
AM_5
100
AcDbLine
 10
196.7884690136393
 20
304.879225513341
 30
0.0
 11
195.4794630136393
 21
305.5338885133408
 31
0.0
  0
LINE
  5
FA847
330
1F
100
AcDbEntity
  8
AM_5
100
AcDbLine
 10
196.7884230136391
 20
298.879133513341
 30
0.0
 11
195.4794780136392
 21
299.5338275133408
 31
0.0
  0
LINE
  5
FA848
330
1F
100
AcDbEntity
  8
AM_5
100
AcDbLine
 10
196.7884840136392
 20
296.1877275133409
 30
0.0
 11
196.7884840136392
 21
296.8792865133409
 31
0.0
  0
LINE
  5
FA849
330
1F
100
AcDbEntity
  8
AM_5
100
AcDbLine
 10
196.7884840136392
 20
294.1869645133408
 30
0.0
 11
196.7884840136392
 21
294.878523513341
 31
0.0
  0
LINE
  5
FA84A
330
1F
100
AcDbEntity
  8
AM_5
100
AcDbLine
 10
196.7884610136393
 20
296.1883685133409
 30
0.0
 11
195.4794860136392
 21
295.5338885133408
 31
0.0
  0
LINE
  5
FA84B
330
1F
100
AcDbEntity
  8
AM_5
100
AcDbLine
 10
196.7884230136391
 20
294.8791645133399
 30
0.0
 11
195.4794170136392
 21
295.5336745133409
 31
0.0
  0
LINE
  5
FA84C
330
1F
100
AcDbEntity
  8
AM_5
100
AcDbLine
 10
196.7884840136392
 20
298.1885215133398
 30
0.0
 11
196.7884840136392
 21
298.880049513341
 31
0.0
  0
LINE
  5
FA84D
330
1F
100
AcDbEntity
  8
AM_5
100
AcDbLine
 10
196.7884990136392
 20
298.1883685133409
 30
0.0
 11
195.4794940136391
 21
297.5338275133408
 31
0.0
  0
LINE
  5
FA84E
330
1F
100
AcDbEntity
  8
AM_5
100
AcDbLine
 10
196.7884530136393
 20
296.8792865133409
 30
0.0
 11
195.4794630136393
 21
297.5338585133409
 31
0.0
  0
LINE
  5
FA84F
330
1F
100
AcDbEntity
  8
AM_5
100
AcDbLine
 10
196.7884840136392
 20
304.1874535133398
 30
0.0
 11
196.7884840136392
 21
304.8789815133398
 31
0.0
  0
LINE
  5
FA850
330
1F
100
AcDbEntity
  8
AM_5
100
AcDbLine
 10
196.7884840136392
 20
302.1900165133398
 30
0.0
 11
196.7884840136392
 21
302.8782185133409
 31
0.0
  0
LINE
  5
FA851
330
1F
100
AcDbEntity
  8
AM_5
100
AcDbLine
 10
196.7884840136392
 20
300.1892535133397
 30
0.0
 11
196.7884840136392
 21
300.8808125133398
 31
0.0
  0
LINE
  5
FA852
330
1F
100
AcDbEntity
  8
AM_5
100
AcDbLine
 10
196.7884380136393
 20
304.1886435133408
 30
0.0
 11
195.4794480136391
 21
303.5340715133409
 31
0.0
  0
LINE
  5
FA853
330
1F
100
AcDbEntity
  8
AM_5
100
AcDbLine
 10
196.7885220136393
 20
302.1883685133409
 30
0.0
 11
195.4794780136392
 21
301.5338275133397
 31
0.0
  0
LINE
  5
FA854
330
1F
100
AcDbEntity
  8
AM_5
100
AcDbLine
 10
196.7884690136393
 20
300.188399513341
 30
0.0
 11
195.4794630136393
 21
299.5338885133399
 31
0.0
  0
LINE
  5
FA855
330
1F
100
AcDbEntity
  8
AM_5
100
AcDbLine
 10
196.7884150136392
 20
302.879225513341
 30
0.0
 11
195.4795160136393
 21
303.5340715133409
 31
0.0
  0
LINE
  5
FA856
330
1F
100
AcDbEntity
  8
AM_5
100
AcDbLine
 10
196.7884530136393
 20
300.8794085133398
 30
0.0
 11
195.4794780136392
 21
301.534010513341
 31
0.0
  0
LINE
  5
FA857
330
1F
100
AcDbEntity
  8
AM_5
100
AcDbLine
 10
196.7884840136392
 20
310.189741513341
 30
0.0
 11
196.7884840136392
 21
310.8779135133409
 31
0.0
  0
LINE
  5
FA858
330
1F
100
AcDbEntity
  8
AM_5
100
AcDbLine
 10
196.7884840136392
 20
308.1889485133397
 30
0.0
 11
196.7884840136392
 21
308.8805075133409
 31
0.0
  0
LINE
  5
FA859
330
1F
100
AcDbEntity
  8
AM_5
100
AcDbLine
 10
196.7884840136392
 20
306.1881855133397
 30
0.0
 11
196.7884840136392
 21
306.8797445133409
 31
0.0
  0
LINE
  5
FA85A
330
1F
100
AcDbEntity
  8
AM_5
100
AcDbLine
 10
196.7884690136393
 20
310.1884905133409
 30
0.0
 11
195.4794100136393
 21
309.5341025133409
 31
0.0
  0
LINE
  5
FA85B
330
1F
100
AcDbEntity
  8
AM_5
100
AcDbLine
 10
196.7884530136393
 20
308.1884905133409
 30
0.0
 11
195.4794020136391
 21
307.5341635133409
 31
0.0
  0
LINE
  5
FA85C
330
1F
100
AcDbEntity
  8
AM_5
100
AcDbLine
 10
196.7884840136392
 20
306.1883685133409
 30
0.0
 11
195.4794480136391
 21
305.533949513341
 31
0.0
  0
LINE
  5
FA85D
330
1F
100
AcDbEntity
  8
AM_5
100
AcDbLine
 10
196.7884530136393
 20
308.8793475133398
 30
0.0
 11
195.4794480136391
 21
309.5338885133408
 31
0.0
  0
LINE
  5
FA85E
330
1F
100
AcDbEntity
  8
AM_5
100
AcDbLine
 10
196.7884460136392
 20
306.8792565133408
 30
0.0
 11
195.4794550136394
 21
307.5338885133399
 31
0.0
  0
LINE
  5
FA85F
330
1F
100
AcDbEntity
  8
AM_5
100
AcDbLine
 10
196.7884840136392
 20
310.8779135133409
 30
0.0
 11
195.4794790136393
 21
311.5323325133409
 31
0.0
  0
LINE
  5
FA860
330
1F
100
AcDbEntity
  8
AM_5
100
AcDbLine
 10
64.60738228595073
 20
304.895624877581
 30
0.0
 11
65.91636528595063
 21
305.5501658775809
 31
0.0
  0
LINE
  5
FA861
330
1F
100
AcDbEntity
  8
AM_5
100
AcDbLine
 10
64.60739028595071
 20
298.8956858775809
 30
0.0
 11
65.91640328595075
 21
299.550226877581
 31
0.0
  0
LINE
  5
FA862
330
1F
100
AcDbEntity
  8
AM_5
100
AcDbLine
 10
64.60735228595149
 20
294.895685877581
 30
0.0
 11
65.91638028595069
 21
295.5501358775809
 31
0.0
  0
LINE
  5
FA863
330
1F
100
AcDbEntity
  8
AM_5
100
AcDbLine
 10
65.9163272859505
 20
295.549555877581
 30
0.0
 11
64.6073142859509
 21
296.2040658775809
 31
0.0
  0
LINE
  5
FA864
330
1F
100
AcDbEntity
  8
AM_5
100
AcDbLine
 10
64.6073142859509
 20
296.8956858775809
 30
0.0
 11
65.91641128595075
 21
297.5501968775808
 31
0.0
  0
LINE
  5
FA865
330
1F
100
AcDbEntity
  8
AM_5
100
AcDbLine
 10
65.91638828595069
 20
297.5498918775809
 30
0.0
 11
64.60737528595064
 21
298.2044018775809
 31
0.0
  0
LINE
  5
FA866
330
1F
100
AcDbEntity
  8
AM_5
100
AcDbLine
 10
64.60737528595064
 20
296.2036998775809
 30
0.0
 11
64.60737528595064
 21
296.895258877581
 31
0.0
  0
LINE
  5
FA867
330
1F
100
AcDbEntity
  8
AM_5
100
AcDbLine
 10
64.60737528595064
 20
294.2029368775809
 30
0.0
 11
64.60737528595064
 21
294.894495877581
 31
0.0
  0
LINE
  5
FA868
330
1F
100
AcDbEntity
  8
AM_5
100
AcDbLine
 10
64.60737528595064
 20
298.204493877581
 30
0.0
 11
64.60737528595064
 21
298.896021877581
 31
0.0
  0
LINE
  5
FA869
330
1F
100
AcDbEntity
  8
AM_5
100
AcDbLine
 10
64.60736728595064
 20
302.895655877581
 30
0.0
 11
65.91641928595072
 21
303.5501658775809
 31
0.0
  0
LINE
  5
FA86A
330
1F
100
AcDbEntity
  8
AM_5
100
AcDbLine
 10
64.60732928595053
 20
300.895716877581
 30
0.0
 11
65.91638028595069
 21
301.55019687758
 31
0.0
  0
LINE
  5
FA86B
330
1F
100
AcDbEntity
  8
AM_5
100
AcDbLine
 10
65.91635028595057
 20
303.5497078775809
 30
0.0
 11
64.60735228595149
 21
304.204248877581
 31
0.0
  0
LINE
  5
FA86C
330
1F
100
AcDbEntity
  8
AM_5
100
AcDbLine
 10
65.91640328595075
 20
301.5498918775809
 30
0.0
 11
64.60738228595073
 21
302.2043708775809
 31
0.0
  0
LINE
  5
FA86D
330
1F
100
AcDbEntity
  8
AM_5
100
AcDbLine
 10
65.91638828595069
 20
299.5498918775809
 30
0.0
 11
64.60740528595079
 21
300.2045238775809
 31
0.0
  0
LINE
  5
FA86E
330
1F
100
AcDbEntity
  8
AM_5
100
AcDbLine
 10
64.60737528595064
 20
304.203424877581
 30
0.0
 11
64.60737528595064
 21
304.894953877581
 31
0.0
  0
LINE
  5
FA86F
330
1F
100
AcDbEntity
  8
AM_5
100
AcDbLine
 10
64.60737528595064
 20
302.2059888775809
 30
0.0
 11
64.60737528595064
 21
302.894190877581
 31
0.0
  0
LINE
  5
FA870
330
1F
100
AcDbEntity
  8
AM_5
100
AcDbLine
 10
64.60737528595064
 20
300.2052258775809
 30
0.0
 11
64.60737528595064
 21
300.896784877581
 31
0.0
  0
LINE
  5
FA871
330
1F
100
AcDbEntity
  8
AM_5
100
AcDbLine
 10
64.60737528595064
 20
310.2057138775812
 30
0.0
 11
64.60737528595064
 21
310.8938858775809
 31
0.0
  0
LINE
  5
FA872
330
1F
100
AcDbEntity
  8
AM_5
100
AcDbLine
 10
64.60741328595076
 20
308.895624877581
 30
0.0
 11
65.91641928595072
 21
309.5501658775809
 31
0.0
  0
LINE
  5
FA873
330
1F
100
AcDbEntity
  8
AM_5
100
AcDbLine
 10
64.6073982859507
 20
306.895624877581
 30
0.0
 11
65.91641128595075
 21
307.5501968775808
 31
0.0
  0
LINE
  5
FA874
330
1F
100
AcDbEntity
  8
AM_5
100
AcDbLine
 10
65.91633528595048
 20
309.5496468775809
 30
0.0
 11
64.60733728595051
 21
310.2041578775809
 31
0.0
  0
LINE
  5
FA875
330
1F
100
AcDbEntity
  8
AM_5
100
AcDbLine
 10
65.91640328595075
 20
307.549829877581
 30
0.0
 11
64.60738228595073
 21
308.204340877581
 31
0.0
  0
LINE
  5
FA876
330
1F
100
AcDbEntity
  8
AM_5
100
AcDbLine
 10
65.91641128595075
 20
305.5498608775811
 30
0.0
 11
64.60738228595073
 21
306.2043708775809
 31
0.0
  0
LINE
  5
FA877
330
1F
100
AcDbEntity
  8
AM_5
100
AcDbLine
 10
64.60737528595064
 20
308.2049208775809
 30
0.0
 11
64.60737528595064
 21
308.896479877581
 31
0.0
  0
LINE
  5
FA878
330
1F
100
AcDbEntity
  8
AM_5
100
AcDbLine
 10
64.60737528595064
 20
306.2041578775809
 30
0.0
 11
64.60737528595064
 21
306.895716877581
 31
0.0
  0
LINE
  5
FA879
330
1F
100
AcDbEntity
  8
AM_5
100
AcDbLine
 10
64.60737528595064
 20
310.8938858775809
 30
0.0
 11
65.91639628595157
 21
311.5483658775809
 31
0.0
  0
LINE
  5
FA87A
330
1F
100
AcDbEntity
  8
AM_5
100
AcDbLine
 10
208.0975050136392
 20
339.5339195133397
 30
0.0
 11
195.4794550136394
 21
339.5339195133397
 31
0.0
  0
LINE
  5
FA87B
330
1F
100
AcDbEntity
  8
AM_5
100
AcDbLine
 10
206.7884840136392
 20
340.1877275133409
 30
0.0
 11
196.7884840136392
 21
340.1877275133409
 31
0.0
  0
LINE
  5
FA87C
330
1F
100
AcDbEntity
  8
AM_5
100
AcDbLine
 10
213.7884840136392
 20
321.5338885133408
 30
0.0
 11
189.7884840136391
 21
321.5338885133408
 31
0.0
  0
LINE
  5
FA87D
330
1F
100
AcDbEntity
  8
AM_5
100
AcDbLine
 10
208.0975050136392
 20
323.5339195133397
 30
0.0
 11
195.4794550136394
 21
323.5339195133397
 31
0.0
  0
LINE
  5
FA87E
330
1F
100
AcDbEntity
  8
AM_5
100
AcDbLine
 10
208.0975050136392
 20
327.5339195133408
 30
0.0
 11
195.4794550136394
 21
327.5339195133408
 31
0.0
  0
LINE
  5
FA87F
330
1F
100
AcDbEntity
  8
AM_5
100
AcDbLine
 10
208.0975050136392
 20
325.5338885133408
 30
0.0
 11
195.4794550136394
 21
325.5338885133408
 31
0.0
  0
LINE
  5
FA880
330
1F
100
AcDbEntity
  8
AM_5
100
AcDbLine
 10
208.0975050136392
 20
329.5339195133397
 30
0.0
 11
195.4794550136394
 21
329.5339195133397
 31
0.0
  0
LINE
  5
FA881
330
1F
100
AcDbEntity
  8
AM_5
100
AcDbLine
 10
208.0975050136392
 20
333.5339195133397
 30
0.0
 11
195.4794550136394
 21
333.5339195133397
 31
0.0
  0
LINE
  5
FA882
330
1F
100
AcDbEntity
  8
AM_5
100
AcDbLine
 10
208.0975050136392
 20
331.5338885133399
 30
0.0
 11
195.4794550136394
 21
331.5338885133399
 31
0.0
  0
LINE
  5
FA883
330
1F
100
AcDbEntity
  8
AM_5
100
AcDbLine
 10
208.0975050136392
 20
337.5339195133397
 30
0.0
 11
195.4794550136394
 21
337.5339195133397
 31
0.0
  0
LINE
  5
FA884
330
1F
100
AcDbEntity
  8
AM_5
100
AcDbLine
 10
208.0975050136392
 20
335.5338885133408
 30
0.0
 11
195.4794550136394
 21
335.5338885133408
 31
0.0
  0
LINE
  5
FA885
330
1F
100
AcDbEntity
  8
AM_5
100
AcDbLine
 10
208.0974900136405
 20
339.5339195133397
 30
0.0
 11
206.7884840136392
 21
338.8794085133409
 31
0.0
  0
LINE
  5
FA886
330
1F
100
AcDbEntity
  8
AM_5
100
AcDbLine
 10
208.0975200136393
 20
327.5339195133408
 30
0.0
 11
206.7884990136392
 21
328.1884905133409
 31
0.0
  0
LINE
  5
FA887
330
1F
100
AcDbEntity
  8
AM_5
100
AcDbLine
 10
206.7884840136392
 20
322.187575513341
 30
0.0
 11
206.7884840136392
 21
322.879133513341
 31
0.0
  0
LINE
  5
FA888
330
1F
100
AcDbEntity
  8
AM_5
100
AcDbLine
 10
208.0974900136405
 20
321.5330955133409
 30
0.0
 11
206.7884840136392
 21
322.187575513341
 31
0.0
  0
LINE
  5
FA889
330
1F
100
AcDbEntity
  8
AM_5
100
AcDbLine
 10
208.0974900136405
 20
327.533949513341
 30
0.0
 11
206.7884840136392
 21
326.8794085133397
 31
0.0
  0
LINE
  5
FA88A
330
1F
100
AcDbEntity
  8
AM_5
100
AcDbLine
 10
208.0975050136392
 20
325.5338885133408
 30
0.0
 11
206.7884990136392
 21
324.8793785133398
 31
0.0
  0
LINE
  5
FA88B
330
1F
100
AcDbEntity
  8
AM_5
100
AcDbLine
 10
208.0975050136392
 20
323.5339195133397
 30
0.0
 11
206.7884840136392
 21
322.8794395133399
 31
0.0
  0
LINE
  5
FA88C
330
1F
100
AcDbEntity
  8
AM_5
100
AcDbLine
 10
208.0975050136392
 20
325.5338885133408
 30
0.0
 11
206.7884990136392
 21
326.1884605133409
 31
0.0
  0
LINE
  5
FA88D
330
1F
100
AcDbEntity
  8
AM_5
100
AcDbLine
 10
208.0975050136392
 20
323.5338885133399
 30
0.0
 11
206.7884690136393
 21
324.1884295133409
 31
0.0
  0
LINE
  5
FA88E
330
1F
100
AcDbEntity
  8
AM_5
100
AcDbLine
 10
206.7884840136392
 20
324.1883385133399
 30
0.0
 11
206.7884840136392
 21
324.8798965133399
 31
0.0
  0
LINE
  5
FA88F
330
1F
100
AcDbEntity
  8
AM_5
100
AcDbLine
 10
206.7884840136392
 20
326.1891005133409
 30
0.0
 11
206.7884840136392
 21
326.8806595133399
 31
0.0
  0
LINE
  5
FA890
330
1F
100
AcDbEntity
  8
AM_5
100
AcDbLine
 10
208.0974900136405
 20
333.533949513341
 30
0.0
 11
206.7884990136392
 21
334.1884905133408
 31
0.0
  0
LINE
  5
FA891
330
1F
100
AcDbEntity
  8
AM_5
100
AcDbLine
 10
208.0975050136392
 20
333.533949513341
 30
0.0
 11
206.7884840136392
 21
332.8794085133397
 31
0.0
  0
LINE
  5
FA892
330
1F
100
AcDbEntity
  8
AM_5
100
AcDbLine
 10
208.0974900136405
 20
331.5339195133397
 30
0.0
 11
206.7884840136392
 21
330.8794085133409
 31
0.0
  0
LINE
  5
FA893
330
1F
100
AcDbEntity
  8
AM_5
100
AcDbLine
 10
208.0974740136394
 20
329.5339805133399
 30
0.0
 11
206.7884530136394
 21
328.8795005133409
 31
0.0
  0
LINE
  5
FA894
330
1F
100
AcDbEntity
  8
AM_5
100
AcDbLine
 10
208.0974740136394
 20
331.5338585133409
 30
0.0
 11
206.7884840136392
 21
332.188399513341
 31
0.0
  0
LINE
  5
FA895
330
1F
100
AcDbEntity
  8
AM_5
100
AcDbLine
 10
208.0974900136405
 20
329.5338885133408
 30
0.0
 11
206.7884690136393
 21
330.188368513341
 31
0.0
  0
LINE
  5
FA896
330
1F
100
AcDbEntity
  8
AM_5
100
AcDbLine
 10
206.7884840136392
 20
328.1898635133398
 30
0.0
 11
206.7884840136392
 21
328.878065513341
 31
0.0
  0
LINE
  5
FA897
330
1F
100
AcDbEntity
  8
AM_5
100
AcDbLine
 10
206.7884840136392
 20
330.1872695133409
 30
0.0
 11
206.7884840136392
 21
330.8788285133398
 31
0.0
  0
LINE
  5
FA898
330
1F
100
AcDbEntity
  8
AM_5
100
AcDbLine
 10
206.7884840136392
 20
332.1880325133409
 30
0.0
 11
206.7884840136392
 21
332.879591513341
 31
0.0
  0
LINE
  5
FA899
330
1F
100
AcDbEntity
  8
AM_5
100
AcDbLine
 10
208.0974900136405
 20
337.5339195133397
 30
0.0
 11
206.7884840136392
 21
336.8793785133398
 31
0.0
  0
LINE
  5
FA89A
330
1F
100
AcDbEntity
  8
AM_5
100
AcDbLine
 10
208.0974900136405
 20
335.5338885133408
 30
0.0
 11
206.7884840136392
 21
334.8794085133397
 31
0.0
  0
LINE
  5
FA89B
330
1F
100
AcDbEntity
  8
AM_5
100
AcDbLine
 10
208.0974900136405
 20
337.5338885133408
 30
0.0
 11
206.7884840136392
 21
338.188399513341
 31
0.0
  0
LINE
  5
FA89C
330
1F
100
AcDbEntity
  8
AM_5
100
AcDbLine
 10
208.0974900136405
 20
335.5338585133409
 30
0.0
 11
206.7884840136392
 21
336.1883685133398
 31
0.0
  0
LINE
  5
FA89D
330
1F
100
AcDbEntity
  8
AM_5
100
AcDbLine
 10
206.7884840136392
 20
334.1887955133409
 30
0.0
 11
206.7884840136392
 21
334.8803545133399
 31
0.0
  0
LINE
  5
FA89E
330
1F
100
AcDbEntity
  8
AM_5
100
AcDbLine
 10
206.7884840136392
 20
336.1895585133409
 30
0.0
 11
206.7884840136392
 21
336.877760513341
 31
0.0
  0
LINE
  5
FA89F
330
1F
100
AcDbEntity
  8
AM_5
100
AcDbLine
 10
206.7884840136392
 20
338.1869645133397
 30
0.0
 11
206.7884840136392
 21
338.878523513341
 31
0.0
  0
LINE
  5
FA8A0
330
1F
100
AcDbEntity
  8
AM_5
100
AcDbLine
 10
208.0975050136392
 20
339.5339195133397
 30
0.0
 11
206.7884990136392
 21
340.1884295133409
 31
0.0
  0
LINE
  5
FA8A1
330
1F
100
AcDbEntity
  8
AM_5
100
AcDbLine
 10
64.60737528595064
 20
338.895411877581
 30
0.0
 11
65.91638828595069
 21
339.549921877581
 31
0.0
  0
LINE
  5
FA8A2
330
1F
100
AcDbEntity
  8
AM_5
100
AcDbLine
 10
196.7884690136393
 20
338.8794085133409
 30
0.0
 11
195.4794550136394
 21
339.5339195133397
 31
0.0
  0
LINE
  5
FA8A3
330
1F
100
AcDbEntity
  8
AM_5
100
AcDbLine
 10
196.7884690136393
 20
328.1883685133398
 30
0.0
 11
195.4794480136391
 21
327.5339805133399
 31
0.0
  0
LINE
  5
FA8A4
330
1F
100
AcDbEntity
  8
AM_5
100
AcDbLine
 10
196.7884840136392
 20
322.187575513341
 30
0.0
 11
196.7884840136392
 21
322.879133513341
 31
0.0
  0
LINE
  5
FA8A5
330
1F
100
AcDbEntity
  8
AM_5
100
AcDbLine
 10
196.7884840136392
 20
322.187575513341
 30
0.0
 11
195.4794790136393
 21
321.5330345133409
 31
0.0
  0
LINE
  5
FA8A6
330
1F
100
AcDbEntity
  8
AM_5
100
AcDbLine
 10
196.7884840136392
 20
326.1891005133409
 30
0.0
 11
196.7884840136392
 21
326.8806595133399
 31
0.0
  0
LINE
  5
FA8A7
330
1F
100
AcDbEntity
  8
AM_5
100
AcDbLine
 10
196.7884840136392
 20
324.1883385133399
 30
0.0
 11
196.7884840136392
 21
324.8798965133399
 31
0.0
  0
LINE
  5
FA8A8
330
1F
100
AcDbEntity
  8
AM_5
100
AcDbLine
 10
196.7884840136392
 20
326.188399513341
 30
0.0
 11
195.4794940136391
 21
325.5337975133398
 31
0.0
  0
LINE
  5
FA8A9
330
1F
100
AcDbEntity
  8
AM_5
100
AcDbLine
 10
196.7884990136392
 20
324.188307513341
 30
0.0
 11
195.4794630136393
 21
323.5339805133399
 31
0.0
  0
LINE
  5
FA8AA
330
1F
100
AcDbEntity
  8
AM_5
100
AcDbLine
 10
196.7884840136392
 20
326.8794085133397
 30
0.0
 11
195.4794630136393
 21
327.533949513341
 31
0.0
  0
LINE
  5
FA8AB
330
1F
100
AcDbEntity
  8
AM_5
100
AcDbLine
 10
196.7884840136392
 20
324.8794395133398
 30
0.0
 11
195.4794780136392
 21
325.5338885133408
 31
0.0
  0
LINE
  5
FA8AC
330
1F
100
AcDbEntity
  8
AM_5
100
AcDbLine
 10
196.7884840136392
 20
322.8794395133399
 30
0.0
 11
195.4794630136393
 21
323.533949513341
 31
0.0
  0
LINE
  5
FA8AD
330
1F
100
AcDbEntity
  8
AM_5
100
AcDbLine
 10
196.7884840136392
 20
334.188368513341
 30
0.0
 11
195.4794630136393
 21
333.533949513341
 31
0.0
  0
LINE
  5
FA8AE
330
1F
100
AcDbEntity
  8
AM_5
100
AcDbLine
 10
196.7884840136392
 20
332.1880325133409
 30
0.0
 11
196.7884840136392
 21
332.879591513341
 31
0.0
  0
LINE
  5
FA8AF
330
1F
100
AcDbEntity
  8
AM_5
100
AcDbLine
 10
196.7884840136392
 20
330.1872695133409
 30
0.0
 11
196.7884840136392
 21
330.8788285133398
 31
0.0
  0
LINE
  5
FA8B0
330
1F
100
AcDbEntity
  8
AM_5
100
AcDbLine
 10
196.7884840136392
 20
328.1898635133398
 30
0.0
 11
196.7884840136392
 21
328.878065513341
 31
0.0
  0
LINE
  5
FA8B1
330
1F
100
AcDbEntity
  8
AM_5
100
AcDbLine
 10
196.7884690136393
 20
332.1884295133409
 30
0.0
 11
195.4794550136394
 21
331.5339195133397
 31
0.0
  0
LINE
  5
FA8B2
330
1F
100
AcDbEntity
  8
AM_5
100
AcDbLine
 10
196.7884460136392
 20
330.1885515133408
 30
0.0
 11
195.4794550136394
 21
329.5339195133397
 31
0.0
  0
LINE
  5
FA8B3
330
1F
100
AcDbEntity
  8
AM_5
100
AcDbLine
 10
196.7885070136392
 20
332.8794395133398
 30
0.0
 11
195.4794630136393
 21
333.533949513341
 31
0.0
  0
LINE
  5
FA8B4
330
1F
100
AcDbEntity
  8
AM_5
100
AcDbLine
 10
196.7885150136391
 20
330.8793785133398
 30
0.0
 11
195.4794940136391
 21
331.5338585133409
 31
0.0
  0
LINE
  5
FA8B5
330
1F
100
AcDbEntity
  8
AM_5
100
AcDbLine
 10
196.7884690136393
 20
328.8793785133398
 30
0.0
 11
195.4794940136391
 21
329.533949513341
 31
0.0
  0
LINE
  5
FA8B6
330
1F
100
AcDbEntity
  8
AM_5
100
AcDbLine
 10
196.7884840136392
 20
338.1869645133397
 30
0.0
 11
196.7884840136392
 21
338.878523513341
 31
0.0
  0
LINE
  5
FA8B7
330
1F
100
AcDbEntity
  8
AM_5
100
AcDbLine
 10
196.7884840136392
 20
336.1895585133409
 30
0.0
 11
196.7884840136392
 21
336.877760513341
 31
0.0
  0
LINE
  5
FA8B8
330
1F
100
AcDbEntity
  8
AM_5
100
AcDbLine
 10
196.7884840136392
 20
334.1887955133409
 30
0.0
 11
196.7884840136392
 21
334.8803545133399
 31
0.0
  0
LINE
  5
FA8B9
330
1F
100
AcDbEntity
  8
AM_5
100
AcDbLine
 10
196.7884690136393
 20
338.1884295133409
 30
0.0
 11
195.4794630136393
 21
337.5339195133397
 31
0.0
  0
LINE
  5
FA8BA
330
1F
100
AcDbEntity
  8
AM_5
100
AcDbLine
 10
196.7884840136392
 20
336.188399513341
 30
0.0
 11
195.4794550136394
 21
335.5338885133408
 31
0.0
  0
LINE
  5
FA8BB
330
1F
100
AcDbEntity
  8
AM_5
100
AcDbLine
 10
196.7884840136392
 20
336.8794085133409
 30
0.0
 11
195.4794630136393
 21
337.5339195133397
 31
0.0
  0
LINE
  5
FA8BC
330
1F
100
AcDbEntity
  8
AM_5
100
AcDbLine
 10
196.7884760136391
 20
334.8793475133407
 30
0.0
 11
195.4794780136392
 21
335.5338585133409
 31
0.0
  0
LINE
  5
FA8BD
330
1F
100
AcDbEntity
  8
AM_5
100
AcDbLine
 10
65.91641128595075
 20
327.5497998775809
 30
0.0
 11
64.60738228595073
 21
328.204309877581
 31
0.0
  0
LINE
  5
FA8BE
330
1F
100
AcDbEntity
  8
AM_5
100
AcDbLine
 10
64.60737528595064
 20
322.203547877581
 30
0.0
 11
64.60737528595064
 21
322.895105877581
 31
0.0
  0
LINE
  5
FA8BF
330
1F
100
AcDbEntity
  8
AM_5
100
AcDbLine
 10
65.91638928595057
 20
321.5490678775808
 30
0.0
 11
64.60737528595064
 21
322.203547877581
 31
0.0
  0
LINE
  5
FA8C0
330
1F
100
AcDbEntity
  8
AM_5
100
AcDbLine
 10
64.60732928595053
 20
326.895563877581
 30
0.0
 11
65.91634228595058
 21
327.5501048775808
 31
0.0
  0
LINE
  5
FA8C1
330
1F
100
AcDbEntity
  8
AM_5
100
AcDbLine
 10
64.60739028595071
 20
324.8954728775808
 30
0.0
 11
65.91640328595075
 21
325.549982877581
 31
0.0
  0
LINE
  5
FA8C2
330
1F
100
AcDbEntity
  8
AM_5
100
AcDbLine
 10
64.60735928595068
 20
322.895563877581
 30
0.0
 11
65.91635028595057
 21
323.5501048775808
 31
0.0
  0
LINE
  5
FA8C3
330
1F
100
AcDbEntity
  8
AM_5
100
AcDbLine
 10
65.91638028595069
 20
325.549829877581
 30
0.0
 11
64.60738228595073
 21
326.204340877581
 31
0.0
  0
LINE
  5
FA8C4
330
1F
100
AcDbEntity
  8
AM_5
100
AcDbLine
 10
65.91636528595063
 20
323.5497388775808
 30
0.0
 11
64.60735228595149
 21
324.204279877581
 31
0.0
  0
LINE
  5
FA8C5
330
1F
100
AcDbEntity
  8
AM_5
100
AcDbLine
 10
64.60737528595064
 20
326.205072877581
 30
0.0
 11
64.60737528595064
 21
326.896631877581
 31
0.0
  0
LINE
  5
FA8C6
330
1F
100
AcDbEntity
  8
AM_5
100
AcDbLine
 10
64.60737528595064
 20
324.2043098775809
 30
0.0
 11
64.60737528595064
 21
324.8958688775811
 31
0.0
  0
LINE
  5
FA8C7
330
1F
100
AcDbEntity
  8
AM_5
100
AcDbLine
 10
65.91638828595069
 20
333.5498608775811
 30
0.0
 11
64.60738228595073
 21
334.2044018775809
 31
0.0
  0
LINE
  5
FA8C8
330
1F
100
AcDbEntity
  8
AM_5
100
AcDbLine
 10
64.60739028595071
 20
332.895411877581
 30
0.0
 11
65.91639628595157
 21
333.549921877581
 31
0.0
  0
LINE
  5
FA8C9
330
1F
100
AcDbEntity
  8
AM_5
100
AcDbLine
 10
64.6073982859507
 20
330.895411877581
 30
0.0
 11
65.91641128595075
 21
331.549921877581
 31
0.0
  0
LINE
  5
FA8CA
330
1F
100
AcDbEntity
  8
AM_5
100
AcDbLine
 10
64.60738228595073
 20
328.8955028775811
 30
0.0
 11
65.91640328595075
 21
329.549982877581
 31
0.0
  0
LINE
  5
FA8CB
330
1F
100
AcDbEntity
  8
AM_5
100
AcDbLine
 10
65.91636528595063
 20
331.5497998775809
 30
0.0
 11
64.60740528595079
 21
332.2043708775809
 31
0.0
  0
LINE
  5
FA8CC
330
1F
100
AcDbEntity
  8
AM_5
100
AcDbLine
 10
65.91637328595061
 20
329.5498608775811
 30
0.0
 11
64.60735928595068
 21
330.2043708775808
 31
0.0
  0
LINE
  5
FA8CD
330
1F
100
AcDbEntity
  8
AM_5
100
AcDbLine
 10
64.60737528595064
 20
332.2040048775809
 30
0.0
 11
64.60737528595064
 21
332.895563877581
 31
0.0
  0
LINE
  5
FA8CE
330
1F
100
AcDbEntity
  8
AM_5
100
AcDbLine
 10
64.60737528595064
 20
330.2032418775809
 30
0.0
 11
64.60737528595064
 21
330.894800877581
 31
0.0
  0
LINE
  5
FA8CF
330
1F
100
AcDbEntity
  8
AM_5
100
AcDbLine
 10
64.60737528595064
 20
328.205835877581
 30
0.0
 11
64.60737528595064
 21
328.894037877581
 31
0.0
  0
LINE
  5
FA8D0
330
1F
100
AcDbEntity
  8
AM_5
100
AcDbLine
 10
64.60737528595064
 20
336.8954418775809
 30
0.0
 11
65.91638028595069
 21
337.5499528775811
 31
0.0
  0
LINE
  5
FA8D1
330
1F
100
AcDbEntity
  8
AM_5
100
AcDbLine
 10
64.60739028595071
 20
334.895411877581
 30
0.0
 11
65.91639628595157
 21
335.549921877581
 31
0.0
  0
LINE
  5
FA8D2
330
1F
100
AcDbEntity
  8
AM_5
100
AcDbLine
 10
65.91639628595157
 20
337.5498918775809
 30
0.0
 11
64.60738228595073
 21
338.2044018775809
 31
0.0
  0
LINE
  5
FA8D3
330
1F
100
AcDbEntity
  8
AM_5
100
AcDbLine
 10
65.91638028595069
 20
335.549829877581
 30
0.0
 11
64.60738228595073
 21
336.204340877581
 31
0.0
  0
LINE
  5
FA8D4
330
1F
100
AcDbEntity
  8
AM_5
100
AcDbLine
 10
64.60737528595064
 20
338.2029368775809
 30
0.0
 11
64.60737528595064
 21
338.894495877581
 31
0.0
  0
LINE
  5
FA8D5
330
1F
100
AcDbEntity
  8
AM_5
100
AcDbLine
 10
64.60737528595064
 20
336.2055308775798
 30
0.0
 11
64.60737528595064
 21
336.893732877581
 31
0.0
  0
LINE
  5
FA8D6
330
1F
100
AcDbEntity
  8
AM_5
100
AcDbLine
 10
64.60737528595064
 20
334.2047678775809
 30
0.0
 11
64.60737528595064
 21
334.896326877581
 31
0.0
  0
LINE
  5
FA8D7
330
1F
100
AcDbEntity
  8
AM_5
100
AcDbLine
 10
196.7884760136391
 20
340.1884295133409
 30
0.0
 11
195.4794630136393
 21
339.5339195133397
 31
0.0
  0
LINE
  5
FA8D8
330
1F
100
AcDbEntity
  8
AM_5
100
AcDbLine
 10
65.91639628595157
 20
339.5498608775811
 30
0.0
 11
64.60738228595073
 21
340.2043708775809
 31
0.0
  0
LINE
  5
FA8D9
330
1F
100
AcDbEntity
  8
AM_5
100
AcDbLine
 10
45.75096828595087
 20
311.5498608775811
 30
0.0
 11
45.75096828595087
 21
321.5498608775811
 31
0.0
  0
MTEXT
  5
FA8DA
330
1F
100
AcDbEntity
  8
AM_5
100
AcDbMText
 10
15.52491540468099
 20
319.9792966649217
 30
0.0
 40
5.0
 41
34.2216
 71
     1
 72
     5
  1
{\fMS Gothic|b0|i0|c128|p49;M12ねじ}
  7
acad
 73
     1
 44
1.0
1001
ACAD
1000
MTEXTBEGIN
1070
    73
1070
     1
1070
    44
1040
1.0
1070
    74
1070
     0
1000
MTEXTEND
  0
LINE
  5
FA8DB
330
1F
100
AcDbEntity
  8
AM_5
100
AcDbLine
 10
52.67916728595082
 20
311.5498608775811
 30
0.0
 11
52.67916728595082
 21
321.5498608775811
 31
0.0
  0
LINE
  5
FA8DC
330
1F
100
AcDbEntity
  8
AM_5
100
AcDbLine
 10
53.2982852859518
 20
293.5501658775809
 30
0.0
 11
54.60732928595053
 21
294.204706877581
 31
0.0
  0
LINE
  5
FA8DD
330
1F
100
AcDbEntity
  8
AM_5
100
AcDbLine
 10
54.60741328595076
 20
282.2032728775809
 30
0.0
 11
54.60741328595076
 21
282.894800877581
 31
0.0
  0
LINE
  5
FA8DE
330
1F
100
AcDbEntity
  8
AM_5
100
AcDbLine
 10
54.60741328595076
 20
280.2024788775809
 30
0.0
 11
54.60741328595076
 21
280.894037877581
 31
0.0
  0
LINE
  5
FA8DF
330
1F
100
AcDbEntity
  8
AM_5
100
AcDbLine
 10
53.29839928595085
 20
281.5489758775809
 30
0.0
 11
54.60743628595082
 21
282.203485877581
 31
0.0
  0
LINE
  5
FA8E0
330
1F
100
AcDbEntity
  8
AM_5
100
AcDbLine
 10
54.3073592859505
 20
280.0534315754898
 30
0.0
 11
54.6073442859506
 21
280.2034248775811
 31
0.0
  0
LINE
  5
FA8E1
330
1F
100
AcDbEntity
  8
AM_5
100
AcDbLine
 10
54.60735928595159
 20
280.8939158775809
 30
0.0
 11
53.29839228595075
 21
281.5486708775809
 31
0.0
  0
LINE
  5
FA8E2
330
1F
100
AcDbEntity
  8
AM_5
100
AcDbLine
 10
53.29839928595085
 20
287.5489148775809
 30
0.0
 11
54.60742028595086
 21
288.203424877581
 31
0.0
  0
LINE
  5
FA8E3
330
1F
100
AcDbEntity
  8
AM_5
100
AcDbLine
 10
54.60741328595076
 20
286.2047678775809
 30
0.0
 11
54.60741328595076
 21
286.892969877581
 31
0.0
  0
LINE
  5
FA8E4
330
1F
100
AcDbEntity
  8
AM_5
100
AcDbLine
 10
54.60741328595076
 20
284.2040048775809
 30
0.0
 11
54.60741328595076
 21
284.895563877581
 31
0.0
  0
LINE
  5
FA8E5
330
1F
100
AcDbEntity
  8
AM_5
100
AcDbLine
 10
53.29836128595069
 20
285.5489148775809
 30
0.0
 11
54.60742028595086
 21
286.2033948775809
 31
0.0
  0
LINE
  5
FA8E6
330
1F
100
AcDbEntity
  8
AM_5
100
AcDbLine
 10
53.29839928595085
 20
283.5489758775809
 30
0.0
 11
54.60737528595064
 21
284.203424877581
 31
0.0
  0
LINE
  5
FA8E7
330
1F
100
AcDbEntity
  8
AM_5
100
AcDbLine
 10
54.60737528595064
 20
286.894006877581
 30
0.0
 11
53.29836928595161
 21
287.5485478775811
 31
0.0
  0
LINE
  5
FA8E8
330
1F
100
AcDbEntity
  8
AM_5
100
AcDbLine
 10
54.60740528595078
 20
284.894129877581
 30
0.0
 11
53.29836928595161
 21
285.548456877581
 31
0.0
  0
LINE
  5
FA8E9
330
1F
100
AcDbEntity
  8
AM_5
100
AcDbLine
 10
54.60739728595081
 20
282.8941598775809
 30
0.0
 11
53.29839228595075
 21
283.548700877581
 31
0.0
  0
LINE
  5
FA8EA
330
1F
100
AcDbEntity
  8
AM_5
100
AcDbLine
 10
54.60741328595076
 20
290.2029368775809
 30
0.0
 11
54.60741328595076
 21
290.894495877581
 31
0.0
  0
LINE
  5
FA8EB
330
1F
100
AcDbEntity
  8
AM_5
100
AcDbLine
 10
54.60741328595076
 20
288.2022038775811
 30
0.0
 11
54.60741328595076
 21
288.893732877581
 31
0.0
  0
LINE
  5
FA8EC
330
1F
100
AcDbEntity
  8
AM_5
100
AcDbLine
 10
53.29839928595085
 20
291.5489758775809
 30
0.0
 11
54.60739028595071
 21
292.2034558775811
 31
0.0
  0
LINE
  5
FA8ED
330
1F
100
AcDbEntity
  8
AM_5
100
AcDbLine
 10
53.29839928595085
 20
289.5488838775809
 30
0.0
 11
54.60741328595076
 21
290.2033948775809
 31
0.0
  0
LINE
  5
FA8EE
330
1F
100
AcDbEntity
  8
AM_5
100
AcDbLine
 10
54.60742028595086
 20
290.894129877581
 30
0.0
 11
53.29839928595085
 21
291.5486398775811
 31
0.0
  0
LINE
  5
FA8EF
330
1F
100
AcDbEntity
  8
AM_5
100
AcDbLine
 10
54.60732928595053
 20
288.893884877581
 30
0.0
 11
53.29838428595075
 21
289.548456877581
 31
0.0
  0
LINE
  5
FA8F0
330
1F
100
AcDbEntity
  8
AM_5
100
AcDbLine
 10
54.60737528595085
 20
292.2034483777588
 30
0.0
 11
54.60737528595064
 21
292.893732877581
 31
0.0
  0
LINE
  5
FA8F1
330
1F
100
AcDbEntity
  8
AM_5
100
AcDbLine
 10
54.60739028595071
 20
292.895350877581
 30
0.0
 11
53.29832328595057
 21
293.5497388775809
 31
0.0
  0
LINE
  5
FA8F2
330
1F
100
AcDbEntity
  8
AM_5
100
AcDbLine
 10
54.60729128595085
 20
304.8951058775811
 30
0.0
 11
53.29834628595063
 21
305.549677877581
 31
0.0
  0
LEADER
  5
FA8F3
330
1F
100
AcDbEntity
  8
AM_5
100
AcDbLeader
  3
2014+
 76
     3
 10
54.60730628595047
 20
296.204645877581
 30
0.0
 10
25.39356241633072
 20
301.7269123650452
 30
0.0
 10
25.39356241633072
 20
309.8433939940731
 30
0.0
211
0.0000000000000001
221
1.0
231
0.0
1001
ACAD
1000
DSTYLE
1002
{
1070
    40
1040
1.0
1002
}
  0
LINE
  5
FA8F4
330
1F
100
AcDbEntity
  8
AM_5
100
AcDbLine
 10
54.60735928595159
 20
298.8953808775809
 30
0.0
 11
53.2983542859506
 21
299.549921877581
 31
0.0
  0
LINE
  5
FA8F5
330
1F
100
AcDbEntity
  8
AM_5
100
AcDbLine
 10
54.60737528595064
 20
296.2036998775809
 30
0.0
 11
54.60737528595064
 21
296.895258877581
 31
0.0
  0
LINE
  5
FA8F6
330
1F
100
AcDbEntity
  8
AM_5
100
AcDbLine
 10
54.60737528595064
 20
294.2029368775809
 30
0.0
 11
54.60737528595064
 21
294.894495877581
 31
0.0
  0
LINE
  5
FA8F7
330
1F
100
AcDbEntity
  8
AM_5
100
AcDbLine
 10
53.29829328595089
 20
295.5501358775809
 30
0.0
 11
54.60730628595047
 21
296.204645877581
 31
0.0
  0
LINE
  5
FA8F8
330
1F
100
AcDbEntity
  8
AM_5
100
AcDbLine
 10
54.60730628595047
 20
294.8950758775809
 30
0.0
 11
53.2982852859518
 21
295.549555877581
 31
0.0
  0
LINE
  5
FA8F9
330
1F
100
AcDbEntity
  8
AM_5
100
AcDbLine
 10
54.60737528595064
 20
298.204493877581
 30
0.0
 11
54.60737528595064
 21
298.896021877581
 31
0.0
  0
LINE
  5
FA8FA
330
1F
100
AcDbEntity
  8
AM_5
100
AcDbLine
 10
53.29836128595069
 20
297.5501968775808
 30
0.0
 11
54.6073982859507
 21
298.2047068775809
 31
0.0
  0
LINE
  5
FA8FB
330
1F
100
AcDbEntity
  8
AM_5
100
AcDbLine
 10
54.60732128595053
 20
296.8951368775811
 30
0.0
 11
53.2983542859506
 21
297.5498918775809
 31
0.0
  0
LINE
  5
FA8FC
330
1F
100
AcDbEntity
  8
AM_5
100
AcDbLine
 10
54.60737528595064
 20
304.203424877581
 30
0.0
 11
54.60737528595064
 21
304.894953877581
 31
0.0
  0
LINE
  5
FA8FD
330
1F
100
AcDbEntity
  8
AM_5
100
AcDbLine
 10
54.60737528595064
 20
302.2059888775809
 30
0.0
 11
54.60737528595064
 21
302.894190877581
 31
0.0
  0
LINE
  5
FA8FE
330
1F
100
AcDbEntity
  8
AM_5
100
AcDbLine
 10
54.60737528595064
 20
300.2052258775809
 30
0.0
 11
54.60737528595064
 21
300.896784877581
 31
0.0
  0
LINE
  5
FA8FF
330
1F
100
AcDbEntity
  8
AM_5
100
AcDbLine
 10
53.29836128595069
 20
303.5501358775809
 30
0.0
 11
54.60738228595072
 21
304.204645877581
 31
0.0
  0
LINE
  5
FA900
330
1F
100
AcDbEntity
  8
AM_5
100
AcDbLine
 10
53.29832328595057
 20
301.5501358775809
 30
0.0
 11
54.60738228595072
 21
302.20461587758
 31
0.0
  0
LINE
  5
FA901
330
1F
100
AcDbEntity
  8
AM_5
100
AcDbLine
 10
53.29836128595069
 20
299.5501968775808
 30
0.0
 11
54.60733728595051
 21
300.204645877581
 31
0.0
  0
LINE
  5
FA902
330
1F
100
AcDbEntity
  8
AM_5
100
AcDbLine
 10
54.60733728595051
 20
302.895227877581
 30
0.0
 11
53.29833128595055
 21
303.5497688775811
 31
0.0
  0
LINE
  5
FA903
330
1F
100
AcDbEntity
  8
AM_5
100
AcDbLine
 10
54.60736728595065
 20
300.895350877581
 30
0.0
 11
53.29833128595055
 21
301.549677877581
 31
0.0
  0
LINE
  5
FA904
330
1F
100
AcDbEntity
  8
AM_5
100
AcDbLine
 10
54.60737528595064
 20
310.2057138775812
 30
0.0
 11
54.60737528595064
 21
310.8938858775809
 31
0.0
  0
LINE
  5
FA905
330
1F
100
AcDbEntity
  8
AM_5
100
AcDbLine
 10
54.60737528595064
 20
308.2049208775809
 30
0.0
 11
54.60737528595064
 21
308.896479877581
 31
0.0
  0
LINE
  5
FA906
330
1F
100
AcDbEntity
  8
AM_5
100
AcDbLine
 10
54.60737528595064
 20
306.2041578775809
 30
0.0
 11
54.60737528595064
 21
306.895716877581
 31
0.0
  0
LINE
  5
FA907
330
1F
100
AcDbEntity
  8
AM_5
100
AcDbLine
 10
53.2983542859506
 20
309.5501658775809
 30
0.0
 11
54.60737528595064
 21
310.204645877581
 31
0.0
  0
LINE
  5
FA908
330
1F
100
AcDbEntity
  8
AM_5
100
AcDbLine
 10
53.29836128595069
 20
307.5501968775808
 30
0.0
 11
54.60735228595058
 21
308.2046768775811
 31
0.0
  0
LINE
  5
FA909
330
1F
100
AcDbEntity
  8
AM_5
100
AcDbLine
 10
53.29836128595069
 20
305.5501048775809
 30
0.0
 11
54.60737528595064
 21
306.2046158775808
 31
0.0
  0
LINE
  5
FA90A
330
1F
100
AcDbEntity
  8
AM_5
100
AcDbLine
 10
54.60736728595065
 20
308.895258877581
 30
0.0
 11
53.29834628595063
 21
309.5497078775809
 31
0.0
  0
LINE
  5
FA90B
330
1F
100
AcDbEntity
  8
AM_5
100
AcDbLine
 10
54.60738228595072
 20
306.895350877581
 30
0.0
 11
53.29836128595069
 21
307.5498608775811
 31
0.0
  0
LINE
  5
FA90C
330
1F
100
AcDbEntity
  8
AM_5
100
AcDbLine
 10
54.60737528595064
 20
310.8938858775809
 30
0.0
 11
53.29836928595161
 21
311.5483968775809
 31
0.0
  0
LINE
  5
FA90D
330
1F
100
AcDbEntity
  8
AM_5
100
AcDbLine
 10
54.60737528595064
 20
338.8953808775809
 30
0.0
 11
53.2983542859506
 21
339.5498918775809
 31
0.0
  0
LINE
  5
FA90E
330
1F
100
AcDbEntity
  8
AM_5
100
AcDbLine
 10
53.29836128595069
 20
327.549982877581
 30
0.0
 11
54.60736728595065
 21
328.2045238775809
 31
0.0
  0
LINE
  5
FA90F
330
1F
100
AcDbEntity
  8
AM_5
100
AcDbLine
 10
54.60737528595064
 20
322.203547877581
 30
0.0
 11
54.60737528595064
 21
322.895105877581
 31
0.0
  0
LINE
  5
FA910
330
1F
100
AcDbEntity
  8
AM_5
100
AcDbLine
 10
53.2983542859506
 20
321.5490368775809
 30
0.0
 11
54.60737528595064
 21
322.203547877581
 31
0.0
  0
LINE
  5
FA911
330
1F
100
AcDbEntity
  8
AM_5
100
AcDbLine
 10
54.60737528595064
 20
326.205072877581
 30
0.0
 11
54.60737528595064
 21
326.896631877581
 31
0.0
  0
LINE
  5
FA912
330
1F
100
AcDbEntity
  8
AM_5
100
AcDbLine
 10
54.60737528595064
 20
324.2043098775809
 30
0.0
 11
54.60737528595064
 21
324.8958688775811
 31
0.0
  0
LINE
  5
FA913
330
1F
100
AcDbEntity
  8
AM_5
100
AcDbLine
 10
53.29833828595065
 20
325.5500438775809
 30
0.0
 11
54.60736728595065
 21
326.2045238775808
 31
0.0
  0
LINE
  5
FA914
330
1F
100
AcDbEntity
  8
AM_5
100
AcDbLine
 10
53.29833128595055
 20
323.5500138775809
 30
0.0
 11
54.60737528595064
 21
324.2045548775808
 31
0.0
  0
LINE
  5
FA915
330
1F
100
AcDbEntity
  8
AM_5
100
AcDbLine
 10
54.60735928595159
 20
326.8952888775809
 30
0.0
 11
53.29836128595069
 21
327.5498298775811
 31
0.0
  0
LINE
  5
FA916
330
1F
100
AcDbEntity
  8
AM_5
100
AcDbLine
 10
54.60735228595058
 20
324.8952888775809
 30
0.0
 11
53.29834628595063
 21
325.5497688775812
 31
0.0
  0
LINE
  5
FA917
330
1F
100
AcDbEntity
  8
AM_5
100
AcDbLine
 10
54.60733728595051
 20
322.895258877581
 30
0.0
 11
53.29832328595057
 21
323.5497388775808
 31
0.0
  0
LINE
  5
FA918
330
1F
100
AcDbEntity
  8
AM_5
100
AcDbLine
 10
53.2983542859506
 20
333.549921877581
 30
0.0
 11
54.60736728595065
 21
334.2044628775809
 31
0.0
  0
LINE
  5
FA919
330
1F
100
AcDbEntity
  8
AM_5
100
AcDbLine
 10
54.60737528595064
 20
332.2040048775809
 30
0.0
 11
54.60737528595064
 21
332.895563877581
 31
0.0
  0
LINE
  5
FA91A
330
1F
100
AcDbEntity
  8
AM_5
100
AcDbLine
 10
54.60737528595064
 20
330.2032418775809
 30
0.0
 11
54.60737528595064
 21
330.894800877581
 31
0.0
  0
LINE
  5
FA91B
330
1F
100
AcDbEntity
  8
AM_5
100
AcDbLine
 10
54.60737528595064
 20
328.205835877581
 30
0.0
 11
54.60737528595064
 21
328.894037877581
 31
0.0
  0
LINE
  5
FA91C
330
1F
100
AcDbEntity
  8
AM_5
100
AcDbLine
 10
53.29836128595069
 20
331.549921877581
 30
0.0
 11
54.60737528595064
 21
332.204432877581
 31
0.0
  0
LINE
  5
FA91D
330
1F
100
AcDbEntity
  8
AM_5
100
AcDbLine
 10
53.29836128595069
 20
329.549982877581
 30
0.0
 11
54.60736728595065
 21
330.2044628775809
 31
0.0
  0
LINE
  5
FA91E
330
1F
100
AcDbEntity
  8
AM_5
100
AcDbLine
 10
54.60735928595159
 20
332.895350877581
 30
0.0
 11
53.29834628595063
 21
333.5498608775811
 31
0.0
  0
LINE
  5
FA91F
330
1F
100
AcDbEntity
  8
AM_5
100
AcDbLine
 10
54.60739028595071
 20
330.895319877581
 30
0.0
 11
53.29832328595057
 21
331.5497998775809
 31
0.0
  0
LINE
  5
FA920
330
1F
100
AcDbEntity
  8
AM_5
100
AcDbLine
 10
54.60738228595072
 20
328.895350877581
 30
0.0
 11
53.29836128595069
 21
329.5497998775809
 31
0.0
  0
LINE
  5
FA921
330
1F
100
AcDbEntity
  8
AM_5
100
AcDbLine
 10
54.60737528595064
 20
338.2029368775809
 30
0.0
 11
54.60737528595064
 21
338.894495877581
 31
0.0
  0
LINE
  5
FA922
330
1F
100
AcDbEntity
  8
AM_5
100
AcDbLine
 10
54.60737528595064
 20
336.2055308775798
 30
0.0
 11
54.60737528595064
 21
336.893732877581
 31
0.0
  0
LINE
  5
FA923
330
1F
100
AcDbEntity
  8
AM_5
100
AcDbLine
 10
54.60737528595064
 20
334.2047678775809
 30
0.0
 11
54.60737528595064
 21
334.896326877581
 31
0.0
  0
LINE
  5
FA924
330
1F
100
AcDbEntity
  8
AM_5
100
AcDbLine
 10
53.29834628595063
 20
337.5499528775811
 30
0.0
 11
54.60735228595058
 21
338.2044628775809
 31
0.0
  0
LINE
  5
FA925
330
1F
100
AcDbEntity
  8
AM_5
100
AcDbLine
 10
53.2983542859506
 20
335.5498918775809
 30
0.0
 11
54.60736728595065
 21
336.204432877581
 31
0.0
  0
LINE
  5
FA926
330
1F
100
AcDbEntity
  8
AM_5
100
AcDbLine
 10
54.60735928595159
 20
336.895350877581
 30
0.0
 11
53.2983542859506
 21
337.5498918775809
 31
0.0
  0
LINE
  5
FA927
330
1F
100
AcDbEntity
  8
AM_5
100
AcDbLine
 10
54.60735928595159
 20
334.895319877581
 30
0.0
 11
53.29833828595065
 21
335.549829877581
 31
0.0
  0
LINE
  5
FA928
330
1F
100
AcDbEntity
  8
AM_5
100
AcDbLine
 10
53.2983542859506
 20
339.549921877581
 30
0.0
 11
54.60735928595159
 21
340.2044018775809
 31
0.0
  0
VIEWPORT
  5
FAC70
102
{ACAD_XDICTIONARY
360
FAC71
102
}
330
FAC67
100
AcDbEntity
 67
     1
  8
0
100
AcDbViewport
 10
142.5892486572266
 20
99.1129140853882
 30
0.0
 40
430.4720018747953
 41
222.1517806396485
 68
     1
 69
     1
 12
142.5892486572266
 22
99.1129140853882
 13
0.0
 23
0.0
 14
10.0
 24
10.0
 15
10.0
 25
10.0
 16
0.0
 26
0.0
 36
1.0
 17
0.0
 27
0.0
 37
0.0
 42
50.0
 43
0.0
 44
0.0
 45
222.1517806396485
 50
0.0
 51
0.0
 72
   100
 90
   819232
  1

281
     0
 71
     1
 74
     0
110
0.0
120
0.0
130
0.0
111
1.0
121
0.0
131
0.0
112
0.0
122
1.0
132
0.0
 79
     0
146
0.0
170
     0
1001
GENIUS_GENSCREG_15
1000
PF
1040
1.0
1000
DF
1040
1.0
1000
MIN
1011
-72.64675228017108
1021
-11.96297623443604
1031
0.0
1000
MAX
1011
357.8252495946242
1021
210.1888044052125
1031
0.0
1000
FLAGS
1070
     4
1001
GENIUS_GENODEF_13
1002
{
1000
HIER
1070
     0
1002
}
1002
{
1000
MANEDIT
1070
     0
1002
}
1002
{
1000
NOSEL
1070
     0
1002
}
1002
{
1000
BEHIND
1070
     0
1002
}
1002
{
1000
OTHER
1070
     0
1002
}
1002
{
1000
REACTOR
1002
}
1001
GENIUS_GENOBJ-N-SDF_13
1002
{
1000
OWNER
1000
GEN
1002
}
  0
ENDSEC
  0
SECTION
  2
OBJECTS
  0
DICTIONARY
  5
C
330
0
100
AcDbDictionary
281
     1
  3
ACAD_CIP_PREVIOUS_PRODUCT_INFO
350
FAC3A
  3
ACAD_COLOR
350
8712
  3
ACAD_DETAILVIEWSTYLE
350
FAC24
  3
ACAD_FIELDLIST
350
FAC56
  3
ACAD_GROUP
350
D
  3
ACAD_LAYOUT
350
1A
  3
ACAD_MATERIAL
350
8711
  3
ACAD_MLEADERSTYLE
350
FAC20
  3
ACAD_MLINESTYLE
350
17
  3
ACAD_PLOTSETTINGS
350
19
  3
ACAD_PLOTSTYLENAME
350
E
  3
ACAD_SCALELIST
350
FAC0E
  3
ACAD_SECTIONVIEWSTYLE
350
FAC22
  3
ACAD_TABLESTYLE
350
FAC0C
  3
ACAD_VISUALSTYLE
350
FABF3
  3
AcadDim
350
CCA4E
  3
ACDB_RECOMPOSE_DATA
350
FAF2B
  3
AcDbVariableDictionary
350
6B9
  3
AcmDictionary
350
16D31
  3
AMG
350
16D13
  3
AMGSNAPSETTINGS
350
17AE6
  3
ASE_INDEX_DICTIONARY
350
F4A75
  0
DICTIONARY
  5
F82BD
330
2
100
AcDbDictionary
280
     1
281
     1
  3
ACAD_LAYERFILTERS
360
F82C0
  3
ACAD_LAYERSTATES
360
F82BE
  0
DICTIONARY
  5
FAE0D
330
10
100
AcDbDictionary
280
     1
281
     1
  3
ADSK_XREC_LAYER_RECONCILED
360
FAE0E
  0
DICTIONARY
  5
FAE0F
330
86C9
100
AcDbDictionary
280
     1
281
     1
  3
ADSK_XREC_LAYER_RECONCILED
360
FAE10
  0
DICTIONARY
  5
FAE11
330
FAD41
100
AcDbDictionary
280
     1
281
     1
  3
ADSK_XREC_LAYER_RECONCILED
360
FAE12
  0
DICTIONARY
  5
16D78
330
1F
100
AcDbDictionary
280
     1
281
     1
  0
DICTIONARY
  5
FAC71
330
FAC70
100
AcDbDictionary
280
     1
281
     1
  3
ASDK_XREC_ANNOTATION_SCALE_INFO
360
FAC72
  0
XRECORD
  5
FAC3A
102
{ACAD_REACTORS
330
C
102
}
330
C
100
AcDbXrecord
280
     1
300
AMECH_PP
300
2016
300
AMECH_PP_F_S
  0
DICTIONARY
  5
8712
102
{ACAD_REACTORS
330
C
102
}
330
C
100
AcDbDictionary
281
     1
  0
DICTIONARY
  5
FAC24
102
{ACAD_REACTORS
330
C
102
}
330
C
100
AcDbDictionary
281
     1
  3
Metric50
350
FAC25
  0
FIELDLIST
  5
FAC56
102
{ACAD_REACTORS
330
C
102
}
330
C
100
AcDbIdSet
 90
        3
330
FAEBB
330
FAEBC
330
FAEBD
100
AcDbFieldList
  0
DICTIONARY
  5
D
102
{ACAD_REACTORS
330
C
102
}
330
C
100
AcDbDictionary
281
     1
  0
DICTIONARY
  5
1A
102
{ACAD_REACTORS
330
C
102
}
330
C
100
AcDbDictionary
281
     1
  3
Model
350
22
  3
レイアウト1
350
FAC68
  0
DICTIONARY
  5
8711
102
{ACAD_REACTORS
330
C
102
}
330
C
100
AcDbDictionary
281
     1
  3
ByBlock
350
FABE3
  3
ByLayer
350
FABDB
  3
Global
350
FABEB
  0
DICTIONARY
  5
FAC20
102
{ACAD_REACTORS
330
C
102
}
330
C
100
AcDbDictionary
281
     1
  3
Standard
350
FAC21
  0
DICTIONARY
  5
17
102
{ACAD_REACTORS
330
C
102
}
330
C
100
AcDbDictionary
281
     1
  3
Standard
350
18
  0
DICTIONARY
  5
19
102
{ACAD_REACTORS
330
C
102
}
330
C
100
AcDbDictionary
281
     1
  0
ACDBDICTIONARYWDFLT
  5
E
102
{ACAD_REACTORS
330
C
102
}
330
C
100
AcDbDictionary
281
     1
  3
Normal
350
F
100
AcDbDictionaryWithDefault
340
F
  0
DICTIONARY
  5
FAC0E
102
{ACAD_REACTORS
330
C
102
}
330
C
100
AcDbDictionary
281
     1
  3
A0
350
FAC0F
  3
A1
350
FAC10
  3
A2
350
FAC11
  3
A3
350
FAC12
  3
A4
350
FAC13
  3
A5
350
FAC14
  3
A6
350
FAC15
  3
A7
350
FAC16
  3
A8
350
FAC17
  3
A9
350
FAC18
  3
B0
350
FAC19
  3
B1
350
FAC1A
  3
B2
350
FAC1B
  3
B3
350
FAC1C
  3
B4
350
FAC1D
  3
B5
350
FAC1E
  3
B6
350
FAC1F
  0
DICTIONARY
  5
FAC22
102
{ACAD_REACTORS
330
C
102
}
330
C
100
AcDbDictionary
281
     1
  3
Metric50
350
FAC23
  0
DICTIONARY
  5
FAC0C
102
{ACAD_REACTORS
330
C
102
}
330
C
100
AcDbDictionary
281
     1
  3
Standard
350
FAC0D
  0
DICTIONARY
  5
FABF3
102
{ACAD_REACTORS
330
C
102
}
330
C
100
AcDbDictionary
281
     1
  3
2dWireframe
350
FABF9
  3
Basic
350
FABF8
  3
Brighten
350
FABFF
  3
ColorChange
350
FAC03
  3
Conceptual
350
FABFC
  3
Dim
350
FABFE
  3
EdgeColorOff
350
FAC0B
  3
Facepattern
350
FAC02
  3
Flat
350
FABF4
  3
FlatWithEdges
350
FABF5
  3
Gouraud
350
FABF6
  3
GouraudWithEdges
350
FABF7
  3
Hidden
350
FABFB
  3
JitterOff
350
FAC09
  3
Linepattern
350
FAC01
  3
OverhangOff
350
FAC0A
  3
Realistic
350
FABFD
  3
Shaded
350
FAC08
  3
Shaded with edges
350
FAC07
  3
Shades of Gray
350
FAC04
  3
Sketchy
350
FAC05
  3
Thicken
350
FAC00
  3
Wireframe
350
FABFA
  3
X-Ray
350
FAC06
  0
XRECORD
  5
CCA4E
102
{ACAD_REACTORS
330
C
102
}
330
C
100
AcDbXrecord
280
     1
 90
   990106
  3

 60
     0
 61
     0
 62
     1
 63
     3
 64
     0
 65
     0
 66
     0
 67
     3
 68
     1
 69
     0
 70
     0
 71
     0
 72
     0
 40
17.73254125325911
170
     0
  0
XRECORD
  5
FAF2B
102
{ACAD_REACTORS
330
C
102
}
330
C
100
AcDbXrecord
280
     1
 90
        1
330
FAC0D
  0
DICTIONARY
  5
6B9
102
{ACAD_REACTORS
330
C
102
}
330
C
100
AcDbDictionary
281
     1
  3
CANNOSCALE
350
FAE17
  3
CMLEADERSTYLE
350
FAE14
  3
CTABLESTYLE
350
FAE13
  3
CVIEWDETAILSTYLE
350
FAE15
  3
CVIEWSECTIONSTYLE
350
FAE16
  3
DIMASSOC
350
F4248
  3
INDEXCTL
350
F4247
  3
PROJECTNAME
350
F4249
  3
SORTENTS
350
6BA
  3
XCLIPFRAME
350
FAF29
  0
DICTIONARY
  5
16D31
102
{ACAD_REACTORS
330
C
102
}
330
C
100
AcDbDictionary
281
     1
  3
AcmStdDictionary
350
16D3E
  3
AMDTSECTSYM_ARROWCOLOR
350
16DB5
  0
DICTIONARY
  5
16D13
102
{ACAD_REACTORS
330
C
102
}
330
C
100
AcDbDictionary
281
     1
  0
DICTIONARY
  5
17AE6
102
{ACAD_REACTORS
330
C
102
}
330
C
100
AcDbDictionary
281
     1
  0
DICTIONARY
  5
F4A75
102
{ACAD_REACTORS
330
C
102
}
330
C
100
AcDbDictionary
281
     1
  3
ASEBlockHierarchyIndexRecord
350
F4A77
1001
DCO15
1040
1654516794.149
  0
DICTIONARY
  5
F82C0
102
{ACAD_REACTORS
330
F82BD
102
}
330
F82BD
100
AcDbDictionary
281
     1
  0
DICTIONARY
  5
F82BE
102
{ACAD_REACTORS
330
F82BD
102
}
330
F82BD
100
AcDbDictionary
281
     1
  3
2014++
350
F82D2
  3
2014+++
350
F82BF
  0
XRECORD
  5
FAE0E
102
{ACAD_REACTORS
330
FAE0D
102
}
330
FAE0D
100
AcDbXrecord
280
     1
290
     1
  0
XRECORD
  5
FAE10
102
{ACAD_REACTORS
330
FAE0F
102
}
330
FAE0F
100
AcDbXrecord
280
     1
290
     1
  0
XRECORD
  5
FAE12
102
{ACAD_REACTORS
330
FAE11
102
}
330
FAE11
100
AcDbXrecord
280
     1
290
     1
  0
XRECORD
  5
FAC72
102
{ACAD_REACTORS
330
FAC71
102
}
330
FAC71
100
AcDbXrecord
280
     1
 90
        1
340
FAC0F
  0
ACDBDETAILVIEWSTYLE
  5
FAC25
102
{ACAD_XDICTIONARY
360
FAF61
102
}
102
{ACAD_REACTORS
330
FAC24
330
FAEB6
102
}
330
FAC24
100
AcDbModelDocViewStyle
 70
     0
  3
Metric50
290
     0
100
AcDbDetailViewStyle
 70
     0
 71
     0
 90
        3
 71
     1
340
11
 62
   256
 40
5.0
340
0
 62
   256
 40
5.0
300

 40
0.0
280
     1
 71
     2
340
16
 90
       25
 62
   256
 71
     3
340
11
 62
   256
 40
5.0
 90
        0
 40
15.0
 90
        1
300
%<\AcVar ViewDetailId>% (%<\AcVar ViewScale \f "%sn">%)
 71
     4
340
16
 90
       25
 62
   256
340
16
 90
       25
 62
   256
280
     0
  0
LAYOUT
  5
22
102
{ACAD_REACTORS
330
1A
102
}
330
1A
100
AcDbPlotSettings
  1

  2
FUJITSU FAX Print Driver
  4
User261
  6

 40
3.174999952316281
 41
3.174999952316281
 42
3.17498779296875
 43
3.17498779296875
 44
297.0244750976562
 45
419.8775329589842
 46
0.0
 47
0.0
 48
0.0
 49
0.0
140
0.0
141
0.0
142
1.0
143
1.197207273994177
 70
 11952
 72
     1
 73
     1
 74
     0
  7
monochrome.ctb
 75
     0
147
0.8352772504160906
 76
     0
 77
     2
 78
   300
148
-6.027674911478015
149
-7.671586470139232
100
AcDbLayout
  1
Model
 70
     1
 71
     0
 10
0.0
 20
0.0
 11
12.0
 21
9.0
 12
0.0
 22
0.0
 32
0.0
 14
0.0
 24
0.0
 34
0.0
 15
0.0
 25
0.0
 35
0.0
146
0.0
 13
0.0
 23
0.0
 33
0.0
 16
1.0
 26
0.0
 36
0.0
 17
0.0
 27
1.0
 37
0.0
 76
     0
330
1F
331
FABD9
  0
LAYOUT
  5
FAC68
102
{ACAD_REACTORS
330
1A
102
}
330
1A
100
AcDbPlotSettings
  1

  2
RICOH imagio MP C5001 RPCS
  4
A4
  6

 40
5.873749732971191
 41
5.873748779296875
 42
5.873733520507812
 43
5.873748779296875
 44
209.9733276367186
 45
296.9259948730469
 46
0.0
 47
0.0
 48
0.0
 49
0.0
140
0.0
141
0.0
142
1.0
143
1.0
 70
   688
 72
     1
 73
     1
 74
     5
  7

 75
    16
147
1.0
 76
     0
 77
     2
 78
   300
148
0.0
149
0.0
100
AcDbLayout
  1
レイアウト1
 70
     1
 71
     1
 10
-5.873748779296875
 20
-5.873749732971191
 11
291.05224609375
 21
204.0995779037475
 12
0.0
 22
0.0
 32
0.0
 14
1.000000000000000E+20
 24
1.000000000000000E+20
 34
1.000000000000000E+20
 15
-1.000000000000000E+20
 25
-1.000000000000000E+20
 35
-1.000000000000000E+20
146
0.0
 13
0.0
 23
0.0
 33
0.0
 16
1.0
 26
0.0
 36
0.0
 17
0.0
 27
1.0
 37
0.0
 76
     0
330
FAC67
331
FAC70
1001
ACAD_PSEXT
1000
RICOH imagio MP C5001 RPCS
1000
RICOH imagio MP C5001 RPCS
1000
IP_192.168.13.100
1000
RPCS Driver (For Windows)
1070
     0
  0
MATERIAL
  5
FABE3
102
{ACAD_XDICTIONARY
360
FABE4
102
}
102
{ACAD_REACTORS
330
8711
102
}
330
8711
100
AcDbMaterial
  1
ByBlock
 72
     0
 43
0.0008202099737533
 43
0.0
 43
0.0
 43
0.0
 43
0.0
 43
0.0008202099737533
 43
0.0
 43
0.0
 43
0.0
 43
0.0
 43
1.0
 43
0.0
 43
0.0
 43
0.0
 43
0.0
 43
1.0
 77
     0
 47
0.0008202099737533
 47
0.0
 47
0.0
 47
0.0
 47
0.0
 47
0.0008202099737533
 47
0.0
 47
0.0
 47
0.0
 47
0.0
 47
1.0
 47
0.0
 47
0.0
 47
0.0
 47
0.0
 47
1.0
171
     0
 49
0.0008202099737533
 49
0.0
 49
0.0
 49
0.0
 49
0.0
 49
0.0008202099737533
 49
0.0
 49
0.0
 49
0.0
 49
0.0
 49
1.0
 49
0.0
 49
0.0
 49
0.0
 49
0.0
 49
1.0
175
     0
142
0.0008202099737533
142
0.0
142
0.0
142
0.0
142
0.0
142
0.0008202099737533
142
0.0
142
0.0
142
0.0
142
0.0
142
1.0
142
0.0
142
0.0
142
0.0
142
0.0
142
1.0
179
     0
144
0.0008202099737533
144
0.0
144
0.0
144
0.0
144
0.0
144
0.0008202099737533
144
0.0
144
0.0
144
0.0
144
0.0
144
1.0
144
0.0
144
0.0
144
0.0
144
0.0
144
1.0
147
0.0008202099737533
147
0.0
147
0.0
147
0.0
147
0.0
147
0.0008202099737533
147
0.0
147
0.0
147
0.0
147
0.0
147
1.0
147
0.0
147
0.0
147
0.0
147
0.0
147
1.0
  0
MATERIAL
  5
FABDB
102
{ACAD_XDICTIONARY
360
FABDC
102
}
102
{ACAD_REACTORS
330
8711
102
}
330
8711
100
AcDbMaterial
  1
ByLayer
 72
     0
 43
0.0008202099737533
 43
0.0
 43
0.0
 43
0.0
 43
0.0
 43
0.0008202099737533
 43
0.0
 43
0.0
 43
0.0
 43
0.0
 43
1.0
 43
0.0
 43
0.0
 43
0.0
 43
0.0
 43
1.0
 77
     0
 47
0.0008202099737533
 47
0.0
 47
0.0
 47
0.0
 47
0.0
 47
0.0008202099737533
 47
0.0
 47
0.0
 47
0.0
 47
0.0
 47
1.0
 47
0.0
 47
0.0
 47
0.0
 47
0.0
 47
1.0
171
     0
 49
0.0008202099737533
 49
0.0
 49
0.0
 49
0.0
 49
0.0
 49
0.0008202099737533
 49
0.0
 49
0.0
 49
0.0
 49
0.0
 49
1.0
 49
0.0
 49
0.0
 49
0.0
 49
0.0
 49
1.0
175
     0
142
0.0008202099737533
142
0.0
142
0.0
142
0.0
142
0.0
142
0.0008202099737533
142
0.0
142
0.0
142
0.0
142
0.0
142
1.0
142
0.0
142
0.0
142
0.0
142
0.0
142
1.0
179
     0
144
0.0008202099737533
144
0.0
144
0.0
144
0.0
144
0.0
144
0.0008202099737533
144
0.0
144
0.0
144
0.0
144
0.0
144
1.0
144
0.0
144
0.0
144
0.0
144
0.0
144
1.0
147
0.0008202099737533
147
0.0
147
0.0
147
0.0
147
0.0
147
0.0008202099737533
147
0.0
147
0.0
147
0.0
147
0.0
147
1.0
147
0.0
147
0.0
147
0.0
147
0.0
147
1.0
  0
MATERIAL
  5
FABEB
102
{ACAD_XDICTIONARY
360
FABEC
102
}
102
{ACAD_REACTORS
330
8711
102
}
330
8711
100
AcDbMaterial
  1
Global
 72
     0
 43
0.0008202099737533
 43
0.0
 43
0.0
 43
0.0
 43
0.0
 43
0.0008202099737533
 43
0.0
 43
0.0
 43
0.0
 43
0.0
 43
1.0
 43
0.0
 43
0.0
 43
0.0
 43
0.0
 43
1.0
 77
     0
 47
0.0008202099737533
 47
0.0
 47
0.0
 47
0.0
 47
0.0
 47
0.0008202099737533
 47
0.0
 47
0.0
 47
0.0
 47
0.0
 47
1.0
 47
0.0
 47
0.0
 47
0.0
 47
0.0
 47
1.0
171
     0
 49
0.0008202099737533
 49
0.0
 49
0.0
 49
0.0
 49
0.0
 49
0.0008202099737533
 49
0.0
 49
0.0
 49
0.0
 49
0.0
 49
1.0
 49
0.0
 49
0.0
 49
0.0
 49
0.0
 49
1.0
175
     0
142
0.0008202099737533
142
0.0
142
0.0
142
0.0
142
0.0
142
0.0008202099737533
142
0.0
142
0.0
142
0.0
142
0.0
142
1.0
142
0.0
142
0.0
142
0.0
142
0.0
142
1.0
179
     0
144
0.0008202099737533
144
0.0
144
0.0
144
0.0
144
0.0
144
0.0008202099737533
144
0.0
144
0.0
144
0.0
144
0.0
144
1.0
144
0.0
144
0.0
144
0.0
144
0.0
144
1.0
147
0.0008202099737533
147
0.0
147
0.0
147
0.0
147
0.0
147
0.0008202099737533
147
0.0
147
0.0
147
0.0
147
0.0
147
1.0
147
0.0
147
0.0
147
0.0
147
0.0
147
1.0
  0
MLEADERSTYLE
  5
FAC21
102
{ACAD_XDICTIONARY
360
FAF5D
102
}
102
{ACAD_REACTORS
330
FAC20
102
}
330
FAC20
100
AcDbMLeaderStyle
170
     2
171
     1
172
     0
 90
        2
 40
0.0
 41
0.0
173
     1
 91
-1056964608
340
14
 92
       -2
290
     1
 42
2.0
291
     1
 43
0.36
  3
Standard
 44
4.0
300

342
11
174
     1
178
     6
175
     1
176
     0
 93
-1056964608
 45
4.0
292
     0
297
     0
 46
4.0
 94
-1056964608
 47
1.0
 49
1.0
140
1.0
293
     1
141
0.0
294
     1
177
     0
142
1.0
295
     0
296
     0
143
0.125
1001
ACAD_MLEADERVER
1070
     2
  0
MLINESTYLE
  5
18
102
{ACAD_REACTORS
330
17
102
}
330
17
100
AcDbMlineStyle
  2
STANDARD
 70
     0
  3

 62
   256
 51
90.0
 52
90.0
 71
     2
 49
0.5
 62
   256
  6
BYLAYER
 49
-0.5
 62
   256
  6
BYLAYER
  0
ACDBPLACEHOLDER
  5
F
102
{ACAD_REACTORS
330
E
102
}
330
E
  0
SCALE
  5
FAC0F
102
{ACAD_REACTORS
330
FAC0E
102
}
330
FAC0E
100
AcDbScale
 70
     0
300
1:1
140
1.0
141
1.0
290
     1
  0
SCALE
  5
FAC10
102
{ACAD_REACTORS
330
FAC0E
102
}
330
FAC0E
100
AcDbScale
 70
     0
300
1:2
140
1.0
141
2.0
290
     0
  0
SCALE
  5
FAC11
102
{ACAD_REACTORS
330
FAC0E
102
}
330
FAC0E
100
AcDbScale
 70
     0
300
1:4
140
1.0
141
4.0
290
     0
  0
SCALE
  5
FAC12
102
{ACAD_REACTORS
330
FAC0E
102
}
330
FAC0E
100
AcDbScale
 70
     0
300
1:5
140
1.0
141
5.0
290
     0
  0
SCALE
  5
FAC13
102
{ACAD_REACTORS
330
FAC0E
102
}
330
FAC0E
100
AcDbScale
 70
     0
300
1:8
140
1.0
141
8.0
290
     0
  0
SCALE
  5
FAC14
102
{ACAD_REACTORS
330
FAC0E
102
}
330
FAC0E
100
AcDbScale
 70
     0
300
1:10
140
1.0
141
10.0
290
     0
  0
SCALE
  5
FAC15
102
{ACAD_REACTORS
330
FAC0E
102
}
330
FAC0E
100
AcDbScale
 70
     0
300
1:16
140
1.0
141
16.0
290
     0
  0
SCALE
  5
FAC16
102
{ACAD_REACTORS
330
FAC0E
102
}
330
FAC0E
100
AcDbScale
 70
     0
300
1:20
140
1.0
141
20.0
290
     0
  0
SCALE
  5
FAC17
102
{ACAD_REACTORS
330
FAC0E
102
}
330
FAC0E
100
AcDbScale
 70
     0
300
1:30
140
1.0
141
30.0
290
     0
  0
SCALE
  5
FAC18
102
{ACAD_REACTORS
330
FAC0E
102
}
330
FAC0E
100
AcDbScale
 70
     0
300
1:40
140
1.0
141
40.0
290
     0
  0
SCALE
  5
FAC19
102
{ACAD_REACTORS
330
FAC0E
102
}
330
FAC0E
100
AcDbScale
 70
     0
300
1:50
140
1.0
141
50.0
290
     0
  0
SCALE
  5
FAC1A
102
{ACAD_REACTORS
330
FAC0E
102
}
330
FAC0E
100
AcDbScale
 70
     0
300
1:100
140
1.0
141
100.0
290
     0
  0
SCALE
  5
FAC1B
102
{ACAD_REACTORS
330
FAC0E
102
}
330
FAC0E
100
AcDbScale
 70
     0
300
2:1
140
2.0
141
1.0
290
     0
  0
SCALE
  5
FAC1C
102
{ACAD_REACTORS
330
FAC0E
102
}
330
FAC0E
100
AcDbScale
 70
     0
300
4:1
140
4.0
141
1.0
290
     0
  0
SCALE
  5
FAC1D
102
{ACAD_REACTORS
330
FAC0E
102
}
330
FAC0E
100
AcDbScale
 70
     0
300
8:1
140
8.0
141
1.0
290
     0
  0
SCALE
  5
FAC1E
102
{ACAD_REACTORS
330
FAC0E
102
}
330
FAC0E
100
AcDbScale
 70
     0
300
10:1
140
10.0
141
1.0
290
     0
  0
SCALE
  5
FAC1F
102
{ACAD_REACTORS
330
FAC0E
102
}
330
FAC0E
100
AcDbScale
 70
     0
300
100:1
140
100.0
141
1.0
290
     0
  0
ACDBSECTIONVIEWSTYLE
  5
FAC23
102
{ACAD_XDICTIONARY
360
FAF5F
102
}
102
{ACAD_REACTORS
330
FAC22
330
FAEB5
102
}
330
FAC22
100
AcDbModelDocViewStyle
 70
     0
  3
Metric50
290
     0
100
AcDbSectionViewStyle
 70
     0
 71
     0
 90
      102
 71
     1
340
11
 62
   256
 40
5.0
340
0
340
0
 62
   256
 40
5.0
300
I, O, Q, S, X, Z
 40
10.0
 90
        0
 40
2.5
 90
        0
 71
     2
340
16
 90
       25
 62
   256
340
16
 90
       50
 62
   256
 40
5.0
 40
2.5
 40
5.0
 71
     3
340
11
 62
   256
 40
5.0
 90
        0
 40
15.0
 90
        1
300
%<\AcVar ViewSectionStartId>%-%<\AcVar ViewSectionEndId>% (%<\AcVar ViewScale \f "%sn">%)
 71
     4
 62
   256
 62
   257
300
ANSI31
 40
1.0
 90
        0
290
     0
290
     0
 90
        6
 40
0.0
 40
1.570796326794896
 40
0.2617993877991494
 40
1.308996938995747
 40
-0.2617993877991494
 40
1.832595714594045
  0
TABLESTYLE
  5
FAC0D
102
{ACAD_XDICTIONARY
360
FAE19
102
}
102
{ACAD_REACTORS
330
FAC0C
102
}
330
FAC0C
100
AcDbTableStyle
  3
Standard
 70
     0
 71
     0
 40
1.5
 41
1.5
280
     0
281
     0
  7
STANDARD
140
4.5
170
     2
 62
     0
 63
     7
283
     0
274
    -2
284
     1
 64
     0
275
    -2
285
     1
 65
     0
276
    -2
286
     1
 66
     0
277
    -2
287
     1
 67
     0
278
    -2
288
     1
 68
     0
279
    -2
289
     1
 69
     0
  7
STANDARD
140
6.0
170
     5
 62
     0
 63
     7
283
     0
274
    -2
284
     1
 64
     0
275
    -2
285
     1
 65
     0
276
    -2
286
     1
 66
     0
277
    -2
287
     1
 67
     0
278
    -2
288
     1
 68
     0
279
    -2
289
     1
 69
     0
  7
STANDARD
140
4.5
170
     5
 62
     0
 63
     7
283
     0
274
    -2
284
     1
 64
     0
275
    -2
285
     1
 65
     0
276
    -2
286
     1
 66
     0
277
    -2
287
     1
 67
     0
278
    -2
288
     1
 68
     0
279
    -2
289
     1
 69
     0
  0
VISUALSTYLE
  5
FABF9
102
{ACAD_XDICTIONARY
360
FAF36
102
}
102
{ACAD_REACTORS
330
FABF3
102
}
330
FABF3
100
AcDbVisualStyle
  2

 70
     4
 71
     0
 72
     2
 73
     0
 90
        0
 40
-0.6
 41
-30.0
 62
     5
 63
     7
 74
     1
 91
        4
 64
     7
 65
   257
 75
     1
175
     1
 42
1.0
 92
        0
 66
   257
 43
1.0
 76
     1
 77
     6
 78
     2
 67
     7
 79
     5
170
     0
171
     0
290
     0
174
     0
 93
        1
 44
0.0
173
     0
291
     0
 45
0.0
1001
ACAD
1000
AcDbSavedByObjectVersion
1070
     0
  0
VISUALSTYLE
  5
FABF8
102
{ACAD_XDICTIONARY
360
FAF34
102
}
102
{ACAD_REACTORS
330
FABF3
102
}
330
FABF3
100
AcDbVisualStyle
  2

 70
     7
 71
     1
 72
     0
 73
     1
 90
        0
 40
-0.6
 41
-30.0
 62
     5
 63
     7
 74
     0
 91
        4
 64
     7
 65
   257
 75
     1
175
     1
 42
1.0
 92
        8
 66
     7
 43
1.0
 76
     1
 77
     6
 78
     2
 67
     7
 79
     5
170
     0
171
     0
290
     0
174
     0
 93
        1
 44
0.0
173
     0
291
     1
 45
0.0
1001
ACAD
1000
AcDbSavedByObjectVersion
1070
     0
  0
VISUALSTYLE
  5
FABFF
102
{ACAD_XDICTIONARY
360
FAF42
102
}
102
{ACAD_REACTORS
330
FABF3
102
}
330
FABF3
100
AcDbVisualStyle
  2

 70
    12
 71
     2
 72
     2
 73
     0
 90
        0
 40
-0.6
 41
-30.0
 62
     5
 63
     7
 74
     1
 91
        4
 64
     7
 65
   257
 75
     1
175
     1
 42
1.0
 92
        8
 66
     7
 43
1.0
 76
     1
 77
     6
 78
     2
 67
     7
 79
     5
170
     0
171
     0
290
     0
174
     0
 93
        1
 44
50.0
173
     0
291
     1
 45
0.0
1001
ACAD
1000
AcDbSavedByObjectVersion
1070
     0
  0
VISUALSTYLE
  5
FAC03
102
{ACAD_XDICTIONARY
360
FAF4A
102
}
102
{ACAD_REACTORS
330
FABF3
102
}
330
FABF3
100
AcDbVisualStyle
  2

 70
    16
 71
     2
 72
     2
 73
     3
 90
        0
 40
-0.6
 41
-30.0
 62
     5
 63
     8
 74
     1
 91
        4
 64
     7
 65
   257
 75
     1
175
     1
 42
1.0
 92
        8
 66
     8
 43
1.0
 76
     1
 77
     6
 78
     2
 67
     7
 79
     5
170
     0
171
     0
290
     0
174
     0
 93
        1
 44
0.0
173
     0
291
     1
 45
0.0
1001
ACAD
1000
AcDbSavedByObjectVersion
1070
     0
  0
VISUALSTYLE
  5
FABFC
102
{ACAD_XDICTIONARY
360
FAF3C
102
}
102
{ACAD_REACTORS
330
FABF3
102
}
330
FABF3
100
AcDbVisualStyle
  2

 70
     9
 71
     3
 72
     2
 73
     0
 90
        0
 40
-0.6
 41
-30.0
 62
     5
 63
     7
 74
     2
 91
        2
 64
     7
 65
   257
 75
     1
175
     1
 42
179.0
 92
        8
 66
     7
 43
1.0
 76
     1
 77
     6
 78
     2
 67
     7
 79
     3
170
     0
171
     0
290
     0
174
     0
 93
        1
 44
0.0
173
     0
291
     0
 45
0.0
1001
ACAD
1000
AcDbSavedByObjectVersion
1070
     0
  0
VISUALSTYLE
  5
FABFE
102
{ACAD_XDICTIONARY
360
FAF40
102
}
102
{ACAD_REACTORS
330
FABF3
102
}
330
FABF3
100
AcDbVisualStyle
  2

 70
    11
 71
     2
 72
     2
 73
     0
 90
        0
 40
-0.6
 41
-30.0
 62
     5
 63
     7
 74
     1
 91
        4
 64
     7
 65
   257
 75
     1
175
     1
 42
1.0
 92
        8
 66
     7
 43
1.0
 76
     1
 77
     6
 78
     2
 67
     7
 79
     5
170
     0
171
     0
290
     0
174
     0
 93
        1
 44
-50.0
173
     0
291
     1
 45
0.0
1001
ACAD
1000
AcDbSavedByObjectVersion
1070
     0
  0
VISUALSTYLE
  5
FAC0B
102
{ACAD_XDICTIONARY
360
FAF5A
102
}
102
{ACAD_REACTORS
330
FABF3
102
}
330
FABF3
100
AcDbVisualStyle
  2

 70
    22
 71
     2
 72
     2
 73
     0
 90
        0
 40
-0.6
 41
-30.0
 62
     5
 63
     7
 74
     1
 91
        4
 64
     7
 65
   257
 75
     1
175
     1
 42
1.0
 92
        8
 66
     7
 43
1.0
 76
     1
 77
     6
 78
     2
 67
     7
 79
     5
170
     0
171
     0
290
     0
174
     0
 93
        1
 44
0.0
173
     0
291
     1
 45
0.0
1001
ACAD
1000
AcDbSavedByObjectVersion
1070
     0
  0
VISUALSTYLE
  5
FAC02
102
{ACAD_XDICTIONARY
360
FAF48
102
}
102
{ACAD_REACTORS
330
FABF3
102
}
330
FABF3
100
AcDbVisualStyle
  2

 70
    15
 71
     2
 72
     2
 73
     0
 90
        0
 40
-0.6
 41
-30.0
 62
     5
 63
     7
 74
     1
 91
        4
 64
     7
 65
   257
 75
     1
175
     1
 42
1.0
 92
        8
 66
     7
 43
1.0
 76
     1
 77
     6
 78
     2
 67
     7
 79
     5
170
     0
171
     0
290
     0
174
     0
 93
        1
 44
0.0
173
     0
291
     1
 45
0.0
1001
ACAD
1000
AcDbSavedByObjectVersion
1070
     0
  0
VISUALSTYLE
  5
FABF4
102
{ACAD_XDICTIONARY
360
FAF2C
102
}
102
{ACAD_REACTORS
330
FABF3
102
}
330
FABF3
100
AcDbVisualStyle
  2

 70
     0
 71
     2
 72
     1
 73
     1
 90
        2
 40
-0.6
 41
30.0
 62
     5
 63
     7
 74
     0
 91
        0
 64
     7
 65
   257
 75
     1
175
     1
 42
1.0
 92
        8
 66
     7
 43
1.0
 76
     1
 77
     6
 78
     2
 67
     7
 79
     5
170
     0
171
     0
290
     0
174
     0
 93
       13
 44
0.0
173
     0
291
     1
 45
0.0
1001
ACAD
1000
AcDbSavedByObjectVersion
1070
     0
  0
VISUALSTYLE
  5
FABF5
102
{ACAD_XDICTIONARY
360
FAF2E
102
}
102
{ACAD_REACTORS
330
FABF3
102
}
330
FABF3
100
AcDbVisualStyle
  2

 70
     1
 71
     2
 72
     1
 73
     1
 90
        2
 40
-0.6
 41
30.0
 62
     5
 63
     7
 74
     1
 91
        0
 64
     7
 65
   257
 75
     1
175
     1
 42
1.0
 92
        0
 66
   257
 43
1.0
 76
     1
 77
     6
 78
     2
 67
     7
 79
     5
170
     0
171
     0
290
     0
174
     0
 93
       13
 44
0.0
173
     0
291
     1
 45
0.0
1001
ACAD
1000
AcDbSavedByObjectVersion
1070
     0
  0
VISUALSTYLE
  5
FABF6
102
{ACAD_XDICTIONARY
360
FAF30
102
}
102
{ACAD_REACTORS
330
FABF3
102
}
330
FABF3
100
AcDbVisualStyle
  2

 70
     2
 71
     2
 72
     2
 73
     1
 90
        2
 40
-0.6
 41
30.0
 62
     5
 63
     7
 74
     0
 91
        0
 64
     7
 65
   257
 75
     1
175
     1
 42
1.0
 92
        0
 66
     7
 43
1.0
 76
     1
 77
     6
 78
     2
 67
     7
 79
     5
170
     0
171
     0
290
     0
174
     0
 93
       13
 44
0.0
173
     0
291
     1
 45
0.0
1001
ACAD
1000
AcDbSavedByObjectVersion
1070
     0
  0
VISUALSTYLE
  5
FABF7
102
{ACAD_XDICTIONARY
360
FAF32
102
}
102
{ACAD_REACTORS
330
FABF3
102
}
330
FABF3
100
AcDbVisualStyle
  2

 70
     3
 71
     2
 72
     2
 73
     1
 90
        2
 40
-0.6
 41
30.0
 62
     5
 63
     7
 74
     1
 91
        0
 64
     7
 65
   257
 75
     1
175
     1
 42
1.0
 92
        0
 66
   257
 43
1.0
 76
     1
 77
     6
 78
     2
 67
     7
 79
     5
170
     0
171
     0
290
     0
174
     0
 93
       13
 44
0.0
173
     0
291
     1
 45
0.0
1001
ACAD
1000
AcDbSavedByObjectVersion
1070
     0
  0
VISUALSTYLE
  5
FABFB
102
{ACAD_XDICTIONARY
360
FAF3A
102
}
102
{ACAD_REACTORS
330
FABF3
102
}
330
FABF3
100
AcDbVisualStyle
  2

 70
     6
 71
     1
 72
     2
 73
     2
 90
        0
 40
-0.6
 41
-30.0
 62
     5
 63
     7
 74
     2
 91
        2
 64
     7
 65
   257
 75
     2
175
     1
 42
40.0
 92
        0
 66
   257
 43
1.0
 76
     1
 77
     6
 78
     2
 67
     7
 79
     3
170
     0
171
     0
290
     0
174
     0
 93
        1
 44
0.0
173
     0
291
     0
 45
0.0
1001
ACAD
1000
AcDbSavedByObjectVersion
1070
     0
  0
VISUALSTYLE
  5
FAC09
102
{ACAD_XDICTIONARY
360
FAF56
102
}
102
{ACAD_REACTORS
330
FABF3
102
}
330
FABF3
100
AcDbVisualStyle
  2

 70
    20
 71
     2
 72
     2
 73
     0
 90
        0
 40
-0.6
 41
-30.0
 62
     5
 63
     7
 74
     1
 91
        4
 64
     7
 65
   257
 75
     1
175
     1
 42
1.0
 92
       10
 66
     7
 43
1.0
 76
     1
 77
     6
 78
     2
 67
     7
 79
     5
170
     0
171
     0
290
     0
174
     0
 93
        1
 44
0.0
173
     0
291
     1
 45
0.0
1001
ACAD
1000
AcDbSavedByObjectVersion
1070
     0
  0
VISUALSTYLE
  5
FAC01
102
{ACAD_XDICTIONARY
360
FAF46
102
}
102
{ACAD_REACTORS
330
FABF3
102
}
330
FABF3
100
AcDbVisualStyle
  2

 70
    14
 71
     2
 72
     2
 73
     0
 90
        0
 40
-0.6
 41
-30.0
 62
     5
 63
     7
 74
     1
 91
        4
 64
     7
 65
   257
 75
     7
175
     7
 42
1.0
 92
        8
 66
     7
 43
1.0
 76
     1
 77
     6
 78
     2
 67
     7
 79
     5
170
     0
171
     0
290
     0
174
     0
 93
        1
 44
0.0
173
     0
291
     1
 45
0.0
1001
ACAD
1000
AcDbSavedByObjectVersion
1070
     0
  0
VISUALSTYLE
  5
FAC0A
102
{ACAD_XDICTIONARY
360
FAF58
102
}
102
{ACAD_REACTORS
330
FABF3
102
}
330
FABF3
100
AcDbVisualStyle
  2

 70
    21
 71
     2
 72
     2
 73
     0
 90
        0
 40
-0.6
 41
-30.0
 62
     5
 63
     7
 74
     1
 91
        4
 64
     7
 65
   257
 75
     1
175
     1
 42
1.0
 92
        9
 66
     7
 43
1.0
 76
     1
 77
     6
 78
     2
 67
     7
 79
     5
170
     0
171
     0
290
     0
174
     0
 93
        1
 44
0.0
173
     0
291
     1
 45
0.0
1001
ACAD
1000
AcDbSavedByObjectVersion
1070
     0
  0
VISUALSTYLE
  5
FABFD
102
{ACAD_XDICTIONARY
360
FAF3E
102
}
102
{ACAD_REACTORS
330
FABF3
102
}
330
FABF3
100
AcDbVisualStyle
  2

 70
     8
 71
     2
 72
     3
 73
     0
 90
        2
 40
-0.6
 41
30.0
 62
     5
 63
     7
 74
     0
 91
        0
 64
     7
 65
   257
 75
     1
175
     1
 42
1.0
 92
        8
 66
   257
 43
1.0
 76
     1
 77
     6
 78
     2
 67
     7
 79
     3
170
     0
171
     0
290
     0
174
     0
 93
       13
 44
0.0
173
     0
291
     0
 45
0.0
1001
ACAD
1000
AcDbSavedByObjectVersion
1070
     0
  0
VISUALSTYLE
  5
FAC08
102
{ACAD_XDICTIONARY
360
FAF54
102
}
102
{ACAD_REACTORS
330
FABF3
102
}
330
FABF3
100
AcDbVisualStyle
  2

 70
    27
 71
     2
 72
     2
 73
     1
 90
        2
 40
-0.6
 41
30.0
 62
     5
 63
     7
 74
     0
 91
        4
 64
     7
 65
   257
 75
     1
175
     1
 42
1.0
 92
        8
 66
   257
 43
1.0
 76
     1
 77
     6
 78
     2
 67
     8
 79
     3
170
     0
171
     0
290
     0
174
     0
 93
        5
 44
0.0
173
     0
291
     0
 45
0.0
1001
ACAD
1000
AcDbSavedByObjectVersion
1070
     0
  0
VISUALSTYLE
  5
FAC07
102
{ACAD_XDICTIONARY
360
FAF52
102
}
102
{ACAD_REACTORS
330
FABF3
102
}
330
FABF3
100
AcDbVisualStyle
  2

 70
    26
 71
     2
 72
     2
 73
     1
 90
        2
 40
-0.6
 41
30.0
 62
     5
 63
     7
 74
     1
 91
       10
 64
     7
 65
   257
 75
     2
175
     1
 42
1.0
 92
        8
 66
   257
 43
1.0
 76
     1
 77
     6
 78
     2
 67
     7
 79
     3
170
     0
171
     0
290
     0
174
     0
 93
        5
 44
0.0
173
     0
291
     0
 45
0.0
1001
ACAD
1000
AcDbSavedByObjectVersion
1070
     0
  0
VISUALSTYLE
  5
FAC04
102
{ACAD_XDICTIONARY
360
FAF4C
102
}
102
{ACAD_REACTORS
330
FABF3
102
}
330
FABF3
100
AcDbVisualStyle
  2

 70
    23
 71
     2
 72
     2
 73
     3
 90
        0
 40
-0.6
 41
-30.0
 62
     5
 63
     7
 74
     2
 91
        2
 64
     7
 65
     7
 75
     1
175
     1
 42
40.0
 92
        8
 66
     7
 43
1.0
 76
     1
 77
     6
 78
     2
 67
     7
 79
     3
170
     0
171
     0
290
     0
174
     0
 93
        1
 44
0.0
173
     0
291
     0
 45
0.0
1001
ACAD
1000
AcDbSavedByObjectVersion
1070
     0
  0
VISUALSTYLE
  5
FAC05
102
{ACAD_XDICTIONARY
360
FAF4E
102
}
102
{ACAD_REACTORS
330
FABF3
102
}
330
FABF3
100
AcDbVisualStyle
  2

 70
    24
 71
     1
 72
     2
 73
     2
 90
        0
 40
-0.6
 41
-30.0
 62
     5
 63
     7
 74
     2
 91
        2
 64
     7
 65
     7
 75
     1
175
     1
 42
40.0
 92
       11
 66
     7
 43
1.0
 76
     1
 77
     6
 78
     2
 67
     7
 79
     6
170
     0
171
     0
290
     0
174
     0
 93
        1
 44
0.0
173
     0
291
     0
 45
0.0
1001
ACAD
1000
AcDbSavedByObjectVersion
1070
     0
  0
VISUALSTYLE
  5
FAC00
102
{ACAD_XDICTIONARY
360
FAF44
102
}
102
{ACAD_REACTORS
330
FABF3
102
}
330
FABF3
100
AcDbVisualStyle
  2

 70
    13
 71
     2
 72
     2
 73
     0
 90
        0
 40
-0.6
 41
-30.0
 62
     5
 63
     7
 74
     1
 91
        4
 64
     7
 65
   257
 75
     1
175
     1
 42
1.0
 92
       12
 66
     7
 43
1.0
 76
     1
 77
     6
 78
     2
 67
     7
 79
     5
170
     0
171
     0
290
     0
174
     0
 93
        1
 44
0.0
173
     0
291
     1
 45
0.0
1001
ACAD
1000
AcDbSavedByObjectVersion
1070
     0
  0
VISUALSTYLE
  5
FABFA
102
{ACAD_XDICTIONARY
360
FAF38
102
}
102
{ACAD_REACTORS
330
FABF3
102
}
330
FABF3
100
AcDbVisualStyle
  2

 70
     5
 71
     0
 72
     2
 73
     0
 90
        0
 40
-0.6
 41
-30.0
 62
     5
 63
     7
 74
     1
 91
        4
 64
     7
 65
   257
 75
     1
175
     1
 42
1.0
 92
        0
 66
   257
 43
1.0
 76
     1
 77
     6
 78
     2
 67
     7
 79
     3
170
     0
171
     0
290
     0
174
     0
 93
        1
 44
0.0
173
     0
291
     0
 45
0.0
1001
ACAD
1000
AcDbSavedByObjectVersion
1070
     0
  0
VISUALSTYLE
  5
FAC06
102
{ACAD_XDICTIONARY
360
FAF50
102
}
102
{ACAD_REACTORS
330
FABF3
102
}
330
FABF3
100
AcDbVisualStyle
  2

 70
    25
 71
     2
 72
     2
 73
     1
 90
        1
 40
0.5
 41
-30.0
 62
     5
 63
     7
 74
     1
 91
        0
 64
     7
 65
   257
 75
     1
175
     1
 42
1.0
 92
        8
 66
     7
 43
1.0
 76
     1
 77
     6
 78
     2
 67
     7
 79
     3
170
     0
171
     0
290
     0
174
     0
 93
       13
 44
0.0
173
     0
291
     0
 45
0.0
1001
ACAD
1000
AcDbSavedByObjectVersion
1070
     0
  0
DICTIONARYVAR
  5
FAE17
102
{ACAD_REACTORS
330
6B9
102
}
330
6B9
100
DictionaryVariables
280
     0
  1
1:1
  0
DICTIONARYVAR
  5
FAE14
102
{ACAD_REACTORS
330
6B9
102
}
330
6B9
100
DictionaryVariables
280
     0
  1
STANDARD
  0
DICTIONARYVAR
  5
FAE13
102
{ACAD_REACTORS
330
6B9
102
}
330
6B9
100
DictionaryVariables
280
     0
  1
STANDARD
  0
DICTIONARYVAR
  5
FAE15
102
{ACAD_REACTORS
330
6B9
102
}
330
6B9
100
DictionaryVariables
280
     0
  1
Metric50
  0
DICTIONARYVAR
  5
FAE16
102
{ACAD_REACTORS
330
6B9
102
}
330
6B9
100
DictionaryVariables
280
     0
  1
Metric50
  0
DICTIONARYVAR
  5
F4248
102
{ACAD_REACTORS
330
6B9
102
}
330
6B9
100
DictionaryVariables
280
     0
  1
1
  0
DICTIONARYVAR
  5
F4247
102
{ACAD_REACTORS
330
6B9
102
}
330
6B9
100
DictionaryVariables
280
     0
  1
0
  0
DICTIONARYVAR
  5
F4249
102
{ACAD_REACTORS
330
6B9
102
}
330
6B9
100
DictionaryVariables
280
     0
  1

  0
DICTIONARYVAR
  5
6BA
102
{ACAD_REACTORS
330
6B9
102
}
330
6B9
100
DictionaryVariables
280
     0
  1
96
  0
DICTIONARYVAR
  5
FAF29
102
{ACAD_REACTORS
330
6B9
102
}
330
6B9
100
DictionaryVariables
280
     0
  1
2
  0
DICTIONARY
  5
16D3E
102
{ACAD_REACTORS
330
16D31
102
}
330
16D31
100
AcDbDictionary
281
     1
  0
XRECORD
  5
16DB5
102
{ACAD_REACTORS
330
16D31
102
}
330
16D31
100
AcDbXrecord
280
     1
 90
-1023410169
  0
XRECORD
  5
F4A77
102
{ACAD_REACTORS
330
F4A75
102
}
330
F4A75
100
AcDbXrecord
280
     1
330
0
330
0
330
0
330
0
330
0
330
0
330
0
330
0
330
0
  0
XRECORD
  5
F82D2
102
{ACAD_REACTORS
330
F82BE
102
}
330
F82BE
100
AcDbXrecord
280
     1
 91
      484
330
4C
 90
        8
 62
     2
370
    40
331
16
  1
色_2
330
30
 90
        8
 62
    30
370
     9
331
F3ACE
  1
色_30
330
3AE4
 90
        8
 62
   123
370
     9
331
3AE3
  1
色_123
330
F3AD3
 90
        8
 62
   233
370
     9
331
16CF6
  1
色_233
330
33
 90
        8
 62
     8
370
     9
331
16
  1
色_8
330
86CB
 90
        8
 62
     7
370
    20
331
16
  1
色_7
330
86C9
 90
        8
 62
     4
370
    15
331
16
  1
色_4
330
86C8
 90
        8
 62
   173
370
     9
331
16
  1
色_173
420
-1034792193
330
86CC
 90
        8
 62
     1
370
     5
331
16
  1
色_1
330
548
 90
        0
 62
     6
370
    -3
331
16
  1
色_6
330
86FE
 90
        8
 62
   241
370
     5
331
58DA
  1
色_241
330
54
 90
        0
 62
     7
370
    -3
331
16
  1
色_7
330
F61AE
 90
        0
 62
     1
370
    25
331
16
  1
色_1
330
10
 90
        8
 62
     7
370
    20
331
16
  1
色_7
  0
XRECORD
  5
F82BF
102
{ACAD_REACTORS
330
F82BE
102
}
330
F82BE
100
AcDbXrecord
280
     1
 91
      484
330
4C
 90
        8
 62
     2
370
    40
331
16
  1
色_2
330
30
 90
        8
 62
    30
370
     9
331
F3ACE
  1
色_30
330
3AE4
 90
        8
 62
   123
370
     9
331
3AE3
  1
色_123
330
F3AD3
 90
        8
 62
   233
370
     9
331
16CF6
  1
色_233
330
33
 90
        8
 62
     8
370
     9
331
16
  1
色_8
330
86C8
 90
        8
 62
   173
370
     5
331
16
  1
色_173
420
-1034792193
330
548
 90
        0
 62
     6
370
    -3
331
16
  1
色_6
330
86FE
 90
        8
 62
   241
370
     5
331
58DA
  1
色_241
330
86CC
 90
        8
 62
     1
370
     9
331
16
  1
色_1
330
86CB
 90
        8
 62
     5
370
    20
331
16
  1
色_5
330
86C9
 90
        8
 62
     4
370
    15
331
16
  1
色_4
330
54
 90
        0
 62
     7
370
    -3
331
16
  1
色_7
330
F61AE
 90
        0
 62
     1
370
    25
331
16
  1
色_1
330
10
 90
        8
 62
     7
370
    20
331
16
  1
色_7
  0
DICTIONARY
  5
FAF61
330
FAC25
100
AcDbDictionary
280
     1
281
     1
  3
ACAD_XREC_ROUNDTRIP
360
FAF62
  0
DICTIONARY
  5
FABE4
330
FABE3
100
AcDbDictionary
280
     1
281
     1
  3
ACAD_XREC_ROUNDTRIP
360
FAE2E
  3
BUMPTILE
360
FABE6
  3
DIFFUSETILE
360
FABE5
  3
OPACITYTILE
360
FABE9
  3
REFLECTIONTILE
360
FABE8
  3
REFRACTIONTILE
360
FABEA
  3
SPECULARTILE
360
FABE7
  0
DICTIONARY
  5
FABDC
330
FABDB
100
AcDbDictionary
280
     1
281
     1
  3
ACAD_XREC_ROUNDTRIP
360
FAE2D
  3
BUMPTILE
360
FABDE
  3
DIFFUSETILE
360
FABDD
  3
OPACITYTILE
360
FABE1
  3
REFLECTIONTILE
360
FABE0
  3
REFRACTIONTILE
360
FABE2
  3
SPECULARTILE
360
FABDF
  0
DICTIONARY
  5
FABEC
330
FABEB
100
AcDbDictionary
280
     1
281
     1
  3
ACAD_XREC_ROUNDTRIP
360
FAE2F
  3
BUMPTILE
360
FABEE
  3
DIFFUSETILE
360
FABED
  3
OPACITYTILE
360
FABF1
  3
REFLECTIONTILE
360
FABF0
  3
REFRACTIONTILE
360
FABF2
  3
SPECULARTILE
360
FABEF
  0
DICTIONARY
  5
FAF5D
330
FAC21
100
AcDbDictionary
280
     1
281
     1
  3
ACAD_XREC_ROUNDTRIP
360
FAF5E
  0
DICTIONARY
  5
FAF5F
330
FAC23
100
AcDbDictionary
280
     1
281
     1
  3
ACAD_XREC_ROUNDTRIP
360
FAF60
  0
DICTIONARY
  5
FAE19
330
FAC0D
100
AcDbDictionary
280
     1
281
     1
  3
ACAD_ROUNDTRIP_2008_TABLESTYLE_CELLSTYLEMAP
360
FAF2A
  3
ACAD_XREC_ROUNDTRIP
360
FAF5C
  0
DICTIONARY
  5
FAF36
330
FABF9
100
AcDbDictionary
280
     1
281
     1
  3
ACAD_XREC_ROUNDTRIP
360
FAF37
  0
DICTIONARY
  5
FAF34
330
FABF8
100
AcDbDictionary
280
     1
281
     1
  3
ACAD_XREC_ROUNDTRIP
360
FAF35
  0
DICTIONARY
  5
FAF42
330
FABFF
100
AcDbDictionary
280
     1
281
     1
  3
ACAD_XREC_ROUNDTRIP
360
FAF43
  0
DICTIONARY
  5
FAF4A
330
FAC03
100
AcDbDictionary
280
     1
281
     1
  3
ACAD_XREC_ROUNDTRIP
360
FAF4B
  0
DICTIONARY
  5
FAF3C
330
FABFC
100
AcDbDictionary
280
     1
281
     1
  3
ACAD_XREC_ROUNDTRIP
360
FAF3D
  0
DICTIONARY
  5
FAF40
330
FABFE
100
AcDbDictionary
280
     1
281
     1
  3
ACAD_XREC_ROUNDTRIP
360
FAF41
  0
DICTIONARY
  5
FAF5A
330
FAC0B
100
AcDbDictionary
280
     1
281
     1
  3
ACAD_XREC_ROUNDTRIP
360
FAF5B
  0
DICTIONARY
  5
FAF48
330
FAC02
100
AcDbDictionary
280
     1
281
     1
  3
ACAD_XREC_ROUNDTRIP
360
FAF49
  0
DICTIONARY
  5
FAF2C
330
FABF4
100
AcDbDictionary
280
     1
281
     1
  3
ACAD_XREC_ROUNDTRIP
360
FAF2D
  0
DICTIONARY
  5
FAF2E
330
FABF5
100
AcDbDictionary
280
     1
281
     1
  3
ACAD_XREC_ROUNDTRIP
360
FAF2F
  0
DICTIONARY
  5
FAF30
330
FABF6
100
AcDbDictionary
280
     1
281
     1
  3
ACAD_XREC_ROUNDTRIP
360
FAF31
  0
DICTIONARY
  5
FAF32
330
FABF7
100
AcDbDictionary
280
     1
281
     1
  3
ACAD_XREC_ROUNDTRIP
360
FAF33
  0
DICTIONARY
  5
FAF3A
330
FABFB
100
AcDbDictionary
280
     1
281
     1
  3
ACAD_XREC_ROUNDTRIP
360
FAF3B
  0
DICTIONARY
  5
FAF56
330
FAC09
100
AcDbDictionary
280
     1
281
     1
  3
ACAD_XREC_ROUNDTRIP
360
FAF57
  0
DICTIONARY
  5
FAF46
330
FAC01
100
AcDbDictionary
280
     1
281
     1
  3
ACAD_XREC_ROUNDTRIP
360
FAF47
  0
DICTIONARY
  5
FAF58
330
FAC0A
100
AcDbDictionary
280
     1
281
     1
  3
ACAD_XREC_ROUNDTRIP
360
FAF59
  0
DICTIONARY
  5
FAF3E
330
FABFD
100
AcDbDictionary
280
     1
281
     1
  3
ACAD_XREC_ROUNDTRIP
360
FAF3F
  0
DICTIONARY
  5
FAF54
330
FAC08
100
AcDbDictionary
280
     1
281
     1
  3
ACAD_XREC_ROUNDTRIP
360
FAF55
  0
DICTIONARY
  5
FAF52
330
FAC07
100
AcDbDictionary
280
     1
281
     1
  3
ACAD_XREC_ROUNDTRIP
360
FAF53
  0
DICTIONARY
  5
FAF4C
330
FAC04
100
AcDbDictionary
280
     1
281
     1
  3
ACAD_XREC_ROUNDTRIP
360
FAF4D
  0
DICTIONARY
  5
FAF4E
330
FAC05
100
AcDbDictionary
280
     1
281
     1
  3
ACAD_XREC_ROUNDTRIP
360
FAF4F
  0
DICTIONARY
  5
FAF44
330
FAC00
100
AcDbDictionary
280
     1
281
     1
  3
ACAD_XREC_ROUNDTRIP
360
FAF45
  0
DICTIONARY
  5
FAF38
330
FABFA
100
AcDbDictionary
280
     1
281
     1
  3
ACAD_XREC_ROUNDTRIP
360
FAF39
  0
DICTIONARY
  5
FAF50
330
FAC06
100
AcDbDictionary
280
     1
281
     1
  3
ACAD_XREC_ROUNDTRIP
360
FAF51
  0
XRECORD
  5
FAF62
102
{ACAD_REACTORS
330
FAF61
102
}
330
FAF61
100
AcDbXrecord
280
     1
102
DISPLAYNAME
  1
Metric50
102
FLAGS
 90
        0
  0
XRECORD
  5
FAE2E
102
{ACAD_REACTORS
330
FABE4
102
}
330
FABE4
100
AcDbXrecord
280
     1
102
MATERIAL
148
0.0
149
0.0
149
0.0
 93
        0
 94
      127
282
     0
 72
     0
 77
     0
171
     0
175
     0
179
     0
273
     0
  0
XRECORD
  5
FABE6
102
{ACAD_REACTORS
330
FABE4
102
}
330
FABE4
100
AcDbXrecord
280
     1
270
     1
271
     1
  0
XRECORD
  5
FABE5
102
{ACAD_REACTORS
330
FABE4
102
}
330
FABE4
100
AcDbXrecord
280
     1
270
     1
271
     1
  0
XRECORD
  5
FABE9
102
{ACAD_REACTORS
330
FABE4
102
}
330
FABE4
100
AcDbXrecord
280
     1
270
     1
271
     1
  0
XRECORD
  5
FABE8
102
{ACAD_REACTORS
330
FABE4
102
}
330
FABE4
100
AcDbXrecord
280
     1
270
     1
271
     1
  0
XRECORD
  5
FABEA
102
{ACAD_REACTORS
330
FABE4
102
}
330
FABE4
100
AcDbXrecord
280
     1
270
     1
271
     1
  0
XRECORD
  5
FABE7
102
{ACAD_REACTORS
330
FABE4
102
}
330
FABE4
100
AcDbXrecord
280
     1
270
     1
271
     1
  0
XRECORD
  5
FAE2D
102
{ACAD_REACTORS
330
FABDC
102
}
330
FABDC
100
AcDbXrecord
280
     1
102
MATERIAL
148
0.0
149
0.0
149
0.0
 93
        0
 94
      127
282
     0
 72
     0
 77
     0
171
     0
175
     0
179
     0
273
     0
  0
XRECORD
  5
FABDE
102
{ACAD_REACTORS
330
FABDC
102
}
330
FABDC
100
AcDbXrecord
280
     1
270
     1
271
     1
  0
XRECORD
  5
FABDD
102
{ACAD_REACTORS
330
FABDC
102
}
330
FABDC
100
AcDbXrecord
280
     1
270
     1
271
     1
  0
XRECORD
  5
FABE1
102
{ACAD_REACTORS
330
FABDC
102
}
330
FABDC
100
AcDbXrecord
280
     1
270
     1
271
     1
  0
XRECORD
  5
FABE0
102
{ACAD_REACTORS
330
FABDC
102
}
330
FABDC
100
AcDbXrecord
280
     1
270
     1
271
     1
  0
XRECORD
  5
FABE2
102
{ACAD_REACTORS
330
FABDC
102
}
330
FABDC
100
AcDbXrecord
280
     1
270
     1
271
     1
  0
XRECORD
  5
FABDF
102
{ACAD_REACTORS
330
FABDC
102
}
330
FABDC
100
AcDbXrecord
280
     1
270
     1
271
     1
  0
XRECORD
  5
FAE2F
102
{ACAD_REACTORS
330
FABEC
102
}
330
FABEC
100
AcDbXrecord
280
     1
102
MATERIAL
148
0.0
149
0.0
149
0.0
 93
        0
 94
      127
282
     0
 72
     0
 77
     0
171
     0
175
     0
179
     0
273
     0
  0
XRECORD
  5
FABEE
102
{ACAD_REACTORS
330
FABEC
102
}
330
FABEC
100
AcDbXrecord
280
     1
270
     1
271
     1
  0
XRECORD
  5
FABED
102
{ACAD_REACTORS
330
FABEC
102
}
330
FABEC
100
AcDbXrecord
280
     1
270
     1
271
     1
  0
XRECORD
  5
FABF1
102
{ACAD_REACTORS
330
FABEC
102
}
330
FABEC
100
AcDbXrecord
280
     1
270
     1
271
     1
  0
XRECORD
  5
FABF0
102
{ACAD_REACTORS
330
FABEC
102
}
330
FABEC
100
AcDbXrecord
280
     1
270
     1
271
     1
  0
XRECORD
  5
FABF2
102
{ACAD_REACTORS
330
FABEC
102
}
330
FABEC
100
AcDbXrecord
280
     1
270
     1
271
     1
  0
XRECORD
  5
FABEF
102
{ACAD_REACTORS
330
FABEC
102
}
330
FABEC
100
AcDbXrecord
280
     1
270
     1
271
     1
  0
XRECORD
  5
FAF5E
102
{ACAD_REACTORS
330
FAF5D
102
}
330
FAF5D
100
AcDbXrecord
280
     1
102
ACAD_ROUNDTRIP_2012_MLEADER_STYLE
298
     1
  0
XRECORD
  5
FAF60
102
{ACAD_REACTORS
330
FAF5F
102
}
330
FAF5F
100
AcDbXrecord
280
     1
102
DISPLAYNAME
  1
Metric50
102
FLAGS
 90
        0
  0
CELLSTYLEMAP
  5
FAF2A
102
{ACAD_REACTORS
330
FAE19
102
}
330
FAE19
100
AcDbCellStyleMap
 90
        3
300
CELLSTYLE
  1
TABLEFORMAT_BEGIN
 90
        5
170
     1
 91
        0
 92
    32768
 62
   257
 93
        1
300
CONTENTFORMAT
  1
CONTENTFORMAT_BEGIN
 90
        0
 91
        0
 92
      512
 93
        0
300

 40
0.0
140
1.0
 94
        5
 62
     0
340
11
144
6.0
309
CONTENTFORMAT_END
171
     1
301
MARGIN
  1
CELLMARGIN_BEGIN
 40
1.5
 40
1.5
 40
1.5
 40
1.5
 40
0.18
 40
0.18
309
CELLMARGIN_END
 94
        6
 95
        1
302
GRIDFORMAT
  1
GRIDFORMAT_BEGIN
 90
        0
 91
        1
 62
     0
 92
       -2
340
0
 93
        0
 40
1.125
309
GRIDFORMAT_END
 95
        2
302
GRIDFORMAT
  1
GRIDFORMAT_BEGIN
 90
        0
 91
        1
 62
     0
 92
       -2
340
0
 93
        0
 40
1.125
309
GRIDFORMAT_END
 95
        4
302
GRIDFORMAT
  1
GRIDFORMAT_BEGIN
 90
        0
 91
        1
 62
     0
 92
       -2
340
0
 93
        0
 40
1.125
309
GRIDFORMAT_END
 95
        8
302
GRIDFORMAT
  1
GRIDFORMAT_BEGIN
 90
        0
 91
        1
 62
     0
 92
       -2
340
0
 93
        0
 40
1.125
309
GRIDFORMAT_END
 95
       16
302
GRIDFORMAT
  1
GRIDFORMAT_BEGIN
 90
        0
 91
        1
 62
     0
 92
       -2
340
0
 93
        0
 40
1.125
309
GRIDFORMAT_END
 95
       32
302
GRIDFORMAT
  1
GRIDFORMAT_BEGIN
 90
        0
 91
        1
 62
     0
 92
       -2
340
0
 93
        0
 40
1.125
309
GRIDFORMAT_END
309
TABLEFORMAT_END
  1
CELLSTYLE_BEGIN
 90
        1
 91
        1
300
_TITLE
309
CELLSTYLE_END
300
CELLSTYLE
  1
TABLEFORMAT_BEGIN
 90
        5
170
     1
 91
        0
 92
        0
 62
   257
 93
        1
300
CONTENTFORMAT
  1
CONTENTFORMAT_BEGIN
 90
        0
 91
        0
 92
      512
 93
        0
300

 40
0.0
140
1.0
 94
        5
 62
     0
340
11
144
4.5
309
CONTENTFORMAT_END
171
     1
301
MARGIN
  1
CELLMARGIN_BEGIN
 40
1.5
 40
1.5
 40
1.5
 40
1.5
 40
0.18
 40
0.18
309
CELLMARGIN_END
 94
        6
 95
        1
302
GRIDFORMAT
  1
GRIDFORMAT_BEGIN
 90
        0
 91
        1
 62
     0
 92
       -2
340
0
 93
        0
 40
1.125
309
GRIDFORMAT_END
 95
        2
302
GRIDFORMAT
  1
GRIDFORMAT_BEGIN
 90
        0
 91
        1
 62
     0
 92
       -2
340
0
 93
        0
 40
1.125
309
GRIDFORMAT_END
 95
        4
302
GRIDFORMAT
  1
GRIDFORMAT_BEGIN
 90
        0
 91
        1
 62
     0
 92
       -2
340
0
 93
        0
 40
1.125
309
GRIDFORMAT_END
 95
        8
302
GRIDFORMAT
  1
GRIDFORMAT_BEGIN
 90
        0
 91
        1
 62
     0
 92
       -2
340
0
 93
        0
 40
1.125
309
GRIDFORMAT_END
 95
       16
302
GRIDFORMAT
  1
GRIDFORMAT_BEGIN
 90
        0
 91
        1
 62
     0
 92
       -2
340
0
 93
        0
 40
1.125
309
GRIDFORMAT_END
 95
       32
302
GRIDFORMAT
  1
GRIDFORMAT_BEGIN
 90
        0
 91
        1
 62
     0
 92
       -2
340
0
 93
        0
 40
1.125
309
GRIDFORMAT_END
309
TABLEFORMAT_END
  1
CELLSTYLE_BEGIN
 90
        2
 91
        1
300
_HEADER
309
CELLSTYLE_END
300
CELLSTYLE
  1
TABLEFORMAT_BEGIN
 90
        5
170
     1
 91
        0
 92
        0
 62
   257
 93
        1
300
CONTENTFORMAT
  1
CONTENTFORMAT_BEGIN
 90
        0
 91
        0
 92
      512
 93
        0
300

 40
0.0
140
1.0
 94
        2
 62
     0
340
11
144
4.5
309
CONTENTFORMAT_END
171
     1
301
MARGIN
  1
CELLMARGIN_BEGIN
 40
1.5
 40
1.5
 40
1.5
 40
1.5
 40
0.18
 40
0.18
309
CELLMARGIN_END
 94
        6
 95
        1
302
GRIDFORMAT
  1
GRIDFORMAT_BEGIN
 90
        0
 91
        1
 62
     0
 92
       -2
340
0
 93
        0
 40
1.125
309
GRIDFORMAT_END
 95
        2
302
GRIDFORMAT
  1
GRIDFORMAT_BEGIN
 90
        0
 91
        1
 62
     0
 92
       -2
340
0
 93
        0
 40
1.125
309
GRIDFORMAT_END
 95
        4
302
GRIDFORMAT
  1
GRIDFORMAT_BEGIN
 90
        0
 91
        1
 62
     0
 92
       -2
340
0
 93
        0
 40
1.125
309
GRIDFORMAT_END
 95
        8
302
GRIDFORMAT
  1
GRIDFORMAT_BEGIN
 90
        0
 91
        1
 62
     0
 92
       -2
340
0
 93
        0
 40
1.125
309
GRIDFORMAT_END
 95
       16
302
GRIDFORMAT
  1
GRIDFORMAT_BEGIN
 90
        0
 91
        1
 62
     0
 92
       -2
340
0
 93
        0
 40
1.125
309
GRIDFORMAT_END
 95
       32
302
GRIDFORMAT
  1
GRIDFORMAT_BEGIN
 90
        0
 91
        1
 62
     0
 92
       -2
340
0
 93
        0
 40
1.125
309
GRIDFORMAT_END
309
TABLEFORMAT_END
  1
CELLSTYLE_BEGIN
 90
        3
 91
        2
300
_DATA
309
CELLSTYLE_END
  0
XRECORD
  5
FAF5C
102
{ACAD_REACTORS
330
FAE19
102
}
330
FAE19
100
AcDbXrecord
280
     1
102
ACAD_ROUNDTRIP_PRE2007_TABLESTYLE
 90
      512
 91
        0
  1

 92
      512
 93
        0
  2

 94
      512
 95
        0
  3

  0
XRECORD
  5
FAF37
102
{ACAD_REACTORS
330
FAF36
102
}
330
FAF36
100
AcDbXrecord
280
     1
102
RTVSPost2010Prop28
280
     1
102
RTVSPost2010PropOp28
 70
     1
102
RTVSPost2010Prop29
280
     1
102
RTVSPost2010PropOp29
 70
     1
102
RTVSPost2010Prop30
280
     0
102
RTVSPost2010PropOp30
 70
     1
102
RTVSPost2010Prop31
280
     0
102
RTVSPost2010PropOp31
 70
     1
102
RTVSPost2010Prop32
280
     0
102
RTVSPost2010PropOp32
 70
     1
102
RTVSPost2010Prop33
280
     0
102
RTVSPost2010PropOp33
 70
     1
102
RTVSPost2010Prop34
280
     0
102
RTVSPost2010PropOp34
 70
     1
102
RTVSPost2010Prop35
280
     0
102
RTVSPost2010PropOp35
 70
     1
102
RTVSPost2010Prop36
280
     0
102
RTVSPost2010PropOp36
 70
     1
102
RTVSPost2010Prop37
 90
       50
102
RTVSPost2010PropOp37
 70
     1
102
RTVSPost2010Prop38
140
0.0
102
RTVSPost2010PropOp38
 70
     1
102
RTVSPost2010Prop39
140
1.0
102
RTVSPost2010PropOp39
 70
     1
102
RTVSPost2010Prop40
 90
        0
102
RTVSPost2010PropOp40
 70
     1
102
RTVSPost2010Prop41ColorIndex
 90
       18
102
RTVSPost2010Prop41ColorRGB
 90
        0
102
RTVSPost2010PropOp41
 70
     1
102
RTVSPost2010Prop42
 90
       50
102
RTVSPost2010PropOp42
 70
     1
102
RTVSPost2010Prop43
 90
        3
102
RTVSPost2010PropOp43
 70
     1
102
RTVSPost2010Prop44ColorIndex
 90
        5
102
RTVSPost2010Prop44ColorRGB
 90
      255
102
RTVSPost2010PropOp44
 70
     1
102
RTVSPost2010Prop45
280
     0
102
RTVSPost2010PropOp45
 70
     1
102
RTVSPost2010Prop46
 90
       50
102
RTVSPost2010PropOp46
 70
     1
102
RTVSPost2010Prop47
 90
       50
102
RTVSPost2010PropOp47
 70
     1
102
RTVSPost2010Prop48
 90
       50
102
RTVSPost2010PropOp48
 70
     1
102
RTVSPost2010Prop49
280
     0
102
RTVSPost2010PropOp49
 70
     1
102
RTVSPost2010Prop50
 90
       50
102
RTVSPost2010PropOp50
 70
     1
102
RTVSPost2010Prop51ColorIndex
 90
      256
102
RTVSPost2010Prop51ColorRGB
 90
-16777216
102
RTVSPost2010PropOp51
 70
     0
102
RTVSPost2010Prop52
140
1.0
102
RTVSPost2010PropOp52
 70
     0
102
RTVSPost2010Prop53
 90
        2
102
RTVSPost2010PropOp53
 70
     1
102
RTVSPost2010Prop54
  1
strokes_ogs.tif
102
RTVSPost2010PropOp54
 70
     1
102
RTVSPost2010Prop55
280
     0
102
RTVSPost2010PropOp55
 70
     1
102
RTVSPost2010Prop56
140
1.0
102
RTVSPost2010PropOp56
 70
     1
102
RTVSPost2010Prop57
140
1.0
102
RTVSPost2010PropOp57
 70
     1
102
RTVSPropertyOp0
 70
     1
102
RTVSPropertyOp1
 70
     1
102
RTVSPropertyOp2
 70
     1
102
RTVSPropertyOp3
 70
     1
102
RTVSPropertyOp4
 70
     1
102
RTVSPropertyOp5
 70
     1
102
RTVSPropertyOp6
 70
     1
102
RTVSPropertyOp7
 70
     1
102
RTVSPropertyOp8
 70
     1
102
RTVSPropertyOp9
 70
     1
102
RTVSPropertyOp10
 70
     1
102
RTVSPropertyOp11
 70
     1
102
RTVSPropertyOp12
 70
     1
102
RTVSPropertyOp13
 70
     1
102
RTVSPropertyOp14
 70
     1
102
RTVSPropertyOp15
 70
     1
102
RTVSPropertyOp16
 70
     1
102
RTVSPropertyOp17
 70
     1
102
RTVSPropertyOp18
 70
     1
102
RTVSPropertyOp19
 70
     1
102
RTVSPropertyOp20
 70
     1
102
RTVSPropertyOp21
 70
     1
102
RTVSPropertyOp22
 70
     1
102
RTVSPropertyOp23
 70
     1
102
RTVSPropertyOp24
 70
     1
102
RTVSPropertyOp25
 70
     1
102
RTVSPropertyOp26
 70
     1
102
RTVSPropertyOp27
 70
     1
102
RTVSPropertyOp28
 70
     1
102
RTVSPropertyOp29
 70
     1
102
RTVSPropertyOp30
 70
     1
102
RTVSPropertyOp31
 70
     1
102
RTVSPropertyOp32
 70
     1
102
RTVSPropertyOp33
 70
     1
102
RTVSPropertyOp34
 70
     1
102
RTVSPropertyOp35
 70
     1
102
RTVSPropertyOp36
 70
     1
102
RTVSPropertyOp37
 70
     1
102
RTVSPropertyOp38
 70
     1
102
RTVSPropertyOp39
 70
     1
102
RTVSPropertyOp40
 70
     1
102
RTVSPropertyOp41
 70
     1
102
RTVSPropertyOp42
 70
     1
102
RTVSPropertyOp43
 70
     1
102
RTVSPropertyOp44
 70
     1
102
RTVSPropertyOp45
 70
     1
102
RTVSPropertyOp46
 70
     1
102
RTVSPropertyOp47
 70
     1
102
RTVSPropertyOp48
 70
     1
102
RTVSPropertyOp49
 70
     1
102
RTVSPropertyOp50
 70
     1
102
RTVSPropertyOp51
 70
     0
102
RTVSPropertyOp52
 70
     0
102
RTVSPropertyOp53
 70
     1
102
RTVSPropertyOp54
 70
     1
102
RTVSPropertyOp55
 70
     1
102
RTVSPropertyOp56
 70
     1
102
RTVSPropertyOp57
 70
     1
102
RTVSPropertyOp58
 70
     1
102
RTVSPropertyOp59
 70
     1
102
RTVSPropertyOp60
 70
     1
102
RTVSPropertyOp61
 70
     1
102
RTVSPropertyOp62
 70
     1
  0
XRECORD
  5
FAF35
102
{ACAD_REACTORS
330
FAF34
102
}
330
FAF34
100
AcDbXrecord
280
     1
102
RTVSPost2010Prop28
280
     0
102
RTVSPost2010PropOp28
 70
     1
102
RTVSPost2010Prop29
280
     1
102
RTVSPost2010PropOp29
 70
     1
102
RTVSPost2010Prop30
280
     1
102
RTVSPost2010PropOp30
 70
     1
102
RTVSPost2010Prop31
280
     0
102
RTVSPost2010PropOp31
 70
     1
102
RTVSPost2010Prop32
280
     0
102
RTVSPost2010PropOp32
 70
     1
102
RTVSPost2010Prop33
280
     0
102
RTVSPost2010PropOp33
 70
     1
102
RTVSPost2010Prop34
280
     0
102
RTVSPost2010PropOp34
 70
     1
102
RTVSPost2010Prop35
280
     0
102
RTVSPost2010PropOp35
 70
     1
102
RTVSPost2010Prop36
280
     0
102
RTVSPost2010PropOp36
 70
     1
102
RTVSPost2010Prop37
 90
       50
102
RTVSPost2010PropOp37
 70
     1
102
RTVSPost2010Prop38
140
0.0
102
RTVSPost2010PropOp38
 70
     1
102
RTVSPost2010Prop39
140
1.0
102
RTVSPost2010PropOp39
 70
     1
102
RTVSPost2010Prop40
 90
        0
102
RTVSPost2010PropOp40
 70
     1
102
RTVSPost2010Prop41ColorIndex
 90
       18
102
RTVSPost2010Prop41ColorRGB
 90
        0
102
RTVSPost2010PropOp41
 70
     1
102
RTVSPost2010Prop42
 90
       50
102
RTVSPost2010PropOp42
 70
     1
102
RTVSPost2010Prop43
 90
        3
102
RTVSPost2010PropOp43
 70
     1
102
RTVSPost2010Prop44ColorIndex
 90
        5
102
RTVSPost2010Prop44ColorRGB
 90
      255
102
RTVSPost2010PropOp44
 70
     1
102
RTVSPost2010Prop45
280
     0
102
RTVSPost2010PropOp45
 70
     1
102
RTVSPost2010Prop46
 90
       50
102
RTVSPost2010PropOp46
 70
     1
102
RTVSPost2010Prop47
 90
       50
102
RTVSPost2010PropOp47
 70
     1
102
RTVSPost2010Prop48
 90
       50
102
RTVSPost2010PropOp48
 70
     1
102
RTVSPost2010Prop49
280
     0
102
RTVSPost2010PropOp49
 70
     1
102
RTVSPost2010Prop50
 90
       50
102
RTVSPost2010PropOp50
 70
     1
102
RTVSPost2010Prop51ColorIndex
 90
      256
102
RTVSPost2010Prop51ColorRGB
 90
-16777216
102
RTVSPost2010PropOp51
 70
     0
102
RTVSPost2010Prop52
140
1.0
102
RTVSPost2010PropOp52
 70
     0
102
RTVSPost2010Prop53
 90
        2
102
RTVSPost2010PropOp53
 70
     1
102
RTVSPost2010Prop54
  1
strokes_ogs.tif
102
RTVSPost2010PropOp54
 70
     1
102
RTVSPost2010Prop55
280
     0
102
RTVSPost2010PropOp55
 70
     1
102
RTVSPost2010Prop56
140
1.0
102
RTVSPost2010PropOp56
 70
     1
102
RTVSPost2010Prop57
140
1.0
102
RTVSPost2010PropOp57
 70
     1
102
RTVSPropertyOp0
 70
     1
102
RTVSPropertyOp1
 70
     1
102
RTVSPropertyOp2
 70
     1
102
RTVSPropertyOp3
 70
     1
102
RTVSPropertyOp4
 70
     1
102
RTVSPropertyOp5
 70
     1
102
RTVSPropertyOp6
 70
     1
102
RTVSPropertyOp7
 70
     1
102
RTVSPropertyOp8
 70
     1
102
RTVSPropertyOp9
 70
     1
102
RTVSPropertyOp10
 70
     1
102
RTVSPropertyOp11
 70
     1
102
RTVSPropertyOp12
 70
     1
102
RTVSPropertyOp13
 70
     1
102
RTVSPropertyOp14
 70
     1
102
RTVSPropertyOp15
 70
     1
102
RTVSPropertyOp16
 70
     1
102
RTVSPropertyOp17
 70
     1
102
RTVSPropertyOp18
 70
     1
102
RTVSPropertyOp19
 70
     1
102
RTVSPropertyOp20
 70
     1
102
RTVSPropertyOp21
 70
     1
102
RTVSPropertyOp22
 70
     1
102
RTVSPropertyOp23
 70
     1
102
RTVSPropertyOp24
 70
     1
102
RTVSPropertyOp25
 70
     1
102
RTVSPropertyOp26
 70
     1
102
RTVSPropertyOp27
 70
     1
102
RTVSPropertyOp28
 70
     1
102
RTVSPropertyOp29
 70
     1
102
RTVSPropertyOp30
 70
     1
102
RTVSPropertyOp31
 70
     1
102
RTVSPropertyOp32
 70
     1
102
RTVSPropertyOp33
 70
     1
102
RTVSPropertyOp34
 70
     1
102
RTVSPropertyOp35
 70
     1
102
RTVSPropertyOp36
 70
     1
102
RTVSPropertyOp37
 70
     1
102
RTVSPropertyOp38
 70
     1
102
RTVSPropertyOp39
 70
     1
102
RTVSPropertyOp40
 70
     1
102
RTVSPropertyOp41
 70
     1
102
RTVSPropertyOp42
 70
     1
102
RTVSPropertyOp43
 70
     1
102
RTVSPropertyOp44
 70
     1
102
RTVSPropertyOp45
 70
     1
102
RTVSPropertyOp46
 70
     1
102
RTVSPropertyOp47
 70
     1
102
RTVSPropertyOp48
 70
     1
102
RTVSPropertyOp49
 70
     1
102
RTVSPropertyOp50
 70
     1
102
RTVSPropertyOp51
 70
     0
102
RTVSPropertyOp52
 70
     0
102
RTVSPropertyOp53
 70
     1
102
RTVSPropertyOp54
 70
     1
102
RTVSPropertyOp55
 70
     1
102
RTVSPropertyOp56
 70
     1
102
RTVSPropertyOp57
 70
     1
102
RTVSPropertyOp58
 70
     1
102
RTVSPropertyOp59
 70
     1
102
RTVSPropertyOp60
 70
     1
102
RTVSPropertyOp61
 70
     1
102
RTVSPropertyOp62
 70
     1
  0
XRECORD
  5
FAF43
102
{ACAD_REACTORS
330
FAF42
102
}
330
FAF42
100
AcDbXrecord
280
     1
102
RTVSPost2010Prop28
280
     0
102
RTVSPost2010PropOp28
 70
     1
102
RTVSPost2010Prop29
280
     1
102
RTVSPost2010PropOp29
 70
     1
102
RTVSPost2010Prop30
280
     1
102
RTVSPost2010PropOp30
 70
     1
102
RTVSPost2010Prop31
280
     0
102
RTVSPost2010PropOp31
 70
     1
102
RTVSPost2010Prop32
280
     0
102
RTVSPost2010PropOp32
 70
     1
102
RTVSPost2010Prop33
280
     0
102
RTVSPost2010PropOp33
 70
     1
102
RTVSPost2010Prop34
280
     0
102
RTVSPost2010PropOp34
 70
     1
102
RTVSPost2010Prop35
280
     0
102
RTVSPost2010PropOp35
 70
     1
102
RTVSPost2010Prop36
280
     0
102
RTVSPost2010PropOp36
 70
     1
102
RTVSPost2010Prop37
 90
       50
102
RTVSPost2010PropOp37
 70
     1
102
RTVSPost2010Prop38
140
0.0
102
RTVSPost2010PropOp38
 70
     1
102
RTVSPost2010Prop39
140
1.0
102
RTVSPost2010PropOp39
 70
     1
102
RTVSPost2010Prop40
 90
        0
102
RTVSPost2010PropOp40
 70
     1
102
RTVSPost2010Prop41ColorIndex
 90
       18
102
RTVSPost2010Prop41ColorRGB
 90
        0
102
RTVSPost2010PropOp41
 70
     1
102
RTVSPost2010Prop42
 90
       50
102
RTVSPost2010PropOp42
 70
     1
102
RTVSPost2010Prop43
 90
        3
102
RTVSPost2010PropOp43
 70
     1
102
RTVSPost2010Prop44ColorIndex
 90
        5
102
RTVSPost2010Prop44ColorRGB
 90
      255
102
RTVSPost2010PropOp44
 70
     1
102
RTVSPost2010Prop45
280
     0
102
RTVSPost2010PropOp45
 70
     1
102
RTVSPost2010Prop46
 90
       50
102
RTVSPost2010PropOp46
 70
     1
102
RTVSPost2010Prop47
 90
       50
102
RTVSPost2010PropOp47
 70
     1
102
RTVSPost2010Prop48
 90
       50
102
RTVSPost2010PropOp48
 70
     1
102
RTVSPost2010Prop49
280
     0
102
RTVSPost2010PropOp49
 70
     1
102
RTVSPost2010Prop50
 90
       50
102
RTVSPost2010PropOp50
 70
     1
102
RTVSPost2010Prop51ColorIndex
 90
      256
102
RTVSPost2010Prop51ColorRGB
 90
-16777216
102
RTVSPost2010PropOp51
 70
     0
102
RTVSPost2010Prop52
140
1.0
102
RTVSPost2010PropOp52
 70
     0
102
RTVSPost2010Prop53
 90
        2
102
RTVSPost2010PropOp53
 70
     1
102
RTVSPost2010Prop54
  1
strokes_ogs.tif
102
RTVSPost2010PropOp54
 70
     1
102
RTVSPost2010Prop55
280
     0
102
RTVSPost2010PropOp55
 70
     1
102
RTVSPost2010Prop56
140
1.0
102
RTVSPost2010PropOp56
 70
     1
102
RTVSPost2010Prop57
140
1.0
102
RTVSPost2010PropOp57
 70
     1
102
RTVSPropertyOp0
 70
     1
102
RTVSPropertyOp1
 70
     1
102
RTVSPropertyOp2
 70
     1
102
RTVSPropertyOp3
 70
     1
102
RTVSPropertyOp4
 70
     1
102
RTVSPropertyOp5
 70
     1
102
RTVSPropertyOp6
 70
     1
102
RTVSPropertyOp7
 70
     1
102
RTVSPropertyOp8
 70
     1
102
RTVSPropertyOp9
 70
     1
102
RTVSPropertyOp10
 70
     1
102
RTVSPropertyOp11
 70
     1
102
RTVSPropertyOp12
 70
     1
102
RTVSPropertyOp13
 70
     1
102
RTVSPropertyOp14
 70
     1
102
RTVSPropertyOp15
 70
     1
102
RTVSPropertyOp16
 70
     1
102
RTVSPropertyOp17
 70
     1
102
RTVSPropertyOp18
 70
     1
102
RTVSPropertyOp19
 70
     1
102
RTVSPropertyOp20
 70
     1
102
RTVSPropertyOp21
 70
     1
102
RTVSPropertyOp22
 70
     1
102
RTVSPropertyOp23
 70
     1
102
RTVSPropertyOp24
 70
     1
102
RTVSPropertyOp25
 70
     1
102
RTVSPropertyOp26
 70
     1
102
RTVSPropertyOp27
 70
     1
102
RTVSPropertyOp28
 70
     1
102
RTVSPropertyOp29
 70
     1
102
RTVSPropertyOp30
 70
     1
102
RTVSPropertyOp31
 70
     1
102
RTVSPropertyOp32
 70
     1
102
RTVSPropertyOp33
 70
     1
102
RTVSPropertyOp34
 70
     1
102
RTVSPropertyOp35
 70
     1
102
RTVSPropertyOp36
 70
     1
102
RTVSPropertyOp37
 70
     1
102
RTVSPropertyOp38
 70
     1
102
RTVSPropertyOp39
 70
     1
102
RTVSPropertyOp40
 70
     1
102
RTVSPropertyOp41
 70
     1
102
RTVSPropertyOp42
 70
     1
102
RTVSPropertyOp43
 70
     1
102
RTVSPropertyOp44
 70
     1
102
RTVSPropertyOp45
 70
     1
102
RTVSPropertyOp46
 70
     1
102
RTVSPropertyOp47
 70
     1
102
RTVSPropertyOp48
 70
     1
102
RTVSPropertyOp49
 70
     1
102
RTVSPropertyOp50
 70
     1
102
RTVSPropertyOp51
 70
     0
102
RTVSPropertyOp52
 70
     0
102
RTVSPropertyOp53
 70
     1
102
RTVSPropertyOp54
 70
     1
102
RTVSPropertyOp55
 70
     1
102
RTVSPropertyOp56
 70
     1
102
RTVSPropertyOp57
 70
     1
102
RTVSPropertyOp58
 70
     1
102
RTVSPropertyOp59
 70
     1
102
RTVSPropertyOp60
 70
     1
102
RTVSPropertyOp61
 70
     1
102
RTVSPropertyOp62
 70
     1
  0
XRECORD
  5
FAF4B
102
{ACAD_REACTORS
330
FAF4A
102
}
330
FAF4A
100
AcDbXrecord
280
     1
102
RTVSPost2010Prop28
280
     0
102
RTVSPost2010PropOp28
 70
     1
102
RTVSPost2010Prop29
280
     1
102
RTVSPost2010PropOp29
 70
     1
102
RTVSPost2010Prop30
280
     1
102
RTVSPost2010PropOp30
 70
     1
102
RTVSPost2010Prop31
280
     0
102
RTVSPost2010PropOp31
 70
     1
102
RTVSPost2010Prop32
280
     0
102
RTVSPost2010PropOp32
 70
     1
102
RTVSPost2010Prop33
280
     0
102
RTVSPost2010PropOp33
 70
     1
102
RTVSPost2010Prop34
280
     0
102
RTVSPost2010PropOp34
 70
     1
102
RTVSPost2010Prop35
280
     0
102
RTVSPost2010PropOp35
 70
     1
102
RTVSPost2010Prop36
280
     0
102
RTVSPost2010PropOp36
 70
     1
102
RTVSPost2010Prop37
 90
       50
102
RTVSPost2010PropOp37
 70
     1
102
RTVSPost2010Prop38
140
0.0
102
RTVSPost2010PropOp38
 70
     1
102
RTVSPost2010Prop39
140
1.0
102
RTVSPost2010PropOp39
 70
     1
102
RTVSPost2010Prop40
 90
        0
102
RTVSPost2010PropOp40
 70
     1
102
RTVSPost2010Prop41ColorIndex
 90
       18
102
RTVSPost2010Prop41ColorRGB
 90
        0
102
RTVSPost2010PropOp41
 70
     1
102
RTVSPost2010Prop42
 90
       50
102
RTVSPost2010PropOp42
 70
     1
102
RTVSPost2010Prop43
 90
        3
102
RTVSPost2010PropOp43
 70
     1
102
RTVSPost2010Prop44ColorIndex
 90
        5
102
RTVSPost2010Prop44ColorRGB
 90
      255
102
RTVSPost2010PropOp44
 70
     1
102
RTVSPost2010Prop45
280
     0
102
RTVSPost2010PropOp45
 70
     1
102
RTVSPost2010Prop46
 90
       50
102
RTVSPost2010PropOp46
 70
     1
102
RTVSPost2010Prop47
 90
       50
102
RTVSPost2010PropOp47
 70
     1
102
RTVSPost2010Prop48
 90
       50
102
RTVSPost2010PropOp48
 70
     1
102
RTVSPost2010Prop49
280
     0
102
RTVSPost2010PropOp49
 70
     1
102
RTVSPost2010Prop50
 90
       50
102
RTVSPost2010PropOp50
 70
     1
102
RTVSPost2010Prop51ColorIndex
 90
      256
102
RTVSPost2010Prop51ColorRGB
 90
-16777216
102
RTVSPost2010PropOp51
 70
     0
102
RTVSPost2010Prop52
140
1.0
102
RTVSPost2010PropOp52
 70
     0
102
RTVSPost2010Prop53
 90
        2
102
RTVSPost2010PropOp53
 70
     1
102
RTVSPost2010Prop54
  1
strokes_ogs.tif
102
RTVSPost2010PropOp54
 70
     1
102
RTVSPost2010Prop55
280
     0
102
RTVSPost2010PropOp55
 70
     1
102
RTVSPost2010Prop56
140
1.0
102
RTVSPost2010PropOp56
 70
     1
102
RTVSPost2010Prop57
140
1.0
102
RTVSPost2010PropOp57
 70
     1
102
RTVSPropertyOp0
 70
     1
102
RTVSPropertyOp1
 70
     1
102
RTVSPropertyOp2
 70
     1
102
RTVSPropertyOp3
 70
     1
102
RTVSPropertyOp4
 70
     1
102
RTVSPropertyOp5
 70
     1
102
RTVSPropertyOp6
 70
     1
102
RTVSPropertyOp7
 70
     1
102
RTVSPropertyOp8
 70
     1
102
RTVSPropertyOp9
 70
     1
102
RTVSPropertyOp10
 70
     1
102
RTVSPropertyOp11
 70
     1
102
RTVSPropertyOp12
 70
     1
102
RTVSPropertyOp13
 70
     1
102
RTVSPropertyOp14
 70
     1
102
RTVSPropertyOp15
 70
     1
102
RTVSPropertyOp16
 70
     1
102
RTVSPropertyOp17
 70
     1
102
RTVSPropertyOp18
 70
     1
102
RTVSPropertyOp19
 70
     1
102
RTVSPropertyOp20
 70
     1
102
RTVSPropertyOp21
 70
     1
102
RTVSPropertyOp22
 70
     1
102
RTVSPropertyOp23
 70
     1
102
RTVSPropertyOp24
 70
     1
102
RTVSPropertyOp25
 70
     1
102
RTVSPropertyOp26
 70
     1
102
RTVSPropertyOp27
 70
     1
102
RTVSPropertyOp28
 70
     1
102
RTVSPropertyOp29
 70
     1
102
RTVSPropertyOp30
 70
     1
102
RTVSPropertyOp31
 70
     1
102
RTVSPropertyOp32
 70
     1
102
RTVSPropertyOp33
 70
     1
102
RTVSPropertyOp34
 70
     1
102
RTVSPropertyOp35
 70
     1
102
RTVSPropertyOp36
 70
     1
102
RTVSPropertyOp37
 70
     1
102
RTVSPropertyOp38
 70
     1
102
RTVSPropertyOp39
 70
     1
102
RTVSPropertyOp40
 70
     1
102
RTVSPropertyOp41
 70
     1
102
RTVSPropertyOp42
 70
     1
102
RTVSPropertyOp43
 70
     1
102
RTVSPropertyOp44
 70
     1
102
RTVSPropertyOp45
 70
     1
102
RTVSPropertyOp46
 70
     1
102
RTVSPropertyOp47
 70
     1
102
RTVSPropertyOp48
 70
     1
102
RTVSPropertyOp49
 70
     1
102
RTVSPropertyOp50
 70
     1
102
RTVSPropertyOp51
 70
     0
102
RTVSPropertyOp52
 70
     0
102
RTVSPropertyOp53
 70
     1
102
RTVSPropertyOp54
 70
     1
102
RTVSPropertyOp55
 70
     1
102
RTVSPropertyOp56
 70
     1
102
RTVSPropertyOp57
 70
     1
102
RTVSPropertyOp58
 70
     1
102
RTVSPropertyOp59
 70
     1
102
RTVSPropertyOp60
 70
     1
102
RTVSPropertyOp61
 70
     1
102
RTVSPropertyOp62
 70
     1
  0
XRECORD
  5
FAF3D
102
{ACAD_REACTORS
330
FAF3C
102
}
330
FAF3C
100
AcDbXrecord
280
     1
102
RTVSPost2010Prop28
280
     0
102
RTVSPost2010PropOp28
 70
     1
102
RTVSPost2010Prop29
280
     1
102
RTVSPost2010PropOp29
 70
     1
102
RTVSPost2010Prop30
280
     1
102
RTVSPost2010PropOp30
 70
     1
102
RTVSPost2010Prop31
280
     0
102
RTVSPost2010PropOp31
 70
     1
102
RTVSPost2010Prop32
280
     0
102
RTVSPost2010PropOp32
 70
     1
102
RTVSPost2010Prop33
280
     0
102
RTVSPost2010PropOp33
 70
     1
102
RTVSPost2010Prop34
280
     0
102
RTVSPost2010PropOp34
 70
     1
102
RTVSPost2010Prop35
280
     0
102
RTVSPost2010PropOp35
 70
     1
102
RTVSPost2010Prop36
280
     0
102
RTVSPost2010PropOp36
 70
     1
102
RTVSPost2010Prop37
 90
       50
102
RTVSPost2010PropOp37
 70
     1
102
RTVSPost2010Prop38
140
0.0
102
RTVSPost2010PropOp38
 70
     1
102
RTVSPost2010Prop39
140
1.0
102
RTVSPost2010PropOp39
 70
     1
102
RTVSPost2010Prop40
 90
        0
102
RTVSPost2010PropOp40
 70
     1
102
RTVSPost2010Prop41ColorIndex
 90
       18
102
RTVSPost2010Prop41ColorRGB
 90
        0
102
RTVSPost2010PropOp41
 70
     1
102
RTVSPost2010Prop42
 90
       50
102
RTVSPost2010PropOp42
 70
     1
102
RTVSPost2010Prop43
 90
        3
102
RTVSPost2010PropOp43
 70
     1
102
RTVSPost2010Prop44ColorIndex
 90
        5
102
RTVSPost2010Prop44ColorRGB
 90
      255
102
RTVSPost2010PropOp44
 70
     1
102
RTVSPost2010Prop45
280
     0
102
RTVSPost2010PropOp45
 70
     1
102
RTVSPost2010Prop46
 90
       50
102
RTVSPost2010PropOp46
 70
     1
102
RTVSPost2010Prop47
 90
       50
102
RTVSPost2010PropOp47
 70
     1
102
RTVSPost2010Prop48
 90
       50
102
RTVSPost2010PropOp48
 70
     1
102
RTVSPost2010Prop49
280
     0
102
RTVSPost2010PropOp49
 70
     1
102
RTVSPost2010Prop50
 90
       50
102
RTVSPost2010PropOp50
 70
     1
102
RTVSPost2010Prop51ColorIndex
 90
      256
102
RTVSPost2010Prop51ColorRGB
 90
-16777216
102
RTVSPost2010PropOp51
 70
     0
102
RTVSPost2010Prop52
140
1.0
102
RTVSPost2010PropOp52
 70
     0
102
RTVSPost2010Prop53
 90
        2
102
RTVSPost2010PropOp53
 70
     1
102
RTVSPost2010Prop54
  1
strokes_ogs.tif
102
RTVSPost2010PropOp54
 70
     1
102
RTVSPost2010Prop55
280
     0
102
RTVSPost2010PropOp55
 70
     1
102
RTVSPost2010Prop56
140
1.0
102
RTVSPost2010PropOp56
 70
     1
102
RTVSPost2010Prop57
140
1.0
102
RTVSPost2010PropOp57
 70
     1
102
RTVSPropertyOp0
 70
     1
102
RTVSPropertyOp1
 70
     1
102
RTVSPropertyOp2
 70
     1
102
RTVSPropertyOp3
 70
     1
102
RTVSPropertyOp4
 70
     1
102
RTVSPropertyOp5
 70
     1
102
RTVSPropertyOp6
 70
     1
102
RTVSPropertyOp7
 70
     1
102
RTVSPropertyOp8
 70
     1
102
RTVSPropertyOp9
 70
     1
102
RTVSPropertyOp10
 70
     1
102
RTVSPropertyOp11
 70
     1
102
RTVSPropertyOp12
 70
     1
102
RTVSPropertyOp13
 70
     1
102
RTVSPropertyOp14
 70
     1
102
RTVSPropertyOp15
 70
     1
102
RTVSPropertyOp16
 70
     1
102
RTVSPropertyOp17
 70
     1
102
RTVSPropertyOp18
 70
     1
102
RTVSPropertyOp19
 70
     1
102
RTVSPropertyOp20
 70
     1
102
RTVSPropertyOp21
 70
     1
102
RTVSPropertyOp22
 70
     1
102
RTVSPropertyOp23
 70
     1
102
RTVSPropertyOp24
 70
     1
102
RTVSPropertyOp25
 70
     1
102
RTVSPropertyOp26
 70
     1
102
RTVSPropertyOp27
 70
     1
102
RTVSPropertyOp28
 70
     1
102
RTVSPropertyOp29
 70
     1
102
RTVSPropertyOp30
 70
     1
102
RTVSPropertyOp31
 70
     1
102
RTVSPropertyOp32
 70
     1
102
RTVSPropertyOp33
 70
     1
102
RTVSPropertyOp34
 70
     1
102
RTVSPropertyOp35
 70
     1
102
RTVSPropertyOp36
 70
     1
102
RTVSPropertyOp37
 70
     1
102
RTVSPropertyOp38
 70
     1
102
RTVSPropertyOp39
 70
     1
102
RTVSPropertyOp40
 70
     1
102
RTVSPropertyOp41
 70
     1
102
RTVSPropertyOp42
 70
     1
102
RTVSPropertyOp43
 70
     1
102
RTVSPropertyOp44
 70
     1
102
RTVSPropertyOp45
 70
     1
102
RTVSPropertyOp46
 70
     1
102
RTVSPropertyOp47
 70
     1
102
RTVSPropertyOp48
 70
     1
102
RTVSPropertyOp49
 70
     1
102
RTVSPropertyOp50
 70
     1
102
RTVSPropertyOp51
 70
     0
102
RTVSPropertyOp52
 70
     0
102
RTVSPropertyOp53
 70
     1
102
RTVSPropertyOp54
 70
     1
102
RTVSPropertyOp55
 70
     1
102
RTVSPropertyOp56
 70
     1
102
RTVSPropertyOp57
 70
     1
102
RTVSPropertyOp58
 70
     1
102
RTVSPropertyOp59
 70
     1
102
RTVSPropertyOp60
 70
     1
102
RTVSPropertyOp61
 70
     1
102
RTVSPropertyOp62
 70
     1
  0
XRECORD
  5
FAF41
102
{ACAD_REACTORS
330
FAF40
102
}
330
FAF40
100
AcDbXrecord
280
     1
102
RTVSPost2010Prop28
280
     0
102
RTVSPost2010PropOp28
 70
     1
102
RTVSPost2010Prop29
280
     1
102
RTVSPost2010PropOp29
 70
     1
102
RTVSPost2010Prop30
280
     1
102
RTVSPost2010PropOp30
 70
     1
102
RTVSPost2010Prop31
280
     0
102
RTVSPost2010PropOp31
 70
     1
102
RTVSPost2010Prop32
280
     0
102
RTVSPost2010PropOp32
 70
     1
102
RTVSPost2010Prop33
280
     0
102
RTVSPost2010PropOp33
 70
     1
102
RTVSPost2010Prop34
280
     0
102
RTVSPost2010PropOp34
 70
     1
102
RTVSPost2010Prop35
280
     0
102
RTVSPost2010PropOp35
 70
     1
102
RTVSPost2010Prop36
280
     0
102
RTVSPost2010PropOp36
 70
     1
102
RTVSPost2010Prop37
 90
       50
102
RTVSPost2010PropOp37
 70
     1
102
RTVSPost2010Prop38
140
0.0
102
RTVSPost2010PropOp38
 70
     1
102
RTVSPost2010Prop39
140
1.0
102
RTVSPost2010PropOp39
 70
     1
102
RTVSPost2010Prop40
 90
        0
102
RTVSPost2010PropOp40
 70
     1
102
RTVSPost2010Prop41ColorIndex
 90
       18
102
RTVSPost2010Prop41ColorRGB
 90
        0
102
RTVSPost2010PropOp41
 70
     1
102
RTVSPost2010Prop42
 90
       50
102
RTVSPost2010PropOp42
 70
     1
102
RTVSPost2010Prop43
 90
        3
102
RTVSPost2010PropOp43
 70
     1
102
RTVSPost2010Prop44ColorIndex
 90
        5
102
RTVSPost2010Prop44ColorRGB
 90
      255
102
RTVSPost2010PropOp44
 70
     1
102
RTVSPost2010Prop45
280
     0
102
RTVSPost2010PropOp45
 70
     1
102
RTVSPost2010Prop46
 90
       50
102
RTVSPost2010PropOp46
 70
     1
102
RTVSPost2010Prop47
 90
       50
102
RTVSPost2010PropOp47
 70
     1
102
RTVSPost2010Prop48
 90
       50
102
RTVSPost2010PropOp48
 70
     1
102
RTVSPost2010Prop49
280
     0
102
RTVSPost2010PropOp49
 70
     1
102
RTVSPost2010Prop50
 90
       50
102
RTVSPost2010PropOp50
 70
     1
102
RTVSPost2010Prop51ColorIndex
 90
      256
102
RTVSPost2010Prop51ColorRGB
 90
-16777216
102
RTVSPost2010PropOp51
 70
     0
102
RTVSPost2010Prop52
140
1.0
102
RTVSPost2010PropOp52
 70
     0
102
RTVSPost2010Prop53
 90
        2
102
RTVSPost2010PropOp53
 70
     1
102
RTVSPost2010Prop54
  1
strokes_ogs.tif
102
RTVSPost2010PropOp54
 70
     1
102
RTVSPost2010Prop55
280
     0
102
RTVSPost2010PropOp55
 70
     1
102
RTVSPost2010Prop56
140
1.0
102
RTVSPost2010PropOp56
 70
     1
102
RTVSPost2010Prop57
140
1.0
102
RTVSPost2010PropOp57
 70
     1
102
RTVSPropertyOp0
 70
     1
102
RTVSPropertyOp1
 70
     1
102
RTVSPropertyOp2
 70
     1
102
RTVSPropertyOp3
 70
     1
102
RTVSPropertyOp4
 70
     1
102
RTVSPropertyOp5
 70
     1
102
RTVSPropertyOp6
 70
     1
102
RTVSPropertyOp7
 70
     1
102
RTVSPropertyOp8
 70
     1
102
RTVSPropertyOp9
 70
     1
102
RTVSPropertyOp10
 70
     1
102
RTVSPropertyOp11
 70
     1
102
RTVSPropertyOp12
 70
     1
102
RTVSPropertyOp13
 70
     1
102
RTVSPropertyOp14
 70
     1
102
RTVSPropertyOp15
 70
     1
102
RTVSPropertyOp16
 70
     1
102
RTVSPropertyOp17
 70
     1
102
RTVSPropertyOp18
 70
     1
102
RTVSPropertyOp19
 70
     1
102
RTVSPropertyOp20
 70
     1
102
RTVSPropertyOp21
 70
     1
102
RTVSPropertyOp22
 70
     1
102
RTVSPropertyOp23
 70
     1
102
RTVSPropertyOp24
 70
     1
102
RTVSPropertyOp25
 70
     1
102
RTVSPropertyOp26
 70
     1
102
RTVSPropertyOp27
 70
     1
102
RTVSPropertyOp28
 70
     1
102
RTVSPropertyOp29
 70
     1
102
RTVSPropertyOp30
 70
     1
102
RTVSPropertyOp31
 70
     1
102
RTVSPropertyOp32
 70
     1
102
RTVSPropertyOp33
 70
     1
102
RTVSPropertyOp34
 70
     1
102
RTVSPropertyOp35
 70
     1
102
RTVSPropertyOp36
 70
     1
102
RTVSPropertyOp37
 70
     1
102
RTVSPropertyOp38
 70
     1
102
RTVSPropertyOp39
 70
     1
102
RTVSPropertyOp40
 70
     1
102
RTVSPropertyOp41
 70
     1
102
RTVSPropertyOp42
 70
     1
102
RTVSPropertyOp43
 70
     1
102
RTVSPropertyOp44
 70
     1
102
RTVSPropertyOp45
 70
     1
102
RTVSPropertyOp46
 70
     1
102
RTVSPropertyOp47
 70
     1
102
RTVSPropertyOp48
 70
     1
102
RTVSPropertyOp49
 70
     1
102
RTVSPropertyOp50
 70
     1
102
RTVSPropertyOp51
 70
     0
102
RTVSPropertyOp52
 70
     0
102
RTVSPropertyOp53
 70
     1
102
RTVSPropertyOp54
 70
     1
102
RTVSPropertyOp55
 70
     1
102
RTVSPropertyOp56
 70
     1
102
RTVSPropertyOp57
 70
     1
102
RTVSPropertyOp58
 70
     1
102
RTVSPropertyOp59
 70
     1
102
RTVSPropertyOp60
 70
     1
102
RTVSPropertyOp61
 70
     1
102
RTVSPropertyOp62
 70
     1
  0
XRECORD
  5
FAF5B
102
{ACAD_REACTORS
330
FAF5A
102
}
330
FAF5A
100
AcDbXrecord
280
     1
102
RTVSPost2010Prop28
280
     0
102
RTVSPost2010PropOp28
 70
     0
102
RTVSPost2010Prop29
280
     1
102
RTVSPost2010PropOp29
 70
     0
102
RTVSPost2010Prop30
280
     1
102
RTVSPost2010PropOp30
 70
     0
102
RTVSPost2010Prop31
280
     0
102
RTVSPost2010PropOp31
 70
     0
102
RTVSPost2010Prop32
280
     0
102
RTVSPost2010PropOp32
 70
     0
102
RTVSPost2010Prop33
280
     0
102
RTVSPost2010PropOp33
 70
     0
102
RTVSPost2010Prop34
280
     0
102
RTVSPost2010PropOp34
 70
     0
102
RTVSPost2010Prop35
280
     0
102
RTVSPost2010PropOp35
 70
     0
102
RTVSPost2010Prop36
280
     0
102
RTVSPost2010PropOp36
 70
     0
102
RTVSPost2010Prop37
 90
       50
102
RTVSPost2010PropOp37
 70
     0
102
RTVSPost2010Prop38
140
0.0
102
RTVSPost2010PropOp38
 70
     0
102
RTVSPost2010Prop39
140
1.0
102
RTVSPost2010PropOp39
 70
     0
102
RTVSPost2010Prop40
 90
        0
102
RTVSPost2010PropOp40
 70
     0
102
RTVSPost2010Prop41ColorIndex
 90
       18
102
RTVSPost2010Prop41ColorRGB
 90
        0
102
RTVSPost2010PropOp41
 70
     0
102
RTVSPost2010Prop42
 90
       50
102
RTVSPost2010PropOp42
 70
     0
102
RTVSPost2010Prop43
 90
        3
102
RTVSPost2010PropOp43
 70
     0
102
RTVSPost2010Prop44ColorIndex
 90
        5
102
RTVSPost2010Prop44ColorRGB
 90
      255
102
RTVSPost2010PropOp44
 70
     0
102
RTVSPost2010Prop45
280
     0
102
RTVSPost2010PropOp45
 70
     0
102
RTVSPost2010Prop46
 90
       50
102
RTVSPost2010PropOp46
 70
     0
102
RTVSPost2010Prop47
 90
       50
102
RTVSPost2010PropOp47
 70
     0
102
RTVSPost2010Prop48
 90
       50
102
RTVSPost2010PropOp48
 70
     0
102
RTVSPost2010Prop49
280
     0
102
RTVSPost2010PropOp49
 70
     0
102
RTVSPost2010Prop50
 90
       50
102
RTVSPost2010PropOp50
 70
     0
102
RTVSPost2010Prop51ColorIndex
 90
      256
102
RTVSPost2010Prop51ColorRGB
 90
-16777216
102
RTVSPost2010PropOp51
 70
     0
102
RTVSPost2010Prop52
140
1.0
102
RTVSPost2010PropOp52
 70
     0
102
RTVSPost2010Prop53
 90
        2
102
RTVSPost2010PropOp53
 70
     0
102
RTVSPost2010Prop54
  1
strokes_ogs.tif
102
RTVSPost2010PropOp54
 70
     0
102
RTVSPost2010Prop55
280
     0
102
RTVSPost2010PropOp55
 70
     0
102
RTVSPost2010Prop56
140
1.0
102
RTVSPost2010PropOp56
 70
     0
102
RTVSPost2010Prop57
140
1.0
102
RTVSPost2010PropOp57
 70
     0
102
RTVSPropertyOp0
 70
     0
102
RTVSPropertyOp1
 70
     0
102
RTVSPropertyOp2
 70
     0
102
RTVSPropertyOp3
 70
     0
102
RTVSPropertyOp4
 70
     0
102
RTVSPropertyOp5
 70
     0
102
RTVSPropertyOp6
 70
     0
102
RTVSPropertyOp7
 70
     0
102
RTVSPropertyOp8
 70
     0
102
RTVSPropertyOp9
 70
     0
102
RTVSPropertyOp10
 70
     0
102
RTVSPropertyOp11
 70
     0
102
RTVSPropertyOp12
 70
     0
102
RTVSPropertyOp13
 70
     0
102
RTVSPropertyOp14
 70
     2
102
RTVSPropertyOp15
 70
     0
102
RTVSPropertyOp16
 70
     0
102
RTVSPropertyOp17
 70
     0
102
RTVSPropertyOp18
 70
     0
102
RTVSPropertyOp19
 70
     0
102
RTVSPropertyOp20
 70
     0
102
RTVSPropertyOp21
 70
     0
102
RTVSPropertyOp22
 70
     0
102
RTVSPropertyOp23
 70
     0
102
RTVSPropertyOp24
 70
     0
102
RTVSPropertyOp25
 70
     0
102
RTVSPropertyOp26
 70
     0
102
RTVSPropertyOp27
 70
     0
102
RTVSPropertyOp28
 70
     0
102
RTVSPropertyOp29
 70
     0
102
RTVSPropertyOp30
 70
     0
102
RTVSPropertyOp31
 70
     0
102
RTVSPropertyOp32
 70
     0
102
RTVSPropertyOp33
 70
     0
102
RTVSPropertyOp34
 70
     0
102
RTVSPropertyOp35
 70
     0
102
RTVSPropertyOp36
 70
     0
102
RTVSPropertyOp37
 70
     0
102
RTVSPropertyOp38
 70
     0
102
RTVSPropertyOp39
 70
     0
102
RTVSPropertyOp40
 70
     0
102
RTVSPropertyOp41
 70
     0
102
RTVSPropertyOp42
 70
     0
102
RTVSPropertyOp43
 70
     0
102
RTVSPropertyOp44
 70
     0
102
RTVSPropertyOp45
 70
     0
102
RTVSPropertyOp46
 70
     0
102
RTVSPropertyOp47
 70
     0
102
RTVSPropertyOp48
 70
     0
102
RTVSPropertyOp49
 70
     0
102
RTVSPropertyOp50
 70
     0
102
RTVSPropertyOp51
 70
     0
102
RTVSPropertyOp52
 70
     0
102
RTVSPropertyOp53
 70
     0
102
RTVSPropertyOp54
 70
     0
102
RTVSPropertyOp55
 70
     0
102
RTVSPropertyOp56
 70
     0
102
RTVSPropertyOp57
 70
     0
102
RTVSPropertyOp58
 70
     0
102
RTVSPropertyOp59
 70
     0
102
RTVSPropertyOp60
 70
     0
102
RTVSPropertyOp61
 70
     0
102
RTVSPropertyOp62
 70
     0
  0
XRECORD
  5
FAF49
102
{ACAD_REACTORS
330
FAF48
102
}
330
FAF48
100
AcDbXrecord
280
     1
102
RTVSPost2010Prop28
280
     0
102
RTVSPost2010PropOp28
 70
     1
102
RTVSPost2010Prop29
280
     1
102
RTVSPost2010PropOp29
 70
     1
102
RTVSPost2010Prop30
280
     1
102
RTVSPost2010PropOp30
 70
     1
102
RTVSPost2010Prop31
280
     0
102
RTVSPost2010PropOp31
 70
     1
102
RTVSPost2010Prop32
280
     0
102
RTVSPost2010PropOp32
 70
     1
102
RTVSPost2010Prop33
280
     0
102
RTVSPost2010PropOp33
 70
     1
102
RTVSPost2010Prop34
280
     0
102
RTVSPost2010PropOp34
 70
     1
102
RTVSPost2010Prop35
280
     0
102
RTVSPost2010PropOp35
 70
     1
102
RTVSPost2010Prop36
280
     0
102
RTVSPost2010PropOp36
 70
     1
102
RTVSPost2010Prop37
 90
       50
102
RTVSPost2010PropOp37
 70
     1
102
RTVSPost2010Prop38
140
0.0
102
RTVSPost2010PropOp38
 70
     1
102
RTVSPost2010Prop39
140
1.0
102
RTVSPost2010PropOp39
 70
     1
102
RTVSPost2010Prop40
 90
        0
102
RTVSPost2010PropOp40
 70
     1
102
RTVSPost2010Prop41ColorIndex
 90
       18
102
RTVSPost2010Prop41ColorRGB
 90
        0
102
RTVSPost2010PropOp41
 70
     1
102
RTVSPost2010Prop42
 90
       50
102
RTVSPost2010PropOp42
 70
     1
102
RTVSPost2010Prop43
 90
        3
102
RTVSPost2010PropOp43
 70
     1
102
RTVSPost2010Prop44ColorIndex
 90
        5
102
RTVSPost2010Prop44ColorRGB
 90
      255
102
RTVSPost2010PropOp44
 70
     1
102
RTVSPost2010Prop45
280
     0
102
RTVSPost2010PropOp45
 70
     1
102
RTVSPost2010Prop46
 90
       50
102
RTVSPost2010PropOp46
 70
     1
102
RTVSPost2010Prop47
 90
       50
102
RTVSPost2010PropOp47
 70
     1
102
RTVSPost2010Prop48
 90
       50
102
RTVSPost2010PropOp48
 70
     1
102
RTVSPost2010Prop49
280
     0
102
RTVSPost2010PropOp49
 70
     1
102
RTVSPost2010Prop50
 90
       50
102
RTVSPost2010PropOp50
 70
     1
102
RTVSPost2010Prop51ColorIndex
 90
      256
102
RTVSPost2010Prop51ColorRGB
 90
-16777216
102
RTVSPost2010PropOp51
 70
     0
102
RTVSPost2010Prop52
140
1.0
102
RTVSPost2010PropOp52
 70
     0
102
RTVSPost2010Prop53
 90
        2
102
RTVSPost2010PropOp53
 70
     1
102
RTVSPost2010Prop54
  1
strokes_ogs.tif
102
RTVSPost2010PropOp54
 70
     1
102
RTVSPost2010Prop55
280
     0
102
RTVSPost2010PropOp55
 70
     1
102
RTVSPost2010Prop56
140
1.0
102
RTVSPost2010PropOp56
 70
     1
102
RTVSPost2010Prop57
140
1.0
102
RTVSPost2010PropOp57
 70
     1
102
RTVSPropertyOp0
 70
     1
102
RTVSPropertyOp1
 70
     1
102
RTVSPropertyOp2
 70
     1
102
RTVSPropertyOp3
 70
     1
102
RTVSPropertyOp4
 70
     1
102
RTVSPropertyOp5
 70
     1
102
RTVSPropertyOp6
 70
     1
102
RTVSPropertyOp7
 70
     1
102
RTVSPropertyOp8
 70
     1
102
RTVSPropertyOp9
 70
     1
102
RTVSPropertyOp10
 70
     1
102
RTVSPropertyOp11
 70
     1
102
RTVSPropertyOp12
 70
     1
102
RTVSPropertyOp13
 70
     1
102
RTVSPropertyOp14
 70
     1
102
RTVSPropertyOp15
 70
     1
102
RTVSPropertyOp16
 70
     1
102
RTVSPropertyOp17
 70
     1
102
RTVSPropertyOp18
 70
     1
102
RTVSPropertyOp19
 70
     1
102
RTVSPropertyOp20
 70
     1
102
RTVSPropertyOp21
 70
     1
102
RTVSPropertyOp22
 70
     1
102
RTVSPropertyOp23
 70
     1
102
RTVSPropertyOp24
 70
     1
102
RTVSPropertyOp25
 70
     1
102
RTVSPropertyOp26
 70
     1
102
RTVSPropertyOp27
 70
     1
102
RTVSPropertyOp28
 70
     1
102
RTVSPropertyOp29
 70
     1
102
RTVSPropertyOp30
 70
     1
102
RTVSPropertyOp31
 70
     1
102
RTVSPropertyOp32
 70
     1
102
RTVSPropertyOp33
 70
     1
102
RTVSPropertyOp34
 70
     1
102
RTVSPropertyOp35
 70
     1
102
RTVSPropertyOp36
 70
     1
102
RTVSPropertyOp37
 70
     1
102
RTVSPropertyOp38
 70
     1
102
RTVSPropertyOp39
 70
     1
102
RTVSPropertyOp40
 70
     1
102
RTVSPropertyOp41
 70
     1
102
RTVSPropertyOp42
 70
     1
102
RTVSPropertyOp43
 70
     1
102
RTVSPropertyOp44
 70
     1
102
RTVSPropertyOp45
 70
     1
102
RTVSPropertyOp46
 70
     1
102
RTVSPropertyOp47
 70
     1
102
RTVSPropertyOp48
 70
     1
102
RTVSPropertyOp49
 70
     1
102
RTVSPropertyOp50
 70
     1
102
RTVSPropertyOp51
 70
     0
102
RTVSPropertyOp52
 70
     0
102
RTVSPropertyOp53
 70
     1
102
RTVSPropertyOp54
 70
     1
102
RTVSPropertyOp55
 70
     1
102
RTVSPropertyOp56
 70
     1
102
RTVSPropertyOp57
 70
     1
102
RTVSPropertyOp58
 70
     1
102
RTVSPropertyOp59
 70
     1
102
RTVSPropertyOp60
 70
     1
102
RTVSPropertyOp61
 70
     1
102
RTVSPropertyOp62
 70
     1
  0
XRECORD
  5
FAF2D
102
{ACAD_REACTORS
330
FAF2C
102
}
330
FAF2C
100
AcDbXrecord
280
     1
102
RTVSPost2010Prop28
280
     0
102
RTVSPost2010PropOp28
 70
     1
102
RTVSPost2010Prop29
280
     1
102
RTVSPost2010PropOp29
 70
     1
102
RTVSPost2010Prop30
280
     1
102
RTVSPost2010PropOp30
 70
     1
102
RTVSPost2010Prop31
280
     0
102
RTVSPost2010PropOp31
 70
     1
102
RTVSPost2010Prop32
280
     0
102
RTVSPost2010PropOp32
 70
     1
102
RTVSPost2010Prop33
280
     0
102
RTVSPost2010PropOp33
 70
     1
102
RTVSPost2010Prop34
280
     0
102
RTVSPost2010PropOp34
 70
     1
102
RTVSPost2010Prop35
280
     0
102
RTVSPost2010PropOp35
 70
     1
102
RTVSPost2010Prop36
280
     0
102
RTVSPost2010PropOp36
 70
     1
102
RTVSPost2010Prop37
 90
       50
102
RTVSPost2010PropOp37
 70
     1
102
RTVSPost2010Prop38
140
0.0
102
RTVSPost2010PropOp38
 70
     1
102
RTVSPost2010Prop39
140
1.0
102
RTVSPost2010PropOp39
 70
     1
102
RTVSPost2010Prop40
 90
        0
102
RTVSPost2010PropOp40
 70
     1
102
RTVSPost2010Prop41ColorIndex
 90
       18
102
RTVSPost2010Prop41ColorRGB
 90
        0
102
RTVSPost2010PropOp41
 70
     1
102
RTVSPost2010Prop42
 90
       50
102
RTVSPost2010PropOp42
 70
     1
102
RTVSPost2010Prop43
 90
        3
102
RTVSPost2010PropOp43
 70
     1
102
RTVSPost2010Prop44ColorIndex
 90
        5
102
RTVSPost2010Prop44ColorRGB
 90
      255
102
RTVSPost2010PropOp44
 70
     1
102
RTVSPost2010Prop45
280
     0
102
RTVSPost2010PropOp45
 70
     1
102
RTVSPost2010Prop46
 90
       50
102
RTVSPost2010PropOp46
 70
     1
102
RTVSPost2010Prop47
 90
       50
102
RTVSPost2010PropOp47
 70
     1
102
RTVSPost2010Prop48
 90
       50
102
RTVSPost2010PropOp48
 70
     1
102
RTVSPost2010Prop49
280
     0
102
RTVSPost2010PropOp49
 70
     1
102
RTVSPost2010Prop50
 90
       50
102
RTVSPost2010PropOp50
 70
     1
102
RTVSPost2010Prop51ColorIndex
 90
      256
102
RTVSPost2010Prop51ColorRGB
 90
-16777216
102
RTVSPost2010PropOp51
 70
     0
102
RTVSPost2010Prop52
140
1.0
102
RTVSPost2010PropOp52
 70
     0
102
RTVSPost2010Prop53
 90
        2
102
RTVSPost2010PropOp53
 70
     1
102
RTVSPost2010Prop54
  1
strokes_ogs.tif
102
RTVSPost2010PropOp54
 70
     1
102
RTVSPost2010Prop55
280
     0
102
RTVSPost2010PropOp55
 70
     1
102
RTVSPost2010Prop56
140
1.0
102
RTVSPost2010PropOp56
 70
     1
102
RTVSPost2010Prop57
140
1.0
102
RTVSPost2010PropOp57
 70
     1
102
RTVSPropertyOp0
 70
     1
102
RTVSPropertyOp1
 70
     1
102
RTVSPropertyOp2
 70
     1
102
RTVSPropertyOp3
 70
     1
102
RTVSPropertyOp4
 70
     1
102
RTVSPropertyOp5
 70
     1
102
RTVSPropertyOp6
 70
     1
102
RTVSPropertyOp7
 70
     1
102
RTVSPropertyOp8
 70
     1
102
RTVSPropertyOp9
 70
     1
102
RTVSPropertyOp10
 70
     1
102
RTVSPropertyOp11
 70
     1
102
RTVSPropertyOp12
 70
     1
102
RTVSPropertyOp13
 70
     1
102
RTVSPropertyOp14
 70
     1
102
RTVSPropertyOp15
 70
     1
102
RTVSPropertyOp16
 70
     1
102
RTVSPropertyOp17
 70
     1
102
RTVSPropertyOp18
 70
     1
102
RTVSPropertyOp19
 70
     1
102
RTVSPropertyOp20
 70
     1
102
RTVSPropertyOp21
 70
     1
102
RTVSPropertyOp22
 70
     1
102
RTVSPropertyOp23
 70
     1
102
RTVSPropertyOp24
 70
     1
102
RTVSPropertyOp25
 70
     1
102
RTVSPropertyOp26
 70
     1
102
RTVSPropertyOp27
 70
     1
102
RTVSPropertyOp28
 70
     1
102
RTVSPropertyOp29
 70
     1
102
RTVSPropertyOp30
 70
     1
102
RTVSPropertyOp31
 70
     1
102
RTVSPropertyOp32
 70
     1
102
RTVSPropertyOp33
 70
     1
102
RTVSPropertyOp34
 70
     1
102
RTVSPropertyOp35
 70
     1
102
RTVSPropertyOp36
 70
     1
102
RTVSPropertyOp37
 70
     1
102
RTVSPropertyOp38
 70
     1
102
RTVSPropertyOp39
 70
     1
102
RTVSPropertyOp40
 70
     1
102
RTVSPropertyOp41
 70
     1
102
RTVSPropertyOp42
 70
     1
102
RTVSPropertyOp43
 70
     1
102
RTVSPropertyOp44
 70
     1
102
RTVSPropertyOp45
 70
     1
102
RTVSPropertyOp46
 70
     1
102
RTVSPropertyOp47
 70
     1
102
RTVSPropertyOp48
 70
     1
102
RTVSPropertyOp49
 70
     1
102
RTVSPropertyOp50
 70
     1
102
RTVSPropertyOp51
 70
     0
102
RTVSPropertyOp52
 70
     0
102
RTVSPropertyOp53
 70
     1
102
RTVSPropertyOp54
 70
     1
102
RTVSPropertyOp55
 70
     1
102
RTVSPropertyOp56
 70
     1
102
RTVSPropertyOp57
 70
     1
102
RTVSPropertyOp58
 70
     1
102
RTVSPropertyOp59
 70
     1
102
RTVSPropertyOp60
 70
     1
102
RTVSPropertyOp61
 70
     1
102
RTVSPropertyOp62
 70
     1
  0
XRECORD
  5
FAF2F
102
{ACAD_REACTORS
330
FAF2E
102
}
330
FAF2E
100
AcDbXrecord
280
     1
102
RTVSPost2010Prop28
280
     0
102
RTVSPost2010PropOp28
 70
     1
102
RTVSPost2010Prop29
280
     1
102
RTVSPost2010PropOp29
 70
     1
102
RTVSPost2010Prop30
280
     1
102
RTVSPost2010PropOp30
 70
     1
102
RTVSPost2010Prop31
280
     0
102
RTVSPost2010PropOp31
 70
     1
102
RTVSPost2010Prop32
280
     0
102
RTVSPost2010PropOp32
 70
     1
102
RTVSPost2010Prop33
280
     0
102
RTVSPost2010PropOp33
 70
     1
102
RTVSPost2010Prop34
280
     0
102
RTVSPost2010PropOp34
 70
     1
102
RTVSPost2010Prop35
280
     0
102
RTVSPost2010PropOp35
 70
     1
102
RTVSPost2010Prop36
280
     0
102
RTVSPost2010PropOp36
 70
     1
102
RTVSPost2010Prop37
 90
       50
102
RTVSPost2010PropOp37
 70
     1
102
RTVSPost2010Prop38
140
0.0
102
RTVSPost2010PropOp38
 70
     1
102
RTVSPost2010Prop39
140
1.0
102
RTVSPost2010PropOp39
 70
     1
102
RTVSPost2010Prop40
 90
        0
102
RTVSPost2010PropOp40
 70
     1
102
RTVSPost2010Prop41ColorIndex
 90
       18
102
RTVSPost2010Prop41ColorRGB
 90
        0
102
RTVSPost2010PropOp41
 70
     1
102
RTVSPost2010Prop42
 90
       50
102
RTVSPost2010PropOp42
 70
     1
102
RTVSPost2010Prop43
 90
        3
102
RTVSPost2010PropOp43
 70
     1
102
RTVSPost2010Prop44ColorIndex
 90
        5
102
RTVSPost2010Prop44ColorRGB
 90
      255
102
RTVSPost2010PropOp44
 70
     1
102
RTVSPost2010Prop45
280
     0
102
RTVSPost2010PropOp45
 70
     1
102
RTVSPost2010Prop46
 90
       50
102
RTVSPost2010PropOp46
 70
     1
102
RTVSPost2010Prop47
 90
       50
102
RTVSPost2010PropOp47
 70
     1
102
RTVSPost2010Prop48
 90
       50
102
RTVSPost2010PropOp48
 70
     1
102
RTVSPost2010Prop49
280
     0
102
RTVSPost2010PropOp49
 70
     1
102
RTVSPost2010Prop50
 90
       50
102
RTVSPost2010PropOp50
 70
     1
102
RTVSPost2010Prop51ColorIndex
 90
      256
102
RTVSPost2010Prop51ColorRGB
 90
-16777216
102
RTVSPost2010PropOp51
 70
     0
102
RTVSPost2010Prop52
140
1.0
102
RTVSPost2010PropOp52
 70
     0
102
RTVSPost2010Prop53
 90
        2
102
RTVSPost2010PropOp53
 70
     1
102
RTVSPost2010Prop54
  1
strokes_ogs.tif
102
RTVSPost2010PropOp54
 70
     1
102
RTVSPost2010Prop55
280
     0
102
RTVSPost2010PropOp55
 70
     1
102
RTVSPost2010Prop56
140
1.0
102
RTVSPost2010PropOp56
 70
     1
102
RTVSPost2010Prop57
140
1.0
102
RTVSPost2010PropOp57
 70
     1
102
RTVSPropertyOp0
 70
     1
102
RTVSPropertyOp1
 70
     1
102
RTVSPropertyOp2
 70
     1
102
RTVSPropertyOp3
 70
     1
102
RTVSPropertyOp4
 70
     1
102
RTVSPropertyOp5
 70
     1
102
RTVSPropertyOp6
 70
     1
102
RTVSPropertyOp7
 70
     1
102
RTVSPropertyOp8
 70
     1
102
RTVSPropertyOp9
 70
     1
102
RTVSPropertyOp10
 70
     1
102
RTVSPropertyOp11
 70
     1
102
RTVSPropertyOp12
 70
     1
102
RTVSPropertyOp13
 70
     1
102
RTVSPropertyOp14
 70
     1
102
RTVSPropertyOp15
 70
     1
102
RTVSPropertyOp16
 70
     1
102
RTVSPropertyOp17
 70
     1
102
RTVSPropertyOp18
 70
     1
102
RTVSPropertyOp19
 70
     1
102
RTVSPropertyOp20
 70
     1
102
RTVSPropertyOp21
 70
     1
102
RTVSPropertyOp22
 70
     1
102
RTVSPropertyOp23
 70
     1
102
RTVSPropertyOp24
 70
     1
102
RTVSPropertyOp25
 70
     1
102
RTVSPropertyOp26
 70
     1
102
RTVSPropertyOp27
 70
     1
102
RTVSPropertyOp28
 70
     1
102
RTVSPropertyOp29
 70
     1
102
RTVSPropertyOp30
 70
     1
102
RTVSPropertyOp31
 70
     1
102
RTVSPropertyOp32
 70
     1
102
RTVSPropertyOp33
 70
     1
102
RTVSPropertyOp34
 70
     1
102
RTVSPropertyOp35
 70
     1
102
RTVSPropertyOp36
 70
     1
102
RTVSPropertyOp37
 70
     1
102
RTVSPropertyOp38
 70
     1
102
RTVSPropertyOp39
 70
     1
102
RTVSPropertyOp40
 70
     1
102
RTVSPropertyOp41
 70
     1
102
RTVSPropertyOp42
 70
     1
102
RTVSPropertyOp43
 70
     1
102
RTVSPropertyOp44
 70
     1
102
RTVSPropertyOp45
 70
     1
102
RTVSPropertyOp46
 70
     1
102
RTVSPropertyOp47
 70
     1
102
RTVSPropertyOp48
 70
     1
102
RTVSPropertyOp49
 70
     1
102
RTVSPropertyOp50
 70
     1
102
RTVSPropertyOp51
 70
     0
102
RTVSPropertyOp52
 70
     0
102
RTVSPropertyOp53
 70
     1
102
RTVSPropertyOp54
 70
     1
102
RTVSPropertyOp55
 70
     1
102
RTVSPropertyOp56
 70
     1
102
RTVSPropertyOp57
 70
     1
102
RTVSPropertyOp58
 70
     1
102
RTVSPropertyOp59
 70
     1
102
RTVSPropertyOp60
 70
     1
102
RTVSPropertyOp61
 70
     1
102
RTVSPropertyOp62
 70
     1
  0
XRECORD
  5
FAF31
102
{ACAD_REACTORS
330
FAF30
102
}
330
FAF30
100
AcDbXrecord
280
     1
102
RTVSPost2010Prop28
280
     0
102
RTVSPost2010PropOp28
 70
     1
102
RTVSPost2010Prop29
280
     1
102
RTVSPost2010PropOp29
 70
     1
102
RTVSPost2010Prop30
280
     1
102
RTVSPost2010PropOp30
 70
     1
102
RTVSPost2010Prop31
280
     0
102
RTVSPost2010PropOp31
 70
     1
102
RTVSPost2010Prop32
280
     0
102
RTVSPost2010PropOp32
 70
     1
102
RTVSPost2010Prop33
280
     0
102
RTVSPost2010PropOp33
 70
     1
102
RTVSPost2010Prop34
280
     0
102
RTVSPost2010PropOp34
 70
     1
102
RTVSPost2010Prop35
280
     0
102
RTVSPost2010PropOp35
 70
     1
102
RTVSPost2010Prop36
280
     0
102
RTVSPost2010PropOp36
 70
     1
102
RTVSPost2010Prop37
 90
       50
102
RTVSPost2010PropOp37
 70
     1
102
RTVSPost2010Prop38
140
0.0
102
RTVSPost2010PropOp38
 70
     1
102
RTVSPost2010Prop39
140
1.0
102
RTVSPost2010PropOp39
 70
     1
102
RTVSPost2010Prop40
 90
        0
102
RTVSPost2010PropOp40
 70
     1
102
RTVSPost2010Prop41ColorIndex
 90
       18
102
RTVSPost2010Prop41ColorRGB
 90
        0
102
RTVSPost2010PropOp41
 70
     1
102
RTVSPost2010Prop42
 90
       50
102
RTVSPost2010PropOp42
 70
     1
102
RTVSPost2010Prop43
 90
        3
102
RTVSPost2010PropOp43
 70
     1
102
RTVSPost2010Prop44ColorIndex
 90
        5
102
RTVSPost2010Prop44ColorRGB
 90
      255
102
RTVSPost2010PropOp44
 70
     1
102
RTVSPost2010Prop45
280
     0
102
RTVSPost2010PropOp45
 70
     1
102
RTVSPost2010Prop46
 90
       50
102
RTVSPost2010PropOp46
 70
     1
102
RTVSPost2010Prop47
 90
       50
102
RTVSPost2010PropOp47
 70
     1
102
RTVSPost2010Prop48
 90
       50
102
RTVSPost2010PropOp48
 70
     1
102
RTVSPost2010Prop49
280
     0
102
RTVSPost2010PropOp49
 70
     1
102
RTVSPost2010Prop50
 90
       50
102
RTVSPost2010PropOp50
 70
     1
102
RTVSPost2010Prop51ColorIndex
 90
      256
102
RTVSPost2010Prop51ColorRGB
 90
-16777216
102
RTVSPost2010PropOp51
 70
     0
102
RTVSPost2010Prop52
140
1.0
102
RTVSPost2010PropOp52
 70
     0
102
RTVSPost2010Prop53
 90
        2
102
RTVSPost2010PropOp53
 70
     1
102
RTVSPost2010Prop54
  1
strokes_ogs.tif
102
RTVSPost2010PropOp54
 70
     1
102
RTVSPost2010Prop55
280
     0
102
RTVSPost2010PropOp55
 70
     1
102
RTVSPost2010Prop56
140
1.0
102
RTVSPost2010PropOp56
 70
     1
102
RTVSPost2010Prop57
140
1.0
102
RTVSPost2010PropOp57
 70
     1
102
RTVSPropertyOp0
 70
     1
102
RTVSPropertyOp1
 70
     1
102
RTVSPropertyOp2
 70
     1
102
RTVSPropertyOp3
 70
     1
102
RTVSPropertyOp4
 70
     1
102
RTVSPropertyOp5
 70
     1
102
RTVSPropertyOp6
 70
     1
102
RTVSPropertyOp7
 70
     1
102
RTVSPropertyOp8
 70
     1
102
RTVSPropertyOp9
 70
     1
102
RTVSPropertyOp10
 70
     1
102
RTVSPropertyOp11
 70
     1
102
RTVSPropertyOp12
 70
     1
102
RTVSPropertyOp13
 70
     1
102
RTVSPropertyOp14
 70
     1
102
RTVSPropertyOp15
 70
     1
102
RTVSPropertyOp16
 70
     1
102
RTVSPropertyOp17
 70
     1
102
RTVSPropertyOp18
 70
     1
102
RTVSPropertyOp19
 70
     1
102
RTVSPropertyOp20
 70
     1
102
RTVSPropertyOp21
 70
     1
102
RTVSPropertyOp22
 70
     1
102
RTVSPropertyOp23
 70
     1
102
RTVSPropertyOp24
 70
     1
102
RTVSPropertyOp25
 70
     1
102
RTVSPropertyOp26
 70
     1
102
RTVSPropertyOp27
 70
     1
102
RTVSPropertyOp28
 70
     1
102
RTVSPropertyOp29
 70
     1
102
RTVSPropertyOp30
 70
     1
102
RTVSPropertyOp31
 70
     1
102
RTVSPropertyOp32
 70
     1
102
RTVSPropertyOp33
 70
     1
102
RTVSPropertyOp34
 70
     1
102
RTVSPropertyOp35
 70
     1
102
RTVSPropertyOp36
 70
     1
102
RTVSPropertyOp37
 70
     1
102
RTVSPropertyOp38
 70
     1
102
RTVSPropertyOp39
 70
     1
102
RTVSPropertyOp40
 70
     1
102
RTVSPropertyOp41
 70
     1
102
RTVSPropertyOp42
 70
     1
102
RTVSPropertyOp43
 70
     1
102
RTVSPropertyOp44
 70
     1
102
RTVSPropertyOp45
 70
     1
102
RTVSPropertyOp46
 70
     1
102
RTVSPropertyOp47
 70
     1
102
RTVSPropertyOp48
 70
     1
102
RTVSPropertyOp49
 70
     1
102
RTVSPropertyOp50
 70
     1
102
RTVSPropertyOp51
 70
     0
102
RTVSPropertyOp52
 70
     0
102
RTVSPropertyOp53
 70
     1
102
RTVSPropertyOp54
 70
     1
102
RTVSPropertyOp55
 70
     1
102
RTVSPropertyOp56
 70
     1
102
RTVSPropertyOp57
 70
     1
102
RTVSPropertyOp58
 70
     1
102
RTVSPropertyOp59
 70
     1
102
RTVSPropertyOp60
 70
     1
102
RTVSPropertyOp61
 70
     1
102
RTVSPropertyOp62
 70
     1
  0
XRECORD
  5
FAF33
102
{ACAD_REACTORS
330
FAF32
102
}
330
FAF32
100
AcDbXrecord
280
     1
102
RTVSPost2010Prop28
280
     0
102
RTVSPost2010PropOp28
 70
     1
102
RTVSPost2010Prop29
280
     1
102
RTVSPost2010PropOp29
 70
     1
102
RTVSPost2010Prop30
280
     1
102
RTVSPost2010PropOp30
 70
     1
102
RTVSPost2010Prop31
280
     0
102
RTVSPost2010PropOp31
 70
     1
102
RTVSPost2010Prop32
280
     0
102
RTVSPost2010PropOp32
 70
     1
102
RTVSPost2010Prop33
280
     0
102
RTVSPost2010PropOp33
 70
     1
102
RTVSPost2010Prop34
280
     0
102
RTVSPost2010PropOp34
 70
     1
102
RTVSPost2010Prop35
280
     0
102
RTVSPost2010PropOp35
 70
     1
102
RTVSPost2010Prop36
280
     0
102
RTVSPost2010PropOp36
 70
     1
102
RTVSPost2010Prop37
 90
       50
102
RTVSPost2010PropOp37
 70
     1
102
RTVSPost2010Prop38
140
0.0
102
RTVSPost2010PropOp38
 70
     1
102
RTVSPost2010Prop39
140
1.0
102
RTVSPost2010PropOp39
 70
     1
102
RTVSPost2010Prop40
 90
        0
102
RTVSPost2010PropOp40
 70
     1
102
RTVSPost2010Prop41ColorIndex
 90
       18
102
RTVSPost2010Prop41ColorRGB
 90
        0
102
RTVSPost2010PropOp41
 70
     1
102
RTVSPost2010Prop42
 90
       50
102
RTVSPost2010PropOp42
 70
     1
102
RTVSPost2010Prop43
 90
        3
102
RTVSPost2010PropOp43
 70
     1
102
RTVSPost2010Prop44ColorIndex
 90
        5
102
RTVSPost2010Prop44ColorRGB
 90
      255
102
RTVSPost2010PropOp44
 70
     1
102
RTVSPost2010Prop45
280
     0
102
RTVSPost2010PropOp45
 70
     1
102
RTVSPost2010Prop46
 90
       50
102
RTVSPost2010PropOp46
 70
     1
102
RTVSPost2010Prop47
 90
       50
102
RTVSPost2010PropOp47
 70
     1
102
RTVSPost2010Prop48
 90
       50
102
RTVSPost2010PropOp48
 70
     1
102
RTVSPost2010Prop49
280
     0
102
RTVSPost2010PropOp49
 70
     1
102
RTVSPost2010Prop50
 90
       50
102
RTVSPost2010PropOp50
 70
     1
102
RTVSPost2010Prop51ColorIndex
 90
      256
102
RTVSPost2010Prop51ColorRGB
 90
-16777216
102
RTVSPost2010PropOp51
 70
     0
102
RTVSPost2010Prop52
140
1.0
102
RTVSPost2010PropOp52
 70
     0
102
RTVSPost2010Prop53
 90
        2
102
RTVSPost2010PropOp53
 70
     1
102
RTVSPost2010Prop54
  1
strokes_ogs.tif
102
RTVSPost2010PropOp54
 70
     1
102
RTVSPost2010Prop55
280
     0
102
RTVSPost2010PropOp55
 70
     1
102
RTVSPost2010Prop56
140
1.0
102
RTVSPost2010PropOp56
 70
     1
102
RTVSPost2010Prop57
140
1.0
102
RTVSPost2010PropOp57
 70
     1
102
RTVSPropertyOp0
 70
     1
102
RTVSPropertyOp1
 70
     1
102
RTVSPropertyOp2
 70
     1
102
RTVSPropertyOp3
 70
     1
102
RTVSPropertyOp4
 70
     1
102
RTVSPropertyOp5
 70
     1
102
RTVSPropertyOp6
 70
     1
102
RTVSPropertyOp7
 70
     1
102
RTVSPropertyOp8
 70
     1
102
RTVSPropertyOp9
 70
     1
102
RTVSPropertyOp10
 70
     1
102
RTVSPropertyOp11
 70
     1
102
RTVSPropertyOp12
 70
     1
102
RTVSPropertyOp13
 70
     1
102
RTVSPropertyOp14
 70
     1
102
RTVSPropertyOp15
 70
     1
102
RTVSPropertyOp16
 70
     1
102
RTVSPropertyOp17
 70
     1
102
RTVSPropertyOp18
 70
     1
102
RTVSPropertyOp19
 70
     1
102
RTVSPropertyOp20
 70
     1
102
RTVSPropertyOp21
 70
     1
102
RTVSPropertyOp22
 70
     1
102
RTVSPropertyOp23
 70
     1
102
RTVSPropertyOp24
 70
     1
102
RTVSPropertyOp25
 70
     1
102
RTVSPropertyOp26
 70
     1
102
RTVSPropertyOp27
 70
     1
102
RTVSPropertyOp28
 70
     1
102
RTVSPropertyOp29
 70
     1
102
RTVSPropertyOp30
 70
     1
102
RTVSPropertyOp31
 70
     1
102
RTVSPropertyOp32
 70
     1
102
RTVSPropertyOp33
 70
     1
102
RTVSPropertyOp34
 70
     1
102
RTVSPropertyOp35
 70
     1
102
RTVSPropertyOp36
 70
     1
102
RTVSPropertyOp37
 70
     1
102
RTVSPropertyOp38
 70
     1
102
RTVSPropertyOp39
 70
     1
102
RTVSPropertyOp40
 70
     1
102
RTVSPropertyOp41
 70
     1
102
RTVSPropertyOp42
 70
     1
102
RTVSPropertyOp43
 70
     1
102
RTVSPropertyOp44
 70
     1
102
RTVSPropertyOp45
 70
     1
102
RTVSPropertyOp46
 70
     1
102
RTVSPropertyOp47
 70
     1
102
RTVSPropertyOp48
 70
     1
102
RTVSPropertyOp49
 70
     1
102
RTVSPropertyOp50
 70
     1
102
RTVSPropertyOp51
 70
     0
102
RTVSPropertyOp52
 70
     0
102
RTVSPropertyOp53
 70
     1
102
RTVSPropertyOp54
 70
     1
102
RTVSPropertyOp55
 70
     1
102
RTVSPropertyOp56
 70
     1
102
RTVSPropertyOp57
 70
     1
102
RTVSPropertyOp58
 70
     1
102
RTVSPropertyOp59
 70
     1
102
RTVSPropertyOp60
 70
     1
102
RTVSPropertyOp61
 70
     1
102
RTVSPropertyOp62
 70
     1
  0
XRECORD
  5
FAF3B
102
{ACAD_REACTORS
330
FAF3A
102
}
330
FAF3A
100
AcDbXrecord
280
     1
102
RTVSPost2010Prop28
280
     0
102
RTVSPost2010PropOp28
 70
     1
102
RTVSPost2010Prop29
280
     1
102
RTVSPost2010PropOp29
 70
     1
102
RTVSPost2010Prop30
280
     1
102
RTVSPost2010PropOp30
 70
     1
102
RTVSPost2010Prop31
280
     0
102
RTVSPost2010PropOp31
 70
     1
102
RTVSPost2010Prop32
280
     0
102
RTVSPost2010PropOp32
 70
     1
102
RTVSPost2010Prop33
280
     0
102
RTVSPost2010PropOp33
 70
     1
102
RTVSPost2010Prop34
280
     0
102
RTVSPost2010PropOp34
 70
     1
102
RTVSPost2010Prop35
280
     0
102
RTVSPost2010PropOp35
 70
     1
102
RTVSPost2010Prop36
280
     0
102
RTVSPost2010PropOp36
 70
     1
102
RTVSPost2010Prop37
 90
       50
102
RTVSPost2010PropOp37
 70
     1
102
RTVSPost2010Prop38
140
0.0
102
RTVSPost2010PropOp38
 70
     1
102
RTVSPost2010Prop39
140
1.0
102
RTVSPost2010PropOp39
 70
     1
102
RTVSPost2010Prop40
 90
        0
102
RTVSPost2010PropOp40
 70
     1
102
RTVSPost2010Prop41ColorIndex
 90
       18
102
RTVSPost2010Prop41ColorRGB
 90
        0
102
RTVSPost2010PropOp41
 70
     1
102
RTVSPost2010Prop42
 90
       50
102
RTVSPost2010PropOp42
 70
     1
102
RTVSPost2010Prop43
 90
        3
102
RTVSPost2010PropOp43
 70
     1
102
RTVSPost2010Prop44ColorIndex
 90
        5
102
RTVSPost2010Prop44ColorRGB
 90
      255
102
RTVSPost2010PropOp44
 70
     1
102
RTVSPost2010Prop45
280
     0
102
RTVSPost2010PropOp45
 70
     1
102
RTVSPost2010Prop46
 90
       50
102
RTVSPost2010PropOp46
 70
     1
102
RTVSPost2010Prop47
 90
       50
102
RTVSPost2010PropOp47
 70
     1
102
RTVSPost2010Prop48
 90
       50
102
RTVSPost2010PropOp48
 70
     1
102
RTVSPost2010Prop49
280
     0
102
RTVSPost2010PropOp49
 70
     1
102
RTVSPost2010Prop50
 90
       50
102
RTVSPost2010PropOp50
 70
     1
102
RTVSPost2010Prop51ColorIndex
 90
      256
102
RTVSPost2010Prop51ColorRGB
 90
-16777216
102
RTVSPost2010PropOp51
 70
     0
102
RTVSPost2010Prop52
140
1.0
102
RTVSPost2010PropOp52
 70
     0
102
RTVSPost2010Prop53
 90
        2
102
RTVSPost2010PropOp53
 70
     1
102
RTVSPost2010Prop54
  1
strokes_ogs.tif
102
RTVSPost2010PropOp54
 70
     1
102
RTVSPost2010Prop55
280
     0
102
RTVSPost2010PropOp55
 70
     1
102
RTVSPost2010Prop56
140
1.0
102
RTVSPost2010PropOp56
 70
     1
102
RTVSPost2010Prop57
140
1.0
102
RTVSPost2010PropOp57
 70
     1
102
RTVSPropertyOp0
 70
     1
102
RTVSPropertyOp1
 70
     1
102
RTVSPropertyOp2
 70
     1
102
RTVSPropertyOp3
 70
     1
102
RTVSPropertyOp4
 70
     1
102
RTVSPropertyOp5
 70
     1
102
RTVSPropertyOp6
 70
     1
102
RTVSPropertyOp7
 70
     1
102
RTVSPropertyOp8
 70
     1
102
RTVSPropertyOp9
 70
     1
102
RTVSPropertyOp10
 70
     1
102
RTVSPropertyOp11
 70
     1
102
RTVSPropertyOp12
 70
     1
102
RTVSPropertyOp13
 70
     1
102
RTVSPropertyOp14
 70
     1
102
RTVSPropertyOp15
 70
     1
102
RTVSPropertyOp16
 70
     1
102
RTVSPropertyOp17
 70
     1
102
RTVSPropertyOp18
 70
     1
102
RTVSPropertyOp19
 70
     1
102
RTVSPropertyOp20
 70
     1
102
RTVSPropertyOp21
 70
     1
102
RTVSPropertyOp22
 70
     1
102
RTVSPropertyOp23
 70
     1
102
RTVSPropertyOp24
 70
     1
102
RTVSPropertyOp25
 70
     1
102
RTVSPropertyOp26
 70
     1
102
RTVSPropertyOp27
 70
     1
102
RTVSPropertyOp28
 70
     1
102
RTVSPropertyOp29
 70
     1
102
RTVSPropertyOp30
 70
     1
102
RTVSPropertyOp31
 70
     1
102
RTVSPropertyOp32
 70
     1
102
RTVSPropertyOp33
 70
     1
102
RTVSPropertyOp34
 70
     1
102
RTVSPropertyOp35
 70
     1
102
RTVSPropertyOp36
 70
     1
102
RTVSPropertyOp37
 70
     1
102
RTVSPropertyOp38
 70
     1
102
RTVSPropertyOp39
 70
     1
102
RTVSPropertyOp40
 70
     1
102
RTVSPropertyOp41
 70
     1
102
RTVSPropertyOp42
 70
     1
102
RTVSPropertyOp43
 70
     1
102
RTVSPropertyOp44
 70
     1
102
RTVSPropertyOp45
 70
     1
102
RTVSPropertyOp46
 70
     1
102
RTVSPropertyOp47
 70
     1
102
RTVSPropertyOp48
 70
     1
102
RTVSPropertyOp49
 70
     1
102
RTVSPropertyOp50
 70
     1
102
RTVSPropertyOp51
 70
     0
102
RTVSPropertyOp52
 70
     0
102
RTVSPropertyOp53
 70
     1
102
RTVSPropertyOp54
 70
     1
102
RTVSPropertyOp55
 70
     1
102
RTVSPropertyOp56
 70
     1
102
RTVSPropertyOp57
 70
     1
102
RTVSPropertyOp58
 70
     1
102
RTVSPropertyOp59
 70
     1
102
RTVSPropertyOp60
 70
     1
102
RTVSPropertyOp61
 70
     1
102
RTVSPropertyOp62
 70
     1
  0
XRECORD
  5
FAF57
102
{ACAD_REACTORS
330
FAF56
102
}
330
FAF56
100
AcDbXrecord
280
     1
102
RTVSPost2010Prop28
280
     0
102
RTVSPost2010PropOp28
 70
     0
102
RTVSPost2010Prop29
280
     1
102
RTVSPost2010PropOp29
 70
     0
102
RTVSPost2010Prop30
280
     1
102
RTVSPost2010PropOp30
 70
     0
102
RTVSPost2010Prop31
280
     0
102
RTVSPost2010PropOp31
 70
     0
102
RTVSPost2010Prop32
280
     0
102
RTVSPost2010PropOp32
 70
     0
102
RTVSPost2010Prop33
280
     0
102
RTVSPost2010PropOp33
 70
     0
102
RTVSPost2010Prop34
280
     0
102
RTVSPost2010PropOp34
 70
     0
102
RTVSPost2010Prop35
280
     0
102
RTVSPost2010PropOp35
 70
     0
102
RTVSPost2010Prop36
280
     0
102
RTVSPost2010PropOp36
 70
     0
102
RTVSPost2010Prop37
 90
       50
102
RTVSPost2010PropOp37
 70
     0
102
RTVSPost2010Prop38
140
0.0
102
RTVSPost2010PropOp38
 70
     0
102
RTVSPost2010Prop39
140
1.0
102
RTVSPost2010PropOp39
 70
     0
102
RTVSPost2010Prop40
 90
        0
102
RTVSPost2010PropOp40
 70
     0
102
RTVSPost2010Prop41ColorIndex
 90
       18
102
RTVSPost2010Prop41ColorRGB
 90
        0
102
RTVSPost2010PropOp41
 70
     0
102
RTVSPost2010Prop42
 90
       50
102
RTVSPost2010PropOp42
 70
     0
102
RTVSPost2010Prop43
 90
        3
102
RTVSPost2010PropOp43
 70
     0
102
RTVSPost2010Prop44ColorIndex
 90
        5
102
RTVSPost2010Prop44ColorRGB
 90
      255
102
RTVSPost2010PropOp44
 70
     0
102
RTVSPost2010Prop45
280
     0
102
RTVSPost2010PropOp45
 70
     0
102
RTVSPost2010Prop46
 90
       50
102
RTVSPost2010PropOp46
 70
     0
102
RTVSPost2010Prop47
 90
       50
102
RTVSPost2010PropOp47
 70
     0
102
RTVSPost2010Prop48
 90
       50
102
RTVSPost2010PropOp48
 70
     0
102
RTVSPost2010Prop49
280
     0
102
RTVSPost2010PropOp49
 70
     0
102
RTVSPost2010Prop50
 90
       50
102
RTVSPost2010PropOp50
 70
     0
102
RTVSPost2010Prop51ColorIndex
 90
      256
102
RTVSPost2010Prop51ColorRGB
 90
-16777216
102
RTVSPost2010PropOp51
 70
     0
102
RTVSPost2010Prop52
140
1.0
102
RTVSPost2010PropOp52
 70
     0
102
RTVSPost2010Prop53
 90
        2
102
RTVSPost2010PropOp53
 70
     0
102
RTVSPost2010Prop54
  1
strokes_ogs.tif
102
RTVSPost2010PropOp54
 70
     0
102
RTVSPost2010Prop55
280
     0
102
RTVSPost2010PropOp55
 70
     0
102
RTVSPost2010Prop56
140
1.0
102
RTVSPost2010PropOp56
 70
     0
102
RTVSPost2010Prop57
140
1.0
102
RTVSPost2010PropOp57
 70
     0
102
RTVSPropertyOp0
 70
     0
102
RTVSPropertyOp1
 70
     0
102
RTVSPropertyOp2
 70
     0
102
RTVSPropertyOp3
 70
     0
102
RTVSPropertyOp4
 70
     0
102
RTVSPropertyOp5
 70
     0
102
RTVSPropertyOp6
 70
     0
102
RTVSPropertyOp7
 70
     0
102
RTVSPropertyOp8
 70
     0
102
RTVSPropertyOp9
 70
     0
102
RTVSPropertyOp10
 70
     0
102
RTVSPropertyOp11
 70
     0
102
RTVSPropertyOp12
 70
     0
102
RTVSPropertyOp13
 70
     0
102
RTVSPropertyOp14
 70
     2
102
RTVSPropertyOp15
 70
     0
102
RTVSPropertyOp16
 70
     0
102
RTVSPropertyOp17
 70
     0
102
RTVSPropertyOp18
 70
     0
102
RTVSPropertyOp19
 70
     0
102
RTVSPropertyOp20
 70
     0
102
RTVSPropertyOp21
 70
     0
102
RTVSPropertyOp22
 70
     0
102
RTVSPropertyOp23
 70
     0
102
RTVSPropertyOp24
 70
     0
102
RTVSPropertyOp25
 70
     0
102
RTVSPropertyOp26
 70
     0
102
RTVSPropertyOp27
 70
     0
102
RTVSPropertyOp28
 70
     0
102
RTVSPropertyOp29
 70
     0
102
RTVSPropertyOp30
 70
     0
102
RTVSPropertyOp31
 70
     0
102
RTVSPropertyOp32
 70
     0
102
RTVSPropertyOp33
 70
     0
102
RTVSPropertyOp34
 70
     0
102
RTVSPropertyOp35
 70
     0
102
RTVSPropertyOp36
 70
     0
102
RTVSPropertyOp37
 70
     0
102
RTVSPropertyOp38
 70
     0
102
RTVSPropertyOp39
 70
     0
102
RTVSPropertyOp40
 70
     0
102
RTVSPropertyOp41
 70
     0
102
RTVSPropertyOp42
 70
     0
102
RTVSPropertyOp43
 70
     0
102
RTVSPropertyOp44
 70
     0
102
RTVSPropertyOp45
 70
     0
102
RTVSPropertyOp46
 70
     0
102
RTVSPropertyOp47
 70
     0
102
RTVSPropertyOp48
 70
     0
102
RTVSPropertyOp49
 70
     0
102
RTVSPropertyOp50
 70
     0
102
RTVSPropertyOp51
 70
     0
102
RTVSPropertyOp52
 70
     0
102
RTVSPropertyOp53
 70
     0
102
RTVSPropertyOp54
 70
     0
102
RTVSPropertyOp55
 70
     0
102
RTVSPropertyOp56
 70
     0
102
RTVSPropertyOp57
 70
     0
102
RTVSPropertyOp58
 70
     0
102
RTVSPropertyOp59
 70
     0
102
RTVSPropertyOp60
 70
     0
102
RTVSPropertyOp61
 70
     0
102
RTVSPropertyOp62
 70
     0
  0
XRECORD
  5
FAF47
102
{ACAD_REACTORS
330
FAF46
102
}
330
FAF46
100
AcDbXrecord
280
     1
102
RTVSPost2010Prop28
280
     0
102
RTVSPost2010PropOp28
 70
     1
102
RTVSPost2010Prop29
280
     1
102
RTVSPost2010PropOp29
 70
     1
102
RTVSPost2010Prop30
280
     1
102
RTVSPost2010PropOp30
 70
     1
102
RTVSPost2010Prop31
280
     0
102
RTVSPost2010PropOp31
 70
     1
102
RTVSPost2010Prop32
280
     0
102
RTVSPost2010PropOp32
 70
     1
102
RTVSPost2010Prop33
280
     0
102
RTVSPost2010PropOp33
 70
     1
102
RTVSPost2010Prop34
280
     0
102
RTVSPost2010PropOp34
 70
     1
102
RTVSPost2010Prop35
280
     0
102
RTVSPost2010PropOp35
 70
     1
102
RTVSPost2010Prop36
280
     0
102
RTVSPost2010PropOp36
 70
     1
102
RTVSPost2010Prop37
 90
       50
102
RTVSPost2010PropOp37
 70
     1
102
RTVSPost2010Prop38
140
0.0
102
RTVSPost2010PropOp38
 70
     1
102
RTVSPost2010Prop39
140
1.0
102
RTVSPost2010PropOp39
 70
     1
102
RTVSPost2010Prop40
 90
        0
102
RTVSPost2010PropOp40
 70
     1
102
RTVSPost2010Prop41ColorIndex
 90
       18
102
RTVSPost2010Prop41ColorRGB
 90
        0
102
RTVSPost2010PropOp41
 70
     1
102
RTVSPost2010Prop42
 90
       50
102
RTVSPost2010PropOp42
 70
     1
102
RTVSPost2010Prop43
 90
        3
102
RTVSPost2010PropOp43
 70
     1
102
RTVSPost2010Prop44ColorIndex
 90
        5
102
RTVSPost2010Prop44ColorRGB
 90
      255
102
RTVSPost2010PropOp44
 70
     1
102
RTVSPost2010Prop45
280
     0
102
RTVSPost2010PropOp45
 70
     1
102
RTVSPost2010Prop46
 90
       50
102
RTVSPost2010PropOp46
 70
     1
102
RTVSPost2010Prop47
 90
       50
102
RTVSPost2010PropOp47
 70
     1
102
RTVSPost2010Prop48
 90
       50
102
RTVSPost2010PropOp48
 70
     1
102
RTVSPost2010Prop49
280
     0
102
RTVSPost2010PropOp49
 70
     1
102
RTVSPost2010Prop50
 90
       50
102
RTVSPost2010PropOp50
 70
     1
102
RTVSPost2010Prop51ColorIndex
 90
      256
102
RTVSPost2010Prop51ColorRGB
 90
-16777216
102
RTVSPost2010PropOp51
 70
     0
102
RTVSPost2010Prop52
140
1.0
102
RTVSPost2010PropOp52
 70
     0
102
RTVSPost2010Prop53
 90
        2
102
RTVSPost2010PropOp53
 70
     1
102
RTVSPost2010Prop54
  1
strokes_ogs.tif
102
RTVSPost2010PropOp54
 70
     1
102
RTVSPost2010Prop55
280
     0
102
RTVSPost2010PropOp55
 70
     1
102
RTVSPost2010Prop56
140
1.0
102
RTVSPost2010PropOp56
 70
     1
102
RTVSPost2010Prop57
140
1.0
102
RTVSPost2010PropOp57
 70
     1
102
RTVSPropertyOp0
 70
     1
102
RTVSPropertyOp1
 70
     1
102
RTVSPropertyOp2
 70
     1
102
RTVSPropertyOp3
 70
     1
102
RTVSPropertyOp4
 70
     1
102
RTVSPropertyOp5
 70
     1
102
RTVSPropertyOp6
 70
     1
102
RTVSPropertyOp7
 70
     1
102
RTVSPropertyOp8
 70
     1
102
RTVSPropertyOp9
 70
     1
102
RTVSPropertyOp10
 70
     1
102
RTVSPropertyOp11
 70
     1
102
RTVSPropertyOp12
 70
     1
102
RTVSPropertyOp13
 70
     1
102
RTVSPropertyOp14
 70
     1
102
RTVSPropertyOp15
 70
     1
102
RTVSPropertyOp16
 70
     1
102
RTVSPropertyOp17
 70
     1
102
RTVSPropertyOp18
 70
     1
102
RTVSPropertyOp19
 70
     1
102
RTVSPropertyOp20
 70
     1
102
RTVSPropertyOp21
 70
     1
102
RTVSPropertyOp22
 70
     1
102
RTVSPropertyOp23
 70
     1
102
RTVSPropertyOp24
 70
     1
102
RTVSPropertyOp25
 70
     1
102
RTVSPropertyOp26
 70
     1
102
RTVSPropertyOp27
 70
     1
102
RTVSPropertyOp28
 70
     1
102
RTVSPropertyOp29
 70
     1
102
RTVSPropertyOp30
 70
     1
102
RTVSPropertyOp31
 70
     1
102
RTVSPropertyOp32
 70
     1
102
RTVSPropertyOp33
 70
     1
102
RTVSPropertyOp34
 70
     1
102
RTVSPropertyOp35
 70
     1
102
RTVSPropertyOp36
 70
     1
102
RTVSPropertyOp37
 70
     1
102
RTVSPropertyOp38
 70
     1
102
RTVSPropertyOp39
 70
     1
102
RTVSPropertyOp40
 70
     1
102
RTVSPropertyOp41
 70
     1
102
RTVSPropertyOp42
 70
     1
102
RTVSPropertyOp43
 70
     1
102
RTVSPropertyOp44
 70
     1
102
RTVSPropertyOp45
 70
     1
102
RTVSPropertyOp46
 70
     1
102
RTVSPropertyOp47
 70
     1
102
RTVSPropertyOp48
 70
     1
102
RTVSPropertyOp49
 70
     1
102
RTVSPropertyOp50
 70
     1
102
RTVSPropertyOp51
 70
     0
102
RTVSPropertyOp52
 70
     0
102
RTVSPropertyOp53
 70
     1
102
RTVSPropertyOp54
 70
     1
102
RTVSPropertyOp55
 70
     1
102
RTVSPropertyOp56
 70
     1
102
RTVSPropertyOp57
 70
     1
102
RTVSPropertyOp58
 70
     1
102
RTVSPropertyOp59
 70
     1
102
RTVSPropertyOp60
 70
     1
102
RTVSPropertyOp61
 70
     1
102
RTVSPropertyOp62
 70
     1
  0
XRECORD
  5
FAF59
102
{ACAD_REACTORS
330
FAF58
102
}
330
FAF58
100
AcDbXrecord
280
     1
102
RTVSPost2010Prop28
280
     0
102
RTVSPost2010PropOp28
 70
     0
102
RTVSPost2010Prop29
280
     1
102
RTVSPost2010PropOp29
 70
     0
102
RTVSPost2010Prop30
280
     1
102
RTVSPost2010PropOp30
 70
     0
102
RTVSPost2010Prop31
280
     0
102
RTVSPost2010PropOp31
 70
     0
102
RTVSPost2010Prop32
280
     0
102
RTVSPost2010PropOp32
 70
     0
102
RTVSPost2010Prop33
280
     0
102
RTVSPost2010PropOp33
 70
     0
102
RTVSPost2010Prop34
280
     0
102
RTVSPost2010PropOp34
 70
     0
102
RTVSPost2010Prop35
280
     0
102
RTVSPost2010PropOp35
 70
     0
102
RTVSPost2010Prop36
280
     0
102
RTVSPost2010PropOp36
 70
     0
102
RTVSPost2010Prop37
 90
       50
102
RTVSPost2010PropOp37
 70
     0
102
RTVSPost2010Prop38
140
0.0
102
RTVSPost2010PropOp38
 70
     0
102
RTVSPost2010Prop39
140
1.0
102
RTVSPost2010PropOp39
 70
     0
102
RTVSPost2010Prop40
 90
        0
102
RTVSPost2010PropOp40
 70
     0
102
RTVSPost2010Prop41ColorIndex
 90
       18
102
RTVSPost2010Prop41ColorRGB
 90
        0
102
RTVSPost2010PropOp41
 70
     0
102
RTVSPost2010Prop42
 90
       50
102
RTVSPost2010PropOp42
 70
     0
102
RTVSPost2010Prop43
 90
        3
102
RTVSPost2010PropOp43
 70
     0
102
RTVSPost2010Prop44ColorIndex
 90
        5
102
RTVSPost2010Prop44ColorRGB
 90
      255
102
RTVSPost2010PropOp44
 70
     0
102
RTVSPost2010Prop45
280
     0
102
RTVSPost2010PropOp45
 70
     0
102
RTVSPost2010Prop46
 90
       50
102
RTVSPost2010PropOp46
 70
     0
102
RTVSPost2010Prop47
 90
       50
102
RTVSPost2010PropOp47
 70
     0
102
RTVSPost2010Prop48
 90
       50
102
RTVSPost2010PropOp48
 70
     0
102
RTVSPost2010Prop49
280
     0
102
RTVSPost2010PropOp49
 70
     0
102
RTVSPost2010Prop50
 90
       50
102
RTVSPost2010PropOp50
 70
     0
102
RTVSPost2010Prop51ColorIndex
 90
      256
102
RTVSPost2010Prop51ColorRGB
 90
-16777216
102
RTVSPost2010PropOp51
 70
     0
102
RTVSPost2010Prop52
140
1.0
102
RTVSPost2010PropOp52
 70
     0
102
RTVSPost2010Prop53
 90
        2
102
RTVSPost2010PropOp53
 70
     0
102
RTVSPost2010Prop54
  1
strokes_ogs.tif
102
RTVSPost2010PropOp54
 70
     0
102
RTVSPost2010Prop55
280
     0
102
RTVSPost2010PropOp55
 70
     0
102
RTVSPost2010Prop56
140
1.0
102
RTVSPost2010PropOp56
 70
     0
102
RTVSPost2010Prop57
140
1.0
102
RTVSPost2010PropOp57
 70
     0
102
RTVSPropertyOp0
 70
     0
102
RTVSPropertyOp1
 70
     0
102
RTVSPropertyOp2
 70
     0
102
RTVSPropertyOp3
 70
     0
102
RTVSPropertyOp4
 70
     0
102
RTVSPropertyOp5
 70
     0
102
RTVSPropertyOp6
 70
     0
102
RTVSPropertyOp7
 70
     0
102
RTVSPropertyOp8
 70
     0
102
RTVSPropertyOp9
 70
     0
102
RTVSPropertyOp10
 70
     0
102
RTVSPropertyOp11
 70
     0
102
RTVSPropertyOp12
 70
     0
102
RTVSPropertyOp13
 70
     0
102
RTVSPropertyOp14
 70
     2
102
RTVSPropertyOp15
 70
     0
102
RTVSPropertyOp16
 70
     0
102
RTVSPropertyOp17
 70
     0
102
RTVSPropertyOp18
 70
     0
102
RTVSPropertyOp19
 70
     0
102
RTVSPropertyOp20
 70
     0
102
RTVSPropertyOp21
 70
     0
102
RTVSPropertyOp22
 70
     0
102
RTVSPropertyOp23
 70
     0
102
RTVSPropertyOp24
 70
     0
102
RTVSPropertyOp25
 70
     0
102
RTVSPropertyOp26
 70
     0
102
RTVSPropertyOp27
 70
     0
102
RTVSPropertyOp28
 70
     0
102
RTVSPropertyOp29
 70
     0
102
RTVSPropertyOp30
 70
     0
102
RTVSPropertyOp31
 70
     0
102
RTVSPropertyOp32
 70
     0
102
RTVSPropertyOp33
 70
     0
102
RTVSPropertyOp34
 70
     0
102
RTVSPropertyOp35
 70
     0
102
RTVSPropertyOp36
 70
     0
102
RTVSPropertyOp37
 70
     0
102
RTVSPropertyOp38
 70
     0
102
RTVSPropertyOp39
 70
     0
102
RTVSPropertyOp40
 70
     0
102
RTVSPropertyOp41
 70
     0
102
RTVSPropertyOp42
 70
     0
102
RTVSPropertyOp43
 70
     0
102
RTVSPropertyOp44
 70
     0
102
RTVSPropertyOp45
 70
     0
102
RTVSPropertyOp46
 70
     0
102
RTVSPropertyOp47
 70
     0
102
RTVSPropertyOp48
 70
     0
102
RTVSPropertyOp49
 70
     0
102
RTVSPropertyOp50
 70
     0
102
RTVSPropertyOp51
 70
     0
102
RTVSPropertyOp52
 70
     0
102
RTVSPropertyOp53
 70
     0
102
RTVSPropertyOp54
 70
     0
102
RTVSPropertyOp55
 70
     0
102
RTVSPropertyOp56
 70
     0
102
RTVSPropertyOp57
 70
     0
102
RTVSPropertyOp58
 70
     0
102
RTVSPropertyOp59
 70
     0
102
RTVSPropertyOp60
 70
     0
102
RTVSPropertyOp61
 70
     0
102
RTVSPropertyOp62
 70
     0
  0
XRECORD
  5
FAF3F
102
{ACAD_REACTORS
330
FAF3E
102
}
330
FAF3E
100
AcDbXrecord
280
     1
102
RTVSPost2010Prop28
280
     0
102
RTVSPost2010PropOp28
 70
     1
102
RTVSPost2010Prop29
280
     1
102
RTVSPost2010PropOp29
 70
     1
102
RTVSPost2010Prop30
280
     1
102
RTVSPost2010PropOp30
 70
     1
102
RTVSPost2010Prop31
280
     0
102
RTVSPost2010PropOp31
 70
     1
102
RTVSPost2010Prop32
280
     0
102
RTVSPost2010PropOp32
 70
     1
102
RTVSPost2010Prop33
280
     0
102
RTVSPost2010PropOp33
 70
     1
102
RTVSPost2010Prop34
280
     0
102
RTVSPost2010PropOp34
 70
     1
102
RTVSPost2010Prop35
280
     0
102
RTVSPost2010PropOp35
 70
     1
102
RTVSPost2010Prop36
280
     0
102
RTVSPost2010PropOp36
 70
     1
102
RTVSPost2010Prop37
 90
       50
102
RTVSPost2010PropOp37
 70
     1
102
RTVSPost2010Prop38
140
0.0
102
RTVSPost2010PropOp38
 70
     1
102
RTVSPost2010Prop39
140
1.0
102
RTVSPost2010PropOp39
 70
     1
102
RTVSPost2010Prop40
 90
        0
102
RTVSPost2010PropOp40
 70
     1
102
RTVSPost2010Prop41ColorIndex
 90
       18
102
RTVSPost2010Prop41ColorRGB
 90
        0
102
RTVSPost2010PropOp41
 70
     1
102
RTVSPost2010Prop42
 90
       50
102
RTVSPost2010PropOp42
 70
     1
102
RTVSPost2010Prop43
 90
        3
102
RTVSPost2010PropOp43
 70
     1
102
RTVSPost2010Prop44ColorIndex
 90
        5
102
RTVSPost2010Prop44ColorRGB
 90
      255
102
RTVSPost2010PropOp44
 70
     1
102
RTVSPost2010Prop45
280
     0
102
RTVSPost2010PropOp45
 70
     1
102
RTVSPost2010Prop46
 90
       50
102
RTVSPost2010PropOp46
 70
     1
102
RTVSPost2010Prop47
 90
       50
102
RTVSPost2010PropOp47
 70
     1
102
RTVSPost2010Prop48
 90
       50
102
RTVSPost2010PropOp48
 70
     1
102
RTVSPost2010Prop49
280
     0
102
RTVSPost2010PropOp49
 70
     1
102
RTVSPost2010Prop50
 90
       50
102
RTVSPost2010PropOp50
 70
     1
102
RTVSPost2010Prop51ColorIndex
 90
      256
102
RTVSPost2010Prop51ColorRGB
 90
-16777216
102
RTVSPost2010PropOp51
 70
     0
102
RTVSPost2010Prop52
140
1.0
102
RTVSPost2010PropOp52
 70
     0
102
RTVSPost2010Prop53
 90
        2
102
RTVSPost2010PropOp53
 70
     1
102
RTVSPost2010Prop54
  1
strokes_ogs.tif
102
RTVSPost2010PropOp54
 70
     1
102
RTVSPost2010Prop55
280
     0
102
RTVSPost2010PropOp55
 70
     1
102
RTVSPost2010Prop56
140
1.0
102
RTVSPost2010PropOp56
 70
     1
102
RTVSPost2010Prop57
140
1.0
102
RTVSPost2010PropOp57
 70
     1
102
RTVSPropertyOp0
 70
     1
102
RTVSPropertyOp1
 70
     1
102
RTVSPropertyOp2
 70
     1
102
RTVSPropertyOp3
 70
     1
102
RTVSPropertyOp4
 70
     1
102
RTVSPropertyOp5
 70
     1
102
RTVSPropertyOp6
 70
     1
102
RTVSPropertyOp7
 70
     1
102
RTVSPropertyOp8
 70
     1
102
RTVSPropertyOp9
 70
     1
102
RTVSPropertyOp10
 70
     1
102
RTVSPropertyOp11
 70
     1
102
RTVSPropertyOp12
 70
     1
102
RTVSPropertyOp13
 70
     1
102
RTVSPropertyOp14
 70
     1
102
RTVSPropertyOp15
 70
     1
102
RTVSPropertyOp16
 70
     1
102
RTVSPropertyOp17
 70
     1
102
RTVSPropertyOp18
 70
     1
102
RTVSPropertyOp19
 70
     1
102
RTVSPropertyOp20
 70
     1
102
RTVSPropertyOp21
 70
     1
102
RTVSPropertyOp22
 70
     1
102
RTVSPropertyOp23
 70
     1
102
RTVSPropertyOp24
 70
     1
102
RTVSPropertyOp25
 70
     1
102
RTVSPropertyOp26
 70
     1
102
RTVSPropertyOp27
 70
     1
102
RTVSPropertyOp28
 70
     1
102
RTVSPropertyOp29
 70
     1
102
RTVSPropertyOp30
 70
     1
102
RTVSPropertyOp31
 70
     1
102
RTVSPropertyOp32
 70
     1
102
RTVSPropertyOp33
 70
     1
102
RTVSPropertyOp34
 70
     1
102
RTVSPropertyOp35
 70
     1
102
RTVSPropertyOp36
 70
     1
102
RTVSPropertyOp37
 70
     1
102
RTVSPropertyOp38
 70
     1
102
RTVSPropertyOp39
 70
     1
102
RTVSPropertyOp40
 70
     1
102
RTVSPropertyOp41
 70
     1
102
RTVSPropertyOp42
 70
     1
102
RTVSPropertyOp43
 70
     1
102
RTVSPropertyOp44
 70
     1
102
RTVSPropertyOp45
 70
     1
102
RTVSPropertyOp46
 70
     1
102
RTVSPropertyOp47
 70
     1
102
RTVSPropertyOp48
 70
     1
102
RTVSPropertyOp49
 70
     1
102
RTVSPropertyOp50
 70
     1
102
RTVSPropertyOp51
 70
     0
102
RTVSPropertyOp52
 70
     0
102
RTVSPropertyOp53
 70
     1
102
RTVSPropertyOp54
 70
     1
102
RTVSPropertyOp55
 70
     1
102
RTVSPropertyOp56
 70
     1
102
RTVSPropertyOp57
 70
     1
102
RTVSPropertyOp58
 70
     1
102
RTVSPropertyOp59
 70
     1
102
RTVSPropertyOp60
 70
     1
102
RTVSPropertyOp61
 70
     1
102
RTVSPropertyOp62
 70
     1
  0
XRECORD
  5
FAF55
102
{ACAD_REACTORS
330
FAF54
102
}
330
FAF54
100
AcDbXrecord
280
     1
102
RTVSPost2010Prop28
280
     0
102
RTVSPost2010PropOp28
 70
     1
102
RTVSPost2010Prop29
280
     1
102
RTVSPost2010PropOp29
 70
     1
102
RTVSPost2010Prop30
280
     1
102
RTVSPost2010PropOp30
 70
     1
102
RTVSPost2010Prop31
280
     0
102
RTVSPost2010PropOp31
 70
     1
102
RTVSPost2010Prop32
280
     0
102
RTVSPost2010PropOp32
 70
     1
102
RTVSPost2010Prop33
280
     0
102
RTVSPost2010PropOp33
 70
     1
102
RTVSPost2010Prop34
280
     0
102
RTVSPost2010PropOp34
 70
     1
102
RTVSPost2010Prop35
280
     0
102
RTVSPost2010PropOp35
 70
     1
102
RTVSPost2010Prop36
280
     0
102
RTVSPost2010PropOp36
 70
     1
102
RTVSPost2010Prop37
 90
       50
102
RTVSPost2010PropOp37
 70
     1
102
RTVSPost2010Prop38
140
0.0
102
RTVSPost2010PropOp38
 70
     1
102
RTVSPost2010Prop39
140
1.0
102
RTVSPost2010PropOp39
 70
     1
102
RTVSPost2010Prop40
 90
        0
102
RTVSPost2010PropOp40
 70
     1
102
RTVSPost2010Prop41ColorIndex
 90
       18
102
RTVSPost2010Prop41ColorRGB
 90
        0
102
RTVSPost2010PropOp41
 70
     1
102
RTVSPost2010Prop42
 90
       50
102
RTVSPost2010PropOp42
 70
     1
102
RTVSPost2010Prop43
 90
        3
102
RTVSPost2010PropOp43
 70
     1
102
RTVSPost2010Prop44ColorIndex
 90
        5
102
RTVSPost2010Prop44ColorRGB
 90
      255
102
RTVSPost2010PropOp44
 70
     1
102
RTVSPost2010Prop45
280
     0
102
RTVSPost2010PropOp45
 70
     1
102
RTVSPost2010Prop46
 90
       50
102
RTVSPost2010PropOp46
 70
     1
102
RTVSPost2010Prop47
 90
       50
102
RTVSPost2010PropOp47
 70
     1
102
RTVSPost2010Prop48
 90
       50
102
RTVSPost2010PropOp48
 70
     1
102
RTVSPost2010Prop49
280
     0
102
RTVSPost2010PropOp49
 70
     1
102
RTVSPost2010Prop50
 90
       50
102
RTVSPost2010PropOp50
 70
     1
102
RTVSPost2010Prop51ColorIndex
 90
      256
102
RTVSPost2010Prop51ColorRGB
 90
-16777216
102
RTVSPost2010PropOp51
 70
     0
102
RTVSPost2010Prop52
140
1.0
102
RTVSPost2010PropOp52
 70
     0
102
RTVSPost2010Prop53
 90
        2
102
RTVSPost2010PropOp53
 70
     1
102
RTVSPost2010Prop54
  1
strokes_ogs.tif
102
RTVSPost2010PropOp54
 70
     1
102
RTVSPost2010Prop55
280
     0
102
RTVSPost2010PropOp55
 70
     1
102
RTVSPost2010Prop56
140
1.0
102
RTVSPost2010PropOp56
 70
     1
102
RTVSPost2010Prop57
140
1.0
102
RTVSPost2010PropOp57
 70
     1
102
RTVSPropertyOp0
 70
     1
102
RTVSPropertyOp1
 70
     1
102
RTVSPropertyOp2
 70
     1
102
RTVSPropertyOp3
 70
     1
102
RTVSPropertyOp4
 70
     1
102
RTVSPropertyOp5
 70
     1
102
RTVSPropertyOp6
 70
     1
102
RTVSPropertyOp7
 70
     1
102
RTVSPropertyOp8
 70
     1
102
RTVSPropertyOp9
 70
     1
102
RTVSPropertyOp10
 70
     1
102
RTVSPropertyOp11
 70
     1
102
RTVSPropertyOp12
 70
     1
102
RTVSPropertyOp13
 70
     1
102
RTVSPropertyOp14
 70
     1
102
RTVSPropertyOp15
 70
     1
102
RTVSPropertyOp16
 70
     1
102
RTVSPropertyOp17
 70
     1
102
RTVSPropertyOp18
 70
     1
102
RTVSPropertyOp19
 70
     1
102
RTVSPropertyOp20
 70
     1
102
RTVSPropertyOp21
 70
     1
102
RTVSPropertyOp22
 70
     1
102
RTVSPropertyOp23
 70
     1
102
RTVSPropertyOp24
 70
     1
102
RTVSPropertyOp25
 70
     1
102
RTVSPropertyOp26
 70
     1
102
RTVSPropertyOp27
 70
     1
102
RTVSPropertyOp28
 70
     1
102
RTVSPropertyOp29
 70
     1
102
RTVSPropertyOp30
 70
     1
102
RTVSPropertyOp31
 70
     1
102
RTVSPropertyOp32
 70
     1
102
RTVSPropertyOp33
 70
     1
102
RTVSPropertyOp34
 70
     1
102
RTVSPropertyOp35
 70
     1
102
RTVSPropertyOp36
 70
     1
102
RTVSPropertyOp37
 70
     1
102
RTVSPropertyOp38
 70
     1
102
RTVSPropertyOp39
 70
     1
102
RTVSPropertyOp40
 70
     1
102
RTVSPropertyOp41
 70
     1
102
RTVSPropertyOp42
 70
     1
102
RTVSPropertyOp43
 70
     1
102
RTVSPropertyOp44
 70
     1
102
RTVSPropertyOp45
 70
     1
102
RTVSPropertyOp46
 70
     1
102
RTVSPropertyOp47
 70
     1
102
RTVSPropertyOp48
 70
     1
102
RTVSPropertyOp49
 70
     1
102
RTVSPropertyOp50
 70
     1
102
RTVSPropertyOp51
 70
     0
102
RTVSPropertyOp52
 70
     0
102
RTVSPropertyOp53
 70
     1
102
RTVSPropertyOp54
 70
     1
102
RTVSPropertyOp55
 70
     1
102
RTVSPropertyOp56
 70
     1
102
RTVSPropertyOp57
 70
     1
102
RTVSPropertyOp58
 70
     1
102
RTVSPropertyOp59
 70
     1
102
RTVSPropertyOp60
 70
     1
102
RTVSPropertyOp61
 70
     1
102
RTVSPropertyOp62
 70
     1
  0
XRECORD
  5
FAF53
102
{ACAD_REACTORS
330
FAF52
102
}
330
FAF52
100
AcDbXrecord
280
     1
102
RTVSPost2010Prop28
280
     0
102
RTVSPost2010PropOp28
 70
     1
102
RTVSPost2010Prop29
280
     1
102
RTVSPost2010PropOp29
 70
     1
102
RTVSPost2010Prop30
280
     1
102
RTVSPost2010PropOp30
 70
     1
102
RTVSPost2010Prop31
280
     0
102
RTVSPost2010PropOp31
 70
     1
102
RTVSPost2010Prop32
280
     0
102
RTVSPost2010PropOp32
 70
     1
102
RTVSPost2010Prop33
280
     0
102
RTVSPost2010PropOp33
 70
     1
102
RTVSPost2010Prop34
280
     0
102
RTVSPost2010PropOp34
 70
     1
102
RTVSPost2010Prop35
280
     0
102
RTVSPost2010PropOp35
 70
     1
102
RTVSPost2010Prop36
280
     0
102
RTVSPost2010PropOp36
 70
     1
102
RTVSPost2010Prop37
 90
       50
102
RTVSPost2010PropOp37
 70
     1
102
RTVSPost2010Prop38
140
0.0
102
RTVSPost2010PropOp38
 70
     1
102
RTVSPost2010Prop39
140
1.0
102
RTVSPost2010PropOp39
 70
     1
102
RTVSPost2010Prop40
 90
        0
102
RTVSPost2010PropOp40
 70
     1
102
RTVSPost2010Prop41ColorIndex
 90
       18
102
RTVSPost2010Prop41ColorRGB
 90
        0
102
RTVSPost2010PropOp41
 70
     1
102
RTVSPost2010Prop42
 90
       50
102
RTVSPost2010PropOp42
 70
     1
102
RTVSPost2010Prop43
 90
        3
102
RTVSPost2010PropOp43
 70
     1
102
RTVSPost2010Prop44ColorIndex
 90
        5
102
RTVSPost2010Prop44ColorRGB
 90
      255
102
RTVSPost2010PropOp44
 70
     1
102
RTVSPost2010Prop45
280
     0
102
RTVSPost2010PropOp45
 70
     1
102
RTVSPost2010Prop46
 90
       50
102
RTVSPost2010PropOp46
 70
     1
102
RTVSPost2010Prop47
 90
       50
102
RTVSPost2010PropOp47
 70
     1
102
RTVSPost2010Prop48
 90
       50
102
RTVSPost2010PropOp48
 70
     1
102
RTVSPost2010Prop49
280
     0
102
RTVSPost2010PropOp49
 70
     1
102
RTVSPost2010Prop50
 90
       50
102
RTVSPost2010PropOp50
 70
     1
102
RTVSPost2010Prop51ColorIndex
 90
      256
102
RTVSPost2010Prop51ColorRGB
 90
-16777216
102
RTVSPost2010PropOp51
 70
     0
102
RTVSPost2010Prop52
140
1.0
102
RTVSPost2010PropOp52
 70
     0
102
RTVSPost2010Prop53
 90
        2
102
RTVSPost2010PropOp53
 70
     1
102
RTVSPost2010Prop54
  1
strokes_ogs.tif
102
RTVSPost2010PropOp54
 70
     1
102
RTVSPost2010Prop55
280
     0
102
RTVSPost2010PropOp55
 70
     1
102
RTVSPost2010Prop56
140
1.0
102
RTVSPost2010PropOp56
 70
     1
102
RTVSPost2010Prop57
140
1.0
102
RTVSPost2010PropOp57
 70
     1
102
RTVSPropertyOp0
 70
     1
102
RTVSPropertyOp1
 70
     1
102
RTVSPropertyOp2
 70
     1
102
RTVSPropertyOp3
 70
     1
102
RTVSPropertyOp4
 70
     1
102
RTVSPropertyOp5
 70
     1
102
RTVSPropertyOp6
 70
     1
102
RTVSPropertyOp7
 70
     1
102
RTVSPropertyOp8
 70
     1
102
RTVSPropertyOp9
 70
     1
102
RTVSPropertyOp10
 70
     1
102
RTVSPropertyOp11
 70
     1
102
RTVSPropertyOp12
 70
     1
102
RTVSPropertyOp13
 70
     1
102
RTVSPropertyOp14
 70
     1
102
RTVSPropertyOp15
 70
     1
102
RTVSPropertyOp16
 70
     1
102
RTVSPropertyOp17
 70
     1
102
RTVSPropertyOp18
 70
     1
102
RTVSPropertyOp19
 70
     1
102
RTVSPropertyOp20
 70
     1
102
RTVSPropertyOp21
 70
     1
102
RTVSPropertyOp22
 70
     1
102
RTVSPropertyOp23
 70
     1
102
RTVSPropertyOp24
 70
     1
102
RTVSPropertyOp25
 70
     1
102
RTVSPropertyOp26
 70
     1
102
RTVSPropertyOp27
 70
     1
102
RTVSPropertyOp28
 70
     1
102
RTVSPropertyOp29
 70
     1
102
RTVSPropertyOp30
 70
     1
102
RTVSPropertyOp31
 70
     1
102
RTVSPropertyOp32
 70
     1
102
RTVSPropertyOp33
 70
     1
102
RTVSPropertyOp34
 70
     1
102
RTVSPropertyOp35
 70
     1
102
RTVSPropertyOp36
 70
     1
102
RTVSPropertyOp37
 70
     1
102
RTVSPropertyOp38
 70
     1
102
RTVSPropertyOp39
 70
     1
102
RTVSPropertyOp40
 70
     1
102
RTVSPropertyOp41
 70
     1
102
RTVSPropertyOp42
 70
     1
102
RTVSPropertyOp43
 70
     1
102
RTVSPropertyOp44
 70
     1
102
RTVSPropertyOp45
 70
     1
102
RTVSPropertyOp46
 70
     1
102
RTVSPropertyOp47
 70
     1
102
RTVSPropertyOp48
 70
     1
102
RTVSPropertyOp49
 70
     1
102
RTVSPropertyOp50
 70
     1
102
RTVSPropertyOp51
 70
     0
102
RTVSPropertyOp52
 70
     0
102
RTVSPropertyOp53
 70
     1
102
RTVSPropertyOp54
 70
     1
102
RTVSPropertyOp55
 70
     1
102
RTVSPropertyOp56
 70
     1
102
RTVSPropertyOp57
 70
     1
102
RTVSPropertyOp58
 70
     1
102
RTVSPropertyOp59
 70
     1
102
RTVSPropertyOp60
 70
     1
102
RTVSPropertyOp61
 70
     1
102
RTVSPropertyOp62
 70
     1
  0
XRECORD
  5
FAF4D
102
{ACAD_REACTORS
330
FAF4C
102
}
330
FAF4C
100
AcDbXrecord
280
     1
102
RTVSPost2010Prop28
280
     0
102
RTVSPost2010PropOp28
 70
     1
102
RTVSPost2010Prop29
280
     1
102
RTVSPost2010PropOp29
 70
     1
102
RTVSPost2010Prop30
280
     1
102
RTVSPost2010PropOp30
 70
     1
102
RTVSPost2010Prop31
280
     0
102
RTVSPost2010PropOp31
 70
     1
102
RTVSPost2010Prop32
280
     0
102
RTVSPost2010PropOp32
 70
     1
102
RTVSPost2010Prop33
280
     0
102
RTVSPost2010PropOp33
 70
     1
102
RTVSPost2010Prop34
280
     0
102
RTVSPost2010PropOp34
 70
     1
102
RTVSPost2010Prop35
280
     0
102
RTVSPost2010PropOp35
 70
     1
102
RTVSPost2010Prop36
280
     0
102
RTVSPost2010PropOp36
 70
     1
102
RTVSPost2010Prop37
 90
       50
102
RTVSPost2010PropOp37
 70
     1
102
RTVSPost2010Prop38
140
0.0
102
RTVSPost2010PropOp38
 70
     1
102
RTVSPost2010Prop39
140
1.0
102
RTVSPost2010PropOp39
 70
     1
102
RTVSPost2010Prop40
 90
        0
102
RTVSPost2010PropOp40
 70
     1
102
RTVSPost2010Prop41ColorIndex
 90
       18
102
RTVSPost2010Prop41ColorRGB
 90
        0
102
RTVSPost2010PropOp41
 70
     1
102
RTVSPost2010Prop42
 90
       50
102
RTVSPost2010PropOp42
 70
     1
102
RTVSPost2010Prop43
 90
        3
102
RTVSPost2010PropOp43
 70
     1
102
RTVSPost2010Prop44ColorIndex
 90
        5
102
RTVSPost2010Prop44ColorRGB
 90
      255
102
RTVSPost2010PropOp44
 70
     1
102
RTVSPost2010Prop45
280
     0
102
RTVSPost2010PropOp45
 70
     1
102
RTVSPost2010Prop46
 90
       50
102
RTVSPost2010PropOp46
 70
     1
102
RTVSPost2010Prop47
 90
       50
102
RTVSPost2010PropOp47
 70
     1
102
RTVSPost2010Prop48
 90
       50
102
RTVSPost2010PropOp48
 70
     1
102
RTVSPost2010Prop49
280
     0
102
RTVSPost2010PropOp49
 70
     1
102
RTVSPost2010Prop50
 90
       50
102
RTVSPost2010PropOp50
 70
     1
102
RTVSPost2010Prop51ColorIndex
 90
      256
102
RTVSPost2010Prop51ColorRGB
 90
-16777216
102
RTVSPost2010PropOp51
 70
     0
102
RTVSPost2010Prop52
140
1.0
102
RTVSPost2010PropOp52
 70
     0
102
RTVSPost2010Prop53
 90
        2
102
RTVSPost2010PropOp53
 70
     1
102
RTVSPost2010Prop54
  1
strokes_ogs.tif
102
RTVSPost2010PropOp54
 70
     1
102
RTVSPost2010Prop55
280
     0
102
RTVSPost2010PropOp55
 70
     1
102
RTVSPost2010Prop56
140
1.0
102
RTVSPost2010PropOp56
 70
     1
102
RTVSPost2010Prop57
140
1.0
102
RTVSPost2010PropOp57
 70
     1
102
RTVSPropertyOp0
 70
     1
102
RTVSPropertyOp1
 70
     1
102
RTVSPropertyOp2
 70
     1
102
RTVSPropertyOp3
 70
     1
102
RTVSPropertyOp4
 70
     1
102
RTVSPropertyOp5
 70
     1
102
RTVSPropertyOp6
 70
     1
102
RTVSPropertyOp7
 70
     1
102
RTVSPropertyOp8
 70
     1
102
RTVSPropertyOp9
 70
     1
102
RTVSPropertyOp10
 70
     1
102
RTVSPropertyOp11
 70
     1
102
RTVSPropertyOp12
 70
     1
102
RTVSPropertyOp13
 70
     1
102
RTVSPropertyOp14
 70
     1
102
RTVSPropertyOp15
 70
     1
102
RTVSPropertyOp16
 70
     1
102
RTVSPropertyOp17
 70
     1
102
RTVSPropertyOp18
 70
     1
102
RTVSPropertyOp19
 70
     1
102
RTVSPropertyOp20
 70
     1
102
RTVSPropertyOp21
 70
     1
102
RTVSPropertyOp22
 70
     1
102
RTVSPropertyOp23
 70
     1
102
RTVSPropertyOp24
 70
     1
102
RTVSPropertyOp25
 70
     1
102
RTVSPropertyOp26
 70
     1
102
RTVSPropertyOp27
 70
     1
102
RTVSPropertyOp28
 70
     1
102
RTVSPropertyOp29
 70
     1
102
RTVSPropertyOp30
 70
     1
102
RTVSPropertyOp31
 70
     1
102
RTVSPropertyOp32
 70
     1
102
RTVSPropertyOp33
 70
     1
102
RTVSPropertyOp34
 70
     1
102
RTVSPropertyOp35
 70
     1
102
RTVSPropertyOp36
 70
     1
102
RTVSPropertyOp37
 70
     1
102
RTVSPropertyOp38
 70
     1
102
RTVSPropertyOp39
 70
     1
102
RTVSPropertyOp40
 70
     1
102
RTVSPropertyOp41
 70
     1
102
RTVSPropertyOp42
 70
     1
102
RTVSPropertyOp43
 70
     1
102
RTVSPropertyOp44
 70
     1
102
RTVSPropertyOp45
 70
     1
102
RTVSPropertyOp46
 70
     1
102
RTVSPropertyOp47
 70
     1
102
RTVSPropertyOp48
 70
     1
102
RTVSPropertyOp49
 70
     1
102
RTVSPropertyOp50
 70
     1
102
RTVSPropertyOp51
 70
     0
102
RTVSPropertyOp52
 70
     0
102
RTVSPropertyOp53
 70
     1
102
RTVSPropertyOp54
 70
     1
102
RTVSPropertyOp55
 70
     1
102
RTVSPropertyOp56
 70
     1
102
RTVSPropertyOp57
 70
     1
102
RTVSPropertyOp58
 70
     1
102
RTVSPropertyOp59
 70
     1
102
RTVSPropertyOp60
 70
     1
102
RTVSPropertyOp61
 70
     1
102
RTVSPropertyOp62
 70
     1
  0
XRECORD
  5
FAF4F
102
{ACAD_REACTORS
330
FAF4E
102
}
330
FAF4E
100
AcDbXrecord
280
     1
102
RTVSPost2010Prop28
280
     0
102
RTVSPost2010PropOp28
 70
     1
102
RTVSPost2010Prop29
280
     1
102
RTVSPost2010PropOp29
 70
     1
102
RTVSPost2010Prop30
280
     1
102
RTVSPost2010PropOp30
 70
     1
102
RTVSPost2010Prop31
280
     0
102
RTVSPost2010PropOp31
 70
     1
102
RTVSPost2010Prop32
280
     0
102
RTVSPost2010PropOp32
 70
     1
102
RTVSPost2010Prop33
280
     0
102
RTVSPost2010PropOp33
 70
     1
102
RTVSPost2010Prop34
280
     0
102
RTVSPost2010PropOp34
 70
     1
102
RTVSPost2010Prop35
280
     0
102
RTVSPost2010PropOp35
 70
     1
102
RTVSPost2010Prop36
280
     0
102
RTVSPost2010PropOp36
 70
     1
102
RTVSPost2010Prop37
 90
       50
102
RTVSPost2010PropOp37
 70
     1
102
RTVSPost2010Prop38
140
0.0
102
RTVSPost2010PropOp38
 70
     1
102
RTVSPost2010Prop39
140
1.0
102
RTVSPost2010PropOp39
 70
     1
102
RTVSPost2010Prop40
 90
        0
102
RTVSPost2010PropOp40
 70
     1
102
RTVSPost2010Prop41ColorIndex
 90
       18
102
RTVSPost2010Prop41ColorRGB
 90
        0
102
RTVSPost2010PropOp41
 70
     1
102
RTVSPost2010Prop42
 90
       50
102
RTVSPost2010PropOp42
 70
     1
102
RTVSPost2010Prop43
 90
        3
102
RTVSPost2010PropOp43
 70
     1
102
RTVSPost2010Prop44ColorIndex
 90
        5
102
RTVSPost2010Prop44ColorRGB
 90
      255
102
RTVSPost2010PropOp44
 70
     1
102
RTVSPost2010Prop45
280
     0
102
RTVSPost2010PropOp45
 70
     1
102
RTVSPost2010Prop46
 90
       50
102
RTVSPost2010PropOp46
 70
     1
102
RTVSPost2010Prop47
 90
       50
102
RTVSPost2010PropOp47
 70
     1
102
RTVSPost2010Prop48
 90
       50
102
RTVSPost2010PropOp48
 70
     1
102
RTVSPost2010Prop49
280
     0
102
RTVSPost2010PropOp49
 70
     1
102
RTVSPost2010Prop50
 90
       50
102
RTVSPost2010PropOp50
 70
     1
102
RTVSPost2010Prop51ColorIndex
 90
      256
102
RTVSPost2010Prop51ColorRGB
 90
-16777216
102
RTVSPost2010PropOp51
 70
     0
102
RTVSPost2010Prop52
140
1.0
102
RTVSPost2010PropOp52
 70
     0
102
RTVSPost2010Prop53
 90
        2
102
RTVSPost2010PropOp53
 70
     1
102
RTVSPost2010Prop54
  1
strokes_ogs.tif
102
RTVSPost2010PropOp54
 70
     1
102
RTVSPost2010Prop55
280
     0
102
RTVSPost2010PropOp55
 70
     1
102
RTVSPost2010Prop56
140
1.0
102
RTVSPost2010PropOp56
 70
     1
102
RTVSPost2010Prop57
140
1.0
102
RTVSPost2010PropOp57
 70
     1
102
RTVSPropertyOp0
 70
     1
102
RTVSPropertyOp1
 70
     1
102
RTVSPropertyOp2
 70
     1
102
RTVSPropertyOp3
 70
     1
102
RTVSPropertyOp4
 70
     1
102
RTVSPropertyOp5
 70
     1
102
RTVSPropertyOp6
 70
     1
102
RTVSPropertyOp7
 70
     1
102
RTVSPropertyOp8
 70
     1
102
RTVSPropertyOp9
 70
     1
102
RTVSPropertyOp10
 70
     1
102
RTVSPropertyOp11
 70
     1
102
RTVSPropertyOp12
 70
     1
102
RTVSPropertyOp13
 70
     1
102
RTVSPropertyOp14
 70
     1
102
RTVSPropertyOp15
 70
     1
102
RTVSPropertyOp16
 70
     1
102
RTVSPropertyOp17
 70
     1
102
RTVSPropertyOp18
 70
     1
102
RTVSPropertyOp19
 70
     1
102
RTVSPropertyOp20
 70
     1
102
RTVSPropertyOp21
 70
     1
102
RTVSPropertyOp22
 70
     1
102
RTVSPropertyOp23
 70
     1
102
RTVSPropertyOp24
 70
     1
102
RTVSPropertyOp25
 70
     1
102
RTVSPropertyOp26
 70
     1
102
RTVSPropertyOp27
 70
     1
102
RTVSPropertyOp28
 70
     1
102
RTVSPropertyOp29
 70
     1
102
RTVSPropertyOp30
 70
     1
102
RTVSPropertyOp31
 70
     1
102
RTVSPropertyOp32
 70
     1
102
RTVSPropertyOp33
 70
     1
102
RTVSPropertyOp34
 70
     1
102
RTVSPropertyOp35
 70
     1
102
RTVSPropertyOp36
 70
     1
102
RTVSPropertyOp37
 70
     1
102
RTVSPropertyOp38
 70
     1
102
RTVSPropertyOp39
 70
     1
102
RTVSPropertyOp40
 70
     1
102
RTVSPropertyOp41
 70
     1
102
RTVSPropertyOp42
 70
     1
102
RTVSPropertyOp43
 70
     1
102
RTVSPropertyOp44
 70
     1
102
RTVSPropertyOp45
 70
     1
102
RTVSPropertyOp46
 70
     1
102
RTVSPropertyOp47
 70
     1
102
RTVSPropertyOp48
 70
     1
102
RTVSPropertyOp49
 70
     1
102
RTVSPropertyOp50
 70
     1
102
RTVSPropertyOp51
 70
     0
102
RTVSPropertyOp52
 70
     0
102
RTVSPropertyOp53
 70
     1
102
RTVSPropertyOp54
 70
     1
102
RTVSPropertyOp55
 70
     1
102
RTVSPropertyOp56
 70
     1
102
RTVSPropertyOp57
 70
     1
102
RTVSPropertyOp58
 70
     1
102
RTVSPropertyOp59
 70
     1
102
RTVSPropertyOp60
 70
     1
102
RTVSPropertyOp61
 70
     1
102
RTVSPropertyOp62
 70
     1
  0
XRECORD
  5
FAF45
102
{ACAD_REACTORS
330
FAF44
102
}
330
FAF44
100
AcDbXrecord
280
     1
102
RTVSPost2010Prop28
280
     0
102
RTVSPost2010PropOp28
 70
     1
102
RTVSPost2010Prop29
280
     1
102
RTVSPost2010PropOp29
 70
     1
102
RTVSPost2010Prop30
280
     1
102
RTVSPost2010PropOp30
 70
     1
102
RTVSPost2010Prop31
280
     0
102
RTVSPost2010PropOp31
 70
     1
102
RTVSPost2010Prop32
280
     0
102
RTVSPost2010PropOp32
 70
     1
102
RTVSPost2010Prop33
280
     0
102
RTVSPost2010PropOp33
 70
     1
102
RTVSPost2010Prop34
280
     0
102
RTVSPost2010PropOp34
 70
     1
102
RTVSPost2010Prop35
280
     0
102
RTVSPost2010PropOp35
 70
     1
102
RTVSPost2010Prop36
280
     0
102
RTVSPost2010PropOp36
 70
     1
102
RTVSPost2010Prop37
 90
       50
102
RTVSPost2010PropOp37
 70
     1
102
RTVSPost2010Prop38
140
0.0
102
RTVSPost2010PropOp38
 70
     1
102
RTVSPost2010Prop39
140
1.0
102
RTVSPost2010PropOp39
 70
     1
102
RTVSPost2010Prop40
 90
        0
102
RTVSPost2010PropOp40
 70
     1
102
RTVSPost2010Prop41ColorIndex
 90
       18
102
RTVSPost2010Prop41ColorRGB
 90
        0
102
RTVSPost2010PropOp41
 70
     1
102
RTVSPost2010Prop42
 90
       50
102
RTVSPost2010PropOp42
 70
     1
102
RTVSPost2010Prop43
 90
        3
102
RTVSPost2010PropOp43
 70
     1
102
RTVSPost2010Prop44ColorIndex
 90
        5
102
RTVSPost2010Prop44ColorRGB
 90
      255
102
RTVSPost2010PropOp44
 70
     1
102
RTVSPost2010Prop45
280
     0
102
RTVSPost2010PropOp45
 70
     1
102
RTVSPost2010Prop46
 90
       50
102
RTVSPost2010PropOp46
 70
     1
102
RTVSPost2010Prop47
 90
       50
102
RTVSPost2010PropOp47
 70
     1
102
RTVSPost2010Prop48
 90
       50
102
RTVSPost2010PropOp48
 70
     1
102
RTVSPost2010Prop49
280
     0
102
RTVSPost2010PropOp49
 70
     1
102
RTVSPost2010Prop50
 90
       50
102
RTVSPost2010PropOp50
 70
     1
102
RTVSPost2010Prop51ColorIndex
 90
      256
102
RTVSPost2010Prop51ColorRGB
 90
-16777216
102
RTVSPost2010PropOp51
 70
     0
102
RTVSPost2010Prop52
140
1.0
102
RTVSPost2010PropOp52
 70
     0
102
RTVSPost2010Prop53
 90
        2
102
RTVSPost2010PropOp53
 70
     1
102
RTVSPost2010Prop54
  1
strokes_ogs.tif
102
RTVSPost2010PropOp54
 70
     1
102
RTVSPost2010Prop55
280
     0
102
RTVSPost2010PropOp55
 70
     1
102
RTVSPost2010Prop56
140
1.0
102
RTVSPost2010PropOp56
 70
     1
102
RTVSPost2010Prop57
140
1.0
102
RTVSPost2010PropOp57
 70
     1
102
RTVSPropertyOp0
 70
     1
102
RTVSPropertyOp1
 70
     1
102
RTVSPropertyOp2
 70
     1
102
RTVSPropertyOp3
 70
     1
102
RTVSPropertyOp4
 70
     1
102
RTVSPropertyOp5
 70
     1
102
RTVSPropertyOp6
 70
     1
102
RTVSPropertyOp7
 70
     1
102
RTVSPropertyOp8
 70
     1
102
RTVSPropertyOp9
 70
     1
102
RTVSPropertyOp10
 70
     1
102
RTVSPropertyOp11
 70
     1
102
RTVSPropertyOp12
 70
     1
102
RTVSPropertyOp13
 70
     1
102
RTVSPropertyOp14
 70
     1
102
RTVSPropertyOp15
 70
     1
102
RTVSPropertyOp16
 70
     1
102
RTVSPropertyOp17
 70
     1
102
RTVSPropertyOp18
 70
     1
102
RTVSPropertyOp19
 70
     1
102
RTVSPropertyOp20
 70
     1
102
RTVSPropertyOp21
 70
     1
102
RTVSPropertyOp22
 70
     1
102
RTVSPropertyOp23
 70
     1
102
RTVSPropertyOp24
 70
     1
102
RTVSPropertyOp25
 70
     1
102
RTVSPropertyOp26
 70
     1
102
RTVSPropertyOp27
 70
     1
102
RTVSPropertyOp28
 70
     1
102
RTVSPropertyOp29
 70
     1
102
RTVSPropertyOp30
 70
     1
102
RTVSPropertyOp31
 70
     1
102
RTVSPropertyOp32
 70
     1
102
RTVSPropertyOp33
 70
     1
102
RTVSPropertyOp34
 70
     1
102
RTVSPropertyOp35
 70
     1
102
RTVSPropertyOp36
 70
     1
102
RTVSPropertyOp37
 70
     1
102
RTVSPropertyOp38
 70
     1
102
RTVSPropertyOp39
 70
     1
102
RTVSPropertyOp40
 70
     1
102
RTVSPropertyOp41
 70
     1
102
RTVSPropertyOp42
 70
     1
102
RTVSPropertyOp43
 70
     1
102
RTVSPropertyOp44
 70
     1
102
RTVSPropertyOp45
 70
     1
102
RTVSPropertyOp46
 70
     1
102
RTVSPropertyOp47
 70
     1
102
RTVSPropertyOp48
 70
     1
102
RTVSPropertyOp49
 70
     1
102
RTVSPropertyOp50
 70
     1
102
RTVSPropertyOp51
 70
     0
102
RTVSPropertyOp52
 70
     0
102
RTVSPropertyOp53
 70
     1
102
RTVSPropertyOp54
 70
     1
102
RTVSPropertyOp55
 70
     1
102
RTVSPropertyOp56
 70
     1
102
RTVSPropertyOp57
 70
     1
102
RTVSPropertyOp58
 70
     1
102
RTVSPropertyOp59
 70
     1
102
RTVSPropertyOp60
 70
     1
102
RTVSPropertyOp61
 70
     1
102
RTVSPropertyOp62
 70
     1
  0
XRECORD
  5
FAF39
102
{ACAD_REACTORS
330
FAF38
102
}
330
FAF38
100
AcDbXrecord
280
     1
102
RTVSPost2010Prop28
280
     0
102
RTVSPost2010PropOp28
 70
     1
102
RTVSPost2010Prop29
280
     1
102
RTVSPost2010PropOp29
 70
     1
102
RTVSPost2010Prop30
280
     1
102
RTVSPost2010PropOp30
 70
     1
102
RTVSPost2010Prop31
280
     0
102
RTVSPost2010PropOp31
 70
     1
102
RTVSPost2010Prop32
280
     0
102
RTVSPost2010PropOp32
 70
     1
102
RTVSPost2010Prop33
280
     0
102
RTVSPost2010PropOp33
 70
     1
102
RTVSPost2010Prop34
280
     0
102
RTVSPost2010PropOp34
 70
     1
102
RTVSPost2010Prop35
280
     0
102
RTVSPost2010PropOp35
 70
     1
102
RTVSPost2010Prop36
280
     0
102
RTVSPost2010PropOp36
 70
     1
102
RTVSPost2010Prop37
 90
       50
102
RTVSPost2010PropOp37
 70
     1
102
RTVSPost2010Prop38
140
0.0
102
RTVSPost2010PropOp38
 70
     1
102
RTVSPost2010Prop39
140
1.0
102
RTVSPost2010PropOp39
 70
     1
102
RTVSPost2010Prop40
 90
        0
102
RTVSPost2010PropOp40
 70
     1
102
RTVSPost2010Prop41ColorIndex
 90
       18
102
RTVSPost2010Prop41ColorRGB
 90
        0
102
RTVSPost2010PropOp41
 70
     1
102
RTVSPost2010Prop42
 90
       50
102
RTVSPost2010PropOp42
 70
     1
102
RTVSPost2010Prop43
 90
        3
102
RTVSPost2010PropOp43
 70
     1
102
RTVSPost2010Prop44ColorIndex
 90
        5
102
RTVSPost2010Prop44ColorRGB
 90
      255
102
RTVSPost2010PropOp44
 70
     1
102
RTVSPost2010Prop45
280
     0
102
RTVSPost2010PropOp45
 70
     1
102
RTVSPost2010Prop46
 90
       50
102
RTVSPost2010PropOp46
 70
     1
102
RTVSPost2010Prop47
 90
       50
102
RTVSPost2010PropOp47
 70
     1
102
RTVSPost2010Prop48
 90
       50
102
RTVSPost2010PropOp48
 70
     1
102
RTVSPost2010Prop49
280
     0
102
RTVSPost2010PropOp49
 70
     1
102
RTVSPost2010Prop50
 90
       50
102
RTVSPost2010PropOp50
 70
     1
102
RTVSPost2010Prop51ColorIndex
 90
      256
102
RTVSPost2010Prop51ColorRGB
 90
-16777216
102
RTVSPost2010PropOp51
 70
     0
102
RTVSPost2010Prop52
140
1.0
102
RTVSPost2010PropOp52
 70
     0
102
RTVSPost2010Prop53
 90
        2
102
RTVSPost2010PropOp53
 70
     1
102
RTVSPost2010Prop54
  1
strokes_ogs.tif
102
RTVSPost2010PropOp54
 70
     1
102
RTVSPost2010Prop55
280
     0
102
RTVSPost2010PropOp55
 70
     1
102
RTVSPost2010Prop56
140
1.0
102
RTVSPost2010PropOp56
 70
     1
102
RTVSPost2010Prop57
140
1.0
102
RTVSPost2010PropOp57
 70
     1
102
RTVSPropertyOp0
 70
     1
102
RTVSPropertyOp1
 70
     1
102
RTVSPropertyOp2
 70
     1
102
RTVSPropertyOp3
 70
     1
102
RTVSPropertyOp4
 70
     1
102
RTVSPropertyOp5
 70
     1
102
RTVSPropertyOp6
 70
     1
102
RTVSPropertyOp7
 70
     1
102
RTVSPropertyOp8
 70
     1
102
RTVSPropertyOp9
 70
     1
102
RTVSPropertyOp10
 70
     1
102
RTVSPropertyOp11
 70
     1
102
RTVSPropertyOp12
 70
     1
102
RTVSPropertyOp13
 70
     1
102
RTVSPropertyOp14
 70
     1
102
RTVSPropertyOp15
 70
     1
102
RTVSPropertyOp16
 70
     1
102
RTVSPropertyOp17
 70
     1
102
RTVSPropertyOp18
 70
     1
102
RTVSPropertyOp19
 70
     1
102
RTVSPropertyOp20
 70
     1
102
RTVSPropertyOp21
 70
     1
102
RTVSPropertyOp22
 70
     1
102
RTVSPropertyOp23
 70
     1
102
RTVSPropertyOp24
 70
     1
102
RTVSPropertyOp25
 70
     1
102
RTVSPropertyOp26
 70
     1
102
RTVSPropertyOp27
 70
     1
102
RTVSPropertyOp28
 70
     1
102
RTVSPropertyOp29
 70
     1
102
RTVSPropertyOp30
 70
     1
102
RTVSPropertyOp31
 70
     1
102
RTVSPropertyOp32
 70
     1
102
RTVSPropertyOp33
 70
     1
102
RTVSPropertyOp34
 70
     1
102
RTVSPropertyOp35
 70
     1
102
RTVSPropertyOp36
 70
     1
102
RTVSPropertyOp37
 70
     1
102
RTVSPropertyOp38
 70
     1
102
RTVSPropertyOp39
 70
     1
102
RTVSPropertyOp40
 70
     1
102
RTVSPropertyOp41
 70
     1
102
RTVSPropertyOp42
 70
     1
102
RTVSPropertyOp43
 70
     1
102
RTVSPropertyOp44
 70
     1
102
RTVSPropertyOp45
 70
     1
102
RTVSPropertyOp46
 70
     1
102
RTVSPropertyOp47
 70
     1
102
RTVSPropertyOp48
 70
     1
102
RTVSPropertyOp49
 70
     1
102
RTVSPropertyOp50
 70
     1
102
RTVSPropertyOp51
 70
     0
102
RTVSPropertyOp52
 70
     0
102
RTVSPropertyOp53
 70
     1
102
RTVSPropertyOp54
 70
     1
102
RTVSPropertyOp55
 70
     1
102
RTVSPropertyOp56
 70
     1
102
RTVSPropertyOp57
 70
     1
102
RTVSPropertyOp58
 70
     1
102
RTVSPropertyOp59
 70
     1
102
RTVSPropertyOp60
 70
     1
102
RTVSPropertyOp61
 70
     1
102
RTVSPropertyOp62
 70
     1
  0
XRECORD
  5
FAF51
102
{ACAD_REACTORS
330
FAF50
102
}
330
FAF50
100
AcDbXrecord
280
     1
102
RTVSPost2010Prop28
280
     0
102
RTVSPost2010PropOp28
 70
     1
102
RTVSPost2010Prop29
280
     1
102
RTVSPost2010PropOp29
 70
     1
102
RTVSPost2010Prop30
280
     1
102
RTVSPost2010PropOp30
 70
     1
102
RTVSPost2010Prop31
280
     0
102
RTVSPost2010PropOp31
 70
     1
102
RTVSPost2010Prop32
280
     0
102
RTVSPost2010PropOp32
 70
     1
102
RTVSPost2010Prop33
280
     0
102
RTVSPost2010PropOp33
 70
     1
102
RTVSPost2010Prop34
280
     0
102
RTVSPost2010PropOp34
 70
     1
102
RTVSPost2010Prop35
280
     0
102
RTVSPost2010PropOp35
 70
     1
102
RTVSPost2010Prop36
280
     0
102
RTVSPost2010PropOp36
 70
     1
102
RTVSPost2010Prop37
 90
       50
102
RTVSPost2010PropOp37
 70
     1
102
RTVSPost2010Prop38
140
0.0
102
RTVSPost2010PropOp38
 70
     1
102
RTVSPost2010Prop39
140
1.0
102
RTVSPost2010PropOp39
 70
     1
102
RTVSPost2010Prop40
 90
        0
102
RTVSPost2010PropOp40
 70
     1
102
RTVSPost2010Prop41ColorIndex
 90
       18
102
RTVSPost2010Prop41ColorRGB
 90
        0
102
RTVSPost2010PropOp41
 70
     1
102
RTVSPost2010Prop42
 90
       50
102
RTVSPost2010PropOp42
 70
     1
102
RTVSPost2010Prop43
 90
        3
102
RTVSPost2010PropOp43
 70
     1
102
RTVSPost2010Prop44ColorIndex
 90
        5
102
RTVSPost2010Prop44ColorRGB
 90
      255
102
RTVSPost2010PropOp44
 70
     1
102
RTVSPost2010Prop45
280
     0
102
RTVSPost2010PropOp45
 70
     1
102
RTVSPost2010Prop46
 90
       50
102
RTVSPost2010PropOp46
 70
     1
102
RTVSPost2010Prop47
 90
       50
102
RTVSPost2010PropOp47
 70
     1
102
RTVSPost2010Prop48
 90
       50
102
RTVSPost2010PropOp48
 70
     1
102
RTVSPost2010Prop49
280
     0
102
RTVSPost2010PropOp49
 70
     1
102
RTVSPost2010Prop50
 90
       50
102
RTVSPost2010PropOp50
 70
     1
102
RTVSPost2010Prop51ColorIndex
 90
      256
102
RTVSPost2010Prop51ColorRGB
 90
-16777216
102
RTVSPost2010PropOp51
 70
     0
102
RTVSPost2010Prop52
140
1.0
102
RTVSPost2010PropOp52
 70
     0
102
RTVSPost2010Prop53
 90
        2
102
RTVSPost2010PropOp53
 70
     1
102
RTVSPost2010Prop54
  1
strokes_ogs.tif
102
RTVSPost2010PropOp54
 70
     1
102
RTVSPost2010Prop55
280
     0
102
RTVSPost2010PropOp55
 70
     1
102
RTVSPost2010Prop56
140
1.0
102
RTVSPost2010PropOp56
 70
     1
102
RTVSPost2010Prop57
140
1.0
102
RTVSPost2010PropOp57
 70
     1
102
RTVSPropertyOp0
 70
     1
102
RTVSPropertyOp1
 70
     1
102
RTVSPropertyOp2
 70
     1
102
RTVSPropertyOp3
 70
     1
102
RTVSPropertyOp4
 70
     1
102
RTVSPropertyOp5
 70
     1
102
RTVSPropertyOp6
 70
     1
102
RTVSPropertyOp7
 70
     1
102
RTVSPropertyOp8
 70
     1
102
RTVSPropertyOp9
 70
     1
102
RTVSPropertyOp10
 70
     1
102
RTVSPropertyOp11
 70
     1
102
RTVSPropertyOp12
 70
     1
102
RTVSPropertyOp13
 70
     1
102
RTVSPropertyOp14
 70
     1
102
RTVSPropertyOp15
 70
     1
102
RTVSPropertyOp16
 70
     1
102
RTVSPropertyOp17
 70
     1
102
RTVSPropertyOp18
 70
     1
102
RTVSPropertyOp19
 70
     1
102
RTVSPropertyOp20
 70
     1
102
RTVSPropertyOp21
 70
     1
102
RTVSPropertyOp22
 70
     1
102
RTVSPropertyOp23
 70
     1
102
RTVSPropertyOp24
 70
     1
102
RTVSPropertyOp25
 70
     1
102
RTVSPropertyOp26
 70
     1
102
RTVSPropertyOp27
 70
     1
102
RTVSPropertyOp28
 70
     1
102
RTVSPropertyOp29
 70
     1
102
RTVSPropertyOp30
 70
     1
102
RTVSPropertyOp31
 70
     1
102
RTVSPropertyOp32
 70
     1
102
RTVSPropertyOp33
 70
     1
102
RTVSPropertyOp34
 70
     1
102
RTVSPropertyOp35
 70
     1
102
RTVSPropertyOp36
 70
     1
102
RTVSPropertyOp37
 70
     1
102
RTVSPropertyOp38
 70
     1
102
RTVSPropertyOp39
 70
     1
102
RTVSPropertyOp40
 70
     1
102
RTVSPropertyOp41
 70
     1
102
RTVSPropertyOp42
 70
     1
102
RTVSPropertyOp43
 70
     1
102
RTVSPropertyOp44
 70
     1
102
RTVSPropertyOp45
 70
     1
102
RTVSPropertyOp46
 70
     1
102
RTVSPropertyOp47
 70
     1
102
RTVSPropertyOp48
 70
     1
102
RTVSPropertyOp49
 70
     1
102
RTVSPropertyOp50
 70
     1
102
RTVSPropertyOp51
 70
     0
102
RTVSPropertyOp52
 70
     0
102
RTVSPropertyOp53
 70
     1
102
RTVSPropertyOp54
 70
     1
102
RTVSPropertyOp55
 70
     1
102
RTVSPropertyOp56
 70
     1
102
RTVSPropertyOp57
 70
     1
102
RTVSPropertyOp58
 70
     1
102
RTVSPropertyOp59
 70
     1
102
RTVSPropertyOp60
 70
     1
102
RTVSPropertyOp61
 70
     1
102
RTVSPropertyOp62
 70
     1
  0
ENDSEC
  0
EOF
