  0
SECTION
  2
HEADER
  9
$ACADVER
  1
AC1018
  9
$ACADMAINTVER
 70
   104
  9
$DWGCODEPAGE
  3
ANSI_932
  9
$LASTSAVEDBY
  1
開発
  9
$INSBASE
 10
0.0
 20
0.0
 30
0.0
  9
$EXTMIN
 10
252.511365335521
 20
23.55264457880617
 30
0.0
  9
$EXTMAX
 10
508.2060448251002
 20
206.7743826549049
 30
0.0
  9
$LIMMIN
 10
0.0
 20
0.0
  9
$LIMMAX
 10
420.0
 20
297.0
  9
$ORTHOMODE
 70
     0
  9
$REGENMODE
 70
     1
  9
$FILLMODE
 70
     1
  9
$QTEXTMODE
 70
     0
  9
$MIRRTEXT
 70
     0
  9
$LTSCALE
 40
0.25
  9
$ATTMODE
 70
     1
  9
$TEXTSIZE
 40
2.5
  9
$TRACEWID
 40
1.0
  9
$TEXTSTYLE
  7
2014++
  9
$CLAYER
  8
04_ele1_0.15
  9
$CELTYPE
  6
ByLayer
  9
$CECOLOR
 62
   256
  9
$CELTSCALE
 40
1.0
  9
$DISPSILH
 70
     0
  9
$DIMSCALE
 40
1.0
  9
$DIMASZ
 40
2.5
  9
$DIMEXO
 40
1.0
  9
$DIMDLI
 40
10.0
  9
$DIMRND
 40
0.0
  9
$DIMDLE
 40
0.0
  9
$DIMEXE
 40
1.0
  9
$DIMTP
 40
0.1
  9
$DIMTM
 40
0.1
  9
$DIMTXT
 40
3.5
  9
$DIMCEN
 40
0.0
  9
$DIMTSZ
 40
0.0
  9
$DIMTOL
 70
     0
  9
$DIMLIM
 70
     0
  9
$DIMTIH
 70
     0
  9
$DIMTOH
 70
     0
  9
$DIMSE1
 70
     0
  9
$DIMSE2
 70
     0
  9
$DIMTAD
 70
     1
  9
$DIMZIN
 70
     8
  9
$DIMBLK
  1

  9
$DIMASO
 70
     1
  9
$DIMSHO
 70
     1
  9
$DIMPOST
  1

  9
$DIMAPOST
  1
"
  9
$DIMALT
 70
     0
  9
$DIMALTD
 70
     2
  9
$DIMALTF
 40
0.0393701
  9
$DIMLFAC
 40
1.0
  9
$DIMTOFL
 70
     1
  9
$DIMTVP
 40
0.0
  9
$DIMTIX
 70
     0
  9
$DIMSOXD
 70
     0
  9
$DIMSAH
 70
     0
  9
$DIMBLK1
  1

  9
$DIMBLK2
  1

  9
$DIMSTYLE
  2
AM_ISO
  9
$DIMCLRD
 70
   256
  9
$DIMCLRE
 70
   256
  9
$DIMCLRT
 70
     2
  9
$DIMTFAC
 40
0.71
  9
$DIMGAP
 40
1.5
  9
$DIMJUST
 70
     0
  9
$DIMSD1
 70
     0
  9
$DIMSD2
 70
     0
  9
$DIMTOLJ
 70
     0
  9
$DIMTZIN
 70
     8
  9
$DIMALTZ
 70
     0
  9
$DIMALTTZ
 70
     0
  9
$DIMUPT
 70
     0
  9
$DIMDEC
 70
     2
  9
$DIMTDEC
 70
     3
  9
$DIMALTU
 70
     2
  9
$DIMALTTD
 70
     4
  9
$DIMTXSTY
  7
STANDARD
  9
$DIMAUNIT
 70
     0
  9
$DIMADEC
 70
     0
  9
$DIMALTRND
 40
0.0
  9
$DIMAZIN
 70
     2
  9
$DIMDSEP
 70
    46
  9
$DIMATFIT
 70
     3
  9
$DIMFRAC
 70
     0
  9
$DIMLDRBLK
  1

  9
$DIMLUNIT
 70
     2
  9
$DIMLWD
 70
    -1
  9
$DIMLWE
 70
    -1
  9
$DIMTMOVE
 70
     0
  9
$LUNITS
 70
     2
  9
$LUPREC
 70
     2
  9
$SKETCHINC
 40
1.0
  9
$FILLETRAD
 40
2.5
  9
$AUNITS
 70
     0
  9
$AUPREC
 70
     0
  9
$MENU
  1
.
  9
$ELEVATION
 40
0.0
  9
$PELEVATION
 40
0.0
  9
$THICKNESS
 40
0.0
  9
$LIMCHECK
 70
     0
  9
$CHAMFERA
 40
2.5
  9
$CHAMFERB
 40
2.5
  9
$CHAMFERC
 40
20.0
  9
$CHAMFERD
 40
0.0
  9
$SKPOLY
 70
     0
  9
$TDCREATE
 40
2457119.552526574
  9
$TDUCREATE
 40
2457119.177526574
  9
$TDUPDATE
 40
2458397.727142720
  9
$TDUUPDATE
 40
2458397.352142720
  9
$TDINDWG
 40
0.0289028819
  9
$TDUSRTIMER
 40
0.0289028472
  9
$USRTIMER
 70
     1
  9
$ANGBASE
 50
0.0
  9
$ANGDIR
 70
     0
  9
$PDMODE
 70
     0
  9
$PDSIZE
 40
0.0
  9
$PLINEWID
 40
0.0
  9
$SPLFRAME
 70
     0
  9
$SPLINETYPE
 70
     6
  9
$SPLINESEGS
 70
     8
  9
$HANDSEED
  5
FD37F
  9
$SURFTAB1
 70
     6
  9
$SURFTAB2
 70
     6
  9
$SURFTYPE
 70
     6
  9
$SURFU
 70
     6
  9
$SURFV
 70
     6
  9
$UCSBASE
  2

  9
$UCSNAME
  2

  9
$UCSORG
 10
0.0
 20
0.0
 30
0.0
  9
$UCSXDIR
 10
1.0
 20
0.0
 30
0.0
  9
$UCSYDIR
 10
0.0
 20
1.0
 30
0.0
  9
$UCSORTHOREF
  2

  9
$UCSORTHOVIEW
 70
     0
  9
$UCSORGTOP
 10
0.0
 20
0.0
 30
0.0
  9
$UCSORGBOTTOM
 10
0.0
 20
0.0
 30
0.0
  9
$UCSORGLEFT
 10
0.0
 20
0.0
 30
0.0
  9
$UCSORGRIGHT
 10
0.0
 20
0.0
 30
0.0
  9
$UCSORGFRONT
 10
0.0
 20
0.0
 30
0.0
  9
$UCSORGBACK
 10
0.0
 20
0.0
 30
0.0
  9
$PUCSBASE
  2

  9
$PUCSNAME
  2

  9
$PUCSORG
 10
0.0
 20
0.0
 30
0.0
  9
$PUCSXDIR
 10
1.0
 20
0.0
 30
0.0
  9
$PUCSYDIR
 10
0.0
 20
1.0
 30
0.0
  9
$PUCSORTHOREF
  2

  9
$PUCSORTHOVIEW
 70
     0
  9
$PUCSORGTOP
 10
0.0
 20
0.0
 30
0.0
  9
$PUCSORGBOTTOM
 10
0.0
 20
0.0
 30
0.0
  9
$PUCSORGLEFT
 10
0.0
 20
0.0
 30
0.0
  9
$PUCSORGRIGHT
 10
0.0
 20
0.0
 30
0.0
  9
$PUCSORGFRONT
 10
0.0
 20
0.0
 30
0.0
  9
$PUCSORGBACK
 10
0.0
 20
0.0
 30
0.0
  9
$USERI1
 70
     0
  9
$USERI2
 70
     0
  9
$USERI3
 70
     0
  9
$USERI4
 70
     0
  9
$USERI5
 70
     0
  9
$USERR1
 40
0.0
  9
$USERR2
 40
0.0
  9
$USERR3
 40
0.0
  9
$USERR4
 40
0.0
  9
$USERR5
 40
0.0
  9
$WORLDVIEW
 70
     1
  9
$SHADEDGE
 70
     3
  9
$SHADEDIF
 70
    70
  9
$TILEMODE
 70
     1
  9
$MAXACTVP
 70
    64
  9
$PINSBASE
 10
0.0
 20
0.0
 30
0.0
  9
$PLIMCHECK
 70
     0
  9
$PEXTMIN
 10
1.000000000000000E+20
 20
1.000000000000000E+20
 30
1.000000000000000E+20
  9
$PEXTMAX
 10
-1.000000000000000E+20
 20
-1.000000000000000E+20
 30
-1.000000000000000E+20
  9
$PLIMMIN
 10
-5.873748779296875
 20
-5.873749732971191
  9
$PLIMMAX
 10
291.05224609375
 20
204.0995779037475
  9
$UNITMODE
 70
     0
  9
$VISRETAIN
 70
     1
  9
$PLINEGEN
 70
     0
  9
$PSLTSCALE
 70
     1
  9
$TREEDEPTH
 70
  3020
  9
$CMLSTYLE
  2
Standard
  9
$CMLJUST
 70
     0
  9
$CMLSCALE
 40
20.0
  9
$PROXYGRAPHICS
 70
     1
  9
$MEASUREMENT
 70
     1
  9
$CELWEIGHT
370
    -1
  9
$ENDCAPS
280
     0
  9
$JOINSTYLE
280
     0
  9
$LWDISPLAY
290
     0
  9
$INSUNITS
 70
     4
  9
$HYPERLINKBASE
  1

  9
$STYLESHEET
  1
MONOCHROME.CTB
  9
$XEDIT
290
     1
  9
$CEPSNTYPE
380
     0
  9
$PSTYLEMODE
290
     1
  9
$FINGERPRINTGUID
  2
{50BE1C40-7876-4AFD-8770-B7778E71A178}
  9
$VERSIONGUID
  2
{66AB8B3D-0014-4248-A017-618E572988C1}
  9
$EXTNAMES
290
     1
  9
$PSVPSCALE
 40
0.0
  9
$OLESTARTUP
290
     0
  9
$SORTENTS
280
    96
  9
$INDEXCTL
280
     0
  9
$HIDETEXT
280
     0
  9
$XCLIPFRAME
290
     0
  9
$HALOGAP
280
     0
  9
$OBSCOLOR
 70
   257
  9
$OBSLTYPE
280
     0
  9
$INTERSECTIONDISPLAY
280
     0
  9
$INTERSECTIONCOLOR
 70
   257
  9
$DIMASSOC
280
     1
  9
$PROJECTNAME
  1

  0
ENDSEC
  0
SECTION
  2
CLASSES
  0
CLASS
  1
ACDBDICTIONARYWDFLT
  2
AcDbDictionaryWithDefault
  3
ObjectDBX Classes
 90
        0
 91
        1
280
     0
281
     0
  0
CLASS
  1
DICTIONARYVAR
  2
AcDbDictionaryVar
  3
ObjectDBX Classes
 90
        0
 91
       14
280
     0
281
     0
  0
CLASS
  1
ACME_DOCUMENT
  2
AcMeDbDoc
  3
AcMeServices
 90
     1024
 91
        1
280
     0
281
     0
  0
CLASS
  1
ACMESCOPE
  2
AcMeScope
  3
AcMeServices
 90
     1024
 91
        1
280
     0
281
     0
  0
CLASS
  1
ACMECOMMANDHISTORY
  2
AcMeCommandHistory
  3
AcMeServices
 90
     1024
 91
        1
280
     0
281
     0
  0
CLASS
  1
ACIMSYSVARMAN
  2
AcImSysVarManager
  3
AcMeServices
 90
     1024
 91
        3
280
     0
281
     0
  0
CLASS
  1
ACIMINTSYSVAR
  2
AcImIntSysVar
  3
AcMeServices
 90
     1024
 91
        2
280
     0
281
     0
  0
CLASS
  1
ACMEDRAWINGMAN
  2
AcMeDrawingMan
  3
AcMeServices
 90
     1024
 91
        0
280
     0
281
     0
  0
CLASS
  1
ACMEVIEW
  2
AcMeView
  3
AcMeServices
 90
     1024
 91
        0
280
     0
281
     0
  0
CLASS
  1
ACDBENTITYCACHE
  2
AcMeEntityCache
  3
AcMeServices
 90
     1024
 91
        1
280
     0
281
     0
  0
CLASS
  1
GSMANAGER
  2
AcMeGSManager
  3
AcMeServices
 90
        0
 91
        0
280
     0
281
     0
  0
CLASS
  1
AMDTINTERNALREACTOR
  2
AmdtInternalReactor
  3
AcMeServices
 90
     1024
 91
        0
280
     0
281
     0
  0
CLASS
  1
ACMESTATEMGR
  2
AcMeStateMgr
  3
AcMeServices
 90
     1024
 91
        1
280
     0
281
     0
  0
CLASS
  1
ACGREFMASTER
  2
AcGrefMaster
  3
AcAttribServices
 90
     1024
 91
        1
280
     0
281
     0
  0
CLASS
  1
AM_DRAWING_MGR
  2
AcDmDwgMgr
  3
AcMechDwgViewMgmt
 90
     1024
 91
        0
280
     0
281
     0
  0
CLASS
  1
AM_DWG_DOCUMENT
  2
AcDmDwgDocument
  3
AcMechDwgViewMgmt
 90
     1024
 91
        0
280
     0
281
     0
  0
CLASS
  1
AM_DWG_SHEET
  2
AcDmSheet
  3
AcMechDwgViewMgmt
 90
     1024
 91
        0
280
     0
281
     0
  0
CLASS
  1
AM_VIEWDIMPARMAP
  2
AcDmViewDimParMap
  3
AcMechDwgViewMgmt
 90
     1024
 91
        0
280
     0
281
     0
  0
CLASS
  1
ACIMREALSYSVAR
  2
AcImRealSysVar
  3
AcMeServices
 90
     1024
 91
        0
280
     0
281
     0
  0
CLASS
  1
AM_DWGMGR_NAME
  2
AcDmDwgMgrName
  3
AcMechDwgViewMgmt
 90
     1024
 91
        0
280
     0
281
     0
  0
CLASS
  1
ACME_DATABASE
  2
AcMeDbDatabase
  3
AcMeServices
 90
     1024
 91
        1
280
     0
281
     0
  0
CLASS
  1
ACRFINSADJUSTERMGR
  2
AcRfInsAdjusterMgr
  3
AcMeServices
 90
     1024
 91
        1
280
     0
281
     0
  0
CLASS
  1
ACGREFACADMASTER
  2
AcGrefacadMaster
  3
AcGrefServices
 90
     1024
 91
        1
280
     0
281
     0
  0
CLASS
  1
AMDTMENUSTATEMGR
  2
AmdtMenuStateMgr
  3
McadcomServices
 90
     1024
 91
        1
280
     0
281
     0
  0
CLASS
  1
AMDTMCOMMENUSTATE
  2
AmdtMcomMenuState
  3
McadcomServices
 90
     1024
 91
        1
280
     0
281
     0
  0
CLASS
  1
AMIMASTER
  2
AmiMaster
  3
AmiServices
 90
     1024
 91
        1
280
     0
281
     0
  0
CLASS
  1
AMGSETTINGSOBJ
  2
AmgSettingsObj
  3
"AcadM|Product Description: AutoCAD Mechanical|Company: Autodesk, Inc."
 90
     1024
 91
        2
280
     0
281
     0
  0
CLASS
  1
MAPIAMMOUDLE
  2
MApiAmModule
  3
MApiAmServices
 90
     1024
 91
        1
280
     0
281
     0
  0
CLASS
  1
AMDTADMENUSTATE
  2
AmdtAdMenuState
  3
DesignerServices
 90
        0
 91
        0
280
     0
281
     0
  0
CLASS
  1
ADAPPL
  2
AcAdAppl
  3
DesignerAssemblies
 90
     1024
 91
        0
280
     0
281
     0
  0
CLASS
  1
DEPMGR
  2
AcAdDepMgr
  3
DesignerAssemblies
 90
     1024
 91
        0
280
     0
281
     0
  0
CLASS
  1
PARAMMGR
  2
AcAdParamMgr
  3
DesignerAssemblies
 90
     1024
 91
        0
280
     0
281
     0
  0
CLASS
  1
PARAMSCOPE
  2
AcAdParamScope
  3
DesignerAssemblies
 90
     1024
 91
        0
280
     0
281
     0
  0
CLASS
  1
NAMEDAPPL
  2
AcAdNamedAppl
  3
DesignerAssemblies
 90
     1024
 91
        0
280
     0
281
     0
  0
CLASS
  1
AMDTDMMENUSTATE
  2
AmdtDmMenuState
  3
AcMechDwgViewMgmt
 90
        0
 91
        0
280
     0
281
     0
  0
CLASS
  1
AMDTAMMENUSTATE
  2
AmdtAmMenuState
  3
DesignerAssemblies
 90
     1024
 91
        1
280
     0
281
     0
  0
CLASS
  1
ACIMSTRSYSVAR
  2
AcImStrSysVar
  3
AcMeServices
 90
     1024
 91
        5
280
     0
281
     0
  0
CLASS
  1
ACAMPROJECT
  2
AcAmProject
  3
DesignerAssemblies
 90
     1024
 91
        1
280
     0
281
     0
  0
CLASS
  1
ACAMGRCOMPDEF
  2
AcAmGrCompDef
  3
DesignerAssemblies
 90
     1024
 91
        1
280
     0
281
     0
  0
CLASS
  1
ACCMCONTEXT
  2
AcCmContext
  3
DesignerAssemblies
 90
     1024
 91
        0
280
     0
281
     0
  0
CLASS
  1
ACAMCOMPDEF
  2
AcAmCompDef
  3
DesignerAssemblies
 90
     1024
 91
        1
280
     0
281
     0
  0
CLASS
  1
ACAMCOMPDEFMGR
  2
AcAmCompDefMgr
  3
DesignerAssemblies
 90
     1024
 91
        1
280
     0
281
     0
  0
CLASS
  1
AMCONTEXTMGR
  2
AcAmContextMgr
  3
DesignerAssemblies
 90
     1024
 91
        1
280
     0
281
     0
  0
CLASS
  1
ACAMCONTEXTMODELER
  2
AcAmContextModeler
  3
DesignerAssemblies
 90
     1024
 91
        1
280
     0
281
     0
  0
CLASS
  1
ACMDATADICTIONARY
  2
AcmDataDictionary
  3
"AcmSymBB|Product Description: AutoCAD Mechanical|Company: Autodesk, Inc."
 90
     1024
 91
        1
280
     0
281
     0
  0
CLASS
  1
CATALOGSTATE
  2
AcAmCatalogState
  3
DesignerAssemblies
 90
     1024
 91
        0
280
     0
281
     0
  0
CLASS
  1
ACAMGRCOMPDEFSET
  2
AcAmGrCompDefSet
  3
DesignerAssemblies
 90
     1024
 91
        1
280
     0
281
     0
  0
CLASS
  1
AMDTBROWSERDBTAB
  2
AmdtBrowserDbTab
  3
McadcomServices
 90
     1024
 91
        1
280
     0
281
     0
  0
CLASS
  1
CBROWSERAPPOBJECT
  2
CBrowserAppObject
  3
McadcomServices
 90
     1024
 91
        2
280
     0
281
     0
  0
CLASS
  1
DM_PLACEHOLDER
  2
AcDmSelsetPlaceholder
  3
McadcomServices
 90
     1024
 91
        1
280
     0
281
     0
  0
CLASS
  1
ACMSTANDARDISO
  2
AcmStandardISO
  3
"Amdt_StdImp|Product Description: AutoCAD Mechanical|Company: Autodesk, Inc."
 90
     1024
 91
        1
280
     0
281
     0
  0
CLASS
  1
AMGOBJPROPCFG
  2
AmgObjPropCfg
  3
"AmgLay|Product Description: AutoCAD Mechanical|Company: Autodesk, Inc."
 90
     1024
 91
        1
280
     0
281
     0
  0
CLASS
  1
AMDTEDGESTANDARDISO
  2
AmdtEdgeStdISO
  3
"Amdt_StdImp|Product Description: AutoCAD Mechanical|Company: Autodesk, Inc."
 90
     1024
 91
        0
280
     0
281
     0
  0
CLASS
  1
ACMSURFSTANDARDISO
  2
AcmSurfTextStdISO
  3
"Amdt_StdImp|Product Description: AutoCAD Mechanical|Company: Autodesk, Inc."
 90
     1024
 91
        0
280
     0
281
     0
  0
CLASS
  1
ACMFCFSTANDARDISO
  2
AcmFCFStdISO
  3
"Amdt_StdImp|Product Description: AutoCAD Mechanical|Company: Autodesk, Inc."
 90
     1024
 91
        0
280
     0
281
     0
  0
CLASS
  1
ACMWELDSTANDARDISO
  2
AcmWeldingStdISO
  3
"Amdt_StdImp|Product Description: AutoCAD Mechanical|Company: Autodesk, Inc."
 90
     1024
 91
        1
280
     0
281
     0
  0
CLASS
  1
ACMIDSTANDARDISO
  2
AcmIdStdISO
  3
"Amdt_StdImp|Product Description: AutoCAD Mechanical|Company: Autodesk, Inc."
 90
     1024
 91
        0
280
     0
281
     0
  0
CLASS
  1
ACMDATUMSTANDARDISO
  2
AcmDatumStdISO
  3
"Amdt_StdImp|Product Description: AutoCAD Mechanical|Company: Autodesk, Inc."
 90
     1024
 91
        0
280
     0
281
     0
  0
CLASS
  1
ACMBOMSTANDARDISO
  2
AcmBOMStdISO
  3
"Amdt_StdImp|Product Description: AutoCAD Mechanical|Company: Autodesk, Inc."
 90
     1024
 91
        1
280
     0
281
     0
  0
CLASS
  1
ACMDETAILSTANDARDISO
  2
AmdtDetailSymStdISO
  3
"Amdt_StdImp|Product Description: AutoCAD Mechanical|Company: Autodesk, Inc."
 90
     1024
 91
        1
280
     0
281
     0
  0
CLASS
  1
ACMSECTIONSTANDARDISO
  2
AmdtSectionSymStdISO
  3
"Amdt_StdImp|Product Description: AutoCAD Mechanical|Company: Autodesk, Inc."
 90
     1024
 91
        0
280
     0
281
     0
  0
CLASS
  1
ACMCENTERLINESTANDARDISO
  2
AmdtCenterLineStdISO
  3
"Amdt_StdImp|Product Description: AutoCAD Mechanical|Company: Autodesk, Inc."
 90
     1024
 91
        1
280
     0
281
     0
  0
CLASS
  1
ACMTHREADLINESTANDARDISO
  2
AmdtThreadLineStdISO
  3
"Amdt_StdImp|Product Description: AutoCAD Mechanical|Company: Autodesk, Inc."
 90
     1024
 91
        1
280
     0
281
     0
  0
CLASS
  1
ACMNOTESTANDARDISO
  2
AmdtNoteStdISO
  3
"Amdt_StdImp|Product Description: AutoCAD Mechanical|Company: Autodesk, Inc."
 90
     1024
 91
        1
280
     0
281
     0
  0
CLASS
  1
AMDTNOTETEMPLATEDB
  2
AmdtNoteTemplateDB
  3
AcmSymBB|Product Description: AutoCAD Mechanical|Company: Autodesk, Inc.
 90
     1024
 91
        7
280
     0
281
     0
  0
CLASS
  1
ACAMGLAYSTD
  2
AcAmgLayStd
  3
"AmgLay|Product Description: AutoCAD Mechanical|Company: Autodesk, Inc."
 90
     1024
 91
        1
280
     0
281
     0
  0
CLASS
  1
ACAMGDIMSTD
  2
AcAmgDimStd
  3
"AmgDim|Product Description: AutoCAD Mechanical|Company: Autodesk, Inc."
 90
     1024
 91
        1
280
     0
281
     0
  0
CLASS
  1
ACAMGHOLECHARTSTDISO
  2
AcAmgHoleChartStdISO
  3
AmgDim|Product Description: AutoCAD Mechanical|Company: Autodesk, Inc.
 90
     1024
 91
        1
280
     0
281
     0
  0
CLASS
  1
ACAMGTITLESTD
  2
AcAmgTitleStd
  3
"AmgTitle|Product Description: AutoCAD Mechanical|Company: Autodesk, Inc."
 90
     1024
 91
        1
280
     0
281
     0
  0
CLASS
  1
LAYER_INDEX
  2
AcDbLayerIndex
  3
ObjectDBX Classes
 90
        0
 91
        0
280
     0
281
     0
  0
CLASS
  1
IDBUFFER
  2
AcDbIdBuffer
  3
ObjectDBX Classes
 90
        0
 91
        0
280
     0
281
     0
  0
CLASS
  1
ACMSTANDARDANSI
  2
AcmStandardANSI
  3
"Amdt_StdImp|Product Description: AutoCAD Mechanical|Company: Autodesk, Inc."
 90
     1024
 91
        0
280
     0
281
     0
  0
CLASS
  1
ACMSURFSTANDARDANSI
  2
AcmSurfTextStdANSI
  3
"Amdt_StdImp|Product Description: AutoCAD Mechanical|Company: Autodesk, Inc."
 90
     1024
 91
        0
280
     0
281
     0
  0
CLASS
  1
ACMFCFSTANDARDANSI
  2
AcmFCFStdANSI
  3
"Amdt_StdImp|Product Description: AutoCAD Mechanical|Company: Autodesk, Inc."
 90
     1024
 91
        0
280
     0
281
     0
  0
CLASS
  1
ACMWELDSTANDARDANSI
  2
AcmWeldingStdANSI
  3
"Amdt_StdImp|Product Description: AutoCAD Mechanical|Company: Autodesk, Inc."
 90
     1024
 91
        0
280
     0
281
     0
  0
CLASS
  1
ACMIDSTANDARDANSI
  2
AcmIdStdANSI
  3
"Amdt_StdImp|Product Description: AutoCAD Mechanical|Company: Autodesk, Inc."
 90
     1024
 91
        0
280
     0
281
     0
  0
CLASS
  1
ACMDATUMSTANDARDANSI
  2
AcmDatumStdANSI
  3
"Amdt_StdImp|Product Description: AutoCAD Mechanical|Company: Autodesk, Inc."
 90
     1024
 91
        0
280
     0
281
     0
  0
CLASS
  1
ACMBOMSTANDARDANSI
  2
AcmBOMStdANSI
  3
"Amdt_StdImp|Product Description: AutoCAD Mechanical|Company: Autodesk, Inc."
 90
     1024
 91
        0
280
     0
281
     0
  0
CLASS
  1
ACMDETAILSTANDARDANSI
  2
AmdtDetailSymStdANSI
  3
"Amdt_StdImp|Product Description: AutoCAD Mechanical|Company: Autodesk, Inc."
 90
     1024
 91
        0
280
     0
281
     0
  0
CLASS
  1
ACMSECTIONSTANDARDANSI
  2
AmdtSectionSymStdANSI
  3
"Amdt_StdImp|Product Description: AutoCAD Mechanical|Company: Autodesk, Inc."
 90
     1024
 91
        0
280
     0
281
     0
  0
CLASS
  1
ACMCENTERLINESTANDARDANSI
  2
AmdtCenterLineStdANSI
  3
"Amdt_StdImp|Product Description: AutoCAD Mechanical|Company: Autodesk, Inc."
 90
     1024
 91
        0
280
     0
281
     0
  0
CLASS
  1
ACMTHREADLINESTANDARDANSI
  2
AmdtThreadLineStdANSI
  3
"Amdt_StdImp|Product Description: AutoCAD Mechanical|Company: Autodesk, Inc."
 90
     1024
 91
        0
280
     0
281
     0
  0
CLASS
  1
ACMNOTESTANDARDANSI
  2
AmdtNoteStdANSI
  3
"Amdt_StdImp|Product Description: AutoCAD Mechanical|Company: Autodesk, Inc."
 90
     1024
 91
        0
280
     0
281
     0
  0
CLASS
  1
ACAMGHOLECHARTSTDANSI
  2
AcAmgHoleChartStdANSI
  3
AmgDim|Product Description: AutoCAD Mechanical|Company: Autodesk, Inc.
 90
     1024
 91
        0
280
     0
281
     0
  0
CLASS
  1
ACAMGFILTERDAT
  2
AcAmgFilterDat
  3
"AcadM|Product Description: AutoCAD Mechanical|Company: Autodesk, Inc."
 90
     1024
 91
        0
280
     0
281
     0
  0
CLASS
  1
ACRFATTGENMGR
  2
AcRfAttGeneralMgr
  3
AcAttribServices
 90
     1024
 91
        0
280
     0
281
     0
  0
CLASS
  1
MATERIAL
  2
AcDbMaterial
  3
ObjectDBX Classes
 90
     1153
 91
        3
280
     0
281
     0
  0
CLASS
  1
VISUALSTYLE
  2
AcDbVisualStyle
  3
ObjectDBX Classes
 90
     4095
 91
       24
280
     0
281
     0
  0
CLASS
  1
TABLESTYLE
  2
AcDbTableStyle
  3
ObjectDBX Classes
 90
     4095
 91
        1
280
     0
281
     0
  0
CLASS
  1
SCALE
  2
AcDbScale
  3
ObjectDBX Classes
 90
     1153
 91
       17
280
     0
281
     0
  0
CLASS
  1
MLEADERSTYLE
  2
AcDbMLeaderStyle
  3
ACDB_MLEADERSTYLE_CLASS
 90
     4095
 91
        1
280
     0
281
     0
  0
CLASS
  1
ACDBSECTIONVIEWSTYLE
  2
AcDbSectionViewStyle
  3
ObjectDBX Classes
 90
     1025
 91
        2
280
     0
281
     0
  0
CLASS
  1
ACDBDETAILVIEWSTYLE
  2
AcDbDetailViewStyle
  3
ObjectDBX Classes
 90
     1025
 91
        2
280
     0
281
     0
  0
CLASS
  1
ACMTAPERSTANDARDISO
  2
AcmTaperStdISO
  3
"Amdt_StdImp|Product Description: AutoCAD Mechanical|Company: Autodesk, Inc."
 90
     1024
 91
        1
280
     0
281
     0
  0
CLASS
  1
ACMANOOTATIONVIEWSTANDARDISO
  2
AmdtAnViewStdISO
  3
"Amdt_StdImp|Product Description: AutoCAD Mechanical|Company: Autodesk, Inc."
 90
     1024
 91
        1
280
     0
281
     0
  0
CLASS
  1
ACMSECTIONSTANDARDCUSTOM
  2
AmdtSectionSymStdCustom
  3
"Amdt_StdImp|Product Description: AutoCAD Mechanical|Company: Autodesk, Inc."
 90
     1024
 91
        1
280
     0
281
     0
  0
CLASS
  1
ACMDETAILTANDARDCUSTOM
  2
AmdtDetailSymStdCustom
  3
"Amdt_StdImp|Product Description: AutoCAD Mechanical|Company: Autodesk, Inc."
 90
     1024
 91
        1
280
     0
281
     0
  0
CLASS
  1
FIELD
  2
AcDbField
  3
ObjectDBX Classes
 90
     1152
 91
        3
280
     0
281
     0
  0
CLASS
  1
FIELDLIST
  2
AcDbFieldList
  3
ObjectDBX Classes
 90
     1152
 91
        1
280
     0
281
     0
  0
CLASS
  1
CELLSTYLEMAP
  2
AcDbCellStyleMap
  3
ObjectDBX Classes
 90
     1152
 91
        5
280
     0
281
     0
  0
CLASS
  1
AMDTEDGESTANDARDISO13715
  2
AmdtEdgeStdISO13715
  3
"Amdt_StdImp|Product Description: AutoCAD Mechanical|Company: Autodesk, Inc."
 90
     1024
 91
        1
280
     0
281
     0
  0
CLASS
  1
ACMSURFSTANDARDISO2002
  2
AcmSurfTextStdISO2002
  3
"Amdt_StdImp|Product Description: AutoCAD Mechanical|Company: Autodesk, Inc."
 90
     1024
 91
        1
280
     0
281
     0
  0
CLASS
  1
ACMFCFSTANDARDISO2012
  2
AcmFCFStdISO2012
  3
"Amdt_StdImp|Product Description: AutoCAD Mechanical|Company: Autodesk, Inc."
 90
     1024
 91
        1
280
     0
281
     0
  0
CLASS
  1
ACMIDSTANDARDISO2012
  2
AcmIdStdISO2012
  3
"Amdt_StdImp|Product Description: AutoCAD Mechanical|Company: Autodesk, Inc."
 90
     1024
 91
        1
280
     0
281
     0
  0
CLASS
  1
ACMDATUMSTANDARDISO2012
  2
AcmDatumStdISO2012
  3
"Amdt_StdImp|Product Description: AutoCAD Mechanical|Company: Autodesk, Inc."
 90
     1024
 91
        1
280
     0
281
     0
  0
CLASS
  1
ACMSECTIONSTANDARDISO2001
  2
AmdtSectionSymStdISO2001
  3
"Amdt_StdImp|Product Description: AutoCAD Mechanical|Company: Autodesk, Inc."
 90
     1024
 91
        1
280
     0
281
     0
  0
ENDSEC
  0
SECTION
  2
TABLES
  0
TABLE
  2
VPORT
  5
8
102
{ACAD_XDICTIONARY
360
FC7F0
102
}
330
0
100
AcDbSymbolTable
 70
     1
  0
VPORT
  5
FC72B
330
8
100
AcDbSymbolTableRecord
100
AcDbViewportTableRecord
  2
*Active
 70
     0
 10
0.0
 20
0.0
 11
1.0
 21
1.0
 12
380.3596638169556
 22
115.1568381160693
 13
0.0
 23
0.0
 14
2.5
 24
2.5
 15
10.0
 25
10.0
 16
0.0
 26
0.0
 36
1.0
 17
0.0
 27
0.0
 37
0.0
 40
184.5287074176557
 41
1.807242990654205
 42
50.0
 43
0.0
 44
0.0
 50
0.0
 51
0.0
 71
     0
 72
   100
 73
     1
 74
     3
 75
     0
 76
     0
 77
     0
 78
     0
281
     0
 65
     0
110
0.0
120
0.0
130
0.0
111
1.0
121
0.0
131
0.0
112
0.0
122
1.0
132
0.0
 79
     0
146
0.0
1001
ACAD_NAV_VCDISPLAY
1070
     3
  0
ENDTAB
  0
TABLE
  2
LTYPE
  5
5
330
0
100
AcDbSymbolTable
 70
    15
  0
LTYPE
  5
14
330
5
100
AcDbSymbolTableRecord
100
AcDbLinetypeTableRecord
  2
ByBlock
 70
     0
  3

 72
    65
 73
     0
 40
0.0
  0
LTYPE
  5
15
330
5
100
AcDbSymbolTableRecord
100
AcDbLinetypeTableRecord
  2
ByLayer
 70
     0
  3

 72
    65
 73
     0
 40
0.0
  0
LTYPE
  5
16
330
5
100
AcDbSymbolTableRecord
100
AcDbLinetypeTableRecord
  2
Continuous
 70
     0
  3
Solid line
 72
    65
 73
     0
 40
0.0
  0
LTYPE
  5
16D41
330
5
100
AcDbSymbolTableRecord
100
AcDbLinetypeTableRecord
  2
AM_ISO02W050
 70
     0
  3
__ __ __ __ __ __ __ __ __ __ __ __ __ __ __
 72
    65
 73
     2
 40
7.5
 49
6.0
 74
     0
 49
-1.5
 74
     0
  0
LTYPE
  5
16D42
330
5
100
AcDbSymbolTableRecord
100
AcDbLinetypeTableRecord
  2
AM_ISO08W050
 70
     0
  3
____ . ____ . ____ . ____ . ____ . ____ . ____
 72
    65
 73
     4
 40
18.0
 49
12.0
 74
     0
 49
-1.5
 74
     0
 49
3.0
 74
     0
 49
-1.5
 74
     0
  0
LTYPE
  5
16D43
330
5
100
AcDbSymbolTableRecord
100
AcDbLinetypeTableRecord
  2
AM_ISO09W050
 70
     0
  3
_____ . . _____ . . _____ . . ____ .. ____
 72
    65
 73
     6
 40
22.5
 49
12.0
 74
     0
 49
-1.5
 74
     0
 49
3.0
 74
     0
 49
-1.5
 74
     0
 49
3.0
 74
     0
 49
-1.5
 74
     0
  0
LTYPE
  5
16D44
330
5
100
AcDbSymbolTableRecord
100
AcDbLinetypeTableRecord
  2
Amconstr
 70
     0
  3
_______________________
 72
    65
 73
     2
 40
9999.0
 49
9999.0
 74
     0
 49
0.0
 74
     0
  0
LTYPE
  5
16D45
330
5
100
AcDbSymbolTableRecord
100
AcDbLinetypeTableRecord
  2
AM_ISO08W050x2
 70
     0
  3
__ . __ . __ . __ . __ . __
 72
    65
 73
     4
 40
9.0
 49
6.0
 74
     0
 49
-0.75
 74
     0
 49
1.5
 74
     0
 49
-0.75
 74
     0
  0
LTYPE
  5
16D46
330
5
100
AcDbSymbolTableRecord
100
AcDbLinetypeTableRecord
  2
AM_ISO02W050x2
 70
     0
  3
 _ _ _ _ _ _ _ _ _ _ _ _
 72
    65
 73
     2
 40
3.75
 49
3.0
 74
     0
 49
-0.75
 74
     0
  0
LTYPE
  5
16D47
330
5
100
AcDbSymbolTableRecord
100
AcDbLinetypeTableRecord
  2
Amzigzag
 70
     0
  3
/\/-/\/-/\/-/\/-/\/-/\/
 72
    65
 73
     2
 40
11.0001
 49
0.0001
 74
     4
 75
   135
340
3AE2
 46
0.04
 50
0.0
 44
0.0
 45
0.0
 49
-11.0
 74
     0
  0
LTYPE
  5
16D56
330
5
100
AcDbSymbolTableRecord
100
AcDbLinetypeTableRecord
  2
ACISOWELD
 70
     0
  3
_ _ _ _ _
 72
    65
 73
     2
 40
2.0
 49
2.0
 74
     0
 49
-1.0
 74
     0
  0
LTYPE
  5
16D57
330
5
100
AcDbSymbolTableRecord
100
AcDbLinetypeTableRecord
  2
ACISOTGB
 70
     0
  3
__ . . __ . .
 72
    65
 73
     6
 40
9.0
 49
4.0
 74
     0
 49
-1.0
 74
     0
 49
1.0
 74
     0
 49
-1.0
 74
     0
 49
1.0
 74
     0
 49
-1.0
 74
     0
  0
LTYPE
  5
16D58
330
5
100
AcDbSymbolTableRecord
100
AcDbLinetypeTableRecord
  2
ACISOTGL
 70
     0
  3
_ _ _ _ _
 72
    65
 73
     2
 40
3.0
 49
2.0
 74
     0
 49
-1.0
 74
     0
  0
ENDTAB
  0
TABLE
  2
LAYER
  5
2
102
{ACAD_XDICTIONARY
360
F82BD
102
}
330
0
100
AcDbSymbolTable
 70
     4
  0
LAYER
  5
10
102
{ACAD_XDICTIONARY
360
FC7B0
102
}
330
2
100
AcDbSymbolTableRecord
100
AcDbLayerTableRecord
  2
0
 70
     0
 62
     7
  6
Continuous
370
    20
390
F
  0
LAYER
  5
54
330
2
100
AcDbSymbolTableRecord
100
AcDbLayerTableRecord
  2
Defpoints
 70
     0
 62
     7
  6
Continuous
290
     0
370
    -3
390
F
  0
LAYER
  5
86C9
102
{ACAD_XDICTIONARY
360
FC7BE
102
}
330
2
100
AcDbSymbolTableRecord
100
AcDbLayerTableRecord
  2
04_ele1_0.15
 70
     0
 62
     4
  6
Continuous
370
    15
390
F
  0
LAYER
  5
FC886
330
2
100
AcDbSymbolTableRecord
100
AcDbLayerTableRecord
  2
AM_5
 70
     0
 62
     3
  6
Continuous
370
    25
390
F
1001
AcAecLayerStandard
1000

1000

  0
ENDTAB
  0
TABLE
  2
STYLE
  5
3
330
0
100
AcDbSymbolTable
 70
     6
  0
STYLE
  5
11
330
3
100
AcDbSymbolTableRecord
100
AcDbTextStyleTableRecord
  2
STANDARD
 70
     0
 40
0.0
 41
1.0
 50
0.0
 71
     0
 42
2.5
  3
ISOCP.SHX
  4
EXTFONT.SHX
  0
STYLE
  5
3AE2
330
3
100
AcDbSymbolTableRecord
100
AcDbTextStyleTableRecord
  2

 70
     1
 40
0.0
 41
1.0
 50
0.0
 71
     0
 42
2.5
  3
ltypeshp.shx
  4

  0
STYLE
  5
16D55
330
3
100
AcDbSymbolTableRecord
100
AcDbTextStyleTableRecord
  2
ACISOGDT
 70
     0
 40
0.0
 41
1.0
 50
0.0
 71
     0
 42
2.5
  3
amgdt.shx
  4

  0
STYLE
  5
F51B8
330
3
100
AcDbSymbolTableRecord
100
AcDbTextStyleTableRecord
  2
acad
 70
     0
 40
0.0
 41
1.0
 50
0.0
 71
     0
 42
2.5
  3
txt.shx
  4
extfont.shx
  0
STYLE
  5
F61F9
330
3
100
AcDbSymbolTableRecord
100
AcDbTextStyleTableRecord
  2
2014++
 70
     0
 40
0.0
 41
0.8
 50
0.0
 71
     0
 42
2.5
  3
simplex.shx
  4
bigfont.shx
  0
ENDTAB
  0
TABLE
  2
VIEW
  5
6
330
0
100
AcDbSymbolTable
 70
     0
  0
ENDTAB
  0
TABLE
  2
UCS
  5
7
330
0
100
AcDbSymbolTable
 70
     0
  0
ENDTAB
  0
TABLE
  2
APPID
  5
9
330
0
100
AcDbSymbolTable
 70
    22
  0
APPID
  5
12
330
9
100
AcDbSymbolTableRecord
100
AcDbRegAppTableRecord
  2
ACAD
 70
     0
  0
APPID
  5
16CD8
330
9
100
AcDbSymbolTableRecord
100
AcDbRegAppTableRecord
  2
MCAD_NO_VIS
 70
     0
  0
APPID
  5
16CD9
330
9
100
AcDbSymbolTableRecord
100
AcDbRegAppTableRecord
  2
ACAD_TEMP_GRAPHIC
 70
     0
  0
APPID
  5
16D0B
330
9
100
AcDbSymbolTableRecord
100
AcDbRegAppTableRecord
  2
AD_DRAW
 70
     0
  0
APPID
  5
16D0E
330
9
100
AcDbSymbolTableRecord
100
AcDbRegAppTableRecord
  2
ACATTRIBSERVICES
 70
     0
  0
APPID
  5
16D30
330
9
100
AcDbSymbolTableRecord
100
AcDbRegAppTableRecord
  2
DESIGNERASSEMBLIES
 70
     0
  0
APPID
  5
16D36
330
9
100
AcDbSymbolTableRecord
100
AcDbRegAppTableRecord
  2
ACADM_DIM_EDIT
 70
     0
  0
APPID
  5
16D37
330
9
100
AcDbSymbolTableRecord
100
AcDbRegAppTableRecord
  2
AMDT_DM_ADJ
 70
     0
  0
APPID
  5
16D6D
330
9
100
AcDbSymbolTableRecord
100
AcDbRegAppTableRecord
  2
GENIUS_GENSCREG_15
 70
     0
  0
APPID
  5
16D6E
330
9
100
AcDbSymbolTableRecord
100
AcDbRegAppTableRecord
  2
GENIUS_GENOBJ-N-SDF_13
 70
     0
  0
APPID
  5
16D6F
330
9
100
AcDbSymbolTableRecord
100
AcDbRegAppTableRecord
  2
GENIUS_GENODEF_13
 70
     0
  0
APPID
  5
ADC12
330
9
100
AcDbSymbolTableRecord
100
AcDbRegAppTableRecord
  2
GENIUS_GENDTOL_13
 70
     0
  0
APPID
  5
BA934
330
9
100
AcDbSymbolTableRecord
100
AcDbRegAppTableRecord
  2
GENIUS_GENOBJ-N-FIL_13
 70
     0
  0
APPID
  5
F4A76
330
9
100
AcDbSymbolTableRecord
100
AcDbRegAppTableRecord
  2
DCO15
 70
     0
  0
APPID
  5
FC834
330
9
100
AcDbSymbolTableRecord
100
AcDbRegAppTableRecord
  2
ACAD_MLEADERVER
 70
     0
  0
APPID
  5
FC87D
330
9
100
AcDbSymbolTableRecord
100
AcDbRegAppTableRecord
  2
ACAD_PSEXT
 70
     0
  0
APPID
  5
FC885
330
9
100
AcDbSymbolTableRecord
100
AcDbRegAppTableRecord
  2
ACAD_NAV_VCDISPLAY
 70
     0
  0
APPID
  5
FC887
330
9
100
AcDbSymbolTableRecord
100
AcDbRegAppTableRecord
  2
AcAecLayerStandard
 70
     0
  0
APPID
  5
FC88B
330
9
100
AcDbSymbolTableRecord
100
AcDbRegAppTableRecord
  2
ACAD_DSTYLE_DIMBREAK
 70
     0
  0
APPID
  5
FC88C
330
9
100
AcDbSymbolTableRecord
100
AcDbRegAppTableRecord
  2
ACAD_DSTYLE_DIMJAG
 70
     0
  0
APPID
  5
FC8A9
330
9
100
AcDbSymbolTableRecord
100
AcDbRegAppTableRecord
  2
ACAD_DSTYLE_DIMINSPECT
 70
     0
  0
APPID
  5
FCC5B
330
9
100
AcDbSymbolTableRecord
100
AcDbRegAppTableRecord
  2
ACAD_EXEMPT_FROM_CAD_STANDARDS
 70
     0
  0
ENDTAB
  0
TABLE
  2
DIMSTYLE
  5
A
330
0
100
AcDbSymbolTable
 70
     8
100
AcDbDimStyleTable
 71
     3
340
16D60
340
16D6A
340
16D65
  0
DIMSTYLE
105
16D60
102
{ACAD_REACTORS
330
FD247
102
}
330
A
100
AcDbSymbolTableRecord
100
AcDbDimStyleTableRecord
  2
AM_ISO
 70
     0
  4
"
 41
2.5
 42
1.0
 43
10.0
 44
1.0
 47
0.1
 48
0.1
 73
     0
 74
     0
 77
     1
 78
     8
 79
     2
140
3.5
141
0.0
143
0.0393701
146
0.71
147
1.5
172
     1
176
   256
177
   256
178
     2
271
     2
272
     3
274
     4
283
     0
284
     8
340
11
371
    -1
372
    -1
  0
DIMSTYLE
105
16D61
102
{ACAD_REACTORS
330
FC3B1
102
}
330
A
100
AcDbSymbolTableRecord
100
AcDbDimStyleTableRecord
  2
AM_ISO$3
 70
     0
  4
"
 41
2.5
 42
1.0
 43
10.0
 44
1.0
 47
0.1
 48
0.1
 73
     0
 77
     1
 78
     8
 79
     2
140
3.5
141
0.0
143
0.0393701
146
0.71
147
1.5
176
   256
177
   256
178
     2
271
     2
272
     3
274
     4
283
     0
284
     8
288
     1
289
     0
340
11
371
    -1
372
    -1
  0
DIMSTYLE
105
16D62
330
A
100
AcDbSymbolTableRecord
100
AcDbDimStyleTableRecord
  2
AM_ISO$4
 70
     0
  4
"
 41
2.5
 42
1.0
 43
10.0
 44
1.0
 47
0.1
 48
0.1
 73
     0
 77
     1
 78
     8
 79
     2
140
3.5
141
0.0
143
0.0393701
146
0.71
147
1.5
176
   256
177
   256
178
     2
271
     2
272
     3
274
     4
283
     0
284
     8
288
     1
289
     0
340
11
371
    -1
372
    -1
  0
DIMSTYLE
105
16D63
330
A
100
AcDbSymbolTableRecord
100
AcDbDimStyleTableRecord
  2
AM_ISO$6
 70
     0
  4
"
 41
2.5
 42
1.0
 43
10.0
 44
1.0
 47
0.1
 48
0.1
 73
     0
 74
     0
 78
     8
 79
     2
140
3.5
141
0.0
143
0.0393701
146
0.71
147
1.5
172
     1
176
   256
177
   256
178
     2
271
     2
272
     3
274
     4
283
     0
284
     8
340
11
371
    -1
372
    -1
  0
DIMSTYLE
105
16D64
330
A
100
AcDbSymbolTableRecord
100
AcDbDimStyleTableRecord
  2
AM_ISO$7
 70
     0
  4
"
 41
2.5
 42
1.0
 43
10.0
 44
1.0
 47
0.1
 48
0.1
 73
     0
 74
     0
 77
     1
 78
     8
 79
     2
140
5.0
141
0.0
143
0.0393701
146
0.71
147
1.5
172
     1
176
   256
177
   256
178
     2
271
     2
272
     3
274
     4
283
     0
284
     8
340
11
371
    -1
372
    -1
  0
DIMSTYLE
105
16D65
330
A
100
AcDbSymbolTableRecord
100
AcDbDimStyleTableRecord
  2
AM_ISO$SF
 70
     0
  4
"
 41
2.5
 42
1.0
 43
10.0
 44
1.0
 47
0.1
 48
0.1
 73
     0
 74
     0
 75
     1
 76
     1
 77
     1
 78
     8
 79
     2
140
3.5
141
0.0
143
0.0393701
146
0.71
147
1.5
172
     1
176
   256
177
   256
178
     2
271
     2
272
     3
274
     4
283
     0
284
     8
340
11
371
    -1
372
    -1
  0
DIMSTYLE
105
16D6A
330
A
100
AcDbSymbolTableRecord
100
AcDbDimStyleTableRecord
  2
AM_ISO$SH
 70
     0
  4
"
 41
2.5
 42
1.0
 43
10.0
 44
1.0
 47
0.1
 48
0.1
 73
     0
 74
     0
 75
     1
 76
     1
 77
     1
 78
     8
 79
     2
140
3.5
141
0.0
143
0.0393701
144
2.0
146
0.71
147
1.5
172
     1
173
     1
176
   256
177
   256
178
     2
271
     2
272
     3
274
     4
283
     0
284
     8
340
11
343
16D66
371
    -1
372
    -1
  0
DIMSTYLE
105
FC88D
102
{ACAD_REACTORS
330
FC37E
330
FC3AA
330
FC3AB
330
FC3C2
330
FC3C7
330
FC38D
330
FC36D
330
FC366
330
FC37F
330
FC3AE
330
FC38C
330
FC38F
330
FC390
330
FC3FF
330
FC40F
330
FC410
330
FC3AC
330
FC40E
330
FC3DB
330
FC3B0
330
FC3CD
330
FD077
330
FD079
330
FD10E
330
FD111
102
}
330
A
100
AcDbSymbolTableRecord
100
AcDbDimStyleTableRecord
  2
AM_ISO$0
 70
     0
  4
"
 41
2.5
 42
1.0
 43
10.0
 44
1.0
 47
0.1
 48
0.1
 73
     0
 74
     0
 77
     1
 78
     8
 79
     2
140
3.5
141
0.0
143
0.0393701
146
0.71
147
1.5
172
     1
176
   256
177
   256
178
     2
271
     2
272
     3
274
     4
283
     0
284
     8
340
11
371
    -1
372
    -1
1001
ACAD_DSTYLE_DIMBREAK
1070
   391
1040
3.75
1001
ACAD_DSTYLE_DIMJAG
1070
   388
1040
1.5
  0
ENDTAB
  0
TABLE
  2
BLOCK_RECORD
  5
1
330
0
100
AcDbSymbolTable
 70
    28
  0
BLOCK_RECORD
  5
1F
102
{ACAD_XDICTIONARY
360
16D78
102
}
330
1
100
AcDbSymbolTableRecord
100
AcDbBlockTableRecord
  2
*Model_Space
340
22
  0
BLOCK_RECORD
  5
FC873
330
1
100
AcDbSymbolTableRecord
100
AcDbBlockTableRecord
  2
*Paper_Space
340
FC874
  0
BLOCK_RECORD
  5
16D66
330
1
100
AcDbSymbolTableRecord
100
AcDbBlockTableRecord
  2
GENAXEH
340
0
  0
BLOCK_RECORD
  5
FC424
330
1
100
AcDbSymbolTableRecord
100
AcDbBlockTableRecord
  2
*D1
340
0
  0
BLOCK_RECORD
  5
FC44A
330
1
100
AcDbSymbolTableRecord
100
AcDbBlockTableRecord
  2
*D2
340
0
  0
BLOCK_RECORD
  5
FC478
330
1
100
AcDbSymbolTableRecord
100
AcDbBlockTableRecord
  2
*D3
340
0
  0
BLOCK_RECORD
  5
FC484
330
1
100
AcDbSymbolTableRecord
100
AcDbBlockTableRecord
  2
*D4
340
0
  0
BLOCK_RECORD
  5
FC49C
330
1
100
AcDbSymbolTableRecord
100
AcDbBlockTableRecord
  2
*D5
340
0
  0
BLOCK_RECORD
  5
FC4A8
330
1
100
AcDbSymbolTableRecord
100
AcDbBlockTableRecord
  2
*D6
340
0
  0
BLOCK_RECORD
  5
FC4B4
330
1
100
AcDbSymbolTableRecord
100
AcDbBlockTableRecord
  2
*D7
340
0
  0
BLOCK_RECORD
  5
FC4BE
330
1
100
AcDbSymbolTableRecord
100
AcDbBlockTableRecord
  2
*D8
340
0
  0
BLOCK_RECORD
  5
FC4EE
330
1
100
AcDbSymbolTableRecord
100
AcDbBlockTableRecord
  2
*D9
340
0
  0
BLOCK_RECORD
  5
FC4FA
330
1
100
AcDbSymbolTableRecord
100
AcDbBlockTableRecord
  2
*D10
340
0
  0
BLOCK_RECORD
  5
FC506
330
1
100
AcDbSymbolTableRecord
100
AcDbBlockTableRecord
  2
*D11
340
0
  0
BLOCK_RECORD
  5
FC512
330
1
100
AcDbSymbolTableRecord
100
AcDbBlockTableRecord
  2
*D12
340
0
  0
BLOCK_RECORD
  5
FC528
330
1
100
AcDbSymbolTableRecord
100
AcDbBlockTableRecord
  2
*D13
340
0
  0
BLOCK_RECORD
  5
FC537
330
1
100
AcDbSymbolTableRecord
100
AcDbBlockTableRecord
  2
*D14
340
0
  0
BLOCK_RECORD
  5
FC567
330
1
100
AcDbSymbolTableRecord
100
AcDbBlockTableRecord
  2
*D15
340
0
  0
BLOCK_RECORD
  5
FC573
330
1
100
AcDbSymbolTableRecord
100
AcDbBlockTableRecord
  2
*D16
340
0
  0
BLOCK_RECORD
  5
FC589
330
1
100
AcDbSymbolTableRecord
100
AcDbBlockTableRecord
  2
*D17
340
0
  0
BLOCK_RECORD
  5
FC593
330
1
100
AcDbSymbolTableRecord
100
AcDbBlockTableRecord
  2
*D18
340
0
  0
BLOCK_RECORD
  5
FC5AB
330
1
100
AcDbSymbolTableRecord
100
AcDbBlockTableRecord
  2
*D19
340
0
  0
BLOCK_RECORD
  5
FC5B7
330
1
100
AcDbSymbolTableRecord
100
AcDbBlockTableRecord
  2
*D20
340
0
  0
BLOCK_RECORD
  5
FC5C3
330
1
100
AcDbSymbolTableRecord
100
AcDbBlockTableRecord
  2
*D21
340
0
  0
BLOCK_RECORD
  5
FC5CF
330
1
100
AcDbSymbolTableRecord
100
AcDbBlockTableRecord
  2
*D22
340
0
  0
BLOCK_RECORD
  5
FD112
330
1
100
AcDbSymbolTableRecord
100
AcDbBlockTableRecord
  2
*D23
340
0
  0
BLOCK_RECORD
  5
FD11E
330
1
100
AcDbSymbolTableRecord
100
AcDbBlockTableRecord
  2
*D24
340
0
  0
BLOCK_RECORD
  5
FD12C
330
1
100
AcDbSymbolTableRecord
100
AcDbBlockTableRecord
  2
*D25
340
0
  0
BLOCK_RECORD
  5
FD13A
330
1
100
AcDbSymbolTableRecord
100
AcDbBlockTableRecord
  2
*D26
340
0
  0
ENDTAB
  0
ENDSEC
  0
SECTION
  2
BLOCKS
  0
BLOCK
  5
20
330
1F
100
AcDbEntity
  8
0
100
AcDbBlockBegin
  2
*Model_Space
 70
     0
 10
0.0
 20
0.0
 30
0.0
  3
*Model_Space
  1

  0
ENDBLK
  5
21
330
1F
100
AcDbEntity
  8
0
100
AcDbBlockEnd
  0
BLOCK
  5
FC875
330
FC873
100
AcDbEntity
 67
     1
  8
0
100
AcDbBlockBegin
  2
*Paper_Space
 70
     0
 10
0.0
 20
0.0
 30
0.0
  3
*Paper_Space
  1

  0
ENDBLK
  5
FC876
330
FC873
100
AcDbEntity
 67
     1
  8
0
100
AcDbBlockEnd
  0
BLOCK
  5
16D68
330
16D66
100
AcDbEntity
  8
0
100
AcDbBlockBegin
  2
GENAXEH
 70
     0
 10
0.0
 20
0.0
 30
0.0
  3
GENAXEH
  1

  0
LINE
  5
16D67
330
16D66
100
AcDbEntity
  8
0
100
AcDbLine
 10
-1.0
 20
0.0
 30
0.0
 11
1.0
 21
0.0
 31
0.0
  0
ENDBLK
  5
16D69
330
16D66
100
AcDbEntity
  8
0
100
AcDbBlockEnd
  0
BLOCK
  5
FC430
330
FC424
100
AcDbEntity
  8
0
100
AcDbBlockBegin
  2
*D1
 70
     1
 10
0.0
 20
0.0
 30
0.0
  3
*D1
  1

  0
LINE
  5
FCD11
330
FC424
100
AcDbEntity
  8
AM_5
440
 16777216
100
AcDbLine
 10
270.8352895292092
 20
129.5526445788064
 30
0.0
 11
270.8352895292092
 21
138.7617361252265
 31
0.0
  0
LINE
  5
FCD12
330
FC424
100
AcDbEntity
  8
AM_5
440
 16777216
100
AcDbLine
 10
268.8352895292096
 20
129.5526445788064
 30
0.0
 11
268.8352895292096
 21
138.7617361252265
 31
0.0
  0
LINE
  5
FCD13
330
FC424
100
AcDbEntity
  8
AM_5
440
 16777216
100
AcDbLine
 10
266.3352895292097
 20
137.7617361252265
 30
0.0
 11
263.8352895292097
 21
137.7617361252265
 31
0.0
  0
LINE
  5
FCD14
330
FC424
100
AcDbEntity
  8
AM_5
440
 16777216
100
AcDbLine
 10
273.3352895292092
 20
137.7617361252265
 30
0.0
 11
284.9954962221227
 21
137.7617361252265
 31
0.0
  0
LINE
  5
FCD15
330
FC424
100
AcDbEntity
  8
AM_5
440
 16777216
100
AcDbLine
 10
268.8352895292096
 20
137.7617361252265
 30
0.0
 11
270.8352895292092
 21
137.7617361252265
 31
0.0
  0
SOLID
  5
FCD16
330
FC424
100
AcDbEntity
  8
AM_5
440
 16777216
100
AcDbTrace
 10
266.3352895292097
 20
138.1784027918931
 30
0.0
 11
266.3352895292097
 21
137.3450694585598
 31
0.0
 12
268.8352895292096
 22
137.7617361252265
 32
0.0
 13
268.8352895292096
 23
137.7617361252265
 33
0.0
  0
SOLID
  5
FCD17
330
FC424
100
AcDbEntity
  8
AM_5
440
 16777216
100
AcDbTrace
 10
273.3352895292092
 20
138.1784027918931
 30
0.0
 11
273.3352895292092
 21
137.3450694585598
 31
0.0
 12
270.8352895292092
 22
137.7617361252265
 32
0.0
 13
270.8352895292092
 23
137.7617361252265
 33
0.0
  0
MTEXT
  5
FCD18
330
FC424
100
AcDbEntity
  8
AM_5
 62
     2
440
 16777216
100
AcDbMText
 10
280.415392875666
 20
141.0120806134154
 30
0.0
 40
3.5
 41
0.0
 71
     5
 72
     1
  1
t=2
 73
     1
 44
1.0
  0
POINT
  5
FCD19
330
FC424
100
AcDbEntity
  8
Defpoints
 62
     0
440
 16777216
100
AcDbPoint
 10
270.8352895292092
 20
128.5526445788064
 30
0.0
  0
POINT
  5
FCD1A
330
FC424
100
AcDbEntity
  8
Defpoints
 62
     0
440
 16777216
100
AcDbPoint
 10
268.8352895292096
 20
128.5526445788064
 30
0.0
  0
POINT
  5
FCD1B
330
FC424
100
AcDbEntity
  8
Defpoints
 62
     0
440
 16777216
100
AcDbPoint
 10
268.8352895292096
 20
137.7617361252265
 30
0.0
  0
ENDBLK
  5
FC431
330
FC424
100
AcDbEntity
  8
0
100
AcDbBlockEnd
  0
BLOCK
  5
FC454
330
FC44A
100
AcDbEntity
  8
0
100
AcDbBlockBegin
  2
*D2
 70
     1
 10
0.0
 20
0.0
 30
0.0
  3
*D2
  1

  0
LINE
  5
FCD06
330
FC44A
100
AcDbEntity
  8
AM_5
440
 16777216
100
AcDbLine
 10
262.8352895292093
 20
34.5526365788063
 30
0.0
 11
256.336365335521
 21
34.5526365788063
 31
0.0
  0
LINE
  5
FCD07
330
FC44A
100
AcDbEntity
  8
AM_5
440
 16777216
100
AcDbLine
 10
267.8352895292091
 20
28.55264457880651
 30
0.0
 11
256.336365335521
 21
28.55264457880652
 31
0.0
  0
LINE
  5
FCD08
330
FC44A
100
AcDbEntity
  8
AM_5
440
 16777216
100
AcDbLine
 10
257.336365335521
 20
37.05263657880629
 30
0.0
 11
257.336365335521
 21
39.5526365788063
 31
0.0
  0
LINE
  5
FCD09
330
FC44A
100
AcDbEntity
  8
AM_5
440
 16777216
100
AcDbLine
 10
257.336365335521
 20
26.05264457880652
 30
0.0
 11
257.336365335521
 21
23.55264457880652
 31
0.0
  0
LINE
  5
FCD0A
330
FC44A
100
AcDbEntity
  8
AM_5
440
 16777216
100
AcDbLine
 10
257.336365335521
 20
34.5526365788063
 30
0.0
 11
257.336365335521
 21
28.55264457880652
 31
0.0
  0
SOLID
  5
FCD0B
330
FC44A
100
AcDbEntity
  8
AM_5
440
 16777216
100
AcDbTrace
 10
256.9196986688543
 20
37.05263657880629
 30
0.0
 11
257.7530320021877
 21
37.05263657880629
 31
0.0
 12
257.336365335521
 22
34.5526365788063
 32
0.0
 13
257.336365335521
 23
34.5526365788063
 33
0.0
  0
SOLID
  5
FCD0C
330
FC44A
100
AcDbEntity
  8
AM_5
440
 16777216
100
AcDbTrace
 10
256.9196986688543
 20
26.05264457880652
 30
0.0
 11
257.7530320021877
 21
26.05264457880652
 31
0.0
 12
257.336365335521
 22
28.55264457880652
 32
0.0
 13
257.336365335521
 23
28.55264457880652
 33
0.0
  0
MTEXT
  5
FCD0D
330
FC44A
100
AcDbEntity
  8
AM_5
 62
     2
440
 16777216
100
AcDbMText
 10
254.086365335521
 20
31.55264057880645
 30
0.0
 40
3.5
 41
0.0
 71
     5
 72
     1
  1
6
 11
0.0000000000000001
 21
1.0
 31
0.0
 73
     1
 44
1.0
  0
POINT
  5
FCD0E
330
FC44A
100
AcDbEntity
  8
Defpoints
 62
     0
440
 16777216
100
AcDbPoint
 10
263.8352895292093
 20
34.5526365788063
 30
0.0
  0
POINT
  5
FCD0F
330
FC44A
100
AcDbEntity
  8
Defpoints
 62
     0
440
 16777216
100
AcDbPoint
 10
268.8352895292092
 20
28.55264457880651
 30
0.0
  0
POINT
  5
FCD10
330
FC44A
100
AcDbEntity
  8
Defpoints
 62
     0
440
 16777216
100
AcDbPoint
 10
257.336365335521
 20
28.55264457880652
 30
0.0
  0
ENDBLK
  5
FC455
330
FC44A
100
AcDbEntity
  8
0
100
AcDbBlockEnd
  0
BLOCK
  5
FC482
330
FC478
100
AcDbEntity
  8
0
100
AcDbBlockBegin
  2
*D3
 70
     1
 10
0.0
 20
0.0
 30
0.0
  3
*D3
  1

  0
LINE
  5
FCC91
330
FC478
100
AcDbEntity
  8
AM_5
440
 16777216
100
AcDbLine
 10
270.8352895292092
 20
129.5526445788063
 30
0.0
 11
270.8352895292092
 21
145.6829567442256
 31
0.0
  0
LINE
  5
FCC92
330
FC478
100
AcDbEntity
  8
AM_5
440
 16777216
100
AcDbLine
 10
263.8352895292093
 20
123.5526525788062
 30
0.0
 11
263.8352895292093
 21
145.6829567442256
 31
0.0
  0
LINE
  5
FCC93
330
FC478
100
AcDbEntity
  8
AM_5
440
 16777216
100
AcDbLine
 10
273.3352895292092
 20
144.6829567442256
 30
0.0
 11
275.8352895292091
 21
144.6829567442256
 31
0.0
  0
LINE
  5
FCC94
330
FC478
100
AcDbEntity
  8
AM_5
440
 16777216
100
AcDbLine
 10
261.3352895292093
 20
144.6829567442256
 30
0.0
 11
258.8352895292093
 21
144.6829567442256
 31
0.0
  0
LINE
  5
FCC95
330
FC478
100
AcDbEntity
  8
AM_5
440
 16777216
100
AcDbLine
 10
270.8352895292092
 20
144.6829567442256
 30
0.0
 11
263.8352895292093
 21
144.6829567442256
 31
0.0
  0
SOLID
  5
FCC96
330
FC478
100
AcDbEntity
  8
AM_5
440
 16777216
100
AcDbTrace
 10
273.3352895292092
 20
145.0996234108921
 30
0.0
 11
273.3352895292092
 21
144.2662900775589
 31
0.0
 12
270.8352895292092
 22
144.6829567442256
 32
0.0
 13
270.8352895292092
 23
144.6829567442256
 33
0.0
  0
SOLID
  5
FCC97
330
FC478
100
AcDbEntity
  8
AM_5
440
 16777216
100
AcDbTrace
 10
261.3352895292093
 20
145.0996234108921
 30
0.0
 11
261.3352895292093
 21
144.2662900775589
 31
0.0
 12
263.8352895292093
 22
144.6829567442256
 32
0.0
 13
263.8352895292093
 23
144.6829567442256
 33
0.0
  0
MTEXT
  5
FCC98
330
FC478
100
AcDbEntity
  8
AM_5
 62
     2
440
 16777216
100
AcDbMText
 10
267.3352895292093
 20
147.9329567442256
 30
0.0
 40
3.5
 41
0.0
 71
     5
 72
     1
  1
7
 73
     1
 44
1.0
  0
POINT
  5
FCC99
330
FC478
100
AcDbEntity
  8
Defpoints
 62
     0
440
 16777216
100
AcDbPoint
 10
270.8352895292092
 20
128.5526445788063
 30
0.0
  0
POINT
  5
FCC9A
330
FC478
100
AcDbEntity
  8
Defpoints
 62
     0
440
 16777216
100
AcDbPoint
 10
263.8352895292093
 20
122.5526525788062
 30
0.0
  0
POINT
  5
FCC9B
330
FC478
100
AcDbEntity
  8
Defpoints
 62
     0
440
 16777216
100
AcDbPoint
 10
263.8352895292093
 20
144.6829567442256
 30
0.0
  0
ENDBLK
  5
FC483
330
FC478
100
AcDbEntity
  8
0
100
AcDbBlockEnd
  0
BLOCK
  5
FC48E
330
FC484
100
AcDbEntity
  8
0
100
AcDbBlockBegin
  2
*D4
 70
     1
 10
0.0
 20
0.0
 30
0.0
  3
*D4
  1

  0
LINE
  5
FCD2E
330
FC484
100
AcDbEntity
  8
AM_5
440
 16777216
100
AcDbLine
 10
267.8352895292091
 20
128.5526445788063
 30
0.0
 11
256.3419959661516
 21
128.5526445788063
 31
0.0
  0
LINE
  5
FCD2F
330
FC484
100
AcDbEntity
  8
AM_5
440
 16777216
100
AcDbLine
 10
262.8352895292093
 20
122.5526525788062
 30
0.0
 11
256.3419959661515
 21
122.5526525788062
 31
0.0
  0
LINE
  5
FCD30
330
FC484
100
AcDbEntity
  8
AM_5
440
 16777216
100
AcDbLine
 10
257.3419959661515
 20
131.0526445788063
 30
0.0
 11
257.3419959661515
 21
133.5526445788063
 31
0.0
  0
LINE
  5
FCD31
330
FC484
100
AcDbEntity
  8
AM_5
440
 16777216
100
AcDbLine
 10
257.3419959661515
 20
120.0526525788062
 30
0.0
 11
257.3419959661515
 21
117.5526525788062
 31
0.0
  0
LINE
  5
FCD32
330
FC484
100
AcDbEntity
  8
AM_5
440
 16777216
100
AcDbLine
 10
257.3419959661515
 20
128.5526445788063
 30
0.0
 11
257.3419959661515
 21
122.5526525788062
 31
0.0
  0
SOLID
  5
FCD33
330
FC484
100
AcDbEntity
  8
AM_5
440
 16777216
100
AcDbTrace
 10
256.9253292994849
 20
131.0526445788063
 30
0.0
 11
257.7586626328182
 21
131.0526445788063
 31
0.0
 12
257.3419959661515
 22
128.5526445788063
 32
0.0
 13
257.3419959661515
 23
128.5526445788063
 33
0.0
  0
SOLID
  5
FCD34
330
FC484
100
AcDbEntity
  8
AM_5
440
 16777216
100
AcDbTrace
 10
256.9253292994848
 20
120.0526525788062
 30
0.0
 11
257.7586626328182
 21
120.0526525788062
 31
0.0
 12
257.3419959661515
 22
122.5526525788062
 32
0.0
 13
257.3419959661515
 23
122.5526525788062
 33
0.0
  0
MTEXT
  5
FCD35
330
FC484
100
AcDbEntity
  8
AM_5
 62
     2
440
 16777216
100
AcDbMText
 10
254.0919959661515
 20
125.5526485788063
 30
0.0
 40
3.5
 41
0.0
 71
     5
 72
     1
  1
6
 11
0.0000000000000001
 21
1.0
 31
0.0
 73
     1
 44
1.0
  0
POINT
  5
FCD36
330
FC484
100
AcDbEntity
  8
Defpoints
 62
     0
440
 16777216
100
AcDbPoint
 10
268.8352895292092
 20
128.5526445788063
 30
0.0
  0
POINT
  5
FCD37
330
FC484
100
AcDbEntity
  8
Defpoints
 62
     0
440
 16777216
100
AcDbPoint
 10
263.8352895292093
 20
122.5526525788062
 30
0.0
  0
POINT
  5
FCD38
330
FC484
100
AcDbEntity
  8
Defpoints
 62
     0
440
 16777216
100
AcDbPoint
 10
257.3419959661515
 20
122.5526525788062
 30
0.0
  0
ENDBLK
  5
FC48F
330
FC484
100
AcDbEntity
  8
0
100
AcDbBlockEnd
  0
BLOCK
  5
FC4A6
330
FC49C
100
AcDbEntity
  8
0
100
AcDbBlockBegin
  2
*D5
 70
     1
 10
0.0
 20
0.0
 30
0.0
  3
*D5
  1

  0
LINE
  5
FCD56
330
FC49C
100
AcDbEntity
  8
AM_5
440
 16777216
100
AcDbLine
 10
349.9247476396224
 20
53.55264457880629
 30
0.0
 11
400.4014278236236
 21
53.55264457880627
 31
0.0
  0
LINE
  5
FCD57
330
FC49C
100
AcDbEntity
  8
AM_5
440
 16777216
100
AcDbLine
 10
378.2247476396225
 20
41.05264457880617
 30
0.0
 11
400.4014278236236
 21
41.05264457880617
 31
0.0
  0
LINE
  5
FCD58
330
FC49C
100
AcDbEntity
  8
AM_5
440
 16777216
100
AcDbLine
 10
399.4014278236236
 20
51.05264457880629
 30
0.0
 11
399.4014278236236
 21
43.55264457880617
 31
0.0
  0
SOLID
  5
FCD59
330
FC49C
100
AcDbEntity
  8
AM_5
440
 16777216
100
AcDbTrace
 10
398.984761156957
 20
51.05264457880629
 30
0.0
 11
399.8180944902903
 21
51.05264457880629
 31
0.0
 12
399.4014278236236
 22
53.55264457880629
 32
0.0
 13
399.4014278236236
 23
53.55264457880629
 33
0.0
  0
SOLID
  5
FCD5A
330
FC49C
100
AcDbEntity
  8
AM_5
440
 16777216
100
AcDbTrace
 10
398.984761156957
 20
43.55264457880617
 30
0.0
 11
399.8180944902903
 21
43.55264457880617
 31
0.0
 12
399.4014278236236
 22
41.05264457880617
 32
0.0
 13
399.4014278236236
 23
41.05264457880617
 33
0.0
  0
MTEXT
  5
FCD5B
330
FC49C
100
AcDbEntity
  8
AM_5
 62
     2
440
 16777216
100
AcDbMText
 10
396.1510833354346
 20
47.30264457880628
 30
0.0
 40
3.5
 41
0.0
 71
     5
 72
     1
  1
12.5
 11
0.0000000000000001
 21
1.0
 31
0.0
 73
     1
 44
1.0
  0
POINT
  5
FCD5C
330
FC49C
100
AcDbEntity
  8
Defpoints
 62
     0
440
 16777216
100
AcDbPoint
 10
348.9247476396224
 20
53.55264457880629
 30
0.0
  0
POINT
  5
FCD5D
330
FC49C
100
AcDbEntity
  8
Defpoints
 62
     0
440
 16777216
100
AcDbPoint
 10
377.2247476396225
 20
41.05264457880617
 30
0.0
  0
POINT
  5
FCD5E
330
FC49C
100
AcDbEntity
  8
Defpoints
 62
     0
440
 16777216
100
AcDbPoint
 10
399.4014278236236
 20
41.05264457880617
 30
0.0
  0
ENDBLK
  5
FC4A7
330
FC49C
100
AcDbEntity
  8
0
100
AcDbBlockEnd
  0
BLOCK
  5
FC4B2
330
FC4A8
100
AcDbEntity
  8
0
100
AcDbBlockBegin
  2
*D6
 70
     1
 10
0.0
 20
0.0
 30
0.0
  3
*D6
  1

  0
LINE
  5
FCCFD
330
FC4A8
100
AcDbEntity
  8
AM_5
440
 16777216
100
AcDbLine
 10
335.4247476396232
 20
28.55264457880628
 30
0.0
 11
312.1269702316677
 21
28.55264457880629
 31
0.0
  0
LINE
  5
FCCFE
330
FC4A8
100
AcDbEntity
  8
AM_5
440
 16777216
100
AcDbLine
 10
335.4247476396232
 20
128.5526445788063
 30
0.0
 11
312.1269702316678
 21
128.5526445788063
 31
0.0
  0
LINE
  5
FCCFF
330
FC4A8
100
AcDbEntity
  8
AM_5
440
 16777216
100
AcDbLine
 10
313.1269702316678
 20
31.05264457880628
 30
0.0
 11
313.1269702316678
 21
126.0526445788063
 31
0.0
  0
SOLID
  5
FCD00
330
FC4A8
100
AcDbEntity
  8
AM_5
440
 16777216
100
AcDbTrace
 10
312.7103035650011
 20
31.05264457880628
 30
0.0
 11
313.5436368983345
 21
31.05264457880628
 31
0.0
 12
313.1269702316678
 22
28.55264457880629
 32
0.0
 13
313.1269702316678
 23
28.55264457880629
 33
0.0
  0
SOLID
  5
FCD01
330
FC4A8
100
AcDbEntity
  8
AM_5
440
 16777216
100
AcDbTrace
 10
312.7103035650011
 20
126.0526445788063
 30
0.0
 11
313.5436368983345
 21
126.0526445788063
 31
0.0
 12
313.1269702316678
 22
128.5526445788063
 32
0.0
 13
313.1269702316678
 23
128.5526445788063
 33
0.0
  0
MTEXT
  5
FCD02
330
FC4A8
100
AcDbEntity
  8
AM_5
 62
     2
440
 16777216
100
AcDbMText
 10
309.8769702316678
 20
78.55264457880636
 30
0.0
 40
3.5
 41
0.0
 71
     5
 72
     1
  1
100
 11
0.0000000000000001
 21
1.0
 31
0.0
 73
     1
 44
1.0
  0
POINT
  5
FCD03
330
FC4A8
100
AcDbEntity
  8
Defpoints
 62
     0
440
 16777216
100
AcDbPoint
 10
336.4247476396232
 20
28.55264457880628
 30
0.0
  0
POINT
  5
FCD04
330
FC4A8
100
AcDbEntity
  8
Defpoints
 62
     0
440
 16777216
100
AcDbPoint
 10
336.4247476396232
 20
128.5526445788063
 30
0.0
  0
POINT
  5
FCD05
330
FC4A8
100
AcDbEntity
  8
Defpoints
 62
     0
440
 16777216
100
AcDbPoint
 10
313.1269702316678
 20
128.5526445788063
 30
0.0
  0
ENDBLK
  5
FC4B3
330
FC4A8
100
AcDbEntity
  8
0
100
AcDbBlockEnd
  0
BLOCK
  5
FC4BC
330
FC4B4
100
AcDbEntity
  8
0
100
AcDbBlockBegin
  2
*D7
 70
     1
 10
0.0
 20
0.0
 30
0.0
  3
*D7
  1

  0
LINE
  5
FCD5F
330
FC4B4
100
AcDbEntity
  8
AM_5
440
 16777216
100
AcDbLine
 10
378.2247476396225
 20
41.05264457880617
 30
0.0
 11
400.4014278236236
 21
41.05264457880617
 31
0.0
  0
LINE
  5
FCD60
330
FC4B4
100
AcDbEntity
  8
AM_5
440
 16777216
100
AcDbLine
 10
353.6247476396221
 20
36.05264457880628
 30
0.0
 11
400.4014278236236
 21
36.05264457880628
 31
0.0
  0
LINE
  5
FCD61
330
FC4B4
100
AcDbEntity
  8
AM_5
440
 16777216
100
AcDbLine
 10
399.4014278236236
 20
43.55264457880617
 30
0.0
 11
399.4014278236236
 21
46.05264457880617
 31
0.0
  0
LINE
  5
FCD62
330
FC4B4
100
AcDbEntity
  8
AM_5
440
 16777216
100
AcDbLine
 10
399.4014278236236
 20
33.55264457880628
 30
0.0
 11
399.4014278236236
 21
31.05264457880628
 31
0.0
  0
LINE
  5
FCD63
330
FC4B4
100
AcDbEntity
  8
AM_5
440
 16777216
100
AcDbLine
 10
399.4014278236236
 20
41.05264457880617
 30
0.0
 11
399.4014278236236
 21
36.05264457880628
 31
0.0
  0
SOLID
  5
FCD64
330
FC4B4
100
AcDbEntity
  8
AM_5
440
 16777216
100
AcDbTrace
 10
398.984761156957
 20
43.55264457880617
 30
0.0
 11
399.8180944902903
 21
43.55264457880617
 31
0.0
 12
399.4014278236236
 22
41.05264457880617
 32
0.0
 13
399.4014278236236
 23
41.05264457880617
 33
0.0
  0
SOLID
  5
FCD65
330
FC4B4
100
AcDbEntity
  8
AM_5
440
 16777216
100
AcDbTrace
 10
398.984761156957
 20
33.55264457880628
 30
0.0
 11
399.8180944902903
 21
33.55264457880628
 31
0.0
 12
399.4014278236236
 22
36.05264457880628
 32
0.0
 13
399.4014278236236
 23
36.05264457880628
 33
0.0
  0
MTEXT
  5
FCD66
330
FC4B4
100
AcDbEntity
  8
AM_5
 62
     2
440
 16777216
100
AcDbMText
 10
396.1514278236236
 20
38.55264457880629
 30
0.0
 40
3.5
 41
0.0
 71
     5
 72
     1
  1
5
 11
0.0000000000000001
 21
1.0
 31
0.0
 73
     1
 44
1.0
  0
POINT
  5
FCD67
330
FC4B4
100
AcDbEntity
  8
Defpoints
 62
     0
440
 16777216
100
AcDbPoint
 10
377.2247476396225
 20
41.05264457880617
 30
0.0
  0
POINT
  5
FCD68
330
FC4B4
100
AcDbEntity
  8
Defpoints
 62
     0
440
 16777216
100
AcDbPoint
 10
352.6247476396221
 20
36.05264457880628
 30
0.0
  0
POINT
  5
FCD69
330
FC4B4
100
AcDbEntity
  8
Defpoints
 62
     0
440
 16777216
100
AcDbPoint
 10
399.4014278236236
 20
36.05264457880628
 30
0.0
  0
ENDBLK
  5
FC4BD
330
FC4B4
100
AcDbEntity
  8
0
100
AcDbBlockEnd
  0
BLOCK
  5
FC4C8
330
FC4BE
100
AcDbEntity
  8
0
100
AcDbBlockBegin
  2
*D8
 70
     1
 10
0.0
 20
0.0
 30
0.0
  3
*D8
  1

  0
LINE
  5
FCE0A
330
FC4BE
100
AcDbEntity
  8
AM_5
440
 16777216
100
AcDbLine
 10
353.6247476396221
 20
36.05264457880628
 30
0.0
 11
400.4014278236236
 21
36.05264457880628
 31
0.0
  0
LINE
  5
FCE0B
330
FC4BE
100
AcDbEntity
  8
AM_5
440
 16777216
100
AcDbLine
 10
382.4247476396223
 20
28.55264457880617
 30
0.0
 11
400.4014278236236
 21
28.55264457880617
 31
0.0
  0
LINE
  5
FCE0C
330
FC4BE
100
AcDbEntity
  8
AM_5
440
 16777216
100
AcDbLine
 10
399.4014278236236
 20
38.55264457880628
 30
0.0
 11
399.4014278236236
 21
41.05264457880627
 31
0.0
  0
LINE
  5
FCE0D
330
FC4BE
100
AcDbEntity
  8
AM_5
440
 16777216
100
AcDbLine
 10
399.4014278236236
 20
26.05264457880617
 30
0.0
 11
399.4014278236236
 21
23.55264457880617
 31
0.0
  0
LINE
  5
FCE0E
330
FC4BE
100
AcDbEntity
  8
AM_5
440
 16777216
100
AcDbLine
 10
399.4014278236236
 20
36.05264457880628
 30
0.0
 11
399.4014278236236
 21
28.55264457880617
 31
0.0
  0
SOLID
  5
FCE0F
330
FC4BE
100
AcDbEntity
  8
AM_5
440
 16777216
100
AcDbTrace
 10
398.984761156957
 20
38.55264457880628
 30
0.0
 11
399.8180944902903
 21
38.55264457880628
 31
0.0
 12
399.4014278236236
 22
36.05264457880628
 32
0.0
 13
399.4014278236236
 23
36.05264457880628
 33
0.0
  0
SOLID
  5
FCE10
330
FC4BE
100
AcDbEntity
  8
AM_5
440
 16777216
100
AcDbTrace
 10
398.984761156957
 20
26.05264457880617
 30
0.0
 11
399.8180944902903
 21
26.05264457880617
 31
0.0
 12
399.4014278236236
 22
28.55264457880617
 32
0.0
 13
399.4014278236236
 23
28.55264457880617
 33
0.0
  0
MTEXT
  5
FCE11
330
FC4BE
100
AcDbEntity
  8
AM_5
 62
     2
440
 16777216
100
AcDbMText
 10
396.1514278236236
 20
32.30264457880629
 30
0.0
 40
3.5
 41
0.0
 71
     5
 72
     1
  1
7.5
 11
0.0000000000000001
 21
1.0
 31
0.0
 73
     1
 44
1.0
  0
POINT
  5
FCE12
330
FC4BE
100
AcDbEntity
  8
Defpoints
 62
     0
440
 16777216
100
AcDbPoint
 10
352.6247476396221
 20
36.05264457880628
 30
0.0
  0
POINT
  5
FCE13
330
FC4BE
100
AcDbEntity
  8
Defpoints
 62
     0
440
 16777216
100
AcDbPoint
 10
381.4247476396224
 20
28.55264457880617
 30
0.0
  0
POINT
  5
FCE14
330
FC4BE
100
AcDbEntity
  8
Defpoints
 62
     0
440
 16777216
100
AcDbPoint
 10
399.4014278236236
 20
28.55264457880617
 30
0.0
  0
ENDBLK
  5
FC4C9
330
FC4BE
100
AcDbEntity
  8
0
100
AcDbBlockEnd
  0
BLOCK
  5
FC4F8
330
FC4EE
100
AcDbEntity
  8
0
100
AcDbBlockBegin
  2
*D9
 70
     1
 10
0.0
 20
0.0
 30
0.0
  3
*D9
  1

  0
LINE
  5
FCC9C
330
FC4EE
100
AcDbEntity
  8
AM_5
440
 16777216
100
AcDbLine
 10
336.4247476396223
 20
129.5526445788063
 30
0.0
 11
336.4247476396223
 21
145.6829567442256
 31
0.0
  0
LINE
  5
FCC9D
330
FC4EE
100
AcDbEntity
  8
AM_5
440
 16777216
100
AcDbLine
 10
381.4247476396224
 20
129.5526445788063
 30
0.0
 11
381.4247476396224
 21
145.6829567442256
 31
0.0
  0
LINE
  5
FCC9E
330
FC4EE
100
AcDbEntity
  8
AM_5
440
 16777216
100
AcDbLine
 10
338.9247476396223
 20
144.6829567442256
 30
0.0
 11
378.9247476396223
 21
144.6829567442256
 31
0.0
  0
SOLID
  5
FCC9F
330
FC4EE
100
AcDbEntity
  8
AM_5
440
 16777216
100
AcDbTrace
 10
338.9247476396223
 20
145.0996234108921
 30
0.0
 11
338.9247476396223
 21
144.2662900775589
 31
0.0
 12
336.4247476396223
 22
144.6829567442256
 32
0.0
 13
336.4247476396223
 23
144.6829567442256
 33
0.0
  0
SOLID
  5
FCCA0
330
FC4EE
100
AcDbEntity
  8
AM_5
440
 16777216
100
AcDbTrace
 10
378.9247476396223
 20
145.0996234108921
 30
0.0
 11
378.9247476396223
 21
144.2662900775589
 31
0.0
 12
381.4247476396224
 22
144.6829567442256
 32
0.0
 13
381.4247476396224
 23
144.6829567442256
 33
0.0
  0
MTEXT
  5
FCCA1
330
FC4EE
100
AcDbEntity
  8
AM_5
 62
     2
440
 16777216
100
AcDbMText
 10
358.9247476396224
 20
147.9329567442256
 30
0.0
 40
3.5
 41
0.0
 71
     5
 72
     1
  1
45
 73
     1
 44
1.0
  0
POINT
  5
FCCA2
330
FC4EE
100
AcDbEntity
  8
Defpoints
 62
     0
440
 16777216
100
AcDbPoint
 10
336.4247476396223
 20
128.5526445788063
 30
0.0
  0
POINT
  5
FCCA3
330
FC4EE
100
AcDbEntity
  8
Defpoints
 62
     0
440
 16777216
100
AcDbPoint
 10
381.4247476396224
 20
128.5526445788063
 30
0.0
  0
POINT
  5
FCCA4
330
FC4EE
100
AcDbEntity
  8
Defpoints
 62
     0
440
 16777216
100
AcDbPoint
 10
381.4247476396224
 20
144.6829567442256
 30
0.0
  0
ENDBLK
  5
FC4F9
330
FC4EE
100
AcDbEntity
  8
0
100
AcDbBlockEnd
  0
BLOCK
  5
FC504
330
FC4FA
100
AcDbEntity
  8
0
100
AcDbBlockBegin
  2
*D10
 70
     1
 10
0.0
 20
0.0
 30
0.0
  3
*D10
  1

  0
LINE
  5
FCCA5
330
FC4FA
100
AcDbEntity
  8
AM_5
440
 16777216
100
AcDbLine
 10
328.9247476396218
 20
99.55264457880629
 30
0.0
 11
328.9247476396218
 21
152.7008696517065
 31
0.0
  0
LINE
  5
FCCA6
330
FC4FA
100
AcDbEntity
  8
AM_5
440
 16777216
100
AcDbLine
 10
388.9247476396228
 20
99.55264457880264
 30
0.0
 11
388.9247476396228
 21
152.7008696517065
 31
0.0
  0
LINE
  5
FCCA7
330
FC4FA
100
AcDbEntity
  8
AM_5
440
 16777216
100
AcDbLine
 10
331.4247476396218
 20
151.7008696517065
 30
0.0
 11
386.4247476396228
 21
151.7008696517065
 31
0.0
  0
SOLID
  5
FCCA8
330
FC4FA
100
AcDbEntity
  8
AM_5
440
 16777216
100
AcDbTrace
 10
331.4247476396218
 20
152.1175363183731
 30
0.0
 11
331.4247476396218
 21
151.2842029850398
 31
0.0
 12
328.9247476396218
 22
151.7008696517065
 32
0.0
 13
328.9247476396218
 23
151.7008696517065
 33
0.0
  0
SOLID
  5
FCCA9
330
FC4FA
100
AcDbEntity
  8
AM_5
440
 16777216
100
AcDbTrace
 10
386.4247476396228
 20
152.1175363183731
 30
0.0
 11
386.4247476396228
 21
151.2842029850398
 31
0.0
 12
388.9247476396228
 22
151.7008696517065
 32
0.0
 13
388.9247476396228
 23
151.7008696517065
 33
0.0
  0
MTEXT
  5
FCCAA
330
FC4FA
100
AcDbEntity
  8
AM_5
 62
     2
440
 16777216
100
AcDbMText
 10
358.9247476396224
 20
154.9508696517065
 30
0.0
 40
3.5
 41
0.0
 71
     5
 72
     1
  1
60
 73
     1
 44
1.0
  0
POINT
  5
FCCAB
330
FC4FA
100
AcDbEntity
  8
Defpoints
 62
     0
440
 16777216
100
AcDbPoint
 10
328.9247476396218
 20
98.55264457880629
 30
0.0
  0
POINT
  5
FCCAC
330
FC4FA
100
AcDbEntity
  8
Defpoints
 62
     0
440
 16777216
100
AcDbPoint
 10
388.9247476396228
 20
98.55264457880265
 30
0.0
  0
POINT
  5
FCCAD
330
FC4FA
100
AcDbEntity
  8
Defpoints
 62
     0
440
 16777216
100
AcDbPoint
 10
388.9247476396228
 20
151.7008696517065
 30
0.0
  0
ENDBLK
  5
FC505
330
FC4FA
100
AcDbEntity
  8
0
100
AcDbBlockEnd
  0
BLOCK
  5
FC510
330
FC506
100
AcDbEntity
  8
0
100
AcDbBlockBegin
  2
*D11
 70
     1
 10
0.0
 20
0.0
 30
0.0
  3
*D11
  1

  0
LINE
  5
FCD94
330
FC506
100
AcDbEntity
  8
AM_5
440
 16777216
100
AcDbLine
 10
371.2247476396225
 20
125.5526445788063
 30
0.0
 11
371.2247476396225
 21
138.7617361252265
 31
0.0
  0
LINE
  5
FCD95
330
FC506
100
AcDbEntity
  8
AM_5
440
 16777216
100
AcDbLine
 10
346.6247476396221
 20
125.5526445788063
 30
0.0
 11
346.6247476396221
 21
138.7617361252265
 31
0.0
  0
LINE
  5
FCD96
330
FC506
100
AcDbEntity
  8
AM_5
440
 16777216
100
AcDbLine
 10
368.7247476396225
 20
137.7617361252265
 30
0.0
 11
349.1247476396221
 21
137.7617361252265
 31
0.0
  0
SOLID
  5
FCD97
330
FC506
100
AcDbEntity
  8
AM_5
440
 16777216
100
AcDbTrace
 10
368.7247476396225
 20
138.1784027918931
 30
0.0
 11
368.7247476396225
 21
137.3450694585598
 31
0.0
 12
371.2247476396225
 22
137.7617361252265
 32
0.0
 13
371.2247476396225
 23
137.7617361252265
 33
0.0
  0
SOLID
  5
FCD98
330
FC506
100
AcDbEntity
  8
AM_5
440
 16777216
100
AcDbTrace
 10
349.1247476396221
 20
138.1784027918931
 30
0.0
 11
349.1247476396221
 21
137.3450694585598
 31
0.0
 12
346.6247476396221
 22
137.7617361252265
 32
0.0
 13
346.6247476396221
 23
137.7617361252265
 33
0.0
  0
MTEXT
  5
FCD99
330
FC506
100
AcDbEntity
  8
AM_5
 62
     2
440
 16777216
100
AcDbMText
 10
358.9247476396224
 20
141.0120806134154
 30
0.0
 40
3.5
 41
0.0
 71
     5
 72
     1
  1
24.6
 73
     1
 44
1.0
  0
POINT
  5
FCD9A
330
FC506
100
AcDbEntity
  8
Defpoints
 62
     0
440
 16777216
100
AcDbPoint
 10
371.2247476396225
 20
124.5526445788063
 30
0.0
  0
POINT
  5
FCD9B
330
FC506
100
AcDbEntity
  8
Defpoints
 62
     0
440
 16777216
100
AcDbPoint
 10
346.6247476396221
 20
124.5526445788063
 30
0.0
  0
POINT
  5
FCD9C
330
FC506
100
AcDbEntity
  8
Defpoints
 62
     0
440
 16777216
100
AcDbPoint
 10
346.6247476396221
 20
137.7617361252265
 30
0.0
  0
ENDBLK
  5
FC511
330
FC506
100
AcDbEntity
  8
0
100
AcDbBlockEnd
  0
BLOCK
  5
FC51A
330
FC512
100
AcDbEntity
  8
0
100
AcDbBlockBegin
  2
*D12
 70
     1
 10
0.0
 20
0.0
 30
0.0
  3
*D12
  1

  0
LINE
  5
FCD4B
330
FC512
100
AcDbEntity
  8
AM_5
440
 16777216
100
AcDbLine
 10
381.9247476396224
 20
58.55264457880617
 30
0.0
 11
400.4014278236236
 21
58.55264457880617
 31
0.0
  0
LINE
  5
FCD4C
330
FC512
100
AcDbEntity
  8
AM_5
440
 16777216
100
AcDbLine
 10
349.9247476396224
 20
53.55264457880629
 30
0.0
 11
400.4014278236236
 21
53.55264457880627
 31
0.0
  0
LINE
  5
FCD4D
330
FC512
100
AcDbEntity
  8
AM_5
440
 16777216
100
AcDbLine
 10
399.4014278236236
 20
61.05264457880617
 30
0.0
 11
399.4014278236236
 21
63.55264457880617
 31
0.0
  0
LINE
  5
FCD4E
330
FC512
100
AcDbEntity
  8
AM_5
440
 16777216
100
AcDbLine
 10
399.4014278236236
 20
51.05264457880629
 30
0.0
 11
399.4014278236236
 21
48.55264457880629
 31
0.0
  0
LINE
  5
FCD4F
330
FC512
100
AcDbEntity
  8
AM_5
440
 16777216
100
AcDbLine
 10
399.4014278236236
 20
58.55264457880617
 30
0.0
 11
399.4014278236236
 21
53.55264457880629
 31
0.0
  0
SOLID
  5
FCD50
330
FC512
100
AcDbEntity
  8
AM_5
440
 16777216
100
AcDbTrace
 10
398.984761156957
 20
61.05264457880617
 30
0.0
 11
399.8180944902903
 21
61.05264457880617
 31
0.0
 12
399.4014278236236
 22
58.55264457880617
 32
0.0
 13
399.4014278236236
 23
58.55264457880617
 33
0.0
  0
SOLID
  5
FCD51
330
FC512
100
AcDbEntity
  8
AM_5
440
 16777216
100
AcDbTrace
 10
398.984761156957
 20
51.05264457880629
 30
0.0
 11
399.8180944902903
 21
51.05264457880629
 31
0.0
 12
399.4014278236236
 22
53.55264457880629
 32
0.0
 13
399.4014278236236
 23
53.55264457880629
 33
0.0
  0
MTEXT
  5
FCD52
330
FC512
100
AcDbEntity
  8
AM_5
 62
     2
440
 16777216
100
AcDbMText
 10
396.1514278236236
 20
56.05264457880629
 30
0.0
 40
3.5
 41
0.0
 71
     5
 72
     1
  1
5
 11
0.0000000000000001
 21
1.0
 31
0.0
 73
     1
 44
1.0
  0
POINT
  5
FCD53
330
FC512
100
AcDbEntity
  8
Defpoints
 62
     0
440
 16777216
100
AcDbPoint
 10
380.9247476396223
 20
58.55264457880617
 30
0.0
  0
POINT
  5
FCD54
330
FC512
100
AcDbEntity
  8
Defpoints
 62
     0
440
 16777216
100
AcDbPoint
 10
348.9247476396224
 20
53.55264457880629
 30
0.0
  0
POINT
  5
FCD55
330
FC512
100
AcDbEntity
  8
Defpoints
 62
     0
440
 16777216
100
AcDbPoint
 10
399.4014278236236
 20
53.55264457880629
 30
0.0
  0
ENDBLK
  5
FC51B
330
FC512
100
AcDbEntity
  8
0
100
AcDbBlockEnd
  0
BLOCK
  5
FC535
330
FC528
100
AcDbEntity
  8
0
100
AcDbBlockBegin
  2
*D13
 70
     1
 10
0.0
 20
0.0
 30
0.0
  3
*D13
  1

  0
LINE
  5
FCDAF
330
FC528
100
AcDbEntity
  8
AM_5
440
 16777216
100
AcDbLine
 10
327.9247476396218
 20
171.8072355842979
 30
0.0
 11
315.3104990615469
 21
171.8072355842979
 31
0.0
  0
LINE
  5
FCDB0
330
FC528
100
AcDbEntity
  8
AM_5
440
 16777216
100
AcDbLine
 10
327.9247476396223
 20
169.8072355842981
 30
0.0
 11
315.3104990615469
 21
169.8072355842981
 31
0.0
  0
LINE
  5
FCDB1
330
FC528
100
AcDbEntity
  8
AM_5
440
 16777216
100
AcDbLine
 10
316.3104990615469
 20
174.3072355842979
 30
0.0
 11
316.3104990615469
 21
176.8072355842979
 31
0.0
  0
LINE
  5
FCDB2
330
FC528
100
AcDbEntity
  8
AM_5
440
 16777216
100
AcDbLine
 10
316.3104990615469
 20
167.3072355842981
 30
0.0
 11
316.3104990615469
 21
155.6470288913847
 31
0.0
  0
LINE
  5
FCDB3
330
FC528
100
AcDbEntity
  8
AM_5
440
 16777216
100
AcDbLine
 10
316.3104990615469
 20
171.8072355842979
 30
0.0
 11
316.3104990615469
 21
169.8072355842981
 31
0.0
  0
SOLID
  5
FCDB4
330
FC528
100
AcDbEntity
  8
AM_5
440
 16777216
100
AcDbTrace
 10
315.8938323948802
 20
174.3072355842979
 30
0.0
 11
316.7271657282136
 21
174.3072355842979
 31
0.0
 12
316.3104990615469
 22
171.8072355842979
 32
0.0
 13
316.3104990615469
 23
171.8072355842979
 33
0.0
  0
SOLID
  5
FCDB5
330
FC528
100
AcDbEntity
  8
AM_5
440
 16777216
100
AcDbTrace
 10
315.8938323948802
 20
167.3072355842981
 30
0.0
 11
316.7271657282136
 21
167.3072355842981
 31
0.0
 12
316.3104990615469
 22
169.8072355842981
 32
0.0
 13
316.3104990615469
 23
169.8072355842981
 33
0.0
  0
MTEXT
  5
FCDB6
330
FC528
100
AcDbEntity
  8
AM_5
 62
     2
440
 16777216
100
AcDbMText
 10
313.0601545733578
 20
160.2271322378414
 30
0.0
 40
3.5
 41
0.0
 71
     5
 72
     1
  1
t=2
 11
0.0000000000000001
 21
1.0
 31
0.0
 73
     1
 44
1.0
  0
POINT
  5
FCDB7
330
FC528
100
AcDbEntity
  8
Defpoints
 62
     0
440
 16777216
100
AcDbPoint
 10
328.9247476396218
 20
171.8072355842979
 30
0.0
  0
POINT
  5
FCDB8
330
FC528
100
AcDbEntity
  8
Defpoints
 62
     0
440
 16777216
100
AcDbPoint
 10
328.9247476396223
 20
169.8072355842981
 30
0.0
  0
POINT
  5
FCDB9
330
FC528
100
AcDbEntity
  8
Defpoints
 62
     0
440
 16777216
100
AcDbPoint
 10
316.3104990615469
 20
169.8072355842981
 30
0.0
  0
ENDBLK
  5
FC536
330
FC528
100
AcDbEntity
  8
0
100
AcDbBlockEnd
  0
BLOCK
  5
FC541
330
FC537
100
AcDbEntity
  8
0
100
AcDbBlockBegin
  2
*D14
 70
     1
 10
0.0
 20
0.0
 30
0.0
  3
*D14
  1

  0
LINE
  5
FCCAE
330
FC537
100
AcDbEntity
  8
AM_5
440
 16777216
100
AcDbLine
 10
312.9371248141915
 20
146.4091200008041
 30
0.0
 11
342.5788247301709
 21
121.8982398637708
 31
0.0
  0
LINE
  5
FCCAF
330
FC537
100
AcDbEntity
  8
AM_5
440
 16777216
100
AcDbLine
 10
350.6706705490734
 20
115.2070492938417
 30
0.0
 11
352.5973005059548
 21
113.6139086819538
 31
0.0
  0
MTEXT
  5
FCCB0
102
{ACAD_XDICTIONARY
360
FCF38
102
}
330
FC537
100
AcDbEntity
  8
AM_5
 62
     2
440
 16777216
100
AcDbMText
 10
321.2100197101449
 20
143.7854273614529
 30
0.0
 40
3.5
 41
0.0
 71
     5
 72
     1
  1
8-\U+22055.5
 11
0.7706519827526197
 21
-0.6372562447551661
 31
0.0
 73
     1
 44
1.0
  0
LINE
  5
FCCB1
330
FC537
100
AcDbEntity
  8
AM_5
440
 16777216
100
AcDbLine
 10
348.7440405921917
 20
116.8001899057296
 30
0.0
 11
344.5054546870524
 21
120.3050992518829
 31
0.0
  0
SOLID
  5
FCCB2
330
FC537
100
AcDbEntity
  8
AM_5
440
 16777216
100
AcDbTrace
 10
350.936193984388
 20
115.5281542866553
 30
0.0
 11
350.4051471137586
 21
114.885944301028
 31
0.0
 12
348.7440405921917
 22
116.8001899057296
 32
0.0
 13
348.7440405921917
 23
116.8001899057296
 33
0.0
  0
SOLID
  5
FCCB3
330
FC537
100
AcDbEntity
  8
AM_5
440
 16777216
100
AcDbTrace
 10
342.8443481654856
 20
122.2193448565844
 30
0.0
 11
342.3133012948562
 21
121.5771348709572
 31
0.0
 12
344.5054546870524
 22
120.3050992518829
 32
0.0
 13
344.5054546870524
 23
120.3050992518829
 33
0.0
  0
POINT
  5
FCCB4
330
FC537
100
AcDbEntity
  8
Defpoints
 62
     0
440
 16777216
100
AcDbPoint
 10
344.5054546870524
 20
120.3050992518829
 30
0.0
  0
POINT
  5
FCCB5
330
FC537
100
AcDbEntity
  8
Defpoints
 62
     0
440
 16777216
100
AcDbPoint
 10
348.7440405921917
 20
116.8001899057296
 30
0.0
  0
ENDBLK
  5
FC542
330
FC537
100
AcDbEntity
  8
0
100
AcDbBlockEnd
  0
BLOCK
  5
FC571
330
FC567
100
AcDbEntity
  8
0
100
AcDbBlockBegin
  2
*D15
 70
     1
 10
0.0
 20
0.0
 30
0.0
  3
*D15
  1

  0
LINE
  5
FCCD5
330
FC567
100
AcDbEntity
  8
AM_5
440
 16777216
100
AcDbLine
 10
342.9247476396223
 20
110.5526445788063
 30
0.0
 11
342.9247476396223
 21
138.7617361252265
 31
0.0
  0
LINE
  5
FCCD6
330
FC567
100
AcDbEntity
  8
AM_5
440
 16777216
100
AcDbLine
 10
336.4247476396223
 20
129.5526445788063
 30
0.0
 11
336.4247476396223
 21
138.7617361252265
 31
0.0
  0
LINE
  5
FCCD7
330
FC567
100
AcDbEntity
  8
AM_5
440
 16777216
100
AcDbLine
 10
345.4247476396223
 20
137.7617361252265
 30
0.0
 11
347.9247476396224
 21
137.7617361252265
 31
0.0
  0
LINE
  5
FCCD8
330
FC567
100
AcDbEntity
  8
AM_5
440
 16777216
100
AcDbLine
 10
333.9247476396223
 20
137.7617361252265
 30
0.0
 11
331.4247476396223
 21
137.7617361252265
 31
0.0
  0
LINE
  5
FCCD9
330
FC567
100
AcDbEntity
  8
AM_5
440
 16777216
100
AcDbLine
 10
342.9247476396223
 20
137.7617361252265
 30
0.0
 11
336.4247476396223
 21
137.7617361252265
 31
0.0
  0
SOLID
  5
FCCDA
330
FC567
100
AcDbEntity
  8
AM_5
440
 16777216
100
AcDbTrace
 10
345.4247476396223
 20
138.1784027918931
 30
0.0
 11
345.4247476396223
 21
137.3450694585598
 31
0.0
 12
342.9247476396223
 22
137.7617361252265
 32
0.0
 13
342.9247476396223
 23
137.7617361252265
 33
0.0
  0
SOLID
  5
FCCDB
330
FC567
100
AcDbEntity
  8
AM_5
440
 16777216
100
AcDbTrace
 10
333.9247476396223
 20
138.1784027918931
 30
0.0
 11
333.9247476396223
 21
137.3450694585598
 31
0.0
 12
336.4247476396223
 22
137.7617361252265
 32
0.0
 13
336.4247476396223
 23
137.7617361252265
 33
0.0
  0
MTEXT
  5
FCCDC
330
FC567
100
AcDbEntity
  8
AM_5
 62
     2
440
 16777216
100
AcDbMText
 10
339.6747476396223
 20
141.0117361252265
 30
0.0
 40
3.5
 41
0.0
 71
     5
 72
     1
  1
6.5
 73
     1
 44
1.0
  0
POINT
  5
FCCDD
330
FC567
100
AcDbEntity
  8
Defpoints
 62
     0
440
 16777216
100
AcDbPoint
 10
342.9247476396223
 20
109.5526445788063
 30
0.0
  0
POINT
  5
FCCDE
330
FC567
100
AcDbEntity
  8
Defpoints
 62
     0
440
 16777216
100
AcDbPoint
 10
336.4247476396223
 20
128.5526445788063
 30
0.0
  0
POINT
  5
FCCDF
330
FC567
100
AcDbEntity
  8
Defpoints
 62
     0
440
 16777216
100
AcDbPoint
 10
336.4247476396223
 20
137.7617361252265
 30
0.0
  0
ENDBLK
  5
FC572
330
FC567
100
AcDbEntity
  8
0
100
AcDbBlockEnd
  0
BLOCK
  5
FC57B
330
FC573
100
AcDbEntity
  8
0
100
AcDbBlockBegin
  2
*D16
 70
     1
 10
0.0
 20
0.0
 30
0.0
  3
*D16
  1

  0
LINE
  5
FCCE0
330
FC573
100
AcDbEntity
  8
AM_5
440
 16777216
100
AcDbLine
 10
346.6247476396221
 20
125.5526445788063
 30
0.0
 11
346.6247476396221
 21
138.7617361252265
 31
0.0
  0
LINE
  5
FCCE1
330
FC573
100
AcDbEntity
  8
AM_5
440
 16777216
100
AcDbLine
 10
342.9247476396223
 20
110.5526445788063
 30
0.0
 11
342.9247476396223
 21
138.7617361252265
 31
0.0
  0
LINE
  5
FCCE2
330
FC573
100
AcDbEntity
  8
AM_5
440
 16777216
100
AcDbLine
 10
349.1247476396221
 20
137.7617361252265
 30
0.0
 11
351.6247476396221
 21
137.7617361252265
 31
0.0
  0
LINE
  5
FCCE3
330
FC573
100
AcDbEntity
  8
AM_5
440
 16777216
100
AcDbLine
 10
340.4247476396223
 20
137.7617361252265
 30
0.0
 11
337.9247476396223
 21
137.7617361252265
 31
0.0
  0
LINE
  5
FCCE4
330
FC573
100
AcDbEntity
  8
AM_5
440
 16777216
100
AcDbLine
 10
346.6247476396221
 20
137.7617361252265
 30
0.0
 11
342.9247476396223
 21
137.7617361252265
 31
0.0
  0
SOLID
  5
FCCE5
330
FC573
100
AcDbEntity
  8
AM_5
440
 16777216
100
AcDbTrace
 10
349.1247476396221
 20
138.1784027918931
 30
0.0
 11
349.1247476396221
 21
137.3450694585598
 31
0.0
 12
346.6247476396221
 22
137.7617361252265
 32
0.0
 13
346.6247476396221
 23
137.7617361252265
 33
0.0
  0
SOLID
  5
FCCE6
330
FC573
100
AcDbEntity
  8
AM_5
440
 16777216
100
AcDbTrace
 10
340.4247476396223
 20
138.1784027918931
 30
0.0
 11
340.4247476396223
 21
137.3450694585598
 31
0.0
 12
342.9247476396223
 22
137.7617361252265
 32
0.0
 13
342.9247476396223
 23
137.7617361252265
 33
0.0
  0
MTEXT
  5
FCCE7
330
FC573
100
AcDbEntity
  8
AM_5
 62
     2
440
 16777216
100
AcDbMText
 10
344.7747476396222
 20
141.0117361252265
 30
0.0
 40
3.5
 41
0.0
 71
     5
 72
     1
  1
3.7
 73
     1
 44
1.0
  0
POINT
  5
FCCE8
330
FC573
100
AcDbEntity
  8
Defpoints
 62
     0
440
 16777216
100
AcDbPoint
 10
346.6247476396221
 20
124.5526445788063
 30
0.0
  0
POINT
  5
FCCE9
330
FC573
100
AcDbEntity
  8
Defpoints
 62
     0
440
 16777216
100
AcDbPoint
 10
342.9247476396223
 20
109.5526445788063
 30
0.0
  0
POINT
  5
FCCEA
330
FC573
100
AcDbEntity
  8
Defpoints
 62
     0
440
 16777216
100
AcDbPoint
 10
342.9247476396223
 20
137.7617361252265
 30
0.0
  0
ENDBLK
  5
FC57C
330
FC573
100
AcDbEntity
  8
0
100
AcDbBlockEnd
  0
BLOCK
  5
FC591
330
FC589
100
AcDbEntity
  8
0
100
AcDbBlockBegin
  2
*D17
 70
     1
 10
0.0
 20
0.0
 30
0.0
  3
*D17
  1

  0
LINE
  5
FCDBA
330
FC589
100
AcDbEntity
  8
AM_5
440
 16777216
100
AcDbLine
 10
327.9247476396218
 20
171.8072355842979
 30
0.0
 11
318.3003467772829
 21
171.8072355842979
 31
0.0
  0
LINE
  5
FCDBB
330
FC589
100
AcDbEntity
  8
AM_5
440
 16777216
100
AcDbLine
 10
332.9247476396218
 20
176.807235584298
 30
0.0
 11
318.3003467772829
 21
176.807235584298
 31
0.0
  0
LINE
  5
FCDBC
330
FC589
100
AcDbEntity
  8
AM_5
440
 16777216
100
AcDbLine
 10
319.3003467772829
 20
169.3072355842979
 30
0.0
 11
319.3003467772829
 21
166.8072355842979
 31
0.0
  0
LINE
  5
FCDBD
330
FC589
100
AcDbEntity
  8
AM_5
440
 16777216
100
AcDbLine
 10
319.3003467772829
 20
179.307235584298
 30
0.0
 11
319.3003467772829
 21
181.807235584298
 31
0.0
  0
LINE
  5
FCDBE
330
FC589
100
AcDbEntity
  8
AM_5
440
 16777216
100
AcDbLine
 10
319.3003467772829
 20
171.8072355842979
 30
0.0
 11
319.3003467772829
 21
176.807235584298
 31
0.0
  0
SOLID
  5
FCDBF
330
FC589
100
AcDbEntity
  8
AM_5
440
 16777216
100
AcDbTrace
 10
318.8836801106162
 20
169.3072355842979
 30
0.0
 11
319.7170134439496
 21
169.3072355842979
 31
0.0
 12
319.3003467772829
 22
171.8072355842979
 32
0.0
 13
319.3003467772829
 23
171.8072355842979
 33
0.0
  0
SOLID
  5
FCDC0
330
FC589
100
AcDbEntity
  8
AM_5
440
 16777216
100
AcDbTrace
 10
318.8836801106162
 20
179.307235584298
 30
0.0
 11
319.7170134439496
 21
179.307235584298
 31
0.0
 12
319.3003467772829
 22
176.807235584298
 32
0.0
 13
319.3003467772829
 23
176.807235584298
 33
0.0
  0
MTEXT
  5
FCDC1
330
FC589
100
AcDbEntity
  8
AM_5
 62
     2
440
 16777216
100
AcDbMText
 10
316.0503467772828
 20
174.307235584298
 30
0.0
 40
3.5
 41
0.0
 71
     5
 72
     1
  1
5
 11
0.0000000000000001
 21
1.0
 31
0.0
 73
     1
 44
1.0
  0
POINT
  5
FCDC2
330
FC589
100
AcDbEntity
  8
Defpoints
 62
     0
440
 16777216
100
AcDbPoint
 10
328.9247476396218
 20
171.8072355842979
 30
0.0
  0
POINT
  5
FCDC3
330
FC589
100
AcDbEntity
  8
Defpoints
 62
     0
440
 16777216
100
AcDbPoint
 10
333.9247476396218
 20
176.807235584298
 30
0.0
  0
POINT
  5
FCDC4
330
FC589
100
AcDbEntity
  8
Defpoints
 62
     0
440
 16777216
100
AcDbPoint
 10
319.3003467772829
 20
176.807235584298
 30
0.0
  0
ENDBLK
  5
FC592
330
FC589
100
AcDbEntity
  8
0
100
AcDbBlockEnd
  0
BLOCK
  5
FC59D
330
FC593
100
AcDbEntity
  8
0
100
AcDbBlockBegin
  2
*D18
 70
     1
 10
0.0
 20
0.0
 30
0.0
  3
*D18
  1

  0
LINE
  5
FCDA6
330
FC593
100
AcDbEntity
  8
AM_5
440
 16777216
100
AcDbLine
 10
378.2247476396225
 20
118.5526445788062
 30
0.0
 11
400.4014278236236
 21
118.5526445788062
 31
0.0
  0
LINE
  5
FCDA7
330
FC593
100
AcDbEntity
  8
AM_5
440
 16777216
100
AcDbLine
 10
381.9247476396224
 20
103.5526445788063
 30
0.0
 11
400.4014278236236
 21
103.5526445788063
 31
0.0
  0
LINE
  5
FCDA8
330
FC593
100
AcDbEntity
  8
AM_5
440
 16777216
100
AcDbLine
 10
399.4014278236236
 20
116.0526445788062
 30
0.0
 11
399.4014278236236
 21
106.0526445788063
 31
0.0
  0
SOLID
  5
FCDA9
330
FC593
100
AcDbEntity
  8
AM_5
440
 16777216
100
AcDbTrace
 10
398.984761156957
 20
116.0526445788062
 30
0.0
 11
399.8180944902903
 21
116.0526445788062
 31
0.0
 12
399.4014278236236
 22
118.5526445788062
 32
0.0
 13
399.4014278236236
 23
118.5526445788062
 33
0.0
  0
SOLID
  5
FCDAA
330
FC593
100
AcDbEntity
  8
AM_5
440
 16777216
100
AcDbTrace
 10
398.984761156957
 20
106.0526445788063
 30
0.0
 11
399.8180944902903
 21
106.0526445788063
 31
0.0
 12
399.4014278236236
 22
103.5526445788063
 32
0.0
 13
399.4014278236236
 23
103.5526445788063
 33
0.0
  0
MTEXT
  5
FCDAB
330
FC593
100
AcDbEntity
  8
AM_5
 62
     2
440
 16777216
100
AcDbMText
 10
396.1514278236236
 20
111.0526445788063
 30
0.0
 40
3.5
 41
0.0
 71
     5
 72
     1
  1
15
 11
0.0000000000000001
 21
1.0
 31
0.0
 73
     1
 44
1.0
  0
POINT
  5
FCDAC
330
FC593
100
AcDbEntity
  8
Defpoints
 62
     0
440
 16777216
100
AcDbPoint
 10
377.2247476396225
 20
118.5526445788062
 30
0.0
  0
POINT
  5
FCDAD
330
FC593
100
AcDbEntity
  8
Defpoints
 62
     0
440
 16777216
100
AcDbPoint
 10
380.9247476396223
 20
103.5526445788063
 30
0.0
  0
POINT
  5
FCDAE
330
FC593
100
AcDbEntity
  8
Defpoints
 62
     0
440
 16777216
100
AcDbPoint
 10
399.4014278236236
 20
103.5526445788063
 30
0.0
  0
ENDBLK
  5
FC59E
330
FC593
100
AcDbEntity
  8
0
100
AcDbBlockEnd
  0
BLOCK
  5
FC5B5
330
FC5AB
100
AcDbEntity
  8
0
100
AcDbBlockBegin
  2
*D19
 70
     1
 10
0.0
 20
0.0
 30
0.0
  3
*D19
  1

  0
LINE
  5
FCD75
330
FC5AB
100
AcDbEntity
  8
AM_5
440
 16777216
100
AcDbLine
 10
381.9247476396224
 20
103.5526445788063
 30
0.0
 11
400.4014278236236
 21
103.5526445788063
 31
0.0
  0
LINE
  5
FCD76
330
FC5AB
100
AcDbEntity
  8
AM_5
440
 16777216
100
AcDbLine
 10
381.9247476396219
 20
58.55264457880617
 30
0.0
 11
400.4014278236236
 21
58.55264457880617
 31
0.0
  0
LINE
  5
FCD77
330
FC5AB
100
AcDbEntity
  8
AM_5
440
 16777216
100
AcDbLine
 10
399.4014278236236
 20
101.0526445788063
 30
0.0
 11
399.4014278236236
 21
61.05264457880617
 31
0.0
  0
SOLID
  5
FCD78
330
FC5AB
100
AcDbEntity
  8
AM_5
440
 16777216
100
AcDbTrace
 10
398.984761156957
 20
101.0526445788063
 30
0.0
 11
399.8180944902903
 21
101.0526445788063
 31
0.0
 12
399.4014278236236
 22
103.5526445788063
 32
0.0
 13
399.4014278236236
 23
103.5526445788063
 33
0.0
  0
SOLID
  5
FCD79
330
FC5AB
100
AcDbEntity
  8
AM_5
440
 16777216
100
AcDbTrace
 10
398.984761156957
 20
61.05264457880617
 30
0.0
 11
399.8180944902903
 21
61.05264457880617
 31
0.0
 12
399.4014278236236
 22
58.55264457880617
 32
0.0
 13
399.4014278236236
 23
58.55264457880617
 33
0.0
  0
MTEXT
  5
FCD7A
330
FC5AB
100
AcDbEntity
  8
AM_5
 62
     2
440
 16777216
100
AcDbMText
 10
396.1514278236236
 20
81.05264457880629
 30
0.0
 40
3.5
 41
0.0
 71
     5
 72
     1
  1
45
 11
0.0000000000000001
 21
1.0
 31
0.0
 73
     1
 44
1.0
  0
POINT
  5
FCD7B
330
FC5AB
100
AcDbEntity
  8
Defpoints
 62
     0
440
 16777216
100
AcDbPoint
 10
380.9247476396223
 20
103.5526445788063
 30
0.0
  0
POINT
  5
FCD7C
330
FC5AB
100
AcDbEntity
  8
Defpoints
 62
     0
440
 16777216
100
AcDbPoint
 10
380.9247476396219
 20
58.55264457880617
 30
0.0
  0
POINT
  5
FCD7D
330
FC5AB
100
AcDbEntity
  8
Defpoints
 62
     0
440
 16777216
100
AcDbPoint
 10
399.4014278236236
 20
58.55264457880617
 30
0.0
  0
ENDBLK
  5
FC5B6
330
FC5AB
100
AcDbEntity
  8
0
100
AcDbBlockEnd
  0
BLOCK
  5
FC5C1
330
FC5B7
100
AcDbEntity
  8
0
100
AcDbBlockBegin
  2
*D20
 70
     1
 10
0.0
 20
0.0
 30
0.0
  3
*D20
  1

  0
LINE
  5
FCD9D
330
FC5B7
100
AcDbEntity
  8
AM_5
440
 16777216
100
AcDbLine
 10
382.4247476396223
 20
128.5526445788063
 30
0.0
 11
400.4014278236236
 21
128.5526445788063
 31
0.0
  0
LINE
  5
FCD9E
330
FC5B7
100
AcDbEntity
  8
AM_5
440
 16777216
100
AcDbLine
 10
378.2247476396225
 20
118.5526445788062
 30
0.0
 11
400.4014278236236
 21
118.5526445788062
 31
0.0
  0
LINE
  5
FCD9F
330
FC5B7
100
AcDbEntity
  8
AM_5
440
 16777216
100
AcDbLine
 10
399.4014278236236
 20
126.0526445788063
 30
0.0
 11
399.4014278236236
 21
121.0526445788062
 31
0.0
  0
SOLID
  5
FCDA0
330
FC5B7
100
AcDbEntity
  8
AM_5
440
 16777216
100
AcDbTrace
 10
398.984761156957
 20
126.0526445788063
 30
0.0
 11
399.8180944902903
 21
126.0526445788063
 31
0.0
 12
399.4014278236236
 22
128.5526445788063
 32
0.0
 13
399.4014278236236
 23
128.5526445788063
 33
0.0
  0
SOLID
  5
FCDA1
330
FC5B7
100
AcDbEntity
  8
AM_5
440
 16777216
100
AcDbTrace
 10
398.984761156957
 20
121.0526445788062
 30
0.0
 11
399.8180944902903
 21
121.0526445788062
 31
0.0
 12
399.4014278236236
 22
118.5526445788062
 32
0.0
 13
399.4014278236236
 23
118.5526445788062
 33
0.0
  0
MTEXT
  5
FCDA2
330
FC5B7
100
AcDbEntity
  8
AM_5
 62
     2
440
 16777216
100
AcDbMText
 10
396.1514278236236
 20
123.5526445788063
 30
0.0
 40
3.5
 41
0.0
 71
     5
 72
     1
  1
10
 11
0.0000000000000001
 21
1.0
 31
0.0
 73
     1
 44
1.0
  0
POINT
  5
FCDA3
330
FC5B7
100
AcDbEntity
  8
Defpoints
 62
     0
440
 16777216
100
AcDbPoint
 10
381.4247476396224
 20
128.5526445788063
 30
0.0
  0
POINT
  5
FCDA4
330
FC5B7
100
AcDbEntity
  8
Defpoints
 62
     0
440
 16777216
100
AcDbPoint
 10
377.2247476396225
 20
118.5526445788062
 30
0.0
  0
POINT
  5
FCDA5
330
FC5B7
100
AcDbEntity
  8
Defpoints
 62
     0
440
 16777216
100
AcDbPoint
 10
399.4014278236236
 20
118.5526445788062
 30
0.0
  0
ENDBLK
  5
FC5C2
330
FC5B7
100
AcDbEntity
  8
0
100
AcDbBlockEnd
  0
BLOCK
  5
FC5CD
330
FC5C3
100
AcDbEntity
  8
0
100
AcDbBlockBegin
  2
*D21
 70
     1
 10
0.0
 20
0.0
 30
0.0
  3
*D21
  1

  0
LINE
  5
FCD7E
330
FC5C3
100
AcDbEntity
  8
AM_5
440
 16777216
100
AcDbLine
 10
374.9247476396224
 20
110.5526445788063
 30
0.0
 11
374.9247476396224
 21
138.7617361252265
 31
0.0
  0
LINE
  5
FCD7F
330
FC5C3
100
AcDbEntity
  8
AM_5
440
 16777216
100
AcDbLine
 10
381.4247476396224
 20
129.5526445788063
 30
0.0
 11
381.4247476396224
 21
138.7617361252265
 31
0.0
  0
LINE
  5
FCD80
330
FC5C3
100
AcDbEntity
  8
AM_5
440
 16777216
100
AcDbLine
 10
372.4247476396223
 20
137.7617361252265
 30
0.0
 11
369.9247476396223
 21
137.7617361252265
 31
0.0
  0
LINE
  5
FCD81
330
FC5C3
100
AcDbEntity
  8
AM_5
440
 16777216
100
AcDbLine
 10
383.9247476396224
 20
137.7617361252265
 30
0.0
 11
386.4247476396224
 21
137.7617361252265
 31
0.0
  0
LINE
  5
FCD82
330
FC5C3
100
AcDbEntity
  8
AM_5
440
 16777216
100
AcDbLine
 10
374.9247476396224
 20
137.7617361252265
 30
0.0
 11
381.4247476396224
 21
137.7617361252265
 31
0.0
  0
SOLID
  5
FCD83
330
FC5C3
100
AcDbEntity
  8
AM_5
440
 16777216
100
AcDbTrace
 10
372.4247476396223
 20
138.1784027918931
 30
0.0
 11
372.4247476396223
 21
137.3450694585598
 31
0.0
 12
374.9247476396224
 22
137.7617361252265
 32
0.0
 13
374.9247476396224
 23
137.7617361252265
 33
0.0
  0
SOLID
  5
FCD84
330
FC5C3
100
AcDbEntity
  8
AM_5
440
 16777216
100
AcDbTrace
 10
383.9247476396224
 20
138.1784027918931
 30
0.0
 11
383.9247476396224
 21
137.3450694585598
 31
0.0
 12
381.4247476396224
 22
137.7617361252265
 32
0.0
 13
381.4247476396224
 23
137.7617361252265
 33
0.0
  0
MTEXT
  5
FCD85
330
FC5C3
100
AcDbEntity
  8
AM_5
 62
     2
440
 16777216
100
AcDbMText
 10
378.1747476396223
 20
141.0117361252265
 30
0.0
 40
3.5
 41
0.0
 71
     5
 72
     1
  1
6.5
 73
     1
 44
1.0
  0
POINT
  5
FCD86
330
FC5C3
100
AcDbEntity
  8
Defpoints
 62
     0
440
 16777216
100
AcDbPoint
 10
374.9247476396224
 20
109.5526445788063
 30
0.0
  0
POINT
  5
FCD87
330
FC5C3
100
AcDbEntity
  8
Defpoints
 62
     0
440
 16777216
100
AcDbPoint
 10
381.4247476396224
 20
128.5526445788063
 30
0.0
  0
POINT
  5
FCD88
330
FC5C3
100
AcDbEntity
  8
Defpoints
 62
     0
440
 16777216
100
AcDbPoint
 10
381.4247476396224
 20
137.7617361252265
 30
0.0
  0
ENDBLK
  5
FC5CE
330
FC5C3
100
AcDbEntity
  8
0
100
AcDbBlockEnd
  0
BLOCK
  5
FC5D7
330
FC5CF
100
AcDbEntity
  8
0
100
AcDbBlockBegin
  2
*D22
 70
     1
 10
0.0
 20
0.0
 30
0.0
  3
*D22
  1

  0
LINE
  5
FCD89
330
FC5CF
100
AcDbEntity
  8
AM_5
440
 16777216
100
AcDbLine
 10
371.2247476396225
 20
125.5526445788063
 30
0.0
 11
371.2247476396225
 21
138.7617361252265
 31
0.0
  0
LINE
  5
FCD8A
330
FC5CF
100
AcDbEntity
  8
AM_5
440
 16777216
100
AcDbLine
 10
374.9247476396224
 20
110.5526445788063
 30
0.0
 11
374.9247476396224
 21
138.7617361252265
 31
0.0
  0
LINE
  5
FCD8B
330
FC5CF
100
AcDbEntity
  8
AM_5
440
 16777216
100
AcDbLine
 10
368.7247476396225
 20
137.7617361252265
 30
0.0
 11
366.2247476396225
 21
137.7617361252265
 31
0.0
  0
LINE
  5
FCD8C
330
FC5CF
100
AcDbEntity
  8
AM_5
440
 16777216
100
AcDbLine
 10
377.4247476396224
 20
137.7617361252265
 30
0.0
 11
379.9247476396224
 21
137.7617361252265
 31
0.0
  0
LINE
  5
FCD8D
330
FC5CF
100
AcDbEntity
  8
AM_5
440
 16777216
100
AcDbLine
 10
371.2247476396225
 20
137.7617361252265
 30
0.0
 11
374.9247476396224
 21
137.7617361252265
 31
0.0
  0
SOLID
  5
FCD8E
330
FC5CF
100
AcDbEntity
  8
AM_5
440
 16777216
100
AcDbTrace
 10
368.7247476396225
 20
138.1784027918931
 30
0.0
 11
368.7247476396225
 21
137.3450694585598
 31
0.0
 12
371.2247476396225
 22
137.7617361252265
 32
0.0
 13
371.2247476396225
 23
137.7617361252265
 33
0.0
  0
SOLID
  5
FCD8F
330
FC5CF
100
AcDbEntity
  8
AM_5
440
 16777216
100
AcDbTrace
 10
377.4247476396224
 20
138.1784027918931
 30
0.0
 11
377.4247476396224
 21
137.3450694585598
 31
0.0
 12
374.9247476396224
 22
137.7617361252265
 32
0.0
 13
374.9247476396224
 23
137.7617361252265
 33
0.0
  0
MTEXT
  5
FCD90
330
FC5CF
100
AcDbEntity
  8
AM_5
 62
     2
440
 16777216
100
AcDbMText
 10
373.0747476396223
 20
141.0117361252265
 30
0.0
 40
3.5
 41
0.0
 71
     5
 72
     1
  1
3.7
 73
     1
 44
1.0
  0
POINT
  5
FCD91
330
FC5CF
100
AcDbEntity
  8
Defpoints
 62
     0
440
 16777216
100
AcDbPoint
 10
371.2247476396225
 20
124.5526445788063
 30
0.0
  0
POINT
  5
FCD92
330
FC5CF
100
AcDbEntity
  8
Defpoints
 62
     0
440
 16777216
100
AcDbPoint
 10
374.9247476396224
 20
109.5526445788063
 30
0.0
  0
POINT
  5
FCD93
330
FC5CF
100
AcDbEntity
  8
Defpoints
 62
     0
440
 16777216
100
AcDbPoint
 10
374.9247476396224
 20
137.7617361252265
 30
0.0
  0
ENDBLK
  5
FC5D8
330
FC5CF
100
AcDbEntity
  8
0
100
AcDbBlockEnd
  0
BLOCK
  5
FD113
330
FD112
100
AcDbEntity
  8
0
100
AcDbBlockBegin
  2
*D23
 70
     1
 10
0.0
 20
0.0
 30
0.0
  3
*D23
  1

  0
LINE
  5
FD170
330
FD112
100
AcDbEntity
  8
AM_5
440
 16777216
100
AcDbLine
 10
474.6131948038291
 20
138.8379711169757
 30
0.0
 11
460.5393283138656
 21
138.8379711169757
 31
0.0
  0
LINE
  5
FD171
330
FD112
100
AcDbEntity
  8
AM_5
440
 16777216
100
AcDbLine
 10
478.7131948038288
 20
63.83797111697481
 30
0.0
 11
460.5393283138656
 21
63.83797111697482
 31
0.0
  0
LINE
  5
FD172
330
FD112
100
AcDbEntity
  8
AM_5
440
 16777216
100
AcDbLine
 10
461.5393283138656
 20
136.3379711169757
 30
0.0
 11
461.5393283138656
 21
66.33797111697482
 31
0.0
  0
SOLID
  5
FD173
330
FD112
100
AcDbEntity
  8
AM_5
440
 16777216
100
AcDbTrace
 10
461.1226616471991
 20
136.3379711169757
 30
0.0
 11
461.9559949805323
 21
136.3379711169757
 31
0.0
 12
461.5393283138656
 22
138.8379711169757
 32
0.0
 13
461.5393283138656
 23
138.8379711169757
 33
0.0
  0
SOLID
  5
FD174
330
FD112
100
AcDbEntity
  8
AM_5
440
 16777216
100
AcDbTrace
 10
461.122661647199
 20
66.33797111697482
 30
0.0
 11
461.9559949805323
 21
66.33797111697482
 31
0.0
 12
461.5393283138656
 22
63.83797111697482
 32
0.0
 13
461.5393283138656
 23
63.83797111697482
 33
0.0
  0
MTEXT
  5
FD175
330
FD112
100
AcDbEntity
  8
AM_5
 62
     2
440
 16777216
100
AcDbMText
 10
458.2893283138656
 20
101.3379711169753
 30
0.0
 40
3.5
 41
0.0
 71
     5
 72
     1
  1
75
 11
0.0000000000000001
 21
1.0
 31
0.0
 73
     1
 44
1.0
  0
POINT
  5
FD176
330
FD112
100
AcDbEntity
  8
Defpoints
 62
     0
440
 16777216
100
AcDbPoint
 10
475.6131948038292
 20
138.8379711169757
 30
0.0
  0
POINT
  5
FD177
330
FD112
100
AcDbEntity
  8
Defpoints
 62
     0
440
 16777216
100
AcDbPoint
 10
479.7131948038288
 20
63.83797111697481
 30
0.0
  0
POINT
  5
FD178
330
FD112
100
AcDbEntity
  8
Defpoints
 62
     0
440
 16777216
100
AcDbPoint
 10
461.5393283138656
 20
63.83797111697482
 30
0.0
  0
ENDBLK
  5
FD114
330
FD112
100
AcDbEntity
  8
0
100
AcDbBlockEnd
  0
BLOCK
  5
FD11F
330
FD11E
100
AcDbEntity
  8
0
100
AcDbBlockBegin
  2
*D24
 70
     1
 10
0.0
 20
0.0
 30
0.0
  3
*D24
  1

  0
LINE
  5
FD179
330
FD11E
100
AcDbEntity
  8
AM_5
440
 16777216
100
AcDbLine
 10
476.9631948038289
 20
85.70390813172952
 30
0.0
 11
476.9631948038289
 21
81.7322344187773
 31
0.0
  0
LINE
  5
FD17A
330
FD11E
100
AcDbEntity
  8
AM_5
440
 16777216
100
AcDbLine
 10
482.4631948038287
 20
86.14198333280642
 30
0.0
 11
482.4631948038287
 21
81.7322344187773
 31
0.0
  0
LINE
  5
FD17B
330
FD11E
100
AcDbEntity
  8
AM_5
440
 16777216
100
AcDbLine
 10
474.4631948038287
 20
82.7322344187773
 30
0.0
 11
471.9631948038289
 21
82.7322344187773
 31
0.0
  0
LINE
  5
FD17C
330
FD11E
100
AcDbEntity
  8
AM_5
440
 16777216
100
AcDbLine
 10
484.9631948038289
 20
82.7322344187773
 30
0.0
 11
498.6581695506594
 21
82.7322344187773
 31
0.0
  0
LINE
  5
FD17D
330
FD11E
100
AcDbEntity
  8
AM_5
440
 16777216
100
AcDbLine
 10
476.9631948038289
 20
82.7322344187773
 30
0.0
 11
482.4631948038287
 21
82.7322344187773
 31
0.0
  0
SOLID
  5
FD17E
330
FD11E
100
AcDbEntity
  8
AM_5
440
 16777216
100
AcDbTrace
 10
474.4631948038287
 20
83.148901085444
 30
0.0
 11
474.4631948038287
 21
82.31556775211066
 31
0.0
 12
476.9631948038289
 22
82.7322344187773
 32
0.0
 13
476.9631948038289
 23
82.7322344187773
 33
0.0
  0
SOLID
  5
FD17F
330
FD11E
100
AcDbEntity
  8
AM_5
440
 16777216
100
AcDbTrace
 10
484.9631948038289
 20
83.148901085444
 30
0.0
 11
484.9631948038289
 21
82.31556775211066
 31
0.0
 12
482.4631948038287
 22
82.7322344187773
 32
0.0
 13
482.4631948038287
 23
82.7322344187773
 33
0.0
  0
MTEXT
  5
FD180
330
FD11E
100
AcDbEntity
  8
AM_5
 62
     2
440
 16777216
100
AcDbMText
 10
493.0606821772442
 20
85.98223441877733
 30
0.0
 40
3.5
 41
0.0
 71
     5
 72
     1
  1
%%c5.5
 73
     1
 44
1.0
  0
POINT
  5
FD181
330
FD11E
100
AcDbEntity
  8
Defpoints
 62
     0
440
 16777216
100
AcDbPoint
 10
476.9631948038289
 20
86.7039081317295
 30
0.0
  0
POINT
  5
FD182
330
FD11E
100
AcDbEntity
  8
Defpoints
 62
     0
440
 16777216
100
AcDbPoint
 10
482.4631948038287
 20
87.14198333280641
 30
0.0
  0
POINT
  5
FD183
330
FD11E
100
AcDbEntity
  8
Defpoints
 62
     0
440
 16777216
100
AcDbPoint
 10
482.4631948038287
 20
82.7322344187773
 30
0.0
  0
ENDBLK
  5
FD120
330
FD11E
100
AcDbEntity
  8
0
100
AcDbBlockEnd
  0
BLOCK
  5
FD12D
330
FD12C
100
AcDbEntity
  8
0
100
AcDbBlockBegin
  2
*D25
 70
     1
 10
0.0
 20
0.0
 30
0.0
  3
*D25
  1

  0
LINE
  5
FD184
330
FD12C
100
AcDbEntity
  8
AM_5
440
 16777216
100
AcDbLine
 10
475.7131948038291
 20
170.7747176795285
 30
0.0
 11
475.7131948038291
 21
180.0988693584367
 31
0.0
  0
LINE
  5
FD185
330
FD12C
100
AcDbEntity
  8
AM_5
440
 16777216
100
AcDbLine
 10
483.7131948038291
 20
170.7747176795285
 30
0.0
 11
483.7131948038291
 21
180.0988693584367
 31
0.0
  0
LINE
  5
FD186
330
FD12C
100
AcDbEntity
  8
AM_5
440
 16777216
100
AcDbLine
 10
478.2131948038291
 20
179.0988693584367
 30
0.0
 11
481.2131948038291
 21
179.0988693584367
 31
0.0
  0
SOLID
  5
FD187
330
FD12C
100
AcDbEntity
  8
AM_5
440
 16777216
100
AcDbTrace
 10
478.2131948038291
 20
179.5155360251034
 30
0.0
 11
478.2131948038291
 21
178.6822026917701
 31
0.0
 12
475.7131948038291
 22
179.0988693584367
 32
0.0
 13
475.7131948038291
 23
179.0988693584367
 33
0.0
  0
SOLID
  5
FD188
330
FD12C
100
AcDbEntity
  8
AM_5
440
 16777216
100
AcDbTrace
 10
481.2131948038291
 20
179.5155360251034
 30
0.0
 11
481.2131948038291
 21
178.6822026917701
 31
0.0
 12
483.7131948038291
 22
179.0988693584367
 32
0.0
 13
483.7131948038291
 23
179.0988693584367
 33
0.0
  0
MTEXT
  5
FD189
330
FD12C
100
AcDbEntity
  8
AM_5
 62
     2
440
 16777216
100
AcDbMText
 10
479.7131948038291
 20
182.3488693584367
 30
0.0
 40
3.5
 41
0.0
 71
     5
 72
     1
  1
%%c8
 73
     1
 44
1.0
  0
POINT
  5
FD18A
330
FD12C
100
AcDbEntity
  8
Defpoints
 62
     0
440
 16777216
100
AcDbPoint
 10
475.7131948038291
 20
169.7747176795285
 30
0.0
  0
POINT
  5
FD18B
330
FD12C
100
AcDbEntity
  8
Defpoints
 62
     0
440
 16777216
100
AcDbPoint
 10
483.7131948038291
 20
169.7747176795285
 30
0.0
  0
POINT
  5
FD18C
330
FD12C
100
AcDbEntity
  8
Defpoints
 62
     0
440
 16777216
100
AcDbPoint
 10
483.7131948038291
 20
179.0988693584367
 30
0.0
  0
ENDBLK
  5
FD12E
330
FD12C
100
AcDbEntity
  8
0
100
AcDbBlockEnd
  0
BLOCK
  5
FD13B
330
FD13A
100
AcDbEntity
  8
0
100
AcDbBlockBegin
  2
*D26
 70
     1
 10
0.0
 20
0.0
 30
0.0
  3
*D26
  1

  0
LINE
  5
FD18D
330
FD13A
100
AcDbEntity
  8
AM_5
440
 16777216
100
AcDbLine
 10
482.713194803829
 20
133.3379711169756
 30
0.0
 11
496.813194803829
 21
133.3379711169756
 31
0.0
  0
LINE
  5
FD18E
330
FD13A
100
AcDbEntity
  8
AM_5
440
 16777216
100
AcDbLine
 10
484.813194803829
 20
138.8379711169757
 30
0.0
 11
496.813194803829
 21
138.8379711169757
 31
0.0
  0
LINE
  5
FD18F
330
FD13A
100
AcDbEntity
  8
AM_5
440
 16777216
100
AcDbLine
 10
495.813194803829
 20
130.8379711169756
 30
0.0
 11
495.813194803829
 21
128.3379711169756
 31
0.0
  0
LINE
  5
FD190
330
FD13A
100
AcDbEntity
  8
AM_5
440
 16777216
100
AcDbLine
 10
495.813194803829
 20
141.3379711169757
 30
0.0
 11
495.813194803829
 21
151.8829458638063
 31
0.0
  0
LINE
  5
FD191
330
FD13A
100
AcDbEntity
  8
AM_5
440
 16777216
100
AcDbLine
 10
495.813194803829
 20
133.3379711169756
 30
0.0
 11
495.813194803829
 21
138.8379711169757
 31
0.0
  0
SOLID
  5
FD192
330
FD13A
100
AcDbEntity
  8
AM_5
440
 16777216
100
AcDbTrace
 10
495.3965281371623
 20
130.8379711169756
 30
0.0
 11
496.2298614704956
 21
130.8379711169756
 31
0.0
 12
495.813194803829
 22
133.3379711169756
 32
0.0
 13
495.813194803829
 23
133.3379711169756
 33
0.0
  0
SOLID
  5
FD193
330
FD13A
100
AcDbEntity
  8
AM_5
440
 16777216
100
AcDbTrace
 10
495.3965281371623
 20
141.3379711169757
 30
0.0
 11
496.2298614704956
 21
141.3379711169757
 31
0.0
 12
495.813194803829
 22
138.8379711169757
 32
0.0
 13
495.813194803829
 23
138.8379711169757
 33
0.0
  0
MTEXT
  5
FD194
330
FD13A
100
AcDbEntity
  8
AM_5
 62
     2
440
 16777216
100
AcDbMText
 10
492.5631948038288
 20
147.8604584903911
 30
0.0
 40
3.5
 41
0.0
 71
     5
 72
     1
  1
5.5
 11
0.0000000000000001
 21
1.0
 31
0.0
 73
     1
 44
1.0
  0
POINT
  5
FD195
330
FD13A
100
AcDbEntity
  8
Defpoints
 62
     0
440
 16777216
100
AcDbPoint
 10
481.7131948038289
 20
133.3379711169756
 30
0.0
  0
POINT
  5
FD196
330
FD13A
100
AcDbEntity
  8
Defpoints
 62
     0
440
 16777216
100
AcDbPoint
 10
483.813194803829
 20
138.8379711169757
 30
0.0
  0
POINT
  5
FD197
330
FD13A
100
AcDbEntity
  8
Defpoints
 62
     0
440
 16777216
100
AcDbPoint
 10
495.813194803829
 20
138.8379711169757
 30
0.0
  0
ENDBLK
  5
FD13C
330
FD13A
100
AcDbEntity
  8
0
100
AcDbBlockEnd
  0
ENDSEC
  0
SECTION
  2
ENTITIES
  0
LINE
  5
FC364
330
1F
100
AcDbEntity
  8
AM_5
100
AcDbLine
 10
272.8352895292093
 20
118.5526445788064
 30
0.0
 11
266.8352895292092
 21
118.5526445788059
 31
0.0
  0
LINE
  5
FC365
330
1F
100
AcDbEntity
  8
AM_5
100
AcDbLine
 10
272.8352895292093
 20
103.5526445788064
 30
0.0
 11
266.8352895292092
 21
103.5526445788059
 31
0.0
  0
DIMENSION
  5
FC366
330
1F
100
AcDbEntity
  8
AM_5
100
AcDbDimension
  2
*D1
 10
268.8352895292096
 20
137.7617361252265
 30
0.0
 11
280.415392875666
 21
137.7617361252265
 31
0.0
 70
   160
  1
t=<>
 71
     5
 42
1.999999999999488
  3
AM_ISO$0
100
AcDbAlignedDimension
 13
270.8352895292092
 23
128.5526445788064
 33
0.0
 14
268.8352895292096
 24
128.5526445788064
 34
0.0
100
AcDbRotatedDimension
1001
ACAD_DSTYLE_DIMINSPECT
1070
   396
1000
100%
1070
   395
1000

1070
   394
1070
    33
1070
   393
1070
     0
  0
LINE
  5
FC367
330
1F
100
AcDbEntity
  8
AM_5
100
AcDbLine
 10
272.8352895292093
 20
53.5526445788064
 30
0.0
 11
266.8352895292092
 21
53.55264457880593
 31
0.0
  0
LINE
  5
FC368
330
1F
100
AcDbEntity
  8
AM_5
100
AcDbLine
 10
272.8352895292093
 20
36.0526445788064
 30
0.0
 11
266.8352895292092
 21
36.05264457880594
 31
0.0
  0
LINE
  5
FC36A
330
1F
100
AcDbEntity
  8
AM_5
100
AcDbLine
 10
270.8352895292092
 20
128.5526445788063
 30
0.0
 11
270.8352895292092
 21
28.55264457880628
 31
0.0
  0
LINE
  5
FC36B
330
1F
100
AcDbEntity
  8
AM_5
100
AcDbLine
 10
268.8352895292092
 20
121.1240540073778
 30
0.0
 11
268.8352895292092
 21
35.98123515023476
 31
0.0
  0
DIMENSION
  5
FC36D
330
1F
100
AcDbEntity
  8
AM_5
100
AcDbDimension
  2
*D2
 10
257.336365335521
 20
28.55264457880652
 30
0.0
 11
254.086365335521
 21
31.55264057880645
 31
0.0
 70
    32
 71
     5
 42
5.999991999999785
  3
AM_ISO$0
100
AcDbAlignedDimension
 13
263.8352895292093
 23
34.5526365788063
 33
0.0
 14
268.8352895292092
 24
28.55264457880651
 34
0.0
 50
90.0
100
AcDbRotatedDimension
1001
ACAD_DSTYLE_DIMINSPECT
1070
   396
1000
100%
1070
   395
1000

1070
   394
1070
    33
1070
   393
1070
     0
  0
LINE
  5
FC36E
330
1F
100
AcDbEntity
  8
AM_5
100
AcDbLine
 10
263.8352895292093
 20
34.5526365788063
 30
0.0
 11
270.8352895292092
 21
32.55262157880622
 31
0.0
  0
LINE
  5
FC36F
330
1F
100
AcDbEntity
  8
AM_5
100
AcDbLine
 10
268.8352895292092
 20
35.98123515023476
 30
0.0
 11
268.8352895292092
 21
33.12405443594912
 31
0.0
  0
LINE
  5
FC370
330
1F
100
AcDbEntity
  8
AM_5
100
AcDbLine
 10
270.8352895292092
 20
28.55264457880651
 30
0.0
 11
268.8352895292092
 21
28.55264457880651
 31
0.0
  0
LINE
  5
FC371
330
1F
100
AcDbEntity
  8
AM_5
100
AcDbLine
 10
268.8352895292092
 20
33.12405443594912
 30
0.0
 11
268.8352895292092
 21
28.55264457880628
 31
0.0
  0
LINE
  5
FC372
330
1F
100
AcDbEntity
  8
AM_5
100
AcDbLine
 10
268.8352895292092
 20
33.30264457880594
 30
0.0
 11
270.8352895292092
 21
32.05264457880594
 31
0.0
  0
LINE
  5
FC373
330
1F
100
AcDbEntity
  8
AM_5
100
AcDbLine
 10
263.8352895292093
 20
34.5526365788063
 30
0.0
 11
270.8352895292092
 21
36.55267457880621
 31
0.0
  0
LINE
  5
FC374
330
1F
100
AcDbEntity
  8
AM_5
100
AcDbLine
 10
268.8352895292092
 20
38.80264457880594
 30
0.0
 11
270.8352895292092
 21
40.05264457880594
 31
0.0
  0
LINE
  5
FC375
330
1F
100
AcDbEntity
  8
AM_5
100
AcDbLine
 10
268.8352895292092
 20
106.3026445788059
 30
0.0
 11
270.8352895292092
 21
107.5526445788059
 31
0.0
  0
LINE
  5
FC378
330
1F
100
AcDbEntity
  8
AM_5
100
AcDbLine
 10
270.8352895292092
 20
58.55264457880629
 30
0.0
 11
268.8352895292088
 21
58.55264457880617
 31
0.0
  0
LINE
  5
FC379
330
1F
100
AcDbEntity
  8
AM_5
100
AcDbLine
 10
268.8352895292092
 20
50.80264457880593
 30
0.0
 11
270.8352895292092
 21
49.55264457880593
 31
0.0
  0
LINE
  5
FC37A
330
1F
100
AcDbEntity
  8
AM_5
100
AcDbLine
 10
268.8352895292092
 20
56.30264457880593
 30
0.0
 11
270.8352895292092
 21
57.55264457880593
 31
0.0
  0
LINE
  5
FC37B
330
1F
100
AcDbEntity
  8
AM_5
100
AcDbLine
 10
270.8352895292092
 20
98.55264457880629
 30
0.0
 11
268.8352895292088
 21
98.5526445788064
 31
0.0
  0
LINE
  5
FC37C
330
1F
100
AcDbEntity
  8
AM_5
100
AcDbLine
 10
268.8352895292092
 20
100.8026445788059
 30
0.0
 11
270.8352895292092
 21
99.55264457880597
 31
0.0
  0
DIMENSION
  5
FC37E
330
1F
100
AcDbEntity
  8
AM_5
100
AcDbDimension
  2
*D3
 10
263.8352895292093
 20
144.6829567442256
 30
0.0
 11
267.3352895292093
 21
147.9329567442256
 31
0.0
 70
    32
 71
     5
 42
6.999999999999829
  3
AM_ISO$0
100
AcDbAlignedDimension
 13
270.8352895292092
 23
128.5526445788063
 33
0.0
 14
263.8352895292093
 24
122.5526525788062
 34
0.0
100
AcDbRotatedDimension
1001
ACAD_DSTYLE_DIMINSPECT
1070
   396
1000
100%
1070
   395
1000

1070
   394
1070
    33
1070
   393
1070
     0
  0
DIMENSION
  5
FC37F
330
1F
100
AcDbEntity
  8
AM_5
100
AcDbDimension
  2
*D4
 10
257.3419959661515
 20
122.5526525788062
 30
0.0
 11
254.0919959661515
 21
125.5526485788063
 31
0.0
 70
    32
 71
     5
 42
5.999992000000103
  3
AM_ISO$0
100
AcDbAlignedDimension
 13
268.8352895292092
 23
128.5526445788063
 33
0.0
 14
263.8352895292093
 24
122.5526525788062
 34
0.0
 50
90.0
100
AcDbRotatedDimension
1001
ACAD_DSTYLE_DIMINSPECT
1070
   396
1000
100%
1070
   395
1000

1070
   394
1070
    33
1070
   393
1070
     0
  0
LINE
  5
FC380
330
1F
100
AcDbEntity
  8
AM_5
100
AcDbLine
 10
263.8352895292093
 20
122.5526525788062
 30
0.0
 11
270.8352895292092
 21
120.5526145788063
 31
0.0
  0
LINE
  5
FC381
330
1F
100
AcDbEntity
  8
AM_5
100
AcDbLine
 10
268.8352895292092
 20
115.8026445788059
 30
0.0
 11
270.8352895292092
 21
114.5526445788059
 31
0.0
  0
LINE
  5
FC382
330
1F
100
AcDbEntity
  8
AM_5
100
AcDbLine
 10
263.8352895292093
 20
122.5526525788062
 30
0.0
 11
270.8352895292092
 21
124.5526675788063
 31
0.0
  0
LINE
  5
FC383
330
1F
100
AcDbEntity
  8
AM_5
100
AcDbLine
 10
270.8352895292092
 20
128.5526445788063
 30
0.0
 11
268.8352895292092
 21
128.5526445788063
 31
0.0
  0
LINE
  5
FC384
330
1F
100
AcDbEntity
  8
AM_5
100
AcDbLine
 10
268.8352895292092
 20
128.5526445788063
 30
0.0
 11
268.8352895292092
 21
123.9812347216633
 31
0.0
  0
LINE
  5
FC385
330
1F
100
AcDbEntity
  8
AM_5
100
AcDbLine
 10
268.8352895292092
 20
121.3026445788059
 30
0.0
 11
270.8352895292092
 21
122.5526445788059
 31
0.0
  0
LINE
  5
FC386
330
1F
100
AcDbEntity
  8
AM_5
100
AcDbLine
 10
268.8352895292092
 20
121.1240540073777
 30
0.0
 11
268.8352895292096
 21
123.9812347216634
 31
0.0
  0
LINE
  5
FC388
330
1F
100
AcDbEntity
  8
AM_5
100
AcDbLine
 10
388.9247476396213
 20
58.55264457880629
 30
0.0
 11
383.4247476396224
 21
36.55264457880639
 31
0.0
  0
LINE
  5
FC389
330
1F
100
AcDbEntity
  8
AM_5
100
AcDbLine
 10
342.9247476396223
 20
59.55264457880629
 30
0.0
 11
342.9247476396223
 21
47.55264457880628
 31
0.0
  0
LINE
  5
FC38B
330
1F
100
AcDbEntity
  8
AM_5
100
AcDbLine
 10
334.4247476396223
 20
36.55264457880628
 30
0.0
 11
328.9247476396218
 21
58.55264457880629
 31
0.0
  0
DIMENSION
  5
FC38C
330
1F
100
AcDbEntity
  8
AM_5
100
AcDbDimension
  2
*D5
 10
399.4014278236236
 20
41.05264457880617
 30
0.0
 11
396.1510833354346
 21
47.30264457880628
 31
0.0
 70
    32
 71
     5
 42
12.5000000000001
  3
AM_ISO$0
100
AcDbAlignedDimension
 13
348.9247476396224
 23
53.55264457880629
 33
0.0
 14
377.2247476396225
 24
41.05264457880617
 34
0.0
 50
90.0
100
AcDbRotatedDimension
1001
ACAD_DSTYLE_DIMINSPECT
1070
   396
1000
100%
1070
   395
1000

1070
   394
1070
    33
1070
   393
1070
     0
  0
DIMENSION
  5
FC38D
330
1F
100
AcDbEntity
  8
AM_5
100
AcDbDimension
  2
*D6
 10
313.1269702316678
 20
128.5526445788063
 30
0.0
 11
309.8769702316678
 21
78.55264457880636
 31
0.0
 70
    32
 71
     5
 42
100.0
  3
AM_ISO$0
100
AcDbAlignedDimension
 13
336.4247476396232
 23
28.55264457880628
 33
0.0
 14
336.4247476396232
 24
128.5526445788063
 34
0.0
 50
90.0
100
AcDbRotatedDimension
1001
ACAD_DSTYLE_DIMINSPECT
1070
   396
1000
100%
1070
   395
1000

1070
   394
1070
    33
1070
   393
1070
     0
  0
LINE
  5
FC38E
330
1F
100
AcDbEntity
  8
AM_5
100
AcDbLine
 10
336.4247476396232
 20
28.55264457880628
 30
0.0
 11
381.4247476396228
 21
28.55264457880617
 31
0.0
  0
DIMENSION
  5
FC38F
330
1F
100
AcDbEntity
  8
AM_5
100
AcDbDimension
  2
*D7
 10
399.4014278236236
 20
36.05264457880628
 30
0.0
 11
396.1514278236236
 21
38.55264457880629
 31
0.0
 70
    32
 71
     5
 42
4.9999999999999
  3
AM_ISO$0
100
AcDbAlignedDimension
 13
377.2247476396225
 23
41.05264457880617
 33
0.0
 14
352.6247476396221
 24
36.05264457880628
 34
0.0
 50
90.0
100
AcDbRotatedDimension
1001
ACAD_DSTYLE_DIMINSPECT
1070
   396
1000
100%
1070
   395
1000

1070
   394
1070
    33
1070
   393
1070
     0
  0
DIMENSION
  5
FC390
330
1F
100
AcDbEntity
  8
AM_5
100
AcDbDimension
  2
*D8
 10
399.4014278236236
 20
28.55264457880617
 30
0.0
 11
399.4014278236236
 21
32.30264457880629
 31
0.0
 70
   160
 71
     5
 42
7.500000000000102
  3
AM_ISO$0
100
AcDbAlignedDimension
 13
352.6247476396221
 23
36.05264457880628
 33
0.0
 14
381.4247476396224
 24
28.55264457880617
 34
0.0
 50
90.0
100
AcDbRotatedDimension
1001
ACAD_DSTYLE_DIMINSPECT
1070
   396
1000
100%
1070
   395
1000

1070
   394
1070
    33
1070
   393
1070
     0
  0
LINE
  5
FC391
330
1F
100
AcDbEntity
  8
AM_5
100
AcDbLine
 10
332.3631948268137
 20
36.55264457880618
 30
0.0
 11
333.3631948268131
 21
32.55264457880617
 31
0.0
  0
LINE
  5
FC392
330
1F
100
AcDbEntity
  8
AM_5
100
AcDbLine
 10
333.3631948268136
 20
32.55264457880617
 30
0.0
 11
335.4247476396218
 21
32.55264457880617
 31
0.0
  0
LINE
  5
FC393
330
1F
100
AcDbEntity
  8
AM_5
100
AcDbLine
 10
336.4247476396223
 20
28.55264457880628
 30
0.0
 11
335.4247476396223
 21
32.55264457880628
 31
0.0
  0
LINE
  5
FC394
330
1F
100
AcDbEntity
  8
AM_5
100
AcDbLine
 10
332.3631948268131
 20
36.55264457880618
 30
0.0
 11
334.4247476396219
 21
36.55264457880618
 31
0.0
  0
CIRCLE
  5
FC395
330
1F
100
AcDbEntity
  8
AM_5
100
AcDbCircle
 10
346.6247476396221
 20
36.05264457880628
 30
0.0
 40
4.0
  0
CIRCLE
  5
FC396
330
1F
100
AcDbEntity
  8
AM_5
100
AcDbCircle
 10
346.6247476396221
 20
36.05264457880628
 30
0.0
 40
2.75
  0
LINE
  5
FC397
330
1F
100
AcDbEntity
  8
AM_5
100
AcDbLine
 10
352.6247476396221
 20
36.05264457880628
 30
0.0
 11
340.6247476396221
 21
36.05264457880628
 31
0.0
  0
LINE
  5
FC398
330
1F
100
AcDbEntity
  8
AM_5
100
AcDbLine
 10
346.6247476396221
 20
42.05264457880628
 30
0.0
 11
346.6247476396221
 21
30.05264457880628
 31
0.0
  0
CIRCLE
  5
FC399
330
1F
100
AcDbEntity
  8
AM_5
100
AcDbCircle
 10
371.2247476396225
 20
41.05264457880617
 30
0.0
 40
2.75
  0
LINE
  5
FC39A
330
1F
100
AcDbEntity
  8
AM_5
100
AcDbLine
 10
377.2247476396225
 20
41.05264457880617
 30
0.0
 11
365.2247476396225
 21
41.05264457880617
 31
0.0
  0
CIRCLE
  5
FC39B
330
1F
100
AcDbEntity
  8
AM_5
100
AcDbCircle
 10
371.2247476396225
 20
41.05264457880617
 30
0.0
 40
4.0
  0
LINE
  5
FC39C
330
1F
100
AcDbEntity
  8
AM_5
100
AcDbLine
 10
371.2247476396225
 20
47.05264457880615
 30
0.0
 11
371.2247476396225
 21
35.05264457880617
 31
0.0
  0
LINE
  5
FC39D
330
1F
100
AcDbEntity
  8
AM_5
100
AcDbLine
 10
385.4863004524307
 20
36.55264457880639
 30
0.0
 11
384.4863004524315
 21
32.55264457880628
 31
0.0
  0
LINE
  5
FC39E
330
1F
100
AcDbEntity
  8
AM_5
100
AcDbLine
 10
382.4247476396219
 20
32.55264457880628
 30
0.0
 11
384.4863004524319
 21
32.55264457880628
 31
0.0
  0
LINE
  5
FC39F
330
1F
100
AcDbEntity
  8
AM_5
100
AcDbLine
 10
382.4247476396223
 20
32.5526445788064
 30
0.0
 11
381.4247476396224
 21
28.55264457880628
 31
0.0
  0
LINE
  5
FC3A0
330
1F
100
AcDbEntity
  8
AM_5
100
AcDbLine
 10
383.4247476396218
 20
36.55264457880639
 30
0.0
 11
385.486300452431
 21
36.55264457880639
 31
0.0
  0
LINE
  5
FC3A1
330
1F
100
AcDbEntity
  8
AM_5
100
AcDbLine
 10
336.4247476396223
 20
171.8072355842978
 30
0.0
 11
381.4247476396228
 21
171.807235584298
 31
0.0
  0
LINE
  5
FC3A2
330
1F
100
AcDbEntity
  8
AM_5
100
AcDbLine
 10
328.9247476396218
 20
169.807235584298
 30
0.0
 11
388.9247476396219
 21
169.8072355842979
 31
0.0
  0
CIRCLE
  5
FC3A4
330
1F
100
AcDbEntity
  8
AM_5
100
AcDbCircle
 10
358.9247621397253
 20
111.0526445788061
 30
0.0
 40
5.0
  0
MTEXT
  5
FC3A5
330
1F
100
AcDbEntity
  8
AM_5
100
AcDbMText
 10
355.1290211576016
 20
114.4887975536392
 30
0.0
 40
5.0
 41
10.0903
 71
     1
 72
     5
  1
{\fMS UI Gothic|b0|i0|c128|p50;柱}
  7
acad
 73
     1
 44
1.0
1001
ACAD
1000
MTEXTBEGIN
1070
    73
1070
     1
1070
    44
1040
1.0
1070
    74
1070
     0
1000
MTEXTEND
  0
LINE
  5
FC3A6
330
1F
100
AcDbEntity
  8
AM_5
100
AcDbLine
 10
363.9247476396227
 20
98.5526445788064
 30
0.0
 11
353.9247476396223
 21
98.5526445788064
 31
0.0
  0
LINE
  5
FC3A8
330
1F
100
AcDbEntity
  8
AM_5
100
AcDbLine
 10
336.4247476396223
 20
128.5526445788063
 30
0.0
 11
381.4247476396224
 21
128.5526445788063
 31
0.0
  0
DIMENSION
  5
FC3AA
330
1F
100
AcDbEntity
  8
AM_5
100
AcDbDimension
  2
*D9
 10
381.4247476396224
 20
144.6829567442256
 30
0.0
 11
358.9247476396224
 21
147.9329567442256
 31
0.0
 70
    32
 71
     5
 42
45.00000000000006
  3
AM_ISO$0
100
AcDbAlignedDimension
 13
336.4247476396223
 23
128.5526445788063
 33
0.0
 14
381.4247476396224
 24
128.5526445788063
 34
0.0
100
AcDbRotatedDimension
1001
ACAD_DSTYLE_DIMINSPECT
1070
   396
1000
100%
1070
   395
1000

1070
   394
1070
    33
1070
   393
1070
     0
  0
DIMENSION
  5
FC3AB
330
1F
100
AcDbEntity
  8
AM_5
100
AcDbDimension
  2
*D10
 10
388.9247476396228
 20
151.7008696517065
 30
0.0
 11
358.9247476396224
 21
154.9508696517065
 31
0.0
 70
    32
 71
     5
 42
60.00000000000103
  3
AM_ISO$0
100
AcDbAlignedDimension
 13
328.9247476396218
 23
98.55264457880629
 33
0.0
 14
388.9247476396228
 24
98.55264457880265
 34
0.0
100
AcDbRotatedDimension
1001
ACAD_DSTYLE_DIMINSPECT
1070
   396
1000
100%
1070
   395
1000

1070
   394
1070
    33
1070
   393
1070
     0
  0
DIMENSION
  5
FC3AC
330
1F
100
AcDbEntity
  8
AM_5
100
AcDbDimension
  2
*D11
 10
346.6247476396221
 20
137.7617361252265
 30
0.0
 11
358.9247476396224
 21
141.0120806134154
 31
0.0
 70
    32
 71
     5
 42
24.60000000000036
  3
AM_ISO$0
100
AcDbAlignedDimension
 13
371.2247476396225
 23
124.5526445788063
 33
0.0
 14
346.6247476396221
 24
124.5526445788063
 34
0.0
100
AcDbRotatedDimension
1001
ACAD_DSTYLE_DIMINSPECT
1070
   396
1000
100%
1070
   395
1000

1070
   394
1070
    33
1070
   393
1070
     0
  0
LINE
  5
FC3AD
330
1F
100
AcDbEntity
  8
AM_5
100
AcDbLine
 10
363.9247476396227
 20
58.55264457880629
 30
0.0
 11
353.9247476396223
 21
58.55264457880629
 31
0.0
  0
DIMENSION
  5
FC3AE
330
1F
100
AcDbEntity
  8
AM_5
100
AcDbDimension
  2
*D12
 10
399.4014278236236
 20
53.55264457880629
 30
0.0
 11
396.1514278236236
 21
56.05264457880629
 31
0.0
 70
    32
 71
     5
 42
4.999999999999893
  3
AM_ISO$0
100
AcDbAlignedDimension
 13
380.9247476396223
 23
58.55264457880617
 33
0.0
 14
348.9247476396224
 24
53.55264457880629
 34
0.0
 50
90.0
100
AcDbRotatedDimension
1001
ACAD_DSTYLE_DIMINSPECT
1070
   396
1000
100%
1070
   395
1000

1070
   394
1070
    33
1070
   393
1070
     0
  0
DIMENSION
  5
FC3B0
330
1F
100
AcDbEntity
  8
AM_5
100
AcDbDimension
  2
*D13
 10
316.3104990615469
 20
169.8072355842981
 30
0.0
 11
316.3104990615468
 21
160.2271322378414
 31
0.0
 70
   160
  1
t=<>
 71
     5
 42
1.999999999999799
  3
AM_ISO$0
100
AcDbAlignedDimension
 13
328.9247476396218
 23
171.8072355842979
 33
0.0
 14
328.9247476396223
 24
169.8072355842981
 34
0.0
 50
90.0
100
AcDbRotatedDimension
1001
ACAD_DSTYLE_DIMINSPECT
1070
   396
1000
100%
1070
   395
1000

1070
   394
1070
    33
1070
   393
1070
     0
  0
DIMENSION
  5
FC3B1
330
1F
100
AcDbEntity
  8
AM_5
100
AcDbDimension
  2
*D14
 10
348.7440405921917
 20
116.8001899057296
 30
0.0
 11
319.1389369146906
 21
141.2808084175069
 31
0.0
 70
   163
  1
8-<>
 71
     5
 42
5.499999999999829
  3
AM_ISO$3
100
AcDbDiametricDimension
 15
344.5054546870524
 25
120.3050992518829
 35
0.0
 40
0.0
1001
ACAD
1000
DSTYLE
1002
{
1070
    74
1070
     0
1070
   172
1070
     1
1070
   288
1070
     0
1070
   289
1070
     3
1002
}
1001
ACAD_DSTYLE_DIMINSPECT
1070
   396
1000
100%
1070
   395
1000

1070
   394
1070
    33
1070
   393
1070
     0
  0
CIRCLE
  5
FC3B2
330
1F
100
AcDbEntity
  8
AM_5
100
AcDbCircle
 10
342.9247476396223
 20
103.5526445788063
 30
0.0
 40
4.0
  0
LINE
  5
FC3B3
330
1F
100
AcDbEntity
  8
AM_5
100
AcDbLine
 10
342.9247476396223
 20
109.5526445788063
 30
0.0
 11
342.9247476396223
 21
97.55264457880628
 31
0.0
  0
LINE
  5
FC3B5
330
1F
100
AcDbEntity
  8
AM_5
100
AcDbLine
 10
328.9247476396218
 20
98.55264457880629
 30
0.0
 11
334.4247476396223
 21
120.5526445788065
 31
0.0
  0
LINE
  5
FC3B8
330
1F
100
AcDbEntity
  8
AM_5
100
AcDbLine
 10
348.9247476396224
 20
103.5526445788063
 30
0.0
 11
336.9247476396223
 21
103.5526445788063
 31
0.0
  0
LINE
  5
FC3BA
330
1F
100
AcDbEntity
  8
AM_5
100
AcDbLine
 10
348.9247476396224
 20
53.55264457880629
 30
0.0
 11
336.9247476396223
 21
53.55264457880629
 31
0.0
  0
LINE
  5
FC3BB
330
1F
100
AcDbEntity
  8
AM_5
100
AcDbLine
 10
328.9247476396218
 20
98.5526445788064
 30
0.0
 11
328.9247476396218
 21
58.55264457880981
 31
0.0
  0
LINE
  5
FC3BD
330
1F
100
AcDbEntity
  8
AM_5
100
AcDbLine
 10
348.9247476396224
 20
78.55264457880628
 30
0.0
 11
353.9247476396223
 21
58.55264457880629
 31
0.0
  0
CIRCLE
  5
FC3BE
330
1F
100
AcDbEntity
  8
AM_5
100
AcDbCircle
 10
342.9247476396223
 20
53.55264457880629
 30
0.0
 40
4.0
  0
CIRCLE
  5
FC3BF
330
1F
100
AcDbEntity
  8
AM_5
100
AcDbCircle
 10
342.9247476396223
 20
53.55264457880629
 30
0.0
 40
2.75
  0
CIRCLE
  5
FC3C0
330
1F
100
AcDbEntity
  8
AM_5
100
AcDbCircle
 10
342.9247476396223
 20
103.5526445788063
 30
0.0
 40
2.75
  0
LINE
  5
FC3C1
330
1F
100
AcDbEntity
  8
AM_5
100
AcDbLine
 10
353.9247476396223
 20
98.55264457880629
 30
0.0
 11
348.9247476396224
 21
78.55264457880628
 31
0.0
  0
DIMENSION
  5
FC3C2
330
1F
100
AcDbEntity
  8
AM_5
100
AcDbDimension
  2
*D15
 10
336.4247476396223
 20
137.7617361252265
 30
0.0
 11
339.6747476396223
 21
137.7617361252265
 31
0.0
 70
   160
 71
     5
 42
6.5
  3
AM_ISO$0
100
AcDbAlignedDimension
 13
342.9247476396223
 23
109.5526445788063
 33
0.0
 14
336.4247476396223
 24
128.5526445788063
 34
0.0
 50
180.0
100
AcDbRotatedDimension
1001
ACAD_DSTYLE_DIMINSPECT
1070
   396
1000
100%
1070
   395
1000

1070
   394
1070
    33
1070
   393
1070
     0
  0
LINE
  5
FC3C3
330
1F
100
AcDbEntity
  8
AM_5
100
AcDbLine
 10
332.3631948268137
 20
120.5526445788064
 30
0.0
 11
333.3631948268131
 21
124.5526445788064
 31
0.0
  0
LINE
  5
FC3C4
330
1F
100
AcDbEntity
  8
AM_5
100
AcDbLine
 10
332.3631948268131
 20
120.5526445788064
 30
0.0
 11
334.4247476396219
 21
120.5526445788064
 31
0.0
  0
LINE
  5
FC3C5
330
1F
100
AcDbEntity
  8
AM_5
100
AcDbLine
 10
333.3631948268136
 20
124.5526445788064
 30
0.0
 11
335.4247476396218
 21
124.5526445788064
 31
0.0
  0
LINE
  5
FC3C6
330
1F
100
AcDbEntity
  8
AM_5
100
AcDbLine
 10
335.4247476396218
 20
124.5526445788065
 30
0.0
 11
336.4247476396223
 21
128.5526445788063
 31
0.0
  0
DIMENSION
  5
FC3C7
330
1F
100
AcDbEntity
  8
AM_5
100
AcDbDimension
  2
*D16
 10
342.9247476396223
 20
137.7617361252265
 30
0.0
 11
344.7747476396222
 21
137.7617361252265
 31
0.0
 70
   160
 71
     5
 42
3.699999999999818
  3
AM_ISO$0
100
AcDbAlignedDimension
 13
346.6247476396221
 23
124.5526445788063
 33
0.0
 14
342.9247476396223
 24
109.5526445788063
 34
0.0
 50
180.0
100
AcDbRotatedDimension
1001
ACAD_DSTYLE_DIMINSPECT
1070
   396
1000
100%
1070
   395
1000

1070
   394
1070
    33
1070
   393
1070
     0
  0
CIRCLE
  5
FC3C8
330
1F
100
AcDbEntity
  8
AM_5
100
AcDbCircle
 10
346.6247476396221
 20
118.5526445788062
 30
0.0
 40
2.75
  0
CIRCLE
  5
FC3C9
330
1F
100
AcDbEntity
  8
AM_5
100
AcDbCircle
 10
346.6247476396221
 20
118.5526445788062
 30
0.0
 40
4.0
  0
LINE
  5
FC3CA
330
1F
100
AcDbEntity
  8
AM_5
100
AcDbLine
 10
352.6247476396221
 20
118.5526445788062
 30
0.0
 11
340.6247476396221
 21
118.5526445788062
 31
0.0
  0
LINE
  5
FC3CB
330
1F
100
AcDbEntity
  8
AM_5
100
AcDbLine
 10
346.6247476396221
 20
124.5526445788063
 30
0.0
 11
346.6247476396221
 21
112.5526445788063
 31
0.0
  0
DIMENSION
  5
FC3CD
330
1F
100
AcDbEntity
  8
AM_5
100
AcDbDimension
  2
*D17
 10
319.3003467772829
 20
176.807235584298
 30
0.0
 11
316.0503467772828
 21
174.307235584298
 31
0.0
 70
    32
 71
     5
 42
5.000000000000085
  3
AM_ISO$0
100
AcDbAlignedDimension
 13
328.9247476396218
 23
171.8072355842979
 33
0.0
 14
333.9247476396218
 24
176.807235584298
 34
0.0
 50
90.0
100
AcDbRotatedDimension
1001
ACAD_DSTYLE_DIMINSPECT
1070
   396
1000
100%
1070
   395
1000

1070
   394
1070
    33
1070
   393
1070
     0
  0
LINE
  5
FC3CE
330
1F
100
AcDbEntity
  8
AM_5
100
AcDbLine
 10
328.9247476396218
 20
171.8072355842979
 30
0.0
 11
333.9831392699094
 21
171.8072355842981
 31
0.0
  0
LINE
  5
FC3CF
330
1F
100
AcDbEntity
  8
AM_5
100
AcDbLine
 10
328.9247476396218
 20
171.8072355842979
 30
0.0
 11
328.9247476396223
 21
169.8072355842981
 31
0.0
  0
LINE
  5
FC3D0
330
1F
100
AcDbEntity
  8
AM_5
100
AcDbLine
 10
333.9247476396218
 20
176.807235584298
 30
0.0
 11
335.9247476396214
 21
176.807235584298
 31
0.0
  0
LINE
  5
FC3D1
330
1F
100
AcDbEntity
  8
AM_5
100
AcDbLine
 10
335.9247476396223
 20
172.3072355842978
 30
0.0
 11
335.9247476396214
 21
176.807235584298
 31
0.0
  0
ARC
  5
FC3D2
330
1F
100
AcDbEntity
  8
AM_5
100
AcDbCircle
 10
336.4247476396223
 20
172.3072355842979
 30
0.0
 40
0.5
100
AcDbArc
 50
180.000000000013
 51
270.0
1001
GENIUS_GENOBJ-N-FIL_13
1002
{
1000
OWNER
1000
GEN
1002
}
1001
GENIUS_GENODEF_13
1002
{
1000
HIER
1070
     0
1002
}
1002
{
1000
MANEDIT
1070
     0
1002
}
1002
{
1000
NOSEL
1070
     0
1002
}
1002
{
1000
BEHIND
1070
     0
1002
}
1002
{
1000
OTHER
1070
     0
1002
}
1002
{
1000
REACTOR
1002
}
  0
LINE
  5
FC3D3
330
1F
100
AcDbEntity
  8
AM_5
100
AcDbLine
 10
333.9247476396228
 20
172.3072355842973
 30
0.0
 11
333.9247476396218
 21
176.807235584298
 31
0.0
  0
ARC
  5
FC3D4
330
1F
100
AcDbEntity
  8
AM_5
100
AcDbCircle
 10
336.5543530252013
 20
172.3609198927614
 30
0.0
 40
2.630153320405739
100
AcDbArc
 50
181.169550798698
 51
256.1500657094849
1001
GENIUS_GENOBJ-N-FIL_13
1002
{
1000
OWNER
1000
GEN
1002
}
1001
GENIUS_GENODEF_13
1002
{
1000
HIER
1070
     0
1002
}
1002
{
1000
MANEDIT
1070
     0
1002
}
1002
{
1000
NOSEL
1070
     0
1002
}
1002
{
1000
BEHIND
1070
     0
1002
}
1002
{
1000
OTHER
1070
     0
1002
}
1002
{
1000
REACTOR
1002
}
  0
LINE
  5
FC3D5
330
1F
100
AcDbEntity
  8
AM_5
100
AcDbLine
 10
336.4247476396223
 20
171.8072355842978
 30
0.0
 11
336.4247476396223
 21
169.807235584298
 31
0.0
  0
LINE
  5
FC3D6
330
1F
100
AcDbEntity
  8
AM_5
100
AcDbLine
 10
346.6247476396217
 20
167.807235584298
 30
0.0
 11
346.6247476396221
 21
173.8072355842979
 31
0.0
  0
LINE
  5
FC3D7
330
1F
100
AcDbEntity
  8
AM_5
100
AcDbLine
 10
343.8747476396221
 20
171.8072355842978
 30
0.0
 11
342.6247476396221
 21
169.807235584298
 31
0.0
  0
LINE
  5
FC3D8
330
1F
100
AcDbEntity
  8
AM_5
100
AcDbLine
 10
349.3747476396221
 20
171.8072355842979
 30
0.0
 11
350.6247476396221
 21
169.807235584298
 31
0.0
  0
CIRCLE
  5
FC3D9
330
1F
100
AcDbEntity
  8
AM_5
100
AcDbCircle
 10
374.9247476396224
 20
103.5526445788063
 30
0.0
 40
4.0
  0
LINE
  5
FC3DA
330
1F
100
AcDbEntity
  8
AM_5
100
AcDbLine
 10
374.9247476396224
 20
109.5526445788063
 30
0.0
 11
374.9247476396224
 21
97.55264457880628
 31
0.0
  0
DIMENSION
  5
FC3DB
330
1F
100
AcDbEntity
  8
AM_5
100
AcDbDimension
  2
*D18
 10
399.4014278236236
 20
103.5526445788063
 30
0.0
 11
396.1514278236236
 21
111.0526445788063
 31
0.0
 70
    32
 71
     5
 42
14.9999999999999
  3
AM_ISO$0
100
AcDbAlignedDimension
 13
377.2247476396225
 23
118.5526445788062
 33
0.0
 14
380.9247476396223
 24
103.5526445788063
 34
0.0
 50
90.0
100
AcDbRotatedDimension
1001
ACAD_DSTYLE_DIMINSPECT
1070
   396
1000
100%
1070
   395
1000

1070
   394
1070
    33
1070
   393
1070
     0
  0
LINE
  5
FC3DC
330
1F
100
AcDbEntity
  8
AM_5
100
AcDbLine
 10
388.9247476396219
 20
98.55264457880629
 30
0.0
 11
383.4247476396224
 21
120.5526445788061
 31
0.0
  0
LINE
  5
FC3E2
330
1F
100
AcDbEntity
  8
AM_5
100
AcDbLine
 10
380.9247476396223
 20
103.5526445788063
 30
0.0
 11
368.9247476396224
 21
103.5526445788063
 31
0.0
  0
LINE
  5
FC3E4
330
1F
100
AcDbEntity
  8
AM_5
100
AcDbLine
 10
380.9247476396223
 20
58.55264457880617
 30
0.0
 11
368.9247476396224
 21
58.55264457880617
 31
0.0
  0
LINE
  5
FC3E5
330
1F
100
AcDbEntity
  8
AM_5
100
AcDbLine
 10
363.9247476396223
 20
58.55264457880629
 30
0.0
 11
368.9247476396224
 21
78.55264457880628
 31
0.0
  0
LINE
  5
FC3E6
330
1F
100
AcDbEntity
  8
AM_5
100
AcDbLine
 10
374.9247476396224
 20
64.55264457880615
 30
0.0
 11
374.9247476396224
 21
52.55264457880617
 31
0.0
  0
CIRCLE
  5
FC3E7
330
1F
100
AcDbEntity
  8
AM_5
100
AcDbCircle
 10
374.9247476396224
 20
58.55264457880617
 30
0.0
 40
4.0
  0
CIRCLE
  5
FC3E8
330
1F
100
AcDbEntity
  8
AM_5
100
AcDbCircle
 10
374.9247476396224
 20
58.55264457880617
 30
0.0
 40
2.75
  0
LINE
  5
FC3E9
330
1F
100
AcDbEntity
  8
AM_5
100
AcDbLine
 10
368.9247476396224
 20
78.55264457880628
 30
0.0
 11
363.9247476396223
 21
98.55264457880629
 31
0.0
  0
CIRCLE
  5
FC3FC
330
1F
100
AcDbEntity
  8
AM_5
100
AcDbCircle
 10
374.9247476396224
 20
103.5526445788063
 30
0.0
 40
2.75
  0
LINE
  5
FC3FE
330
1F
100
AcDbEntity
  8
AM_5
100
AcDbLine
 10
388.9247476396228
 20
98.5526445788075
 30
0.0
 11
388.9247476396219
 21
58.55264457880753
 31
0.0
  0
DIMENSION
  5
FC3FF
330
1F
100
AcDbEntity
  8
AM_5
100
AcDbDimension
  2
*D19
 10
399.4014278236236
 20
58.55264457880617
 30
0.0
 11
396.1514278236236
 21
81.05264457880629
 31
0.0
 70
    32
 71
     5
 42
45.00000000000013
  3
AM_ISO$0
100
AcDbAlignedDimension
 13
380.9247476396223
 23
103.5526445788063
 33
0.0
 14
380.9247476396219
 24
58.55264457880617
 34
0.0
 50
90.0
100
AcDbRotatedDimension
1001
ACAD_DSTYLE_DIMINSPECT
1070
   396
1000
100%
1070
   395
1000

1070
   394
1070
    33
1070
   393
1070
     0
  0
DIMENSION
  5
FC40E
330
1F
100
AcDbEntity
  8
AM_5
100
AcDbDimension
  2
*D20
 10
399.4014278236236
 20
118.5526445788062
 30
0.0
 11
396.1514278236236
 21
123.5526445788063
 31
0.0
 70
    32
 71
     5
 42
10.0000000000001
  3
AM_ISO$0
100
AcDbAlignedDimension
 13
381.4247476396224
 23
128.5526445788063
 33
0.0
 14
377.2247476396225
 24
118.5526445788062
 34
0.0
 50
90.0
100
AcDbRotatedDimension
1001
ACAD_DSTYLE_DIMINSPECT
1070
   396
1000
100%
1070
   395
1000

1070
   394
1070
    33
1070
   393
1070
     0
  0
DIMENSION
  5
FC40F
330
1F
100
AcDbEntity
  8
AM_5
100
AcDbDimension
  2
*D21
 10
381.4247476396224
 20
137.7617361252265
 30
0.0
 11
378.1747476396223
 21
137.7617361252265
 31
0.0
 70
   160
 71
     5
 42
6.5
  3
AM_ISO$0
100
AcDbAlignedDimension
 13
374.9247476396224
 23
109.5526445788063
 33
0.0
 14
381.4247476396224
 24
128.5526445788063
 34
0.0
100
AcDbRotatedDimension
1001
ACAD_DSTYLE_DIMINSPECT
1070
   396
1000
100%
1070
   395
1000

1070
   394
1070
    33
1070
   393
1070
     0
  0
DIMENSION
  5
FC410
330
1F
100
AcDbEntity
  8
AM_5
100
AcDbDimension
  2
*D22
 10
374.9247476396224
 20
137.7617361252265
 30
0.0
 11
373.0747476396223
 21
137.7617361252265
 31
0.0
 70
   160
 71
     5
 42
3.699999999999873
  3
AM_ISO$0
100
AcDbAlignedDimension
 13
371.2247476396225
 23
124.5526445788063
 33
0.0
 14
374.9247476396224
 24
109.5526445788063
 34
0.0
100
AcDbRotatedDimension
1001
ACAD_DSTYLE_DIMINSPECT
1070
   396
1000
100%
1070
   395
1000

1070
   394
1070
    33
1070
   393
1070
     0
  0
CIRCLE
  5
FC411
330
1F
100
AcDbEntity
  8
AM_5
100
AcDbCircle
 10
371.2247476396225
 20
118.5526445788062
 30
0.0
 40
2.75
  0
LINE
  5
FC412
330
1F
100
AcDbEntity
  8
AM_5
100
AcDbLine
 10
377.2247476396225
 20
118.5526445788062
 30
0.0
 11
365.2247476396225
 21
118.5526445788062
 31
0.0
  0
CIRCLE
  5
FC413
330
1F
100
AcDbEntity
  8
AM_5
100
AcDbCircle
 10
371.2247476396225
 20
118.5526445788062
 30
0.0
 40
4.0
  0
LINE
  5
FC414
330
1F
100
AcDbEntity
  8
AM_5
100
AcDbLine
 10
371.2247476396225
 20
124.5526445788063
 30
0.0
 11
371.2247476396225
 21
112.5526445788063
 31
0.0
  0
LINE
  5
FC415
330
1F
100
AcDbEntity
  8
AM_5
100
AcDbLine
 10
385.4863004524307
 20
120.5526445788061
 30
0.0
 11
384.4863004524315
 21
124.5526445788063
 31
0.0
  0
LINE
  5
FC416
330
1F
100
AcDbEntity
  8
AM_5
100
AcDbLine
 10
383.4247476396218
 20
120.5526445788061
 30
0.0
 11
385.486300452431
 21
120.5526445788061
 31
0.0
  0
LINE
  5
FC417
330
1F
100
AcDbEntity
  8
AM_5
100
AcDbLine
 10
382.4247476396219
 20
124.5526445788063
 30
0.0
 11
384.4863004524319
 21
124.5526445788063
 31
0.0
  0
LINE
  5
FC418
330
1F
100
AcDbEntity
  8
AM_5
100
AcDbLine
 10
382.4247476396223
 20
124.5526445788064
 30
0.0
 11
381.4247476396224
 21
128.5526445788063
 31
0.0
  0
LINE
  5
FC419
330
1F
100
AcDbEntity
  8
AM_5
100
AcDbLine
 10
368.474747639622
 20
171.8072355842974
 30
0.0
 11
367.224747639622
 21
169.8072355842979
 31
0.0
  0
LINE
  5
FC41A
330
1F
100
AcDbEntity
  8
AM_5
100
AcDbLine
 10
373.974747639622
 20
171.8072355842978
 30
0.0
 11
375.224747639622
 21
169.8072355842979
 31
0.0
  0
LINE
  5
FC41B
330
1F
100
AcDbEntity
  8
AM_5
100
AcDbLine
 10
371.2247476396217
 20
167.8072355842979
 30
0.0
 11
371.224747639622
 21
173.8072355842978
 31
0.0
  0
LINE
  5
FC41C
330
1F
100
AcDbEntity
  8
AM_5
100
AcDbLine
 10
383.8663560093351
 20
171.807235584298
 30
0.0
 11
388.9247476396219
 21
171.8072355842979
 31
0.0
  0
ARC
  5
FC41D
330
1F
100
AcDbEntity
  8
AM_5
100
AcDbCircle
 10
381.4247476396224
 20
172.3072355842979
 30
0.0
 40
0.5
100
AcDbArc
 50
270.0
 51
359.999999999987
1001
GENIUS_GENOBJ-N-FIL_13
1002
{
1000
OWNER
1000
GEN
1002
}
1001
GENIUS_GENODEF_13
1002
{
1000
HIER
1070
     0
1002
}
1002
{
1000
MANEDIT
1070
     0
1002
}
1002
{
1000
NOSEL
1070
     0
1002
}
1002
{
1000
BEHIND
1070
     0
1002
}
1002
{
1000
OTHER
1070
     0
1002
}
1002
{
1000
REACTOR
1002
}
  0
LINE
  5
FC41E
330
1F
100
AcDbEntity
  8
AM_5
100
AcDbLine
 10
383.9247476396228
 20
176.807235584298
 30
0.0
 11
381.9247476396232
 21
176.807235584298
 31
0.0
  0
LINE
  5
FC41F
330
1F
100
AcDbEntity
  8
AM_5
100
AcDbLine
 10
383.9247476396218
 20
172.3072355842973
 30
0.0
 11
383.9247476396228
 21
176.807235584298
 31
0.0
  0
LINE
  5
FC420
330
1F
100
AcDbEntity
  8
AM_5
100
AcDbLine
 10
381.9247476396224
 20
172.3072355842978
 30
0.0
 11
381.9247476396232
 21
176.807235584298
 31
0.0
  0
ARC
  5
FC421
330
1F
100
AcDbEntity
  8
AM_5
100
AcDbCircle
 10
381.2951422540428
 20
172.3609198927614
 30
0.0
 40
2.630153320406141
100
AcDbArc
 50
283.8499342904882
 51
358.8304492013019
1001
GENIUS_GENOBJ-N-FIL_13
1002
{
1000
OWNER
1000
GEN
1002
}
1001
GENIUS_GENODEF_13
1002
{
1000
HIER
1070
     0
1002
}
1002
{
1000
MANEDIT
1070
     0
1002
}
1002
{
1000
NOSEL
1070
     0
1002
}
1002
{
1000
BEHIND
1070
     0
1002
}
1002
{
1000
OTHER
1070
     0
1002
}
1002
{
1000
REACTOR
1002
}
  0
LINE
  5
FC422
330
1F
100
AcDbEntity
  8
AM_5
100
AcDbLine
 10
381.4247476396224
 20
171.807235584298
 30
0.0
 11
381.4247476396224
 21
169.8072355842979
 31
0.0
  0
LINE
  5
FC423
330
1F
100
AcDbEntity
  8
AM_5
100
AcDbLine
 10
388.9247476396223
 20
171.8072355842979
 30
0.0
 11
388.9247476396223
 21
169.8072355842981
 31
0.0
  0
MTEXT
  5
FCC5A
330
1F
100
AcDbEntity
  8
AM_5
100
AcDbMText
 10
258.0136480948409
 20
206.7743826549049
 30
0.0
 40
10.0
 41
119.399890951406
 71
     1
 72
     5
  1
ニートプレートＧ
  7
2014++
 73
     1
 44
1.0
1001
ACAD
1000
ACAD_MTEXT_COLUMN_INFO_BEGIN
1070
    75
1070
     2
1070
    79
1070
     0
1070
    76
1070
     1
1070
    78
1070
     0
1070
    48
1040
119.399890951406
1070
    49
1040
12.5
1070
    50
1070
     1
1040
0.0
1000
ACAD_MTEXT_COLUMN_INFO_END
  0
LINE
  5
FD073
330
1F
100
AcDbEntity
  8
AM_5
100
AcDbLine
 10
481.563194803829
 20
100.3890281835071
 30
0.0
 11
481.563194803829
 21
97.96554757577052
 31
0.0
  0
LINE
  5
FD074
330
1F
100
AcDbEntity
  8
AM_5
100
AcDbLine
 10
481.5631948038248
 20
101.1455475757689
 30
0.0
 11
476.9631948038289
 21
99.4239081317295
 31
0.0
  0
LINE
  5
FD075
330
1F
100
AcDbEntity
  8
AM_5
100
AcDbLine
 10
482.4631948038287
 20
100.7258706834274
 30
0.0
 11
476.9631948038289
 21
99.4239081317295
 31
0.0
  0
LINE
  5
FD076
330
1F
100
AcDbEntity
  8
AM_5
100
AcDbLine
 10
482.4631948038287
 20
100.7258706834274
 30
0.0
 11
477.8631948038289
 21
99.00423123939006
 31
0.0
  0
DIMENSION
  5
FD077
330
1F
100
AcDbEntity
  8
AM_5
100
AcDbDimension
  2
*D23
 10
461.5393283138656
 20
63.83797111697482
 30
0.0
 11
458.2893283138656
 21
101.3379711169753
 31
0.0
 70
    32
  1
<>
 71
     5
 42
75.00000000000091
  3
AM_ISO$0
100
AcDbAlignedDimension
 13
475.6131948038292
 23
138.8379711169757
 33
0.0
 14
479.7131948038288
 24
63.83797111697481
 34
0.0
 50
270.0
100
AcDbRotatedDimension
1001
ACAD_DSTYLE_DIMINSPECT
1070
   396
1000
100%
1070
   395
1000

1070
   394
1070
    33
1070
   393
1070
     0
  0
LINE
  5
FD078
330
1F
100
AcDbEntity
  8
AM_5
100
AcDbLine
 10
479.7131948038289
 20
145.9967894238146
 30
0.0
 11
479.7131948038288
 21
59.07734543428111
 31
0.0
  0
DIMENSION
  5
FD079
330
1F
100
AcDbEntity
  8
AM_5
100
AcDbDimension
  2
*D24
 10
482.4631948038287
 20
82.7322344187773
 30
0.0
 11
493.0606821772442
 21
82.7322344187773
 31
0.0
 70
   160
  1
%%c<>
 71
     5
 42
5.5
  3
AM_ISO$0
100
AcDbAlignedDimension
 13
476.9631948038289
 23
86.7039081317295
 33
0.0
 14
482.4631948038287
 24
87.14198333280641
 34
0.0
100
AcDbRotatedDimension
1001
ACAD_DSTYLE_DIMINSPECT
1070
   396
1000
100%
1070
   395
1000

1070
   394
1070
    33
1070
   393
1070
     0
  0
LINE
  5
FD07A
330
1F
100
AcDbEntity
  8
AM_5
100
AcDbLine
 10
481.563194803829
 20
78.1290281835072
 30
0.0
 11
481.563194803829
 21
75.70554757577041
 31
0.0
  0
LINE
  5
FD07B
330
1F
100
AcDbEntity
  8
AM_5
100
AcDbLine
 10
477.8631948038289
 20
76.74423123939003
 30
0.0
 11
477.8631948038289
 21
74.32075063165062
 31
0.0
  0
LINE
  5
FD07C
330
1F
100
AcDbEntity
  8
AM_5
100
AcDbLine
 10
481.0236633786945
 20
65.2070980568094
 30
0.0
 11
479.513442030593
 21
64.63913573129082
 31
0.0
  0
LINE
  5
FD07D
330
1F
100
AcDbEntity
  8
AM_5
100
AcDbLine
 10
479.7131948038288
 20
63.83797111697481
 30
0.0
 11
479.9542840024975
 21
64.80492707827703
 31
0.0
  0
LINE
  5
FD07E
330
1F
100
AcDbEntity
  8
AM_5
100
AcDbLine
 10
479.513442030593
 20
64.63913573129082
 30
0.0
 11
478.5915708189516
 21
65.0533595181121
 31
0.0
  0
LINE
  5
FD07F
330
1F
100
AcDbEntity
  8
AM_5
100
AcDbLine
 10
479.7131948038291
 20
63.83797111697481
 30
0.0
 11
479.513442030593
 21
64.6391357312909
 31
0.0
  0
LINE
  5
FD080
330
1F
100
AcDbEntity
  8
AM_5
100
AcDbLine
 10
479.3432289849175
 20
65.3218229695252
 30
0.0
 11
478.7881948038291
 21
67.5479434804957
 31
0.0
  0
LINE
  5
FD081
330
1F
100
AcDbEntity
  8
AM_5
100
AcDbLine
 10
480.1554930589361
 20
65.61193252549561
 30
0.0
 11
478.5915708189516
 21
65.0533595181121
 31
0.0
  0
LINE
  5
FD082
330
1F
100
AcDbEntity
  8
AM_5
100
AcDbLine
 10
481.0236633786945
 20
65.2070980568094
 30
0.0
 11
478.5915708189516
 21
65.0533595181121
 31
0.0
  0
LINE
  5
FD083
330
1F
100
AcDbEntity
  8
AM_5
100
AcDbLine
 10
481.8219190295496
 20
68.68586075570852
 30
0.0
 11
477.7894796810026
 21
67.9331613135897
 31
0.0
  0
LINE
  5
FD084
330
1F
100
AcDbEntity
  8
AM_5
100
AcDbLine
 10
481.0156492392728
 20
69.06183053345351
 30
0.0
 11
477.7894796810026
 21
67.9331613135897
 31
0.0
  0
LINE
  5
FD085
330
1F
100
AcDbEntity
  8
AM_5
100
AcDbLine
 10
481.5631948038248
 20
72.52554757576881
 30
0.0
 11
476.9631948038289
 21
70.80390813172953
 31
0.0
  0
LINE
  5
FD086
330
1F
100
AcDbEntity
  8
AM_5
100
AcDbLine
 10
482.4631948038287
 20
72.10587068342741
 30
0.0
 11
476.9631948038289
 21
70.80390813172953
 31
0.0
  0
LINE
  5
FD087
330
1F
100
AcDbEntity
  8
AM_5
100
AcDbLine
 10
482.4631948038287
 20
72.10587068342741
 30
0.0
 11
478.0624364383223
 21
70.45880129522432
 31
0.0
  0
LINE
  5
FD088
330
1F
100
AcDbEntity
  8
AM_5
100
AcDbLine
 10
482.4631948038287
 20
75.28587068342741
 30
0.0
 11
477.8631948038289
 21
73.56423123939002
 31
0.0
  0
LINE
  5
FD089
330
1F
100
AcDbEntity
  8
AM_5
100
AcDbLine
 10
482.4631948038287
 20
75.28587068342741
 30
0.0
 11
476.9631948038289
 21
73.98390813172952
 31
0.0
  0
LINE
  5
FD08A
330
1F
100
AcDbEntity
  8
AM_5
100
AcDbLine
 10
481.5631948038248
 20
75.70554757576882
 30
0.0
 11
476.9631948038289
 21
73.98390813172952
 31
0.0
  0
LINE
  5
FD08B
330
1F
100
AcDbEntity
  8
AM_5
100
AcDbLine
 10
481.8219190295496
 20
68.68586075570852
 30
0.0
 11
478.7881948038291
 21
67.5479434804957
 31
0.0
  0
LINE
  5
FD08C
330
1F
100
AcDbEntity
  8
AM_5
100
AcDbLine
 10
478.6197291082847
 20
68.22362248013964
 30
0.0
 11
478.0624364383223
 21
70.45880129522432
 31
0.0
  0
LINE
  5
FD08D
330
1F
100
AcDbEntity
  8
AM_5
100
AcDbLine
 10
478.7881948038291
 20
67.5479434804957
 30
0.0
 11
477.7894796810033
 21
67.93316131358932
 31
0.0
  0
LINE
  5
FD08E
330
1F
100
AcDbEntity
  8
AM_5
100
AcDbLine
 10
478.0624364383223
 20
70.45880129522432
 30
0.0
 11
476.9631948038289
 21
70.80390813172953
 31
0.0
  0
LINE
  5
FD08F
330
1F
100
AcDbEntity
  8
AM_5
100
AcDbLine
 10
477.8899140435797
 20
71.1507508266657
 30
0.0
 11
477.8631948038289
 21
71.25791584401659
 31
0.0
  0
LINE
  5
FD090
330
1F
100
AcDbEntity
  8
AM_5
100
AcDbLine
 10
477.8631948038289
 20
73.56423123939002
 30
0.0
 11
476.9631948038289
 21
73.98390813172952
 31
0.0
  0
LINE
  5
FD091
330
1F
100
AcDbEntity
  8
AM_5
100
AcDbLine
 10
477.8631948038289
 20
73.56423123939002
 30
0.0
 11
477.8631948038289
 21
71.25791584401659
 31
0.0
  0
LINE
  5
FD092
330
1F
100
AcDbEntity
  8
AM_5
100
AcDbLine
 10
481.0156492392728
 20
69.06183053345351
 30
0.0
 11
481.563194803829
 21
71.25791584401692
 31
0.0
  0
LINE
  5
FD093
330
1F
100
AcDbEntity
  8
AM_5
100
AcDbLine
 10
480.1554930589361
 20
65.61193252549561
 30
0.0
 11
481.0236633786956
 21
65.20709805680883
 31
0.0
  0
LINE
  5
FD094
330
1F
100
AcDbEntity
  8
AM_5
100
AcDbLine
 10
481.0156492392728
 20
69.06183053345351
 30
0.0
 11
481.8219190295496
 21
68.68586075570852
 31
0.0
  0
LINE
  5
FD095
330
1F
100
AcDbEntity
  8
AM_5
100
AcDbLine
 10
480.1554930589361
 20
65.61193252549561
 30
0.0
 11
480.8290567157476
 21
68.31344879775781
 31
0.0
  0
LINE
  5
FD096
330
1F
100
AcDbEntity
  8
AM_5
100
AcDbLine
 10
481.5631948038248
 20
72.52554757576881
 30
0.0
 11
482.4631948038287
 21
72.10587068342741
 31
0.0
  0
LINE
  5
FD097
330
1F
100
AcDbEntity
  8
AM_5
100
AcDbLine
 10
481.5631948038288
 20
71.7690281835071
 30
0.0
 11
481.563194803829
 21
71.25791584401703
 31
0.0
  0
LINE
  5
FD098
330
1F
100
AcDbEntity
  8
AM_5
100
AcDbLine
 10
481.5631948038248
 20
75.70554757576882
 30
0.0
 11
482.4631948038287
 21
75.28587068342741
 31
0.0
  0
LINE
  5
FD099
330
1F
100
AcDbEntity
  8
AM_5
100
AcDbLine
 10
481.563194803829
 20
74.94902818350713
 30
0.0
 11
481.563194803829
 21
72.52554757577041
 31
0.0
  0
LINE
  5
FD09A
330
1F
100
AcDbEntity
  8
AM_5
100
AcDbLine
 10
482.4631948038287
 20
88.00587068342741
 30
0.0
 11
477.8631948038289
 21
86.28423123939006
 31
0.0
  0
LINE
  5
FD09B
330
1F
100
AcDbEntity
  8
AM_5
100
AcDbLine
 10
482.4631948038287
 20
88.00587068342741
 30
0.0
 11
476.9631948038289
 21
86.7039081317295
 31
0.0
  0
LINE
  5
FD09C
330
1F
100
AcDbEntity
  8
AM_5
100
AcDbLine
 10
477.8631948038289
 20
89.46423123939002
 30
0.0
 11
477.8631948038289
 21
87.04075063165062
 31
0.0
  0
LINE
  5
FD09D
330
1F
100
AcDbEntity
  8
AM_5
100
AcDbLine
 10
481.5631948038248
 20
88.42554757576889
 30
0.0
 11
476.9631948038289
 21
86.7039081317295
 31
0.0
  0
LINE
  5
FD09E
330
1F
100
AcDbEntity
  8
AM_5
100
AcDbLine
 10
481.5631948038248
 20
78.88554757576881
 30
0.0
 11
476.9631948038289
 21
77.16390813172953
 31
0.0
  0
LINE
  5
FD09F
330
1F
100
AcDbEntity
  8
AM_5
100
AcDbLine
 10
482.4631948038287
 20
78.46587068342741
 30
0.0
 11
476.9631948038289
 21
77.16390813172953
 31
0.0
  0
LINE
  5
FD0A0
330
1F
100
AcDbEntity
  8
AM_5
100
AcDbLine
 10
482.4631948038287
 20
78.46587068342741
 30
0.0
 11
477.8631948038289
 21
76.74423123939003
 31
0.0
  0
LINE
  5
FD0A1
330
1F
100
AcDbEntity
  8
AM_5
100
AcDbLine
 10
481.5631948038248
 20
82.06554757576881
 30
0.0
 11
476.9631948038289
 21
80.34390813172953
 31
0.0
  0
LINE
  5
FD0A2
330
1F
100
AcDbEntity
  8
AM_5
100
AcDbLine
 10
482.4631948038287
 20
81.6458706834274
 30
0.0
 11
477.8631948038289
 21
79.92423123939002
 31
0.0
  0
LINE
  5
FD0A3
330
1F
100
AcDbEntity
  8
AM_5
100
AcDbLine
 10
482.4631948038287
 20
81.6458706834274
 30
0.0
 11
476.9631948038289
 21
80.34390813172953
 31
0.0
  0
LINE
  5
FD0A4
330
1F
100
AcDbEntity
  8
AM_5
100
AcDbLine
 10
481.5631948038248
 20
85.24554757576892
 30
0.0
 11
476.9631948038289
 21
83.52390813172963
 31
0.0
  0
LINE
  5
FD0A5
330
1F
100
AcDbEntity
  8
AM_5
100
AcDbLine
 10
482.4631948038287
 20
84.8258706834275
 30
0.0
 11
476.9631948038289
 21
83.52390813172963
 31
0.0
  0
LINE
  5
FD0A6
330
1F
100
AcDbEntity
  8
AM_5
100
AcDbLine
 10
482.4631948038287
 20
84.8258706834275
 30
0.0
 11
477.8631948038289
 21
83.10423123939003
 31
0.0
  0
LINE
  5
FD0A7
330
1F
100
AcDbEntity
  8
AM_5
100
AcDbLine
 10
477.8631948038289
 20
83.10423123939003
 30
0.0
 11
477.8631948038289
 21
80.68075063165062
 31
0.0
  0
LINE
  5
FD0A8
330
1F
100
AcDbEntity
  8
AM_5
100
AcDbLine
 10
477.8631948038289
 20
76.74423123939003
 30
0.0
 11
476.9631948038289
 21
77.16390813172953
 31
0.0
  0
LINE
  5
FD0A9
330
1F
100
AcDbEntity
  8
AM_5
100
AcDbLine
 10
477.8631948038289
 20
79.92423123939002
 30
0.0
 11
476.9631948038289
 21
80.34390813172953
 31
0.0
  0
LINE
  5
FD0AA
330
1F
100
AcDbEntity
  8
AM_5
100
AcDbLine
 10
477.8631948038289
 20
79.92423123939002
 30
0.0
 11
477.8631948038289
 21
77.50075063165052
 31
0.0
  0
LINE
  5
FD0AB
330
1F
100
AcDbEntity
  8
AM_5
100
AcDbLine
 10
477.8631948038289
 20
86.28423123939008
 30
0.0
 11
477.8631948038289
 21
83.86075063165064
 31
0.0
  0
LINE
  5
FD0AC
330
1F
100
AcDbEntity
  8
AM_5
100
AcDbLine
 10
477.8631948038289
 20
86.28423123939006
 30
0.0
 11
476.9631948038289
 21
86.7039081317295
 31
0.0
  0
LINE
  5
FD0AD
330
1F
100
AcDbEntity
  8
AM_5
100
AcDbLine
 10
477.8631948038289
 20
83.10423123939003
 30
0.0
 11
476.9631948038289
 21
83.52390813172963
 31
0.0
  0
LINE
  5
FD0AE
330
1F
100
AcDbEntity
  8
AM_5
100
AcDbLine
 10
481.5631948038248
 20
82.06554757576881
 30
0.0
 11
482.4631948038287
 21
81.6458706834274
 31
0.0
  0
LINE
  5
FD0AF
330
1F
100
AcDbEntity
  8
AM_5
100
AcDbLine
 10
481.563194803829
 20
81.3090281835071
 30
0.0
 11
481.563194803829
 21
78.88554757577043
 31
0.0
  0
LINE
  5
FD0B0
330
1F
100
AcDbEntity
  8
AM_5
100
AcDbLine
 10
481.5631948038248
 20
78.88554757576881
 30
0.0
 11
482.4631948038287
 21
78.46587068342741
 31
0.0
  0
LINE
  5
FD0B1
330
1F
100
AcDbEntity
  8
AM_5
100
AcDbLine
 10
481.563194803829
 20
87.66902818350713
 30
0.0
 11
481.563194803829
 21
85.24554757577041
 31
0.0
  0
LINE
  5
FD0B2
330
1F
100
AcDbEntity
  8
AM_5
100
AcDbLine
 10
481.5631948038248
 20
85.24554757576892
 30
0.0
 11
482.4631948038287
 21
84.8258706834275
 31
0.0
  0
LINE
  5
FD0B3
330
1F
100
AcDbEntity
  8
AM_5
100
AcDbLine
 10
481.563194803829
 20
84.4890281835071
 30
0.0
 11
481.563194803829
 21
82.06554757577041
 31
0.0
  0
LINE
  5
FD0B4
330
1F
100
AcDbEntity
  8
AM_5
100
AcDbLine
 10
481.5631948038248
 20
91.60554757576893
 30
0.0
 11
476.9631948038289
 21
89.8839081317296
 31
0.0
  0
LINE
  5
FD0B5
330
1F
100
AcDbEntity
  8
AM_5
100
AcDbLine
 10
482.4631948038287
 20
91.18587068342753
 30
0.0
 11
476.9631948038289
 21
89.8839081317296
 31
0.0
  0
LINE
  5
FD0B6
330
1F
100
AcDbEntity
  8
AM_5
100
AcDbLine
 10
482.4631948038287
 20
91.18587068342753
 30
0.0
 11
477.8631948038289
 21
89.46423123939002
 31
0.0
  0
LINE
  5
FD0B7
330
1F
100
AcDbEntity
  8
AM_5
100
AcDbLine
 10
481.5631948038248
 20
94.78554757576892
 30
0.0
 11
476.9631948038289
 21
93.06390813172951
 31
0.0
  0
LINE
  5
FD0B8
330
1F
100
AcDbEntity
  8
AM_5
100
AcDbLine
 10
482.4631948038287
 20
94.36587068342744
 30
0.0
 11
476.9631948038289
 21
93.06390813172951
 31
0.0
  0
LINE
  5
FD0B9
330
1F
100
AcDbEntity
  8
AM_5
100
AcDbLine
 10
482.4631948038287
 20
94.36587068342744
 30
0.0
 11
477.8631948038289
 21
92.64423123939002
 31
0.0
  0
LINE
  5
FD0BA
330
1F
100
AcDbEntity
  8
AM_5
100
AcDbLine
 10
481.5631948038248
 20
97.96554757576892
 30
0.0
 11
476.9631948038289
 21
96.24390813172965
 31
0.0
  0
LINE
  5
FD0BB
330
1F
100
AcDbEntity
  8
AM_5
100
AcDbLine
 10
482.4631948038287
 20
97.54587068342752
 30
0.0
 11
477.8631948038289
 21
95.82423123939005
 31
0.0
  0
LINE
  5
FD0BC
330
1F
100
AcDbEntity
  8
AM_5
100
AcDbLine
 10
482.4631948038287
 20
97.54587068342752
 30
0.0
 11
476.9631948038289
 21
96.24390813172965
 31
0.0
  0
LINE
  5
FD0BD
330
1F
100
AcDbEntity
  8
AM_5
100
AcDbLine
 10
477.8631948038289
 20
95.82423123939014
 30
0.0
 11
477.8631948038289
 21
93.40075063165064
 31
0.0
  0
LINE
  5
FD0BE
330
1F
100
AcDbEntity
  8
AM_5
100
AcDbLine
 10
477.8631948038289
 20
92.64423123939002
 30
0.0
 11
477.8631948038289
 21
90.22075063165059
 31
0.0
  0
LINE
  5
FD0BF
330
1F
100
AcDbEntity
  8
AM_5
100
AcDbLine
 10
477.8631948038289
 20
89.46423123939002
 30
0.0
 11
476.9631948038289
 21
89.8839081317296
 31
0.0
  0
LINE
  5
FD0C0
330
1F
100
AcDbEntity
  8
AM_5
100
AcDbLine
 10
477.8631948038289
 20
92.64423123939002
 30
0.0
 11
476.9631948038289
 21
93.06390813172951
 31
0.0
  0
LINE
  5
FD0C1
330
1F
100
AcDbEntity
  8
AM_5
100
AcDbLine
 10
477.8631948038289
 20
95.82423123939005
 30
0.0
 11
476.9631948038289
 21
96.24390813172965
 31
0.0
  0
LINE
  5
FD0C2
330
1F
100
AcDbEntity
  8
AM_5
100
AcDbLine
 10
477.8631948038289
 20
99.00423123939006
 30
0.0
 11
476.9631948038289
 21
99.4239081317295
 31
0.0
  0
LINE
  5
FD0C3
330
1F
100
AcDbEntity
  8
AM_5
100
AcDbLine
 10
477.8631948038289
 20
99.00423123939006
 30
0.0
 11
477.8631948038289
 21
96.58075063165064
 31
0.0
  0
LINE
  5
FD0C4
330
1F
100
AcDbEntity
  8
AM_5
100
AcDbLine
 10
481.563194803829
 20
94.02902818350709
 30
0.0
 11
481.563194803829
 21
91.60554757577044
 31
0.0
  0
LINE
  5
FD0C5
330
1F
100
AcDbEntity
  8
AM_5
100
AcDbLine
 10
481.563194803829
 20
90.8490281835072
 30
0.0
 11
481.563194803829
 21
88.42554757577042
 31
0.0
  0
LINE
  5
FD0C6
330
1F
100
AcDbEntity
  8
AM_5
100
AcDbLine
 10
481.5631948038248
 20
91.60554757576893
 30
0.0
 11
482.4631948038287
 21
91.18587068342753
 31
0.0
  0
LINE
  5
FD0C7
330
1F
100
AcDbEntity
  8
AM_5
100
AcDbLine
 10
481.5631948038248
 20
88.42554757576889
 30
0.0
 11
482.4631948038287
 21
88.00587068342741
 31
0.0
  0
LINE
  5
FD0C8
330
1F
100
AcDbEntity
  8
AM_5
100
AcDbLine
 10
481.563194803829
 20
97.20902818350721
 30
0.0
 11
481.563194803829
 21
94.78554757577043
 31
0.0
  0
LINE
  5
FD0C9
330
1F
100
AcDbEntity
  8
AM_5
100
AcDbLine
 10
481.5631948038248
 20
94.78554757576892
 30
0.0
 11
482.4631948038287
 21
94.36587068342744
 31
0.0
  0
LINE
  5
FD0CA
330
1F
100
AcDbEntity
  8
AM_5
100
AcDbLine
 10
481.5631948038248
 20
97.96554757576892
 30
0.0
 11
482.4631948038287
 21
97.54587068342752
 31
0.0
  0
LINE
  5
FD0CB
330
1F
100
AcDbEntity
  8
AM_5
100
AcDbLine
 10
477.7135585896804
 20
133.3379711169756
 30
0.0
 11
477.7135585896804
 21
118.8379711169757
 31
0.0
  0
LINE
  5
FD0CC
330
1F
100
AcDbEntity
  8
AM_5
100
AcDbLine
 10
481.7128310179775
 20
133.3379711169756
 30
0.0
 11
481.7128310179775
 21
118.8379711169757
 31
0.0
  0
LINE
  5
FD0CD
330
1F
100
AcDbEntity
  8
AM_5
100
AcDbLine
 10
481.563194803829
 20
113.1090281835072
 30
0.0
 11
481.563194803829
 21
110.6855475757705
 31
0.0
  0
LINE
  5
FD0CE
330
1F
100
AcDbEntity
  8
AM_5
100
AcDbLine
 10
477.8631948038289
 20
111.7242312393901
 30
0.0
 11
477.8631948038289
 21
109.3007506316507
 31
0.0
  0
LINE
  5
FD0CF
330
1F
100
AcDbEntity
  8
AM_5
100
AcDbLine
 10
481.5631948038248
 20
110.6855475757689
 30
0.0
 11
476.9631948038289
 21
108.9639081317296
 31
0.0
  0
LINE
  5
FD0D0
330
1F
100
AcDbEntity
  8
AM_5
100
AcDbLine
 10
482.4631948038287
 20
110.2658706834275
 30
0.0
 11
476.9631948038289
 21
108.9639081317296
 31
0.0
  0
LINE
  5
FD0D1
330
1F
100
AcDbEntity
  8
AM_5
100
AcDbLine
 10
482.4631948038287
 20
110.2658706834275
 30
0.0
 11
477.8631948038289
 21
108.5442312393901
 31
0.0
  0
LINE
  5
FD0D2
330
1F
100
AcDbEntity
  8
AM_5
100
AcDbLine
 10
481.5631948038248
 20
104.3255475757689
 30
0.0
 11
476.9631948038289
 21
102.6039081317296
 31
0.0
  0
LINE
  5
FD0D3
330
1F
100
AcDbEntity
  8
AM_5
100
AcDbLine
 10
482.4631948038287
 20
103.9058706834275
 30
0.0
 11
476.9631948038289
 21
102.6039081317296
 31
0.0
  0
LINE
  5
FD0D4
330
1F
100
AcDbEntity
  8
AM_5
100
AcDbLine
 10
482.4631948038287
 20
103.9058706834275
 30
0.0
 11
477.8631948038289
 21
102.18423123939
 31
0.0
  0
LINE
  5
FD0D5
330
1F
100
AcDbEntity
  8
AM_5
100
AcDbLine
 10
482.4631948038287
 20
107.0858706834275
 30
0.0
 11
477.8631948038289
 21
105.36423123939
 31
0.0
  0
LINE
  5
FD0D6
330
1F
100
AcDbEntity
  8
AM_5
100
AcDbLine
 10
482.4631948038287
 20
107.0858706834275
 30
0.0
 11
476.9631948038289
 21
105.7839081317296
 31
0.0
  0
LINE
  5
FD0D7
330
1F
100
AcDbEntity
  8
AM_5
100
AcDbLine
 10
481.5631948038248
 20
107.5055475757689
 30
0.0
 11
476.9631948038289
 21
105.7839081317296
 31
0.0
  0
LINE
  5
FD0D8
330
1F
100
AcDbEntity
  8
AM_5
100
AcDbLine
 10
477.8631948038289
 20
105.3642312393901
 30
0.0
 11
477.8631948038289
 21
102.9407506316506
 31
0.0
  0
LINE
  5
FD0D9
330
1F
100
AcDbEntity
  8
AM_5
100
AcDbLine
 10
477.8631948038289
 20
102.18423123939
 30
0.0
 11
477.8631948038289
 21
99.76075063165062
 31
0.0
  0
LINE
  5
FD0DA
330
1F
100
AcDbEntity
  8
AM_5
100
AcDbLine
 10
477.8631948038289
 20
102.18423123939
 30
0.0
 11
476.9631948038289
 21
102.6039081317296
 31
0.0
  0
LINE
  5
FD0DB
330
1F
100
AcDbEntity
  8
AM_5
100
AcDbLine
 10
477.8631948038289
 20
108.5442312393901
 30
0.0
 11
476.9631948038289
 21
108.9639081317296
 31
0.0
  0
LINE
  5
FD0DC
330
1F
100
AcDbEntity
  8
AM_5
100
AcDbLine
 10
477.8631948038289
 20
105.36423123939
 30
0.0
 11
476.9631948038289
 21
105.7839081317296
 31
0.0
  0
LINE
  5
FD0DD
330
1F
100
AcDbEntity
  8
AM_5
100
AcDbLine
 10
477.8631948038289
 20
108.5442312393901
 30
0.0
 11
477.8631948038289
 21
106.1207506316506
 31
0.0
  0
LINE
  5
FD0DE
330
1F
100
AcDbEntity
  8
AM_5
100
AcDbLine
 10
481.563194803829
 20
106.7490281835072
 30
0.0
 11
481.563194803829
 21
104.3255475757705
 31
0.0
  0
LINE
  5
FD0DF
330
1F
100
AcDbEntity
  8
AM_5
100
AcDbLine
 10
481.563194803829
 20
103.5690281835071
 30
0.0
 11
481.563194803829
 21
101.1455475757704
 31
0.0
  0
LINE
  5
FD0E0
330
1F
100
AcDbEntity
  8
AM_5
100
AcDbLine
 10
481.5631948038248
 20
104.3255475757689
 30
0.0
 11
482.4631948038287
 21
103.9058706834275
 31
0.0
  0
LINE
  5
FD0E1
330
1F
100
AcDbEntity
  8
AM_5
100
AcDbLine
 10
481.5631948038248
 20
101.1455475757689
 30
0.0
 11
482.4631948038287
 21
100.7258706834274
 31
0.0
  0
LINE
  5
FD0E2
330
1F
100
AcDbEntity
  8
AM_5
100
AcDbLine
 10
481.563194803829
 20
109.9290281835072
 30
0.0
 11
481.563194803829
 21
107.5055475757704
 31
0.0
  0
LINE
  5
FD0E3
330
1F
100
AcDbEntity
  8
AM_5
100
AcDbLine
 10
481.5631948038248
 20
110.6855475757689
 30
0.0
 11
482.4631948038287
 21
110.2658706834275
 31
0.0
  0
LINE
  5
FD0E4
330
1F
100
AcDbEntity
  8
AM_5
100
AcDbLine
 10
481.5631948038248
 20
107.5055475757689
 30
0.0
 11
482.4631948038287
 21
107.0858706834275
 31
0.0
  0
LINE
  5
FD0E5
330
1F
100
AcDbEntity
  8
AM_5
100
AcDbLine
 10
482.4631948038287
 20
113.4458706834275
 30
0.0
 11
477.8631948038289
 21
111.7242312393901
 31
0.0
  0
LINE
  5
FD0E6
330
1F
100
AcDbEntity
  8
AM_5
100
AcDbLine
 10
481.5631948038248
 20
113.8655475757689
 30
0.0
 11
476.9631948038289
 21
112.1439081317296
 31
0.0
  0
LINE
  5
FD0E7
330
1F
100
AcDbEntity
  8
AM_5
100
AcDbLine
 10
482.4631948038287
 20
113.4458706834275
 30
0.0
 11
476.9631948038289
 21
112.1439081317296
 31
0.0
  0
LINE
  5
FD0E8
330
1F
100
AcDbEntity
  8
AM_5
100
AcDbLine
 10
481.5631948038248
 20
117.0455475757689
 30
0.0
 11
476.9631948038289
 21
115.3239081317296
 31
0.0
  0
LINE
  5
FD0E9
330
1F
100
AcDbEntity
  8
AM_5
100
AcDbLine
 10
482.4631948038287
 20
116.6258706834275
 30
0.0
 11
477.8631948038289
 21
114.9042312393901
 31
0.0
  0
LINE
  5
FD0EA
330
1F
100
AcDbEntity
  8
AM_5
100
AcDbLine
 10
482.4631948038287
 20
116.6258706834275
 30
0.0
 11
476.9631948038289
 21
115.3239081317296
 31
0.0
  0
LINE
  5
FD0EB
330
1F
100
AcDbEntity
  8
AM_5
100
AcDbLine
 10
479.8770911796942
 20
118.8379711169757
 30
0.0
 11
477.8631948038289
 21
118.0842312393901
 31
0.0
  0
LINE
  5
FD0EC
330
1F
100
AcDbEntity
  8
AM_5
100
AcDbLine
 10
477.7131948038291
 20
118.8379711169757
 30
0.0
 11
481.7131948038289
 21
118.8379711169757
 31
0.0
  0
LINE
  5
FD0ED
330
1F
100
AcDbEntity
  8
AM_5
100
AcDbLine
 10
477.8631948038289
 20
118.0842312393901
 30
0.0
 11
477.8631948038289
 21
115.6607506316507
 31
0.0
  0
LINE
  5
FD0EE
330
1F
100
AcDbEntity
  8
AM_5
100
AcDbLine
 10
477.8631948038289
 20
114.9042312393901
 30
0.0
 11
476.9631948038289
 21
115.3239081317296
 31
0.0
  0
LINE
  5
FD0EF
330
1F
100
AcDbEntity
  8
AM_5
100
AcDbLine
 10
477.8631948038289
 20
111.7242312393901
 30
0.0
 11
476.9631948038289
 21
112.1439081317296
 31
0.0
  0
LINE
  5
FD0F0
330
1F
100
AcDbEntity
  8
AM_5
100
AcDbLine
 10
477.8631948038289
 20
114.9042312393901
 30
0.0
 11
477.8631948038289
 21
112.4807506316507
 31
0.0
  0
LINE
  5
FD0F1
330
1F
100
AcDbEntity
  8
AM_5
100
AcDbLine
 10
477.8631948038289
 20
118.0842312393901
 30
0.0
 11
476.9631948038289
 21
118.5039081317296
 31
0.0
  0
LINE
  5
FD0F2
330
1F
100
AcDbEntity
  8
AM_5
100
AcDbLine
 10
477.8557682967576
 20
118.8379711169757
 30
0.0
 11
476.9631948038289
 21
118.5039081317296
 31
0.0
  0
LINE
  5
FD0F3
330
1F
100
AcDbEntity
  8
AM_5
100
AcDbLine
 10
478.3744077580393
 20
118.8379711169756
 30
0.0
 11
476.9631948038289
 21
118.5039081317296
 31
0.0
  0
LINE
  5
FD0F4
330
1F
100
AcDbEntity
  8
AM_5
100
AcDbLine
 10
481.5631948038248
 20
117.0455475757689
 30
0.0
 11
482.4631948038287
 21
116.6258706834275
 31
0.0
  0
LINE
  5
FD0F5
330
1F
100
AcDbEntity
  8
AM_5
100
AcDbLine
 10
481.563194803829
 20
116.2890281835072
 30
0.0
 11
481.563194803829
 21
113.8655475757704
 31
0.0
  0
LINE
  5
FD0F6
330
1F
100
AcDbEntity
  8
AM_5
100
AcDbLine
 10
481.5631948038248
 20
113.8655475757689
 30
0.0
 11
482.4631948038287
 21
113.4458706834275
 31
0.0
  0
LINE
  5
FD0F7
330
1F
100
AcDbEntity
  8
AM_5
100
AcDbLine
 10
481.563194803829
 20
118.8379711169757
 30
0.0
 11
481.563194803829
 21
117.0455475757705
 31
0.0
  0
LINE
  5
FD0F8
330
1F
100
AcDbEntity
  8
AM_5
100
AcDbLine
 10
481.7131948038289
 20
133.3379711169756
 30
0.0
 11
482.4631948038287
 21
134.3379711169757
 31
0.0
  0
LINE
  5
FD0F9
330
1F
100
AcDbEntity
  8
AM_5
100
AcDbLine
 10
476.9631948038289
 20
134.3379711169757
 30
0.0
 11
477.7131948038291
 21
133.3379711169756
 31
0.0
  0
LINE
  5
FD0FA
330
1F
100
AcDbEntity
  8
AM_5
100
AcDbLine
 10
477.7131948038291
 20
133.3379711169756
 30
0.0
 11
481.7131948038289
 21
133.3379711169756
 31
0.0
  0
LINE
  5
FD0FB
330
1F
100
AcDbEntity
  8
AM_5
100
AcDbLine
 10
479.7131948038291
 20
136.1606423992147
 30
0.0
 11
478.0431948038289
 21
136.5379711169756
 31
0.0
  0
LINE
  5
FD0FC
330
1F
100
AcDbEntity
  8
AM_5
100
AcDbLine
 10
482.4631948038291
 20
137.3332902714048
 30
0.0
 11
476.9631948038291
 21
137.3332902714048
 31
0.0
  0
LINE
  5
FD0FD
330
1F
100
AcDbEntity
  8
AM_5
100
AcDbLine
 10
483.813194803829
 20
138.5832902714048
 30
0.0
 11
475.6131948038292
 21
138.5832902714048
 31
0.0
  0
LINE
  5
FD0FE
330
1F
100
AcDbEntity
  8
AM_5
100
AcDbLine
 10
475.6131948038292
 20
138.8379711169757
 30
0.0
 11
483.813194803829
 21
138.8379711169757
 31
0.0
  0
LINE
  5
FD0FF
330
1F
100
AcDbEntity
  8
AM_5
100
AcDbLine
 10
482.4631948038287
 20
134.3379711169757
 30
0.0
 11
476.9631948038289
 21
134.3379711169757
 31
0.0
  0
LINE
  5
FD100
330
1F
100
AcDbEntity
  8
AM_5
100
AcDbLine
 10
478.0431948038289
 20
136.5379711169756
 30
0.0
 11
478.0431948038289
 21
138.8379711169757
 31
0.0
  0
LINE
  5
FD101
330
1F
100
AcDbEntity
  8
AM_5
100
AcDbLine
 10
475.6131948038292
 20
138.8379711169757
 30
0.0
 11
475.6131948038292
 21
138.5832902714048
 31
0.0
  0
LINE
  5
FD102
330
1F
100
AcDbEntity
  8
AM_5
100
AcDbLine
 10
475.6131948038292
 20
138.5832902714048
 30
0.0
 11
476.9631948038291
 21
137.3332902714048
 31
0.0
  0
LINE
  5
FD103
330
1F
100
AcDbEntity
  8
AM_5
100
AcDbLine
 10
476.9631948038291
 20
137.3332902714048
 30
0.0
 11
476.9631948038289
 21
134.3379711169757
 31
0.0
  0
LINE
  5
FD104
330
1F
100
AcDbEntity
  8
AM_5
100
AcDbLine
 10
483.813194803829
 20
138.5832902714048
 30
0.0
 11
482.4631948038291
 21
137.3332902714048
 31
0.0
  0
LINE
  5
FD105
330
1F
100
AcDbEntity
  8
AM_5
100
AcDbLine
 10
479.7131948038291
 20
136.1606423992147
 30
0.0
 11
481.383194803829
 21
136.5379711169756
 31
0.0
  0
LINE
  5
FD106
330
1F
100
AcDbEntity
  8
AM_5
100
AcDbLine
 10
481.383194803829
 20
136.5379711169756
 30
0.0
 11
481.383194803829
 21
138.8379711169757
 31
0.0
  0
LINE
  5
FD107
330
1F
100
AcDbEntity
  8
AM_5
100
AcDbLine
 10
482.4631948038291
 20
137.3332902714048
 30
0.0
 11
482.4631948038287
 21
134.3379711169757
 31
0.0
  0
LINE
  5
FD108
330
1F
100
AcDbEntity
  8
AM_5
100
AcDbLine
 10
483.813194803829
 20
138.8379711169757
 30
0.0
 11
483.813194803829
 21
138.5832902714048
 31
0.0
  0
LEADER
  5
FD109
330
1F
100
AcDbEntity
  8
AM_5
100
AcDbLeader
  3
AM_ISO$7
 76
     3
 10
480.8447141876676
 20
168.8185381488458
 30
0.0
 10
486.0933553309248
 20
161.223625934656
 30
0.0
 10
496.5199992191726
 20
161.223625934656
 30
0.0
211
1.0
221
-0.0000000000000002
231
0.0
1001
ACAD
1000
DSTYLE
1002
{
1070
   140
1040
3.5
1002
}
  0
MTEXT
  5
FD10A
330
1F
100
AcDbEntity
  8
AM_5
100
AcDbMText
 10
491.2306123892633
 20
163.6152215751168
 30
0.0
 40
2.0
 41
16.24518138417357
 71
     5
 72
     5
  1
3# 四角孔
  7
2014++
 73
     1
 44
1.0
  0
LWPOLYLINE
  5
FD10B
330
1F
100
AcDbEntity
  8
AM_5
100
AcDbPolyline
 90
        4
 70
     1
 43
0.0
 10
478.0431948038289
 20
171.4447176795285
 10
478.0431948038289
 20
168.1047176795289
 10
481.383194803829
 20
168.1047176795289
 10
481.383194803829
 20
171.4447176795285
  0
LINE
  5
FD10C
330
1F
100
AcDbEntity
  8
AM_5
100
AcDbLine
 10
479.7131948038291
 20
163.7747176795285
 30
0.0
 11
479.7131948038291
 21
175.7747176795285
 31
0.0
  0
CIRCLE
  5
FD10D
330
1F
100
AcDbEntity
  8
AM_5
100
AcDbCircle
 10
479.7131948038291
 20
169.7747176795285
 30
0.0
 40
4.0
  0
DIMENSION
  5
FD10E
330
1F
100
AcDbEntity
  8
AM_5
100
AcDbDimension
  2
*D25
 10
483.7131948038291
 20
179.0988693584367
 30
0.0
 11
479.7131948038291
 21
179.0988693584367
 31
0.0
 70
   160
  1
%%c<>
 71
     5
 42
8.0
  3
AM_ISO$0
100
AcDbAlignedDimension
 13
475.7131948038291
 23
169.7747176795285
 33
0.0
 14
483.7131948038291
 24
169.7747176795285
 34
0.0
100
AcDbRotatedDimension
1001
ACAD_DSTYLE_DIMINSPECT
1070
   396
1000
100%
1070
   395
1000

1070
   394
1070
    33
1070
   393
1070
     0
  0
LINE
  5
FD10F
330
1F
100
AcDbEntity
  8
AM_5
100
AcDbLine
 10
485.7131948038291
 20
169.7747176795285
 30
0.0
 11
473.7131948038291
 21
169.7747176795285
 31
0.0
  0
MTEXT
  5
FD110
330
1F
100
AcDbEntity
  8
AM_5
100
AcDbMText
 10
461.7298543489098
 20
206.7743826549049
 30
0.0
 40
10.0
 41
16.80016178190794
 71
     1
 72
     5
  1
YA-S75
  7
2014++
 73
     1
 44
1.0
1001
ACAD
1000
ACAD_MTEXT_COLUMN_INFO_BEGIN
1070
    75
1070
     2
1070
    79
1070
     0
1070
    76
1070
     1
1070
    78
1070
     0
1070
    48
1040
16.80016178190794
1070
    49
1040
12.5
1070
    50
1070
     1
1040
0.0
1000
ACAD_MTEXT_COLUMN_INFO_END
  0
DIMENSION
  5
FD111
330
1F
100
AcDbEntity
  8
AM_5
100
AcDbDimension
  2
*D26
 10
495.813194803829
 20
138.8379711169757
 30
0.0
 11
492.5631948038288
 21
147.8604584903911
 31
0.0
 70
    32
 71
     5
 42
5.500000000000113
  3
AM_ISO$0
100
AcDbAlignedDimension
 13
481.7131948038289
 23
133.3379711169756
 33
0.0
 14
483.813194803829
 24
138.8379711169757
 34
0.0
 50
90.0
100
AcDbRotatedDimension
1001
ACAD_DSTYLE_DIMINSPECT
1070
   396
1000
100%
1070
   395
1000

1070
   394
1070
    33
1070
   393
1070
     0
  0
VIEWPORT
  5
FC87A
102
{ACAD_XDICTIONARY
360
FC87B
102
}
330
FC873
100
AcDbEntity
 67
     1
  8
0
100
AcDbViewport
 10
142.5892486572266
 20
99.1129140853882
 30
0.0
 40
430.4720018747953
 41
222.1517806396485
 68
     1
 69
     1
 12
142.5892486572266
 22
99.1129140853882
 13
0.0
 23
0.0
 14
10.0
 24
10.0
 15
10.0
 25
10.0
 16
0.0
 26
0.0
 36
1.0
 17
0.0
 27
0.0
 37
0.0
 42
50.0
 43
0.0
 44
0.0
 45
222.1517806396485
 50
0.0
 51
0.0
 72
   100
 90
   819232
  1

281
     0
 71
     1
 74
     0
110
0.0
120
0.0
130
0.0
111
1.0
121
0.0
131
0.0
112
0.0
122
1.0
132
0.0
 79
     0
146
0.0
170
     0
1001
GENIUS_GENOBJ-N-SDF_13
1002
{
1000
OWNER
1000
GEN
1002
}
1001
GENIUS_GENODEF_13
1002
{
1000
HIER
1070
     0
1002
}
1002
{
1000
MANEDIT
1070
     0
1002
}
1002
{
1000
NOSEL
1070
     0
1002
}
1002
{
1000
BEHIND
1070
     0
1002
}
1002
{
1000
OTHER
1070
     0
1002
}
1002
{
1000
REACTOR
1002
}
1001
GENIUS_GENSCREG_15
1000
PF
1040
1.0
1000
DF
1040
1.0
1000
MIN
1011
-72.64675228017108
1021
-11.96297623443604
1031
0.0
1000
MAX
1011
357.8252495946242
1021
210.1888044052125
1031
0.0
1000
FLAGS
1070
     4
  0
ENDSEC
  0
SECTION
  2
OBJECTS
  0
DICTIONARY
  5
C
330
0
100
AcDbDictionary
281
     1
  3
ACAD_CIP_PREVIOUS_PRODUCT_INFO
350
FC78D
  3
ACAD_COLOR
350
8712
  3
ACAD_DETAILVIEWSTYLE
350
FC776
  3
ACAD_FIELDLIST
350
FC7A9
  3
ACAD_GROUP
350
D
  3
ACAD_LAYOUT
350
1A
  3
ACAD_MATERIAL
350
8711
  3
ACAD_MLEADERSTYLE
350
FC772
  3
ACAD_MLINESTYLE
350
17
  3
ACAD_PLOTSETTINGS
350
19
  3
ACAD_PLOTSTYLENAME
350
E
  3
ACAD_SCALELIST
350
FC760
  3
ACAD_SECTIONVIEWSTYLE
350
FC774
  3
ACAD_TABLESTYLE
350
FC75E
  3
ACAD_VISUALSTYLE
350
FC745
  3
AcadDim
350
CCA4E
  3
ACDB_RECOMPOSE_DATA
350
FD33E
  3
AcDbVariableDictionary
350
6B9
  3
AcDsDecomposeData
350
FD344
  3
AcmDictionary
350
16D31
  3
AMG
350
16D13
  3
AMGSNAPSETTINGS
350
17AE6
  3
ASE_INDEX_DICTIONARY
350
F4A75
  0
DICTIONARY
  5
FC7F0
330
8
100
AcDbDictionary
280
     1
281
     1
  0
DICTIONARY
  5
F82BD
330
2
100
AcDbDictionary
280
     1
281
     1
  3
ACAD_LAYERFILTERS
360
F82C0
  3
ACAD_LAYERSTATES
360
F82BE
  0
DICTIONARY
  5
FC7B0
330
10
100
AcDbDictionary
280
     1
281
     1
  3
ADSK_XREC_LAYER_RECONCILED
360
FC7B1
  0
DICTIONARY
  5
FC7BE
330
86C9
100
AcDbDictionary
280
     1
281
     1
  3
ADSK_XREC_LAYER_RECONCILED
360
FC7BF
  0
DICTIONARY
  5
16D78
330
1F
100
AcDbDictionary
280
     1
281
     1
  0
DICTIONARY
  5
FCF38
330
FCCB0
100
AcDbDictionary
280
     1
281
     1
  3
ACAD_MTEXT_2008_RT
360
FD37E
  0
DICTIONARY
  5
FC87B
330
FC87A
100
AcDbDictionary
280
     1
281
     1
  3
ASDK_XREC_ANNOTATION_SCALE_INFO
360
FC87C
  0
XRECORD
  5
FC78D
102
{ACAD_REACTORS
330
C
102
}
330
C
100
AcDbXrecord
280
     1
300
AMECH_PP
300
2016
300
AMECH_PP_F_S
  0
DICTIONARY
  5
8712
102
{ACAD_REACTORS
330
C
102
}
330
C
100
AcDbDictionary
281
     1
  0
DICTIONARY
  5
FC776
102
{ACAD_REACTORS
330
C
102
}
330
C
100
AcDbDictionary
281
     1
  3
Metric50
350
FC777
  0
FIELDLIST
  5
FC7A9
102
{ACAD_REACTORS
330
C
102
}
330
C
100
AcDbIdSet
 90
        3
330
FD262
330
FD263
330
FD264
100
AcDbFieldList
  0
DICTIONARY
  5
D
102
{ACAD_REACTORS
330
C
102
}
330
C
100
AcDbDictionary
281
     1
  0
DICTIONARY
  5
1A
102
{ACAD_REACTORS
330
C
102
}
330
C
100
AcDbDictionary
281
     1
  3
Model
350
22
  3
レイアウト1
350
FC874
  0
DICTIONARY
  5
8711
102
{ACAD_REACTORS
330
C
102
}
330
C
100
AcDbDictionary
281
     1
  3
ByBlock
350
FC735
  3
ByLayer
350
FC72D
  3
Global
350
FC73D
  0
DICTIONARY
  5
FC772
102
{ACAD_REACTORS
330
C
102
}
330
C
100
AcDbDictionary
281
     1
  3
Standard
350
FC773
  0
DICTIONARY
  5
17
102
{ACAD_REACTORS
330
C
102
}
330
C
100
AcDbDictionary
281
     1
  3
Standard
350
18
  0
DICTIONARY
  5
19
102
{ACAD_REACTORS
330
C
102
}
330
C
100
AcDbDictionary
281
     1
  0
ACDBDICTIONARYWDFLT
  5
E
102
{ACAD_REACTORS
330
C
102
}
330
C
100
AcDbDictionary
281
     1
  3
Normal
350
F
100
AcDbDictionaryWithDefault
340
F
  0
DICTIONARY
  5
FC760
102
{ACAD_REACTORS
330
C
102
}
330
C
100
AcDbDictionary
281
     1
  3
A0
350
FC761
  3
A1
350
FC762
  3
A2
350
FC763
  3
A3
350
FC764
  3
A4
350
FC765
  3
A5
350
FC766
  3
A6
350
FC767
  3
A7
350
FC768
  3
A8
350
FC769
  3
A9
350
FC76A
  3
B0
350
FC76B
  3
B1
350
FC76C
  3
B2
350
FC76D
  3
B3
350
FC76E
  3
B4
350
FC76F
  3
B5
350
FC770
  3
B6
350
FC771
  0
DICTIONARY
  5
FC774
102
{ACAD_REACTORS
330
C
102
}
330
C
100
AcDbDictionary
281
     1
  3
Metric50
350
FC775
  0
DICTIONARY
  5
FC75E
102
{ACAD_REACTORS
330
C
102
}
330
C
100
AcDbDictionary
281
     1
  3
Standard
350
FC75F
  0
DICTIONARY
  5
FC745
102
{ACAD_REACTORS
330
C
102
}
330
C
100
AcDbDictionary
281
     1
  3
2dWireframe
350
FC74B
  3
Basic
350
FC74A
  3
Brighten
350
FC751
  3
ColorChange
350
FC755
  3
Conceptual
350
FC74E
  3
Dim
350
FC750
  3
EdgeColorOff
350
FC75D
  3
Facepattern
350
FC754
  3
Flat
350
FC746
  3
FlatWithEdges
350
FC747
  3
Gouraud
350
FC748
  3
GouraudWithEdges
350
FC749
  3
Hidden
350
FC74D
  3
JitterOff
350
FC75B
  3
Linepattern
350
FC753
  3
OverhangOff
350
FC75C
  3
Realistic
350
FC74F
  3
Shaded
350
FC75A
  3
Shaded with edges
350
FC759
  3
Shades of Gray
350
FC756
  3
Sketchy
350
FC757
  3
Thicken
350
FC752
  3
Wireframe
350
FC74C
  3
X-Ray
350
FC758
  0
XRECORD
  5
CCA4E
102
{ACAD_REACTORS
330
C
102
}
330
C
100
AcDbXrecord
280
     1
 90
   990106
  3

 60
     0
 61
     0
 62
     1
 63
     3
 64
     0
 65
     0
 66
     0
 67
     3
 68
     1
 69
     0
 70
     0
 71
     0
 72
     0
 40
17.73254125325911
170
     0
  0
XRECORD
  5
FD33E
102
{ACAD_REACTORS
330
C
102
}
330
C
100
AcDbXrecord
280
     1
 90
        1
330
FC75F
330
FCC5A
330
FD110
  0
DICTIONARY
  5
6B9
102
{ACAD_REACTORS
330
C
102
}
330
C
100
AcDbDictionary
281
     1
  3
CANNOSCALE
350
FC842
  3
CMLEADERSTYLE
350
FC83F
  3
CTABLESTYLE
350
FC83E
  3
CVIEWDETAILSTYLE
350
FC840
  3
CVIEWSECTIONSTYLE
350
FC841
  3
DIMASSOC
350
F4248
  3
INDEXCTL
350
F4247
  3
PROJECTNAME
350
F4249
  3
SORTENTS
350
6BA
  3
XCLIPFRAME
350
FD33C
  0
DICTIONARY
  5
FD344
102
{ACAD_REACTORS
330
C
102
}
330
C
100
AcDbDictionary
281
     1
  3
AcDsRecords
350
FD346
  3
AcDsSchemas
350
FD345
1001
ACAD
1070
     2
  0
DICTIONARY
  5
16D31
102
{ACAD_REACTORS
330
C
102
}
330
C
100
AcDbDictionary
281
     1
  3
AcmStdDictionary
350
16D3E
  3
AMDTSECTSYM_ARROWCOLOR
350
16DB5
  0
DICTIONARY
  5
16D13
102
{ACAD_REACTORS
330
C
102
}
330
C
100
AcDbDictionary
281
     1
  0
DICTIONARY
  5
17AE6
102
{ACAD_REACTORS
330
C
102
}
330
C
100
AcDbDictionary
281
     1
  0
DICTIONARY
  5
F4A75
102
{ACAD_REACTORS
330
C
102
}
330
C
100
AcDbDictionary
281
     1
  3
ASEBlockHierarchyIndexRecord
350
F4A77
1001
DCO15
1040
1654516794.149
  0
DICTIONARY
  5
F82C0
102
{ACAD_REACTORS
330
F82BD
102
}
330
F82BD
100
AcDbDictionary
281
     1
  0
DICTIONARY
  5
F82BE
102
{ACAD_REACTORS
330
F82BD
102
}
330
F82BD
100
AcDbDictionary
281
     1
  3
2014++
350
F82D2
  3
2014+++
350
F82BF
  0
XRECORD
  5
FC7B1
102
{ACAD_REACTORS
330
FC7B0
102
}
330
FC7B0
100
AcDbXrecord
280
     1
290
     1
  0
XRECORD
  5
FC7BF
102
{ACAD_REACTORS
330
FC7BE
102
}
330
FC7BE
100
AcDbXrecord
280
     1
290
     1
  0
XRECORD
  5
FD37E
102
{ACAD_REACTORS
330
FCF38
102
}
330
FCF38
100
AcDbXrecord
280
     1
 40
4160.0
  1
8-\U+22055.5
  0
XRECORD
  5
FC87C
102
{ACAD_REACTORS
330
FC87B
102
}
330
FC87B
100
AcDbXrecord
280
     1
 90
        1
340
FC761
  0
ACDBDETAILVIEWSTYLE
  5
FC777
102
{ACAD_XDICTIONARY
360
FD37C
102
}
102
{ACAD_REACTORS
330
FC776
330
FD25C
102
}
330
FC776
100
AcDbModelDocViewStyle
 70
     0
  3
Metric50
290
     0
100
AcDbDetailViewStyle
 70
     0
 71
     0
 90
        3
 71
     1
340
11
 62
   256
 40
5.0
340
0
 62
   256
 40
5.0
300

 40
0.0
280
     1
 71
     2
340
16
 90
       25
 62
   256
 71
     3
340
11
 62
   256
 40
5.0
 90
        0
 40
15.0
 90
        1
300
%<\AcVar ViewDetailId>% (%<\AcVar ViewScale \f "%sn">%)
 71
     4
340
16
 90
       25
 62
   256
340
16
 90
       25
 62
   256
280
     0
  0
LAYOUT
  5
22
102
{ACAD_REACTORS
330
1A
102
}
330
1A
100
AcDbPlotSettings
  1

  2
FUJITSU FAX Print Driver
  4
User261
  6

 40
3.174999952316281
 41
3.174999952316281
 42
3.17498779296875
 43
3.17498779296875
 44
297.0244750976562
 45
419.8775329589842
 46
0.0
 47
0.0
 48
0.0
 49
0.0
140
0.0
141
0.0
142
1.0
143
1.197207273994177
 70
 11952
 72
     1
 73
     1
 74
     0
  7
monochrome.ctb
 75
     0
147
0.8352772504160906
 76
     0
 77
     2
 78
   300
148
-6.027674911478015
149
-7.671586470139232
100
AcDbLayout
  1
Model
 70
     1
 71
     0
 10
0.0
 20
0.0
 11
12.0
 21
9.0
 12
0.0
 22
0.0
 32
0.0
 14
0.0
 24
0.0
 34
0.0
 15
0.0
 25
0.0
 35
0.0
146
0.0
 13
0.0
 23
0.0
 33
0.0
 16
1.0
 26
0.0
 36
0.0
 17
0.0
 27
1.0
 37
0.0
 76
     0
330
1F
331
FC72B
  0
LAYOUT
  5
FC874
102
{ACAD_REACTORS
330
1A
102
}
330
1A
100
AcDbPlotSettings
  1

  2
RICOH imagio MP C5001 RPCS
  4
A4
  6

 40
5.873749732971191
 41
5.873748779296875
 42
5.873733520507812
 43
5.873748779296875
 44
209.9733276367186
 45
296.9259948730469
 46
0.0
 47
0.0
 48
0.0
 49
0.0
140
0.0
141
0.0
142
1.0
143
1.0
 70
   688
 72
     1
 73
     1
 74
     5
  7

 75
    16
147
1.0
 76
     0
 77
     2
 78
   300
148
0.0
149
0.0
100
AcDbLayout
  1
レイアウト1
 70
     1
 71
     1
 10
-5.873748779296875
 20
-5.873749732971191
 11
291.05224609375
 21
204.0995779037475
 12
0.0
 22
0.0
 32
0.0
 14
1.000000000000000E+20
 24
1.000000000000000E+20
 34
1.000000000000000E+20
 15
-1.000000000000000E+20
 25
-1.000000000000000E+20
 35
-1.000000000000000E+20
146
0.0
 13
0.0
 23
0.0
 33
0.0
 16
1.0
 26
0.0
 36
0.0
 17
0.0
 27
1.0
 37
0.0
 76
     0
330
FC873
331
FC87A
1001
ACAD_PSEXT
1000
RICOH imagio MP C5001 RPCS
1000
RICOH imagio MP C5001 RPCS
1000
IP_192.168.13.100
1000
RPCS Driver (For Windows)
1070
     0
  0
MATERIAL
  5
FC735
102
{ACAD_XDICTIONARY
360
FC736
102
}
102
{ACAD_REACTORS
330
8711
102
}
330
8711
100
AcDbMaterial
  1
ByBlock
 72
     0
 43
0.0008202099737533
 43
0.0
 43
0.0
 43
0.0
 43
0.0
 43
0.0008202099737533
 43
0.0
 43
0.0
 43
0.0
 43
0.0
 43
1.0
 43
0.0
 43
0.0
 43
0.0
 43
0.0
 43
1.0
 77
     0
 47
0.0008202099737533
 47
0.0
 47
0.0
 47
0.0
 47
0.0
 47
0.0008202099737533
 47
0.0
 47
0.0
 47
0.0
 47
0.0
 47
1.0
 47
0.0
 47
0.0
 47
0.0
 47
0.0
 47
1.0
171
     0
 49
0.0008202099737533
 49
0.0
 49
0.0
 49
0.0
 49
0.0
 49
0.0008202099737533
 49
0.0
 49
0.0
 49
0.0
 49
0.0
 49
1.0
 49
0.0
 49
0.0
 49
0.0
 49
0.0
 49
1.0
175
     0
142
0.0008202099737533
142
0.0
142
0.0
142
0.0
142
0.0
142
0.0008202099737533
142
0.0
142
0.0
142
0.0
142
0.0
142
1.0
142
0.0
142
0.0
142
0.0
142
0.0
142
1.0
179
     0
144
0.0008202099737533
144
0.0
144
0.0
144
0.0
144
0.0
144
0.0008202099737533
144
0.0
144
0.0
144
0.0
144
0.0
144
1.0
144
0.0
144
0.0
144
0.0
144
0.0
144
1.0
147
0.0008202099737533
147
0.0
147
0.0
147
0.0
147
0.0
147
0.0008202099737533
147
0.0
147
0.0
147
0.0
147
0.0
147
1.0
147
0.0
147
0.0
147
0.0
147
0.0
147
1.0
  0
MATERIAL
  5
FC72D
102
{ACAD_XDICTIONARY
360
FC72E
102
}
102
{ACAD_REACTORS
330
8711
102
}
330
8711
100
AcDbMaterial
  1
ByLayer
 72
     0
 43
0.0008202099737533
 43
0.0
 43
0.0
 43
0.0
 43
0.0
 43
0.0008202099737533
 43
0.0
 43
0.0
 43
0.0
 43
0.0
 43
1.0
 43
0.0
 43
0.0
 43
0.0
 43
0.0
 43
1.0
 77
     0
 47
0.0008202099737533
 47
0.0
 47
0.0
 47
0.0
 47
0.0
 47
0.0008202099737533
 47
0.0
 47
0.0
 47
0.0
 47
0.0
 47
1.0
 47
0.0
 47
0.0
 47
0.0
 47
0.0
 47
1.0
171
     0
 49
0.0008202099737533
 49
0.0
 49
0.0
 49
0.0
 49
0.0
 49
0.0008202099737533
 49
0.0
 49
0.0
 49
0.0
 49
0.0
 49
1.0
 49
0.0
 49
0.0
 49
0.0
 49
0.0
 49
1.0
175
     0
142
0.0008202099737533
142
0.0
142
0.0
142
0.0
142
0.0
142
0.0008202099737533
142
0.0
142
0.0
142
0.0
142
0.0
142
1.0
142
0.0
142
0.0
142
0.0
142
0.0
142
1.0
179
     0
144
0.0008202099737533
144
0.0
144
0.0
144
0.0
144
0.0
144
0.0008202099737533
144
0.0
144
0.0
144
0.0
144
0.0
144
1.0
144
0.0
144
0.0
144
0.0
144
0.0
144
1.0
147
0.0008202099737533
147
0.0
147
0.0
147
0.0
147
0.0
147
0.0008202099737533
147
0.0
147
0.0
147
0.0
147
0.0
147
1.0
147
0.0
147
0.0
147
0.0
147
0.0
147
1.0
  0
MATERIAL
  5
FC73D
102
{ACAD_XDICTIONARY
360
FC73E
102
}
102
{ACAD_REACTORS
330
8711
102
}
330
8711
100
AcDbMaterial
  1
Global
 72
     0
 43
0.0008202099737533
 43
0.0
 43
0.0
 43
0.0
 43
0.0
 43
0.0008202099737533
 43
0.0
 43
0.0
 43
0.0
 43
0.0
 43
1.0
 43
0.0
 43
0.0
 43
0.0
 43
0.0
 43
1.0
 77
     0
 47
0.0008202099737533
 47
0.0
 47
0.0
 47
0.0
 47
0.0
 47
0.0008202099737533
 47
0.0
 47
0.0
 47
0.0
 47
0.0
 47
1.0
 47
0.0
 47
0.0
 47
0.0
 47
0.0
 47
1.0
171
     0
 49
0.0008202099737533
 49
0.0
 49
0.0
 49
0.0
 49
0.0
 49
0.0008202099737533
 49
0.0
 49
0.0
 49
0.0
 49
0.0
 49
1.0
 49
0.0
 49
0.0
 49
0.0
 49
0.0
 49
1.0
175
     0
142
0.0008202099737533
142
0.0
142
0.0
142
0.0
142
0.0
142
0.0008202099737533
142
0.0
142
0.0
142
0.0
142
0.0
142
1.0
142
0.0
142
0.0
142
0.0
142
0.0
142
1.0
179
     0
144
0.0008202099737533
144
0.0
144
0.0
144
0.0
144
0.0
144
0.0008202099737533
144
0.0
144
0.0
144
0.0
144
0.0
144
1.0
144
0.0
144
0.0
144
0.0
144
0.0
144
1.0
147
0.0008202099737533
147
0.0
147
0.0
147
0.0
147
0.0
147
0.0008202099737533
147
0.0
147
0.0
147
0.0
147
0.0
147
1.0
147
0.0
147
0.0
147
0.0
147
0.0
147
1.0
  0
MLEADERSTYLE
  5
FC773
102
{ACAD_XDICTIONARY
360
FD378
102
}
102
{ACAD_REACTORS
330
FC772
102
}
330
FC772
100
AcDbMLeaderStyle
170
     2
171
     1
172
     0
 90
        2
 40
0.0
 41
0.0
173
     1
 91
-1056964608
340
14
 92
       -2
290
     1
 42
2.0
291
     1
 43
0.36
  3
Standard
 44
4.0
300

342
11
174
     1
178
     6
175
     1
176
     0
 93
-1056964608
 45
4.0
292
     0
297
     0
 46
4.0
 94
-1056964608
 47
1.0
 49
1.0
140
1.0
293
     1
141
0.0
294
     1
177
     0
142
1.0
295
     0
296
     0
143
0.125
1001
ACAD_MLEADERVER
1070
     2
  0
MLINESTYLE
  5
18
102
{ACAD_REACTORS
330
17
102
}
330
17
100
AcDbMlineStyle
  2
STANDARD
 70
     0
  3

 62
   256
 51
90.0
 52
90.0
 71
     2
 49
0.5
 62
   256
  6
BYLAYER
 49
-0.5
 62
   256
  6
BYLAYER
  0
ACDBPLACEHOLDER
  5
F
102
{ACAD_REACTORS
330
E
102
}
330
E
  0
SCALE
  5
FC761
102
{ACAD_REACTORS
330
FC760
102
}
330
FC760
100
AcDbScale
 70
     0
300
1:1
140
1.0
141
1.0
290
     1
  0
SCALE
  5
FC762
102
{ACAD_REACTORS
330
FC760
102
}
330
FC760
100
AcDbScale
 70
     0
300
1:2
140
1.0
141
2.0
290
     0
  0
SCALE
  5
FC763
102
{ACAD_REACTORS
330
FC760
102
}
330
FC760
100
AcDbScale
 70
     0
300
1:4
140
1.0
141
4.0
290
     0
  0
SCALE
  5
FC764
102
{ACAD_REACTORS
330
FC760
102
}
330
FC760
100
AcDbScale
 70
     0
300
1:5
140
1.0
141
5.0
290
     0
  0
SCALE
  5
FC765
102
{ACAD_REACTORS
330
FC760
102
}
330
FC760
100
AcDbScale
 70
     0
300
1:8
140
1.0
141
8.0
290
     0
  0
SCALE
  5
FC766
102
{ACAD_REACTORS
330
FC760
102
}
330
FC760
100
AcDbScale
 70
     0
300
1:10
140
1.0
141
10.0
290
     0
  0
SCALE
  5
FC767
102
{ACAD_REACTORS
330
FC760
102
}
330
FC760
100
AcDbScale
 70
     0
300
1:16
140
1.0
141
16.0
290
     0
  0
SCALE
  5
FC768
102
{ACAD_REACTORS
330
FC760
102
}
330
FC760
100
AcDbScale
 70
     0
300
1:20
140
1.0
141
20.0
290
     0
  0
SCALE
  5
FC769
102
{ACAD_REACTORS
330
FC760
102
}
330
FC760
100
AcDbScale
 70
     0
300
1:30
140
1.0
141
30.0
290
     0
  0
SCALE
  5
FC76A
102
{ACAD_REACTORS
330
FC760
102
}
330
FC760
100
AcDbScale
 70
     0
300
1:40
140
1.0
141
40.0
290
     0
  0
SCALE
  5
FC76B
102
{ACAD_REACTORS
330
FC760
102
}
330
FC760
100
AcDbScale
 70
     0
300
1:50
140
1.0
141
50.0
290
     0
  0
SCALE
  5
FC76C
102
{ACAD_REACTORS
330
FC760
102
}
330
FC760
100
AcDbScale
 70
     0
300
1:100
140
1.0
141
100.0
290
     0
  0
SCALE
  5
FC76D
102
{ACAD_REACTORS
330
FC760
102
}
330
FC760
100
AcDbScale
 70
     0
300
2:1
140
2.0
141
1.0
290
     0
  0
SCALE
  5
FC76E
102
{ACAD_REACTORS
330
FC760
102
}
330
FC760
100
AcDbScale
 70
     0
300
4:1
140
4.0
141
1.0
290
     0
  0
SCALE
  5
FC76F
102
{ACAD_REACTORS
330
FC760
102
}
330
FC760
100
AcDbScale
 70
     0
300
8:1
140
8.0
141
1.0
290
     0
  0
SCALE
  5
FC770
102
{ACAD_REACTORS
330
FC760
102
}
330
FC760
100
AcDbScale
 70
     0
300
10:1
140
10.0
141
1.0
290
     0
  0
SCALE
  5
FC771
102
{ACAD_REACTORS
330
FC760
102
}
330
FC760
100
AcDbScale
 70
     0
300
100:1
140
100.0
141
1.0
290
     0
  0
ACDBSECTIONVIEWSTYLE
  5
FC775
102
{ACAD_XDICTIONARY
360
FD37A
102
}
102
{ACAD_REACTORS
330
FC774
330
FD25B
102
}
330
FC774
100
AcDbModelDocViewStyle
 70
     0
  3
Metric50
290
     0
100
AcDbSectionViewStyle
 70
     0
 71
     0
 90
      102
 71
     1
340
11
 62
   256
 40
5.0
340
0
340
0
 62
   256
 40
5.0
300
I, O, Q, S, X, Z
 40
10.0
 90
        0
 40
2.5
 90
        0
 71
     2
340
16
 90
       25
 62
   256
340
16
 90
       50
 62
   256
 40
5.0
 40
2.5
 40
5.0
 71
     3
340
11
 62
   256
 40
5.0
 90
        0
 40
15.0
 90
        1
300
%<\AcVar ViewSectionStartId>%-%<\AcVar ViewSectionEndId>% (%<\AcVar ViewScale \f "%sn">%)
 71
     4
 62
   256
 62
   257
300
ANSI31
 40
1.0
 90
        0
290
     0
290
     0
 90
        6
 40
0.0
 40
1.570796326794896
 40
0.2617993877991494
 40
1.308996938995747
 40
-0.2617993877991494
 40
1.832595714594044
  0
TABLESTYLE
  5
FC75F
102
{ACAD_XDICTIONARY
360
FC7E5
102
}
102
{ACAD_REACTORS
330
FC75E
102
}
330
FC75E
100
AcDbTableStyle
  3
Standard
 70
     0
 71
     0
 40
1.5
 41
1.5
280
     0
281
     0
  7
STANDARD
140
4.5
170
     2
 62
     0
 63
     7
283
     0
274
    -2
284
     1
 64
     0
275
    -2
285
     1
 65
     0
276
    -2
286
     1
 66
     0
277
    -2
287
     1
 67
     0
278
    -2
288
     1
 68
     0
279
    -2
289
     1
 69
     0
  7
STANDARD
140
6.0
170
     5
 62
     0
 63
     7
283
     0
274
    -2
284
     1
 64
     0
275
    -2
285
     1
 65
     0
276
    -2
286
     1
 66
     0
277
    -2
287
     1
 67
     0
278
    -2
288
     1
 68
     0
279
    -2
289
     1
 69
     0
  7
STANDARD
140
4.5
170
     5
 62
     0
 63
     7
283
     0
274
    -2
284
     1
 64
     0
275
    -2
285
     1
 65
     0
276
    -2
286
     1
 66
     0
277
    -2
287
     1
 67
     0
278
    -2
288
     1
 68
     0
279
    -2
289
     1
 69
     0
  0
VISUALSTYLE
  5
FC74B
102
{ACAD_XDICTIONARY
360
FD351
102
}
102
{ACAD_REACTORS
330
FC745
102
}
330
FC745
100
AcDbVisualStyle
  2

 70
     4
 71
     0
 72
     2
 73
     0
 90
        0
 40
-0.6
 41
-30.0
 62
     5
 63
     7
 74
     1
 91
        4
 64
     7
 65
   257
 75
     1
175
     1
 42
1.0
 92
        0
 66
   257
 43
1.0
 76
     1
 77
     6
 78
     2
 67
     7
 79
     5
170
     0
171
     0
290
     0
174
     0
 93
        1
 44
0.0
173
     0
291
     0
 45
0.0
1001
ACAD
1000
AcDbSavedByObjectVersion
1070
     0
  0
VISUALSTYLE
  5
FC74A
102
{ACAD_XDICTIONARY
360
FD34F
102
}
102
{ACAD_REACTORS
330
FC745
102
}
330
FC745
100
AcDbVisualStyle
  2

 70
     7
 71
     1
 72
     0
 73
     1
 90
        0
 40
-0.6
 41
-30.0
 62
     5
 63
     7
 74
     0
 91
        4
 64
     7
 65
   257
 75
     1
175
     1
 42
1.0
 92
        8
 66
     7
 43
1.0
 76
     1
 77
     6
 78
     2
 67
     7
 79
     5
170
     0
171
     0
290
     0
174
     0
 93
        1
 44
0.0
173
     0
291
     1
 45
0.0
1001
ACAD
1000
AcDbSavedByObjectVersion
1070
     0
  0
VISUALSTYLE
  5
FC751
102
{ACAD_XDICTIONARY
360
FD35D
102
}
102
{ACAD_REACTORS
330
FC745
102
}
330
FC745
100
AcDbVisualStyle
  2

 70
    12
 71
     2
 72
     2
 73
     0
 90
        0
 40
-0.6
 41
-30.0
 62
     5
 63
     7
 74
     1
 91
        4
 64
     7
 65
   257
 75
     1
175
     1
 42
1.0
 92
        8
 66
     7
 43
1.0
 76
     1
 77
     6
 78
     2
 67
     7
 79
     5
170
     0
171
     0
290
     0
174
     0
 93
        1
 44
50.0
173
     0
291
     1
 45
0.0
1001
ACAD
1000
AcDbSavedByObjectVersion
1070
     0
  0
VISUALSTYLE
  5
FC755
102
{ACAD_XDICTIONARY
360
FD365
102
}
102
{ACAD_REACTORS
330
FC745
102
}
330
FC745
100
AcDbVisualStyle
  2

 70
    16
 71
     2
 72
     2
 73
     3
 90
        0
 40
-0.6
 41
-30.0
 62
     5
 63
     8
 74
     1
 91
        4
 64
     7
 65
   257
 75
     1
175
     1
 42
1.0
 92
        8
 66
     8
 43
1.0
 76
     1
 77
     6
 78
     2
 67
     7
 79
     5
170
     0
171
     0
290
     0
174
     0
 93
        1
 44
0.0
173
     0
291
     1
 45
0.0
1001
ACAD
1000
AcDbSavedByObjectVersion
1070
     0
  0
VISUALSTYLE
  5
FC74E
102
{ACAD_XDICTIONARY
360
FD357
102
}
102
{ACAD_REACTORS
330
FC745
102
}
330
FC745
100
AcDbVisualStyle
  2

 70
     9
 71
     3
 72
     2
 73
     0
 90
        0
 40
-0.6
 41
-30.0
 62
     5
 63
     7
 74
     2
 91
        2
 64
     7
 65
   257
 75
     1
175
     1
 42
179.0
 92
        8
 66
     7
 43
1.0
 76
     1
 77
     6
 78
     2
 67
     7
 79
     3
170
     0
171
     0
290
     0
174
     0
 93
        1
 44
0.0
173
     0
291
     0
 45
0.0
1001
ACAD
1000
AcDbSavedByObjectVersion
1070
     0
  0
VISUALSTYLE
  5
FC750
102
{ACAD_XDICTIONARY
360
FD35B
102
}
102
{ACAD_REACTORS
330
FC745
102
}
330
FC745
100
AcDbVisualStyle
  2

 70
    11
 71
     2
 72
     2
 73
     0
 90
        0
 40
-0.6
 41
-30.0
 62
     5
 63
     7
 74
     1
 91
        4
 64
     7
 65
   257
 75
     1
175
     1
 42
1.0
 92
        8
 66
     7
 43
1.0
 76
     1
 77
     6
 78
     2
 67
     7
 79
     5
170
     0
171
     0
290
     0
174
     0
 93
        1
 44
-50.0
173
     0
291
     1
 45
0.0
1001
ACAD
1000
AcDbSavedByObjectVersion
1070
     0
  0
VISUALSTYLE
  5
FC75D
102
{ACAD_XDICTIONARY
360
FD375
102
}
102
{ACAD_REACTORS
330
FC745
102
}
330
FC745
100
AcDbVisualStyle
  2

 70
    22
 71
     2
 72
     2
 73
     0
 90
        0
 40
-0.6
 41
-30.0
 62
     5
 63
     7
 74
     1
 91
        4
 64
     7
 65
   257
 75
     1
175
     1
 42
1.0
 92
        8
 66
     7
 43
1.0
 76
     1
 77
     6
 78
     2
 67
     7
 79
     5
170
     0
171
     0
290
     0
174
     0
 93
        1
 44
0.0
173
     0
291
     1
 45
0.0
1001
ACAD
1000
AcDbSavedByObjectVersion
1070
     0
  0
VISUALSTYLE
  5
FC754
102
{ACAD_XDICTIONARY
360
FD363
102
}
102
{ACAD_REACTORS
330
FC745
102
}
330
FC745
100
AcDbVisualStyle
  2

 70
    15
 71
     2
 72
     2
 73
     0
 90
        0
 40
-0.6
 41
-30.0
 62
     5
 63
     7
 74
     1
 91
        4
 64
     7
 65
   257
 75
     1
175
     1
 42
1.0
 92
        8
 66
     7
 43
1.0
 76
     1
 77
     6
 78
     2
 67
     7
 79
     5
170
     0
171
     0
290
     0
174
     0
 93
        1
 44
0.0
173
     0
291
     1
 45
0.0
1001
ACAD
1000
AcDbSavedByObjectVersion
1070
     0
  0
VISUALSTYLE
  5
FC746
102
{ACAD_XDICTIONARY
360
FD347
102
}
102
{ACAD_REACTORS
330
FC745
102
}
330
FC745
100
AcDbVisualStyle
  2

 70
     0
 71
     2
 72
     1
 73
     1
 90
        2
 40
-0.6
 41
30.0
 62
     5
 63
     7
 74
     0
 91
        0
 64
     7
 65
   257
 75
     1
175
     1
 42
1.0
 92
        8
 66
     7
 43
1.0
 76
     1
 77
     6
 78
     2
 67
     7
 79
     5
170
     0
171
     0
290
     0
174
     0
 93
       13
 44
0.0
173
     0
291
     1
 45
0.0
1001
ACAD
1000
AcDbSavedByObjectVersion
1070
     0
  0
VISUALSTYLE
  5
FC747
102
{ACAD_XDICTIONARY
360
FD349
102
}
102
{ACAD_REACTORS
330
FC745
102
}
330
FC745
100
AcDbVisualStyle
  2

 70
     1
 71
     2
 72
     1
 73
     1
 90
        2
 40
-0.6
 41
30.0
 62
     5
 63
     7
 74
     1
 91
        0
 64
     7
 65
   257
 75
     1
175
     1
 42
1.0
 92
        0
 66
   257
 43
1.0
 76
     1
 77
     6
 78
     2
 67
     7
 79
     5
170
     0
171
     0
290
     0
174
     0
 93
       13
 44
0.0
173
     0
291
     1
 45
0.0
1001
ACAD
1000
AcDbSavedByObjectVersion
1070
     0
  0
VISUALSTYLE
  5
FC748
102
{ACAD_XDICTIONARY
360
FD34B
102
}
102
{ACAD_REACTORS
330
FC745
102
}
330
FC745
100
AcDbVisualStyle
  2

 70
     2
 71
     2
 72
     2
 73
     1
 90
        2
 40
-0.6
 41
30.0
 62
     5
 63
     7
 74
     0
 91
        0
 64
     7
 65
   257
 75
     1
175
     1
 42
1.0
 92
        0
 66
     7
 43
1.0
 76
     1
 77
     6
 78
     2
 67
     7
 79
     5
170
     0
171
     0
290
     0
174
     0
 93
       13
 44
0.0
173
     0
291
     1
 45
0.0
1001
ACAD
1000
AcDbSavedByObjectVersion
1070
     0
  0
VISUALSTYLE
  5
FC749
102
{ACAD_XDICTIONARY
360
FD34D
102
}
102
{ACAD_REACTORS
330
FC745
102
}
330
FC745
100
AcDbVisualStyle
  2

 70
     3
 71
     2
 72
     2
 73
     1
 90
        2
 40
-0.6
 41
30.0
 62
     5
 63
     7
 74
     1
 91
        0
 64
     7
 65
   257
 75
     1
175
     1
 42
1.0
 92
        0
 66
   257
 43
1.0
 76
     1
 77
     6
 78
     2
 67
     7
 79
     5
170
     0
171
     0
290
     0
174
     0
 93
       13
 44
0.0
173
     0
291
     1
 45
0.0
1001
ACAD
1000
AcDbSavedByObjectVersion
1070
     0
  0
VISUALSTYLE
  5
FC74D
102
{ACAD_XDICTIONARY
360
FD355
102
}
102
{ACAD_REACTORS
330
FC745
102
}
330
FC745
100
AcDbVisualStyle
  2

 70
     6
 71
     1
 72
     2
 73
     2
 90
        0
 40
-0.6
 41
-30.0
 62
     5
 63
     7
 74
     2
 91
        2
 64
     7
 65
   257
 75
     2
175
     1
 42
40.0
 92
        0
 66
   257
 43
1.0
 76
     1
 77
     6
 78
     2
 67
     7
 79
     3
170
     0
171
     0
290
     0
174
     0
 93
        1
 44
0.0
173
     0
291
     0
 45
0.0
1001
ACAD
1000
AcDbSavedByObjectVersion
1070
     0
  0
VISUALSTYLE
  5
FC75B
102
{ACAD_XDICTIONARY
360
FD371
102
}
102
{ACAD_REACTORS
330
FC745
102
}
330
FC745
100
AcDbVisualStyle
  2

 70
    20
 71
     2
 72
     2
 73
     0
 90
        0
 40
-0.6
 41
-30.0
 62
     5
 63
     7
 74
     1
 91
        4
 64
     7
 65
   257
 75
     1
175
     1
 42
1.0
 92
       10
 66
     7
 43
1.0
 76
     1
 77
     6
 78
     2
 67
     7
 79
     5
170
     0
171
     0
290
     0
174
     0
 93
        1
 44
0.0
173
     0
291
     1
 45
0.0
1001
ACAD
1000
AcDbSavedByObjectVersion
1070
     0
  0
VISUALSTYLE
  5
FC753
102
{ACAD_XDICTIONARY
360
FD361
102
}
102
{ACAD_REACTORS
330
FC745
102
}
330
FC745
100
AcDbVisualStyle
  2

 70
    14
 71
     2
 72
     2
 73
     0
 90
        0
 40
-0.6
 41
-30.0
 62
     5
 63
     7
 74
     1
 91
        4
 64
     7
 65
   257
 75
     7
175
     7
 42
1.0
 92
        8
 66
     7
 43
1.0
 76
     1
 77
     6
 78
     2
 67
     7
 79
     5
170
     0
171
     0
290
     0
174
     0
 93
        1
 44
0.0
173
     0
291
     1
 45
0.0
1001
ACAD
1000
AcDbSavedByObjectVersion
1070
     0
  0
VISUALSTYLE
  5
FC75C
102
{ACAD_XDICTIONARY
360
FD373
102
}
102
{ACAD_REACTORS
330
FC745
102
}
330
FC745
100
AcDbVisualStyle
  2

 70
    21
 71
     2
 72
     2
 73
     0
 90
        0
 40
-0.6
 41
-30.0
 62
     5
 63
     7
 74
     1
 91
        4
 64
     7
 65
   257
 75
     1
175
     1
 42
1.0
 92
        9
 66
     7
 43
1.0
 76
     1
 77
     6
 78
     2
 67
     7
 79
     5
170
     0
171
     0
290
     0
174
     0
 93
        1
 44
0.0
173
     0
291
     1
 45
0.0
1001
ACAD
1000
AcDbSavedByObjectVersion
1070
     0
  0
VISUALSTYLE
  5
FC74F
102
{ACAD_XDICTIONARY
360
FD359
102
}
102
{ACAD_REACTORS
330
FC745
102
}
330
FC745
100
AcDbVisualStyle
  2

 70
     8
 71
     2
 72
     2
 73
     0
 90
        2
 40
-0.6
 41
30.0
 62
     5
 63
     7
 74
     0
 91
        0
 64
     7
 65
   257
 75
     1
175
     1
 42
1.0
 92
        8
 66
   257
 43
1.0
 76
     1
 77
     6
 78
     2
 67
     7
 79
     3
170
     0
171
     0
290
     0
174
     0
 93
       13
 44
0.0
173
     0
291
     0
 45
0.0
1001
ACAD
1000
AcDbSavedByObjectVersion
1070
     0
  0
VISUALSTYLE
  5
FC75A
102
{ACAD_XDICTIONARY
360
FD36F
102
}
102
{ACAD_REACTORS
330
FC745
102
}
330
FC745
100
AcDbVisualStyle
  2

 70
    27
 71
     2
 72
     2
 73
     1
 90
        2
 40
-0.6
 41
30.0
 62
     5
 63
     7
 74
     0
 91
        4
 64
     7
 65
   257
 75
     1
175
     1
 42
1.0
 92
        8
 66
   257
 43
1.0
 76
     1
 77
     6
 78
     2
 67
     8
 79
     3
170
     0
171
     0
290
     0
174
     0
 93
        5
 44
0.0
173
     0
291
     0
 45
0.0
1001
ACAD
1000
AcDbSavedByObjectVersion
1070
     0
  0
VISUALSTYLE
  5
FC759
102
{ACAD_XDICTIONARY
360
FD36D
102
}
102
{ACAD_REACTORS
330
FC745
102
}
330
FC745
100
AcDbVisualStyle
  2

 70
    26
 71
     2
 72
     2
 73
     1
 90
        2
 40
-0.6
 41
30.0
 62
     5
 63
     7
 74
     1
 91
       10
 64
     7
 65
   257
 75
     2
175
     1
 42
1.0
 92
        8
 66
   257
 43
1.0
 76
     1
 77
     6
 78
     2
 67
     7
 79
     3
170
     0
171
     0
290
     0
174
     0
 93
        5
 44
0.0
173
     0
291
     0
 45
0.0
1001
ACAD
1000
AcDbSavedByObjectVersion
1070
     0
  0
VISUALSTYLE
  5
FC756
102
{ACAD_XDICTIONARY
360
FD367
102
}
102
{ACAD_REACTORS
330
FC745
102
}
330
FC745
100
AcDbVisualStyle
  2

 70
    23
 71
     2
 72
     2
 73
     3
 90
        0
 40
-0.6
 41
-30.0
 62
     5
 63
     7
 74
     2
 91
        2
 64
     7
 65
     7
 75
     1
175
     1
 42
40.0
 92
        8
 66
     7
 43
1.0
 76
     1
 77
     6
 78
     2
 67
     7
 79
     3
170
     0
171
     0
290
     0
174
     0
 93
        1
 44
0.0
173
     0
291
     0
 45
0.0
1001
ACAD
1000
AcDbSavedByObjectVersion
1070
     0
  0
VISUALSTYLE
  5
FC757
102
{ACAD_XDICTIONARY
360
FD369
102
}
102
{ACAD_REACTORS
330
FC745
102
}
330
FC745
100
AcDbVisualStyle
  2

 70
    24
 71
     1
 72
     2
 73
     2
 90
        0
 40
-0.6
 41
-30.0
 62
     5
 63
     7
 74
     2
 91
        2
 64
     7
 65
     7
 75
     1
175
     1
 42
40.0
 92
       11
 66
     7
 43
1.0
 76
     1
 77
     6
 78
     2
 67
     7
 79
     6
170
     0
171
     0
290
     0
174
     0
 93
        1
 44
0.0
173
     0
291
     0
 45
0.0
1001
ACAD
1000
AcDbSavedByObjectVersion
1070
     0
  0
VISUALSTYLE
  5
FC752
102
{ACAD_XDICTIONARY
360
FD35F
102
}
102
{ACAD_REACTORS
330
FC745
102
}
330
FC745
100
AcDbVisualStyle
  2

 70
    13
 71
     2
 72
     2
 73
     0
 90
        0
 40
-0.6
 41
-30.0
 62
     5
 63
     7
 74
     1
 91
        4
 64
     7
 65
   257
 75
     1
175
     1
 42
1.0
 92
       12
 66
     7
 43
1.0
 76
     1
 77
     6
 78
     2
 67
     7
 79
     5
170
     0
171
     0
290
     0
174
     0
 93
        1
 44
0.0
173
     0
291
     1
 45
0.0
1001
ACAD
1000
AcDbSavedByObjectVersion
1070
     0
  0
VISUALSTYLE
  5
FC74C
102
{ACAD_XDICTIONARY
360
FD353
102
}
102
{ACAD_REACTORS
330
FC745
102
}
330
FC745
100
AcDbVisualStyle
  2

 70
     5
 71
     0
 72
     2
 73
     0
 90
        0
 40
-0.6
 41
-30.0
 62
     5
 63
     7
 74
     1
 91
        4
 64
     7
 65
   257
 75
     1
175
     1
 42
1.0
 92
        0
 66
   257
 43
1.0
 76
     1
 77
     6
 78
     2
 67
     7
 79
     3
170
     0
171
     0
290
     0
174
     0
 93
        1
 44
0.0
173
     0
291
     0
 45
0.0
1001
ACAD
1000
AcDbSavedByObjectVersion
1070
     0
  0
VISUALSTYLE
  5
FC758
102
{ACAD_XDICTIONARY
360
FD36B
102
}
102
{ACAD_REACTORS
330
FC745
102
}
330
FC745
100
AcDbVisualStyle
  2

 70
    25
 71
     2
 72
     2
 73
     1
 90
        1
 40
0.5
 41
-30.0
 62
     5
 63
     7
 74
     1
 91
        0
 64
     7
 65
   257
 75
     1
175
     1
 42
1.0
 92
        8
 66
     7
 43
1.0
 76
     1
 77
     6
 78
     2
 67
     7
 79
     3
170
     0
171
     0
290
     0
174
     0
 93
       13
 44
0.0
173
     0
291
     0
 45
0.0
1001
ACAD
1000
AcDbSavedByObjectVersion
1070
     0
  0
DICTIONARYVAR
  5
FC842
102
{ACAD_REACTORS
330
6B9
102
}
330
6B9
100
DictionaryVariables
280
     0
  1
1:1
  0
DICTIONARYVAR
  5
FC83F
102
{ACAD_REACTORS
330
6B9
102
}
330
6B9
100
DictionaryVariables
280
     0
  1
STANDARD
  0
DICTIONARYVAR
  5
FC83E
102
{ACAD_REACTORS
330
6B9
102
}
330
6B9
100
DictionaryVariables
280
     0
  1
STANDARD
  0
DICTIONARYVAR
  5
FC840
102
{ACAD_REACTORS
330
6B9
102
}
330
6B9
100
DictionaryVariables
280
     0
  1
Metric50
  0
DICTIONARYVAR
  5
FC841
102
{ACAD_REACTORS
330
6B9
102
}
330
6B9
100
DictionaryVariables
280
     0
  1
Metric50
  0
DICTIONARYVAR
  5
F4248
102
{ACAD_REACTORS
330
6B9
102
}
330
6B9
100
DictionaryVariables
280
     0
  1
1
  0
DICTIONARYVAR
  5
F4247
102
{ACAD_REACTORS
330
6B9
102
}
330
6B9
100
DictionaryVariables
280
     0
  1
0
  0
DICTIONARYVAR
  5
F4249
102
{ACAD_REACTORS
330
6B9
102
}
330
6B9
100
DictionaryVariables
280
     0
  1

  0
DICTIONARYVAR
  5
6BA
102
{ACAD_REACTORS
330
6B9
102
}
330
6B9
100
DictionaryVariables
280
     0
  1
96
  0
DICTIONARYVAR
  5
FD33C
102
{ACAD_REACTORS
330
6B9
102
}
330
6B9
100
DictionaryVariables
280
     0
  1
2
  0
DICTIONARY
  5
FD346
102
{ACAD_REACTORS
330
FD344
102
}
330
FD344
100
AcDbDictionary
281
     1
  0
DICTIONARY
  5
FD345
102
{ACAD_REACTORS
330
FD344
102
}
330
FD344
100
AcDbDictionary
281
     1
  3
8796088054256
350
FD33F
  3
8796088054272
350
FD340
  3
8796088054288
350
FD341
  3
8796088054304
350
FD342
  3
8796088054320
350
FD343
  0
DICTIONARY
  5
16D3E
102
{ACAD_REACTORS
330
16D31
102
}
330
16D31
100
AcDbDictionary
281
     1
  0
XRECORD
  5
16DB5
102
{ACAD_REACTORS
330
16D31
102
}
330
16D31
100
AcDbXrecord
280
     1
 90
-1023410169
  0
XRECORD
  5
F4A77
102
{ACAD_REACTORS
330
F4A75
102
}
330
F4A75
100
AcDbXrecord
280
     1
330
0
330
0
330
0
330
0
330
0
330
0
330
0
330
0
330
0
  0
XRECORD
  5
F82D2
102
{ACAD_REACTORS
330
F82BE
102
}
330
F82BE
100
AcDbXrecord
280
     1
 91
      484
330
4C
 90
        8
 62
     2
370
    40
331
16
  1
色_2
330
30
 90
        8
 62
    30
370
     9
331
F3ACE
  1
色_30
330
3AE4
 90
        8
 62
   123
370
     9
331
3AE3
  1
色_123
330
F3AD3
 90
        8
 62
   233
370
     9
331
16CF6
  1
色_233
330
33
 90
        8
 62
     8
370
     9
331
16
  1
色_8
330
86CB
 90
        8
 62
     7
370
    20
331
16
  1
色_7
330
86C9
 90
        8
 62
     4
370
    15
331
16
  1
色_4
330
86C8
 90
        8
 62
   173
370
     9
331
16
  1
色_173
420
-1034792193
330
86CC
 90
        8
 62
     1
370
     5
331
16
  1
色_1
330
548
 90
        0
 62
     6
370
    -3
331
16
  1
色_6
330
86FE
 90
        8
 62
   241
370
     5
331
58DA
  1
色_241
330
54
 90
        0
 62
     7
370
    -3
331
16
  1
色_7
330
F61AE
 90
        0
 62
     1
370
    25
331
16
  1
色_1
330
10
 90
        8
 62
     7
370
    20
331
16
  1
色_7
  0
XRECORD
  5
F82BF
102
{ACAD_REACTORS
330
F82BE
102
}
330
F82BE
100
AcDbXrecord
280
     1
 91
      484
330
4C
 90
        8
 62
     2
370
    40
331
16
  1
色_2
330
30
 90
        8
 62
    30
370
     9
331
F3ACE
  1
色_30
330
3AE4
 90
        8
 62
   123
370
     9
331
3AE3
  1
色_123
330
F3AD3
 90
        8
 62
   233
370
     9
331
16CF6
  1
色_233
330
33
 90
        8
 62
     8
370
     9
331
16
  1
色_8
330
86C8
 90
        8
 62
   173
370
     5
331
16
  1
色_173
420
-1034792193
330
548
 90
        0
 62
     6
370
    -3
331
16
  1
色_6
330
86FE
 90
        8
 62
   241
370
     5
331
58DA
  1
色_241
330
86CC
 90
        8
 62
     1
370
     9
331
16
  1
色_1
330
86CB
 90
        8
 62
     5
370
    20
331
16
  1
色_5
330
86C9
 90
        8
 62
     4
370
    15
331
16
  1
色_4
330
54
 90
        0
 62
     7
370
    -3
331
16
  1
色_7
330
F61AE
 90
        0
 62
     1
370
    25
331
16
  1
色_1
330
10
 90
        8
 62
     7
370
    20
331
16
  1
色_7
  0
DICTIONARY
  5
FD37C
330
FC777
100
AcDbDictionary
280
     1
281
     1
  3
ACAD_XREC_ROUNDTRIP
360
FD37D
  0
DICTIONARY
  5
FC736
330
FC735
100
AcDbDictionary
280
     1
281
     1
  3
ACAD_XREC_ROUNDTRIP
360
FCA26
  3
BUMPTILE
360
FC738
  3
DIFFUSETILE
360
FC737
  3
OPACITYTILE
360
FC73B
  3
REFLECTIONTILE
360
FC73A
  3
REFRACTIONTILE
360
FC73C
  3
SPECULARTILE
360
FC739
  0
DICTIONARY
  5
FC72E
330
FC72D
100
AcDbDictionary
280
     1
281
     1
  3
ACAD_XREC_ROUNDTRIP
360
FCA25
  3
BUMPTILE
360
FC730
  3
DIFFUSETILE
360
FC72F
  3
OPACITYTILE
360
FC733
  3
REFLECTIONTILE
360
FC732
  3
REFRACTIONTILE
360
FC734
  3
SPECULARTILE
360
FC731
  0
DICTIONARY
  5
FC73E
330
FC73D
100
AcDbDictionary
280
     1
281
     1
  3
ACAD_XREC_ROUNDTRIP
360
FCA27
  3
BUMPTILE
360
FC740
  3
DIFFUSETILE
360
FC73F
  3
OPACITYTILE
360
FC743
  3
REFLECTIONTILE
360
FC742
  3
REFRACTIONTILE
360
FC744
  3
SPECULARTILE
360
FC741
  0
DICTIONARY
  5
FD378
330
FC773
100
AcDbDictionary
280
     1
281
     1
  3
ACAD_XREC_ROUNDTRIP
360
FD379
  0
DICTIONARY
  5
FD37A
330
FC775
100
AcDbDictionary
280
     1
281
     1
  3
ACAD_XREC_ROUNDTRIP
360
FD37B
  0
DICTIONARY
  5
FC7E5
330
FC75F
100
AcDbDictionary
280
     1
281
     1
  3
ACAD_ROUNDTRIP_2008_TABLESTYLE_CELLSTYLEMAP
360
FD33D
  3
ACAD_XREC_ROUNDTRIP
360
FD377
  0
DICTIONARY
  5
FD351
330
FC74B
100
AcDbDictionary
280
     1
281
     1
  3
ACAD_XREC_ROUNDTRIP
360
FD352
  0
DICTIONARY
  5
FD34F
330
FC74A
100
AcDbDictionary
280
     1
281
     1
  3
ACAD_XREC_ROUNDTRIP
360
FD350
  0
DICTIONARY
  5
FD35D
330
FC751
100
AcDbDictionary
280
     1
281
     1
  3
ACAD_XREC_ROUNDTRIP
360
FD35E
  0
DICTIONARY
  5
FD365
330
FC755
100
AcDbDictionary
280
     1
281
     1
  3
ACAD_XREC_ROUNDTRIP
360
FD366
  0
DICTIONARY
  5
FD357
330
FC74E
100
AcDbDictionary
280
     1
281
     1
  3
ACAD_XREC_ROUNDTRIP
360
FD358
  0
DICTIONARY
  5
FD35B
330
FC750
100
AcDbDictionary
280
     1
281
     1
  3
ACAD_XREC_ROUNDTRIP
360
FD35C
  0
DICTIONARY
  5
FD375
330
FC75D
100
AcDbDictionary
280
     1
281
     1
  3
ACAD_XREC_ROUNDTRIP
360
FD376
  0
DICTIONARY
  5
FD363
330
FC754
100
AcDbDictionary
280
     1
281
     1
  3
ACAD_XREC_ROUNDTRIP
360
FD364
  0
DICTIONARY
  5
FD347
330
FC746
100
AcDbDictionary
280
     1
281
     1
  3
ACAD_XREC_ROUNDTRIP
360
FD348
  0
DICTIONARY
  5
FD349
330
FC747
100
AcDbDictionary
280
     1
281
     1
  3
ACAD_XREC_ROUNDTRIP
360
FD34A
  0
DICTIONARY
  5
FD34B
330
FC748
100
AcDbDictionary
280
     1
281
     1
  3
ACAD_XREC_ROUNDTRIP
360
FD34C
  0
DICTIONARY
  5
FD34D
330
FC749
100
AcDbDictionary
280
     1
281
     1
  3
ACAD_XREC_ROUNDTRIP
360
FD34E
  0
DICTIONARY
  5
FD355
330
FC74D
100
AcDbDictionary
280
     1
281
     1
  3
ACAD_XREC_ROUNDTRIP
360
FD356
  0
DICTIONARY
  5
FD371
330
FC75B
100
AcDbDictionary
280
     1
281
     1
  3
ACAD_XREC_ROUNDTRIP
360
FD372
  0
DICTIONARY
  5
FD361
330
FC753
100
AcDbDictionary
280
     1
281
     1
  3
ACAD_XREC_ROUNDTRIP
360
FD362
  0
DICTIONARY
  5
FD373
330
FC75C
100
AcDbDictionary
280
     1
281
     1
  3
ACAD_XREC_ROUNDTRIP
360
FD374
  0
DICTIONARY
  5
FD359
330
FC74F
100
AcDbDictionary
280
     1
281
     1
  3
ACAD_XREC_ROUNDTRIP
360
FD35A
  0
DICTIONARY
  5
FD36F
330
FC75A
100
AcDbDictionary
280
     1
281
     1
  3
ACAD_XREC_ROUNDTRIP
360
FD370
  0
DICTIONARY
  5
FD36D
330
FC759
100
AcDbDictionary
280
     1
281
     1
  3
ACAD_XREC_ROUNDTRIP
360
FD36E
  0
DICTIONARY
  5
FD367
330
FC756
100
AcDbDictionary
280
     1
281
     1
  3
ACAD_XREC_ROUNDTRIP
360
FD368
  0
DICTIONARY
  5
FD369
330
FC757
100
AcDbDictionary
280
     1
281
     1
  3
ACAD_XREC_ROUNDTRIP
360
FD36A
  0
DICTIONARY
  5
FD35F
330
FC752
100
AcDbDictionary
280
     1
281
     1
  3
ACAD_XREC_ROUNDTRIP
360
FD360
  0
DICTIONARY
  5
FD353
330
FC74C
100
AcDbDictionary
280
     1
281
     1
  3
ACAD_XREC_ROUNDTRIP
360
FD354
  0
DICTIONARY
  5
FD36B
330
FC758
100
AcDbDictionary
280
     1
281
     1
  3
ACAD_XREC_ROUNDTRIP
360
FD36C
  0
XRECORD
  5
FD33F
102
{ACAD_REACTORS
330
FD345
102
}
330
FD345
100
AcDbXrecord
280
     1
  1
AcDb_Thumbnail_Schema
102
{ATTRRECORD
341
FD340
  2
AcDbDs::TreatedAsObjectData
280
     1
291
     1
102
ATTRRECORD}
102
{ATTRRECORD
341
FD341
  2
AcDbDs::Legacy
280
     1
291
     1
102
ATTRRECORD}
  2
AcDbDs::ID
280
    10
 91
        8
102
{ATTRRECORD
341
FD342
  2
AcDs:Indexable
280
     1
291
     1
102
ATTRRECORD}
102
{ATTRRECORD
341
FD343
  2
AcDbDs::HandleAttribute
280
     7
282
     1
102
ATTRRECORD}
  2
Thumbnail_Data
280
    15
 91
        0
  0
XRECORD
  5
FD340
102
{ACAD_REACTORS
330
FD345
102
}
330
FD345
100
AcDbXrecord
280
     1
  1
AcDbDs::TreatedAsObjectDataSchema
  2
AcDbDs::TreatedAsObjectData
280
     1
 91
        0
  0
XRECORD
  5
FD341
102
{ACAD_REACTORS
330
FD345
102
}
330
FD345
100
AcDbXrecord
280
     1
  1
AcDbDs::LegacySchema
  2
AcDbDs::Legacy
280
     1
 91
        0
  0
XRECORD
  5
FD342
102
{ACAD_REACTORS
330
FD345
102
}
330
FD345
100
AcDbXrecord
280
     1
  1
AcDbDs::IndexedPropertySchema
  2
AcDs:Indexable
280
     1
 91
        0
  0
XRECORD
  5
FD343
102
{ACAD_REACTORS
330
FD345
102
}
330
FD345
100
AcDbXrecord
280
     1
  1
AcDbDs::HandleAttributeSchema
  2
AcDbDs::HandleAttribute
280
     7
 91
        1
284
     1
  0
XRECORD
  5
FD37D
102
{ACAD_REACTORS
330
FD37C
102
}
330
FD37C
100
AcDbXrecord
280
     1
102
DISPLAYNAME
  1
Metric50
102
FLAGS
 90
        0
  0
XRECORD
  5
FCA26
102
{ACAD_REACTORS
330
FC736
102
}
330
FC736
100
AcDbXrecord
280
     1
102
MATERIAL
148
0.0
149
0.0
149
0.0
 93
        0
 94
      127
282
     0
 72
     0
 77
     0
171
     0
175
     0
179
     0
273
     0
  0
XRECORD
  5
FC738
102
{ACAD_REACTORS
330
FC736
102
}
330
FC736
100
AcDbXrecord
280
     1
270
     1
271
     1
  0
XRECORD
  5
FC737
102
{ACAD_REACTORS
330
FC736
102
}
330
FC736
100
AcDbXrecord
280
     1
270
     1
271
     1
  0
XRECORD
  5
FC73B
102
{ACAD_REACTORS
330
FC736
102
}
330
FC736
100
AcDbXrecord
280
     1
270
     1
271
     1
  0
XRECORD
  5
FC73A
102
{ACAD_REACTORS
330
FC736
102
}
330
FC736
100
AcDbXrecord
280
     1
270
     1
271
     1
  0
XRECORD
  5
FC73C
102
{ACAD_REACTORS
330
FC736
102
}
330
FC736
100
AcDbXrecord
280
     1
270
     1
271
     1
  0
XRECORD
  5
FC739
102
{ACAD_REACTORS
330
FC736
102
}
330
FC736
100
AcDbXrecord
280
     1
270
     1
271
     1
  0
XRECORD
  5
FCA25
102
{ACAD_REACTORS
330
FC72E
102
}
330
FC72E
100
AcDbXrecord
280
     1
102
MATERIAL
148
0.0
149
0.0
149
0.0
 93
        0
 94
      127
282
     0
 72
     0
 77
     0
171
     0
175
     0
179
     0
273
     0
  0
XRECORD
  5
FC730
102
{ACAD_REACTORS
330
FC72E
102
}
330
FC72E
100
AcDbXrecord
280
     1
270
     1
271
     1
  0
XRECORD
  5
FC72F
102
{ACAD_REACTORS
330
FC72E
102
}
330
FC72E
100
AcDbXrecord
280
     1
270
     1
271
     1
  0
XRECORD
  5
FC733
102
{ACAD_REACTORS
330
FC72E
102
}
330
FC72E
100
AcDbXrecord
280
     1
270
     1
271
     1
  0
XRECORD
  5
FC732
102
{ACAD_REACTORS
330
FC72E
102
}
330
FC72E
100
AcDbXrecord
280
     1
270
     1
271
     1
  0
XRECORD
  5
FC734
102
{ACAD_REACTORS
330
FC72E
102
}
330
FC72E
100
AcDbXrecord
280
     1
270
     1
271
     1
  0
XRECORD
  5
FC731
102
{ACAD_REACTORS
330
FC72E
102
}
330
FC72E
100
AcDbXrecord
280
     1
270
     1
271
     1
  0
XRECORD
  5
FCA27
102
{ACAD_REACTORS
330
FC73E
102
}
330
FC73E
100
AcDbXrecord
280
     1
102
MATERIAL
148
0.0
149
0.0
149
0.0
 93
        0
 94
      127
282
     0
 72
     0
 77
     0
171
     0
175
     0
179
     0
273
     0
  0
XRECORD
  5
FC740
102
{ACAD_REACTORS
330
FC73E
102
}
330
FC73E
100
AcDbXrecord
280
     1
270
     1
271
     1
  0
XRECORD
  5
FC73F
102
{ACAD_REACTORS
330
FC73E
102
}
330
FC73E
100
AcDbXrecord
280
     1
270
     1
271
     1
  0
XRECORD
  5
FC743
102
{ACAD_REACTORS
330
FC73E
102
}
330
FC73E
100
AcDbXrecord
280
     1
270
     1
271
     1
  0
XRECORD
  5
FC742
102
{ACAD_REACTORS
330
FC73E
102
}
330
FC73E
100
AcDbXrecord
280
     1
270
     1
271
     1
  0
XRECORD
  5
FC744
102
{ACAD_REACTORS
330
FC73E
102
}
330
FC73E
100
AcDbXrecord
280
     1
270
     1
271
     1
  0
XRECORD
  5
FC741
102
{ACAD_REACTORS
330
FC73E
102
}
330
FC73E
100
AcDbXrecord
280
     1
270
     1
271
     1
  0
XRECORD
  5
FD379
102
{ACAD_REACTORS
330
FD378
102
}
330
FD378
100
AcDbXrecord
280
     1
102
ACAD_ROUNDTRIP_2012_MLEADER_STYLE
298
     1
  0
XRECORD
  5
FD37B
102
{ACAD_REACTORS
330
FD37A
102
}
330
FD37A
100
AcDbXrecord
280
     1
102
DISPLAYNAME
  1
Metric50
102
FLAGS
 90
        0
  0
CELLSTYLEMAP
  5
FD33D
102
{ACAD_REACTORS
330
FC7E5
102
}
330
FC7E5
100
AcDbCellStyleMap
 90
        3
300
CELLSTYLE
  1
TABLEFORMAT_BEGIN
 90
        5
170
     1
 91
        0
 92
    32768
 62
   257
 93
        1
300
CONTENTFORMAT
  1
CONTENTFORMAT_BEGIN
 90
        0
 91
        0
 92
      512
 93
        0
300

 40
0.0
140
1.0
 94
        5
 62
     0
340
11
144
6.0
309
CONTENTFORMAT_END
171
     1
301
MARGIN
  1
CELLMARGIN_BEGIN
 40
1.5
 40
1.5
 40
1.5
 40
1.5
 40
0.18
 40
0.18
309
CELLMARGIN_END
 94
        6
 95
        1
302
GRIDFORMAT
  1
GRIDFORMAT_BEGIN
 90
        0
 91
        1
 62
     0
 92
       -2
340
0
 93
        0
 40
1.125
309
GRIDFORMAT_END
 95
        2
302
GRIDFORMAT
  1
GRIDFORMAT_BEGIN
 90
        0
 91
        1
 62
     0
 92
       -2
340
0
 93
        0
 40
1.125
309
GRIDFORMAT_END
 95
        4
302
GRIDFORMAT
  1
GRIDFORMAT_BEGIN
 90
        0
 91
        1
 62
     0
 92
       -2
340
0
 93
        0
 40
1.125
309
GRIDFORMAT_END
 95
        8
302
GRIDFORMAT
  1
GRIDFORMAT_BEGIN
 90
        0
 91
        1
 62
     0
 92
       -2
340
0
 93
        0
 40
1.125
309
GRIDFORMAT_END
 95
       16
302
GRIDFORMAT
  1
GRIDFORMAT_BEGIN
 90
        0
 91
        1
 62
     0
 92
       -2
340
0
 93
        0
 40
1.125
309
GRIDFORMAT_END
 95
       32
302
GRIDFORMAT
  1
GRIDFORMAT_BEGIN
 90
        0
 91
        1
 62
     0
 92
       -2
340
0
 93
        0
 40
1.125
309
GRIDFORMAT_END
309
TABLEFORMAT_END
  1
CELLSTYLE_BEGIN
 90
        1
 91
        1
300
_TITLE
309
CELLSTYLE_END
300
CELLSTYLE
  1
TABLEFORMAT_BEGIN
 90
        5
170
     1
 91
        0
 92
        0
 62
   257
 93
        1
300
CONTENTFORMAT
  1
CONTENTFORMAT_BEGIN
 90
        0
 91
        0
 92
      512
 93
        0
300

 40
0.0
140
1.0
 94
        5
 62
     0
340
11
144
4.5
309
CONTENTFORMAT_END
171
     1
301
MARGIN
  1
CELLMARGIN_BEGIN
 40
1.5
 40
1.5
 40
1.5
 40
1.5
 40
0.18
 40
0.18
309
CELLMARGIN_END
 94
        6
 95
        1
302
GRIDFORMAT
  1
GRIDFORMAT_BEGIN
 90
        0
 91
        1
 62
     0
 92
       -2
340
0
 93
        0
 40
1.125
309
GRIDFORMAT_END
 95
        2
302
GRIDFORMAT
  1
GRIDFORMAT_BEGIN
 90
        0
 91
        1
 62
     0
 92
       -2
340
0
 93
        0
 40
1.125
309
GRIDFORMAT_END
 95
        4
302
GRIDFORMAT
  1
GRIDFORMAT_BEGIN
 90
        0
 91
        1
 62
     0
 92
       -2
340
0
 93
        0
 40
1.125
309
GRIDFORMAT_END
 95
        8
302
GRIDFORMAT
  1
GRIDFORMAT_BEGIN
 90
        0
 91
        1
 62
     0
 92
       -2
340
0
 93
        0
 40
1.125
309
GRIDFORMAT_END
 95
       16
302
GRIDFORMAT
  1
GRIDFORMAT_BEGIN
 90
        0
 91
        1
 62
     0
 92
       -2
340
0
 93
        0
 40
1.125
309
GRIDFORMAT_END
 95
       32
302
GRIDFORMAT
  1
GRIDFORMAT_BEGIN
 90
        0
 91
        1
 62
     0
 92
       -2
340
0
 93
        0
 40
1.125
309
GRIDFORMAT_END
309
TABLEFORMAT_END
  1
CELLSTYLE_BEGIN
 90
        2
 91
        1
300
_HEADER
309
CELLSTYLE_END
300
CELLSTYLE
  1
TABLEFORMAT_BEGIN
 90
        5
170
     1
 91
        0
 92
        0
 62
   257
 93
        1
300
CONTENTFORMAT
  1
CONTENTFORMAT_BEGIN
 90
        0
 91
        0
 92
      512
 93
        0
300

 40
0.0
140
1.0
 94
        2
 62
     0
340
11
144
4.5
309
CONTENTFORMAT_END
171
     1
301
MARGIN
  1
CELLMARGIN_BEGIN
 40
1.5
 40
1.5
 40
1.5
 40
1.5
 40
0.18
 40
0.18
309
CELLMARGIN_END
 94
        6
 95
        1
302
GRIDFORMAT
  1
GRIDFORMAT_BEGIN
 90
        0
 91
        1
 62
     0
 92
       -2
340
0
 93
        0
 40
1.125
309
GRIDFORMAT_END
 95
        2
302
GRIDFORMAT
  1
GRIDFORMAT_BEGIN
 90
        0
 91
        1
 62
     0
 92
       -2
340
0
 93
        0
 40
1.125
309
GRIDFORMAT_END
 95
        4
302
GRIDFORMAT
  1
GRIDFORMAT_BEGIN
 90
        0
 91
        1
 62
     0
 92
       -2
340
0
 93
        0
 40
1.125
309
GRIDFORMAT_END
 95
        8
302
GRIDFORMAT
  1
GRIDFORMAT_BEGIN
 90
        0
 91
        1
 62
     0
 92
       -2
340
0
 93
        0
 40
1.125
309
GRIDFORMAT_END
 95
       16
302
GRIDFORMAT
  1
GRIDFORMAT_BEGIN
 90
        0
 91
        1
 62
     0
 92
       -2
340
0
 93
        0
 40
1.125
309
GRIDFORMAT_END
 95
       32
302
GRIDFORMAT
  1
GRIDFORMAT_BEGIN
 90
        0
 91
        1
 62
     0
 92
       -2
340
0
 93
        0
 40
1.125
309
GRIDFORMAT_END
309
TABLEFORMAT_END
  1
CELLSTYLE_BEGIN
 90
        3
 91
        2
300
_DATA
309
CELLSTYLE_END
  0
XRECORD
  5
FD377
102
{ACAD_REACTORS
330
FC7E5
102
}
330
FC7E5
100
AcDbXrecord
280
     1
102
ACAD_ROUNDTRIP_PRE2007_TABLESTYLE
 90
      512
 91
        0
  1

 92
      512
 93
        0
  2

 94
      512
 95
        0
  3

  0
XRECORD
  5
FD352
102
{ACAD_REACTORS
330
FD351
102
}
330
FD351
100
AcDbXrecord
280
     1
102
RTVSPost2010Prop28
280
     1
102
RTVSPost2010PropOp28
 70
     1
102
RTVSPost2010Prop29
280
     1
102
RTVSPost2010PropOp29
 70
     1
102
RTVSPost2010Prop30
280
     0
102
RTVSPost2010PropOp30
 70
     1
102
RTVSPost2010Prop31
280
     0
102
RTVSPost2010PropOp31
 70
     1
102
RTVSPost2010Prop32
280
     0
102
RTVSPost2010PropOp32
 70
     1
102
RTVSPost2010Prop33
280
     0
102
RTVSPost2010PropOp33
 70
     1
102
RTVSPost2010Prop34
280
     0
102
RTVSPost2010PropOp34
 70
     1
102
RTVSPost2010Prop35
280
     0
102
RTVSPost2010PropOp35
 70
     1
102
RTVSPost2010Prop36
280
     0
102
RTVSPost2010PropOp36
 70
     1
102
RTVSPost2010Prop37
 90
       50
102
RTVSPost2010PropOp37
 70
     1
102
RTVSPost2010Prop38
140
0.0
102
RTVSPost2010PropOp38
 70
     1
102
RTVSPost2010Prop39
140
1.0
102
RTVSPost2010PropOp39
 70
     1
102
RTVSPost2010Prop40
 90
        0
102
RTVSPost2010PropOp40
 70
     1
102
RTVSPost2010Prop41ColorIndex
 90
       18
102
RTVSPost2010Prop41ColorRGB
 90
        0
102
RTVSPost2010PropOp41
 70
     1
102
RTVSPost2010Prop42
 90
       50
102
RTVSPost2010PropOp42
 70
     1
102
RTVSPost2010Prop43
 90
        3
102
RTVSPost2010PropOp43
 70
     1
102
RTVSPost2010Prop44ColorIndex
 90
        5
102
RTVSPost2010Prop44ColorRGB
 90
      255
102
RTVSPost2010PropOp44
 70
     1
102
RTVSPost2010Prop45
280
     0
102
RTVSPost2010PropOp45
 70
     1
102
RTVSPost2010Prop46
 90
       50
102
RTVSPost2010PropOp46
 70
     1
102
RTVSPost2010Prop47
 90
       50
102
RTVSPost2010PropOp47
 70
     1
102
RTVSPost2010Prop48
 90
       50
102
RTVSPost2010PropOp48
 70
     1
102
RTVSPost2010Prop49
280
     0
102
RTVSPost2010PropOp49
 70
     1
102
RTVSPost2010Prop50
 90
       50
102
RTVSPost2010PropOp50
 70
     1
102
RTVSPost2010Prop51ColorIndex
 90
      256
102
RTVSPost2010Prop51ColorRGB
 90
-16777216
102
RTVSPost2010PropOp51
 70
     0
102
RTVSPost2010Prop52
140
1.0
102
RTVSPost2010PropOp52
 70
     0
102
RTVSPost2010Prop53
 90
        2
102
RTVSPost2010PropOp53
 70
     1
102
RTVSPost2010Prop54
  1
strokes_ogs.tif
102
RTVSPost2010PropOp54
 70
     1
102
RTVSPost2010Prop55
280
     0
102
RTVSPost2010PropOp55
 70
     1
102
RTVSPost2010Prop56
140
1.0
102
RTVSPost2010PropOp56
 70
     1
102
RTVSPost2010Prop57
140
1.0
102
RTVSPost2010PropOp57
 70
     1
102
RTVSPropertyOp0
 70
     1
102
RTVSPropertyOp1
 70
     1
102
RTVSPropertyOp2
 70
     1
102
RTVSPropertyOp3
 70
     1
102
RTVSPropertyOp4
 70
     1
102
RTVSPropertyOp5
 70
     1
102
RTVSPropertyOp6
 70
     1
102
RTVSPropertyOp7
 70
     1
102
RTVSPropertyOp8
 70
     1
102
RTVSPropertyOp9
 70
     1
102
RTVSPropertyOp10
 70
     1
102
RTVSPropertyOp11
 70
     1
102
RTVSPropertyOp12
 70
     1
102
RTVSPropertyOp13
 70
     1
102
RTVSPropertyOp14
 70
     1
102
RTVSPropertyOp15
 70
     1
102
RTVSPropertyOp16
 70
     1
102
RTVSPropertyOp17
 70
     1
102
RTVSPropertyOp18
 70
     1
102
RTVSPropertyOp19
 70
     1
102
RTVSPropertyOp20
 70
     1
102
RTVSPropertyOp21
 70
     1
102
RTVSPropertyOp22
 70
     1
102
RTVSPropertyOp23
 70
     1
102
RTVSPropertyOp24
 70
     1
102
RTVSPropertyOp25
 70
     1
102
RTVSPropertyOp26
 70
     1
102
RTVSPropertyOp27
 70
     1
102
RTVSPropertyOp28
 70
     1
102
RTVSPropertyOp29
 70
     1
102
RTVSPropertyOp30
 70
     1
102
RTVSPropertyOp31
 70
     1
102
RTVSPropertyOp32
 70
     1
102
RTVSPropertyOp33
 70
     1
102
RTVSPropertyOp34
 70
     1
102
RTVSPropertyOp35
 70
     1
102
RTVSPropertyOp36
 70
     1
102
RTVSPropertyOp37
 70
     1
102
RTVSPropertyOp38
 70
     1
102
RTVSPropertyOp39
 70
     1
102
RTVSPropertyOp40
 70
     1
102
RTVSPropertyOp41
 70
     1
102
RTVSPropertyOp42
 70
     1
102
RTVSPropertyOp43
 70
     1
102
RTVSPropertyOp44
 70
     1
102
RTVSPropertyOp45
 70
     1
102
RTVSPropertyOp46
 70
     1
102
RTVSPropertyOp47
 70
     1
102
RTVSPropertyOp48
 70
     1
102
RTVSPropertyOp49
 70
     1
102
RTVSPropertyOp50
 70
     1
102
RTVSPropertyOp51
 70
     0
102
RTVSPropertyOp52
 70
     0
102
RTVSPropertyOp53
 70
     1
102
RTVSPropertyOp54
 70
     1
102
RTVSPropertyOp55
 70
     1
102
RTVSPropertyOp56
 70
     1
102
RTVSPropertyOp57
 70
     1
102
RTVSPropertyOp58
 70
     1
102
RTVSPropertyOp59
 70
     1
102
RTVSPropertyOp60
 70
     1
102
RTVSPropertyOp61
 70
     1
102
RTVSPropertyOp62
 70
     1
  0
XRECORD
  5
FD350
102
{ACAD_REACTORS
330
FD34F
102
}
330
FD34F
100
AcDbXrecord
280
     1
102
RTVSPost2010Prop28
280
     0
102
RTVSPost2010PropOp28
 70
     1
102
RTVSPost2010Prop29
280
     1
102
RTVSPost2010PropOp29
 70
     1
102
RTVSPost2010Prop30
280
     1
102
RTVSPost2010PropOp30
 70
     1
102
RTVSPost2010Prop31
280
     0
102
RTVSPost2010PropOp31
 70
     1
102
RTVSPost2010Prop32
280
     0
102
RTVSPost2010PropOp32
 70
     1
102
RTVSPost2010Prop33
280
     0
102
RTVSPost2010PropOp33
 70
     1
102
RTVSPost2010Prop34
280
     0
102
RTVSPost2010PropOp34
 70
     1
102
RTVSPost2010Prop35
280
     0
102
RTVSPost2010PropOp35
 70
     1
102
RTVSPost2010Prop36
280
     0
102
RTVSPost2010PropOp36
 70
     1
102
RTVSPost2010Prop37
 90
       50
102
RTVSPost2010PropOp37
 70
     1
102
RTVSPost2010Prop38
140
0.0
102
RTVSPost2010PropOp38
 70
     1
102
RTVSPost2010Prop39
140
1.0
102
RTVSPost2010PropOp39
 70
     1
102
RTVSPost2010Prop40
 90
        0
102
RTVSPost2010PropOp40
 70
     1
102
RTVSPost2010Prop41ColorIndex
 90
       18
102
RTVSPost2010Prop41ColorRGB
 90
        0
102
RTVSPost2010PropOp41
 70
     1
102
RTVSPost2010Prop42
 90
       50
102
RTVSPost2010PropOp42
 70
     1
102
RTVSPost2010Prop43
 90
        3
102
RTVSPost2010PropOp43
 70
     1
102
RTVSPost2010Prop44ColorIndex
 90
        5
102
RTVSPost2010Prop44ColorRGB
 90
      255
102
RTVSPost2010PropOp44
 70
     1
102
RTVSPost2010Prop45
280
     0
102
RTVSPost2010PropOp45
 70
     1
102
RTVSPost2010Prop46
 90
       50
102
RTVSPost2010PropOp46
 70
     1
102
RTVSPost2010Prop47
 90
       50
102
RTVSPost2010PropOp47
 70
     1
102
RTVSPost2010Prop48
 90
       50
102
RTVSPost2010PropOp48
 70
     1
102
RTVSPost2010Prop49
280
     0
102
RTVSPost2010PropOp49
 70
     1
102
RTVSPost2010Prop50
 90
       50
102
RTVSPost2010PropOp50
 70
     1
102
RTVSPost2010Prop51ColorIndex
 90
      256
102
RTVSPost2010Prop51ColorRGB
 90
-16777216
102
RTVSPost2010PropOp51
 70
     0
102
RTVSPost2010Prop52
140
1.0
102
RTVSPost2010PropOp52
 70
     0
102
RTVSPost2010Prop53
 90
        2
102
RTVSPost2010PropOp53
 70
     1
102
RTVSPost2010Prop54
  1
strokes_ogs.tif
102
RTVSPost2010PropOp54
 70
     1
102
RTVSPost2010Prop55
280
     0
102
RTVSPost2010PropOp55
 70
     1
102
RTVSPost2010Prop56
140
1.0
102
RTVSPost2010PropOp56
 70
     1
102
RTVSPost2010Prop57
140
1.0
102
RTVSPost2010PropOp57
 70
     1
102
RTVSPropertyOp0
 70
     1
102
RTVSPropertyOp1
 70
     1
102
RTVSPropertyOp2
 70
     1
102
RTVSPropertyOp3
 70
     1
102
RTVSPropertyOp4
 70
     1
102
RTVSPropertyOp5
 70
     1
102
RTVSPropertyOp6
 70
     1
102
RTVSPropertyOp7
 70
     1
102
RTVSPropertyOp8
 70
     1
102
RTVSPropertyOp9
 70
     1
102
RTVSPropertyOp10
 70
     1
102
RTVSPropertyOp11
 70
     1
102
RTVSPropertyOp12
 70
     1
102
RTVSPropertyOp13
 70
     1
102
RTVSPropertyOp14
 70
     1
102
RTVSPropertyOp15
 70
     1
102
RTVSPropertyOp16
 70
     1
102
RTVSPropertyOp17
 70
     1
102
RTVSPropertyOp18
 70
     1
102
RTVSPropertyOp19
 70
     1
102
RTVSPropertyOp20
 70
     1
102
RTVSPropertyOp21
 70
     1
102
RTVSPropertyOp22
 70
     1
102
RTVSPropertyOp23
 70
     1
102
RTVSPropertyOp24
 70
     1
102
RTVSPropertyOp25
 70
     1
102
RTVSPropertyOp26
 70
     1
102
RTVSPropertyOp27
 70
     1
102
RTVSPropertyOp28
 70
     1
102
RTVSPropertyOp29
 70
     1
102
RTVSPropertyOp30
 70
     1
102
RTVSPropertyOp31
 70
     1
102
RTVSPropertyOp32
 70
     1
102
RTVSPropertyOp33
 70
     1
102
RTVSPropertyOp34
 70
     1
102
RTVSPropertyOp35
 70
     1
102
RTVSPropertyOp36
 70
     1
102
RTVSPropertyOp37
 70
     1
102
RTVSPropertyOp38
 70
     1
102
RTVSPropertyOp39
 70
     1
102
RTVSPropertyOp40
 70
     1
102
RTVSPropertyOp41
 70
     1
102
RTVSPropertyOp42
 70
     1
102
RTVSPropertyOp43
 70
     1
102
RTVSPropertyOp44
 70
     1
102
RTVSPropertyOp45
 70
     1
102
RTVSPropertyOp46
 70
     1
102
RTVSPropertyOp47
 70
     1
102
RTVSPropertyOp48
 70
     1
102
RTVSPropertyOp49
 70
     1
102
RTVSPropertyOp50
 70
     1
102
RTVSPropertyOp51
 70
     0
102
RTVSPropertyOp52
 70
     0
102
RTVSPropertyOp53
 70
     1
102
RTVSPropertyOp54
 70
     1
102
RTVSPropertyOp55
 70
     1
102
RTVSPropertyOp56
 70
     1
102
RTVSPropertyOp57
 70
     1
102
RTVSPropertyOp58
 70
     1
102
RTVSPropertyOp59
 70
     1
102
RTVSPropertyOp60
 70
     1
102
RTVSPropertyOp61
 70
     1
102
RTVSPropertyOp62
 70
     1
  0
XRECORD
  5
FD35E
102
{ACAD_REACTORS
330
FD35D
102
}
330
FD35D
100
AcDbXrecord
280
     1
102
RTVSPost2010Prop28
280
     0
102
RTVSPost2010PropOp28
 70
     1
102
RTVSPost2010Prop29
280
     1
102
RTVSPost2010PropOp29
 70
     1
102
RTVSPost2010Prop30
280
     1
102
RTVSPost2010PropOp30
 70
     1
102
RTVSPost2010Prop31
280
     0
102
RTVSPost2010PropOp31
 70
     1
102
RTVSPost2010Prop32
280
     0
102
RTVSPost2010PropOp32
 70
     1
102
RTVSPost2010Prop33
280
     0
102
RTVSPost2010PropOp33
 70
     1
102
RTVSPost2010Prop34
280
     0
102
RTVSPost2010PropOp34
 70
     1
102
RTVSPost2010Prop35
280
     0
102
RTVSPost2010PropOp35
 70
     1
102
RTVSPost2010Prop36
280
     0
102
RTVSPost2010PropOp36
 70
     1
102
RTVSPost2010Prop37
 90
       50
102
RTVSPost2010PropOp37
 70
     1
102
RTVSPost2010Prop38
140
0.0
102
RTVSPost2010PropOp38
 70
     1
102
RTVSPost2010Prop39
140
1.0
102
RTVSPost2010PropOp39
 70
     1
102
RTVSPost2010Prop40
 90
        0
102
RTVSPost2010PropOp40
 70
     1
102
RTVSPost2010Prop41ColorIndex
 90
       18
102
RTVSPost2010Prop41ColorRGB
 90
        0
102
RTVSPost2010PropOp41
 70
     1
102
RTVSPost2010Prop42
 90
       50
102
RTVSPost2010PropOp42
 70
     1
102
RTVSPost2010Prop43
 90
        3
102
RTVSPost2010PropOp43
 70
     1
102
RTVSPost2010Prop44ColorIndex
 90
        5
102
RTVSPost2010Prop44ColorRGB
 90
      255
102
RTVSPost2010PropOp44
 70
     1
102
RTVSPost2010Prop45
280
     0
102
RTVSPost2010PropOp45
 70
     1
102
RTVSPost2010Prop46
 90
       50
102
RTVSPost2010PropOp46
 70
     1
102
RTVSPost2010Prop47
 90
       50
102
RTVSPost2010PropOp47
 70
     1
102
RTVSPost2010Prop48
 90
       50
102
RTVSPost2010PropOp48
 70
     1
102
RTVSPost2010Prop49
280
     0
102
RTVSPost2010PropOp49
 70
     1
102
RTVSPost2010Prop50
 90
       50
102
RTVSPost2010PropOp50
 70
     1
102
RTVSPost2010Prop51ColorIndex
 90
      256
102
RTVSPost2010Prop51ColorRGB
 90
-16777216
102
RTVSPost2010PropOp51
 70
     0
102
RTVSPost2010Prop52
140
1.0
102
RTVSPost2010PropOp52
 70
     0
102
RTVSPost2010Prop53
 90
        2
102
RTVSPost2010PropOp53
 70
     1
102
RTVSPost2010Prop54
  1
strokes_ogs.tif
102
RTVSPost2010PropOp54
 70
     1
102
RTVSPost2010Prop55
280
     0
102
RTVSPost2010PropOp55
 70
     1
102
RTVSPost2010Prop56
140
1.0
102
RTVSPost2010PropOp56
 70
     1
102
RTVSPost2010Prop57
140
1.0
102
RTVSPost2010PropOp57
 70
     1
102
RTVSPropertyOp0
 70
     1
102
RTVSPropertyOp1
 70
     1
102
RTVSPropertyOp2
 70
     1
102
RTVSPropertyOp3
 70
     1
102
RTVSPropertyOp4
 70
     1
102
RTVSPropertyOp5
 70
     1
102
RTVSPropertyOp6
 70
     1
102
RTVSPropertyOp7
 70
     1
102
RTVSPropertyOp8
 70
     1
102
RTVSPropertyOp9
 70
     1
102
RTVSPropertyOp10
 70
     1
102
RTVSPropertyOp11
 70
     1
102
RTVSPropertyOp12
 70
     1
102
RTVSPropertyOp13
 70
     1
102
RTVSPropertyOp14
 70
     1
102
RTVSPropertyOp15
 70
     1
102
RTVSPropertyOp16
 70
     1
102
RTVSPropertyOp17
 70
     1
102
RTVSPropertyOp18
 70
     1
102
RTVSPropertyOp19
 70
     1
102
RTVSPropertyOp20
 70
     1
102
RTVSPropertyOp21
 70
     1
102
RTVSPropertyOp22
 70
     1
102
RTVSPropertyOp23
 70
     1
102
RTVSPropertyOp24
 70
     1
102
RTVSPropertyOp25
 70
     1
102
RTVSPropertyOp26
 70
     1
102
RTVSPropertyOp27
 70
     1
102
RTVSPropertyOp28
 70
     1
102
RTVSPropertyOp29
 70
     1
102
RTVSPropertyOp30
 70
     1
102
RTVSPropertyOp31
 70
     1
102
RTVSPropertyOp32
 70
     1
102
RTVSPropertyOp33
 70
     1
102
RTVSPropertyOp34
 70
     1
102
RTVSPropertyOp35
 70
     1
102
RTVSPropertyOp36
 70
     1
102
RTVSPropertyOp37
 70
     1
102
RTVSPropertyOp38
 70
     1
102
RTVSPropertyOp39
 70
     1
102
RTVSPropertyOp40
 70
     1
102
RTVSPropertyOp41
 70
     1
102
RTVSPropertyOp42
 70
     1
102
RTVSPropertyOp43
 70
     1
102
RTVSPropertyOp44
 70
     1
102
RTVSPropertyOp45
 70
     1
102
RTVSPropertyOp46
 70
     1
102
RTVSPropertyOp47
 70
     1
102
RTVSPropertyOp48
 70
     1
102
RTVSPropertyOp49
 70
     1
102
RTVSPropertyOp50
 70
     1
102
RTVSPropertyOp51
 70
     0
102
RTVSPropertyOp52
 70
     0
102
RTVSPropertyOp53
 70
     1
102
RTVSPropertyOp54
 70
     1
102
RTVSPropertyOp55
 70
     1
102
RTVSPropertyOp56
 70
     1
102
RTVSPropertyOp57
 70
     1
102
RTVSPropertyOp58
 70
     1
102
RTVSPropertyOp59
 70
     1
102
RTVSPropertyOp60
 70
     1
102
RTVSPropertyOp61
 70
     1
102
RTVSPropertyOp62
 70
     1
  0
XRECORD
  5
FD366
102
{ACAD_REACTORS
330
FD365
102
}
330
FD365
100
AcDbXrecord
280
     1
102
RTVSPost2010Prop28
280
     0
102
RTVSPost2010PropOp28
 70
     1
102
RTVSPost2010Prop29
280
     1
102
RTVSPost2010PropOp29
 70
     1
102
RTVSPost2010Prop30
280
     1
102
RTVSPost2010PropOp30
 70
     1
102
RTVSPost2010Prop31
280
     0
102
RTVSPost2010PropOp31
 70
     1
102
RTVSPost2010Prop32
280
     0
102
RTVSPost2010PropOp32
 70
     1
102
RTVSPost2010Prop33
280
     0
102
RTVSPost2010PropOp33
 70
     1
102
RTVSPost2010Prop34
280
     0
102
RTVSPost2010PropOp34
 70
     1
102
RTVSPost2010Prop35
280
     0
102
RTVSPost2010PropOp35
 70
     1
102
RTVSPost2010Prop36
280
     0
102
RTVSPost2010PropOp36
 70
     1
102
RTVSPost2010Prop37
 90
       50
102
RTVSPost2010PropOp37
 70
     1
102
RTVSPost2010Prop38
140
0.0
102
RTVSPost2010PropOp38
 70
     1
102
RTVSPost2010Prop39
140
1.0
102
RTVSPost2010PropOp39
 70
     1
102
RTVSPost2010Prop40
 90
        0
102
RTVSPost2010PropOp40
 70
     1
102
RTVSPost2010Prop41ColorIndex
 90
       18
102
RTVSPost2010Prop41ColorRGB
 90
        0
102
RTVSPost2010PropOp41
 70
     1
102
RTVSPost2010Prop42
 90
       50
102
RTVSPost2010PropOp42
 70
     1
102
RTVSPost2010Prop43
 90
        3
102
RTVSPost2010PropOp43
 70
     1
102
RTVSPost2010Prop44ColorIndex
 90
        5
102
RTVSPost2010Prop44ColorRGB
 90
      255
102
RTVSPost2010PropOp44
 70
     1
102
RTVSPost2010Prop45
280
     0
102
RTVSPost2010PropOp45
 70
     1
102
RTVSPost2010Prop46
 90
       50
102
RTVSPost2010PropOp46
 70
     1
102
RTVSPost2010Prop47
 90
       50
102
RTVSPost2010PropOp47
 70
     1
102
RTVSPost2010Prop48
 90
       50
102
RTVSPost2010PropOp48
 70
     1
102
RTVSPost2010Prop49
280
     0
102
RTVSPost2010PropOp49
 70
     1
102
RTVSPost2010Prop50
 90
       50
102
RTVSPost2010PropOp50
 70
     1
102
RTVSPost2010Prop51ColorIndex
 90
      256
102
RTVSPost2010Prop51ColorRGB
 90
-16777216
102
RTVSPost2010PropOp51
 70
     0
102
RTVSPost2010Prop52
140
1.0
102
RTVSPost2010PropOp52
 70
     0
102
RTVSPost2010Prop53
 90
        2
102
RTVSPost2010PropOp53
 70
     1
102
RTVSPost2010Prop54
  1
strokes_ogs.tif
102
RTVSPost2010PropOp54
 70
     1
102
RTVSPost2010Prop55
280
     0
102
RTVSPost2010PropOp55
 70
     1
102
RTVSPost2010Prop56
140
1.0
102
RTVSPost2010PropOp56
 70
     1
102
RTVSPost2010Prop57
140
1.0
102
RTVSPost2010PropOp57
 70
     1
102
RTVSPropertyOp0
 70
     1
102
RTVSPropertyOp1
 70
     1
102
RTVSPropertyOp2
 70
     1
102
RTVSPropertyOp3
 70
     1
102
RTVSPropertyOp4
 70
     1
102
RTVSPropertyOp5
 70
     1
102
RTVSPropertyOp6
 70
     1
102
RTVSPropertyOp7
 70
     1
102
RTVSPropertyOp8
 70
     1
102
RTVSPropertyOp9
 70
     1
102
RTVSPropertyOp10
 70
     1
102
RTVSPropertyOp11
 70
     1
102
RTVSPropertyOp12
 70
     1
102
RTVSPropertyOp13
 70
     1
102
RTVSPropertyOp14
 70
     1
102
RTVSPropertyOp15
 70
     1
102
RTVSPropertyOp16
 70
     1
102
RTVSPropertyOp17
 70
     1
102
RTVSPropertyOp18
 70
     1
102
RTVSPropertyOp19
 70
     1
102
RTVSPropertyOp20
 70
     1
102
RTVSPropertyOp21
 70
     1
102
RTVSPropertyOp22
 70
     1
102
RTVSPropertyOp23
 70
     1
102
RTVSPropertyOp24
 70
     1
102
RTVSPropertyOp25
 70
     1
102
RTVSPropertyOp26
 70
     1
102
RTVSPropertyOp27
 70
     1
102
RTVSPropertyOp28
 70
     1
102
RTVSPropertyOp29
 70
     1
102
RTVSPropertyOp30
 70
     1
102
RTVSPropertyOp31
 70
     1
102
RTVSPropertyOp32
 70
     1
102
RTVSPropertyOp33
 70
     1
102
RTVSPropertyOp34
 70
     1
102
RTVSPropertyOp35
 70
     1
102
RTVSPropertyOp36
 70
     1
102
RTVSPropertyOp37
 70
     1
102
RTVSPropertyOp38
 70
     1
102
RTVSPropertyOp39
 70
     1
102
RTVSPropertyOp40
 70
     1
102
RTVSPropertyOp41
 70
     1
102
RTVSPropertyOp42
 70
     1
102
RTVSPropertyOp43
 70
     1
102
RTVSPropertyOp44
 70
     1
102
RTVSPropertyOp45
 70
     1
102
RTVSPropertyOp46
 70
     1
102
RTVSPropertyOp47
 70
     1
102
RTVSPropertyOp48
 70
     1
102
RTVSPropertyOp49
 70
     1
102
RTVSPropertyOp50
 70
     1
102
RTVSPropertyOp51
 70
     0
102
RTVSPropertyOp52
 70
     0
102
RTVSPropertyOp53
 70
     1
102
RTVSPropertyOp54
 70
     1
102
RTVSPropertyOp55
 70
     1
102
RTVSPropertyOp56
 70
     1
102
RTVSPropertyOp57
 70
     1
102
RTVSPropertyOp58
 70
     1
102
RTVSPropertyOp59
 70
     1
102
RTVSPropertyOp60
 70
     1
102
RTVSPropertyOp61
 70
     1
102
RTVSPropertyOp62
 70
     1
  0
XRECORD
  5
FD358
102
{ACAD_REACTORS
330
FD357
102
}
330
FD357
100
AcDbXrecord
280
     1
102
RTVSPost2010Prop28
280
     0
102
RTVSPost2010PropOp28
 70
     1
102
RTVSPost2010Prop29
280
     1
102
RTVSPost2010PropOp29
 70
     1
102
RTVSPost2010Prop30
280
     1
102
RTVSPost2010PropOp30
 70
     1
102
RTVSPost2010Prop31
280
     0
102
RTVSPost2010PropOp31
 70
     1
102
RTVSPost2010Prop32
280
     0
102
RTVSPost2010PropOp32
 70
     1
102
RTVSPost2010Prop33
280
     0
102
RTVSPost2010PropOp33
 70
     1
102
RTVSPost2010Prop34
280
     0
102
RTVSPost2010PropOp34
 70
     1
102
RTVSPost2010Prop35
280
     0
102
RTVSPost2010PropOp35
 70
     1
102
RTVSPost2010Prop36
280
     0
102
RTVSPost2010PropOp36
 70
     1
102
RTVSPost2010Prop37
 90
       50
102
RTVSPost2010PropOp37
 70
     1
102
RTVSPost2010Prop38
140
0.0
102
RTVSPost2010PropOp38
 70
     1
102
RTVSPost2010Prop39
140
1.0
102
RTVSPost2010PropOp39
 70
     1
102
RTVSPost2010Prop40
 90
        0
102
RTVSPost2010PropOp40
 70
     1
102
RTVSPost2010Prop41ColorIndex
 90
       18
102
RTVSPost2010Prop41ColorRGB
 90
        0
102
RTVSPost2010PropOp41
 70
     1
102
RTVSPost2010Prop42
 90
       50
102
RTVSPost2010PropOp42
 70
     1
102
RTVSPost2010Prop43
 90
        3
102
RTVSPost2010PropOp43
 70
     1
102
RTVSPost2010Prop44ColorIndex
 90
        5
102
RTVSPost2010Prop44ColorRGB
 90
      255
102
RTVSPost2010PropOp44
 70
     1
102
RTVSPost2010Prop45
280
     0
102
RTVSPost2010PropOp45
 70
     1
102
RTVSPost2010Prop46
 90
       50
102
RTVSPost2010PropOp46
 70
     1
102
RTVSPost2010Prop47
 90
       50
102
RTVSPost2010PropOp47
 70
     1
102
RTVSPost2010Prop48
 90
       50
102
RTVSPost2010PropOp48
 70
     1
102
RTVSPost2010Prop49
280
     0
102
RTVSPost2010PropOp49
 70
     1
102
RTVSPost2010Prop50
 90
       50
102
RTVSPost2010PropOp50
 70
     1
102
RTVSPost2010Prop51ColorIndex
 90
      256
102
RTVSPost2010Prop51ColorRGB
 90
-16777216
102
RTVSPost2010PropOp51
 70
     0
102
RTVSPost2010Prop52
140
1.0
102
RTVSPost2010PropOp52
 70
     0
102
RTVSPost2010Prop53
 90
        2
102
RTVSPost2010PropOp53
 70
     1
102
RTVSPost2010Prop54
  1
strokes_ogs.tif
102
RTVSPost2010PropOp54
 70
     1
102
RTVSPost2010Prop55
280
     0
102
RTVSPost2010PropOp55
 70
     1
102
RTVSPost2010Prop56
140
1.0
102
RTVSPost2010PropOp56
 70
     1
102
RTVSPost2010Prop57
140
1.0
102
RTVSPost2010PropOp57
 70
     1
102
RTVSPropertyOp0
 70
     1
102
RTVSPropertyOp1
 70
     1
102
RTVSPropertyOp2
 70
     1
102
RTVSPropertyOp3
 70
     1
102
RTVSPropertyOp4
 70
     1
102
RTVSPropertyOp5
 70
     1
102
RTVSPropertyOp6
 70
     1
102
RTVSPropertyOp7
 70
     1
102
RTVSPropertyOp8
 70
     1
102
RTVSPropertyOp9
 70
     1
102
RTVSPropertyOp10
 70
     1
102
RTVSPropertyOp11
 70
     1
102
RTVSPropertyOp12
 70
     1
102
RTVSPropertyOp13
 70
     1
102
RTVSPropertyOp14
 70
     1
102
RTVSPropertyOp15
 70
     1
102
RTVSPropertyOp16
 70
     1
102
RTVSPropertyOp17
 70
     1
102
RTVSPropertyOp18
 70
     1
102
RTVSPropertyOp19
 70
     1
102
RTVSPropertyOp20
 70
     1
102
RTVSPropertyOp21
 70
     1
102
RTVSPropertyOp22
 70
     1
102
RTVSPropertyOp23
 70
     1
102
RTVSPropertyOp24
 70
     1
102
RTVSPropertyOp25
 70
     1
102
RTVSPropertyOp26
 70
     1
102
RTVSPropertyOp27
 70
     1
102
RTVSPropertyOp28
 70
     1
102
RTVSPropertyOp29
 70
     1
102
RTVSPropertyOp30
 70
     1
102
RTVSPropertyOp31
 70
     1
102
RTVSPropertyOp32
 70
     1
102
RTVSPropertyOp33
 70
     1
102
RTVSPropertyOp34
 70
     1
102
RTVSPropertyOp35
 70
     1
102
RTVSPropertyOp36
 70
     1
102
RTVSPropertyOp37
 70
     1
102
RTVSPropertyOp38
 70
     1
102
RTVSPropertyOp39
 70
     1
102
RTVSPropertyOp40
 70
     1
102
RTVSPropertyOp41
 70
     1
102
RTVSPropertyOp42
 70
     1
102
RTVSPropertyOp43
 70
     1
102
RTVSPropertyOp44
 70
     1
102
RTVSPropertyOp45
 70
     1
102
RTVSPropertyOp46
 70
     1
102
RTVSPropertyOp47
 70
     1
102
RTVSPropertyOp48
 70
     1
102
RTVSPropertyOp49
 70
     1
102
RTVSPropertyOp50
 70
     1
102
RTVSPropertyOp51
 70
     0
102
RTVSPropertyOp52
 70
     0
102
RTVSPropertyOp53
 70
     1
102
RTVSPropertyOp54
 70
     1
102
RTVSPropertyOp55
 70
     1
102
RTVSPropertyOp56
 70
     1
102
RTVSPropertyOp57
 70
     1
102
RTVSPropertyOp58
 70
     1
102
RTVSPropertyOp59
 70
     1
102
RTVSPropertyOp60
 70
     1
102
RTVSPropertyOp61
 70
     1
102
RTVSPropertyOp62
 70
     1
  0
XRECORD
  5
FD35C
102
{ACAD_REACTORS
330
FD35B
102
}
330
FD35B
100
AcDbXrecord
280
     1
102
RTVSPost2010Prop28
280
     0
102
RTVSPost2010PropOp28
 70
     1
102
RTVSPost2010Prop29
280
     1
102
RTVSPost2010PropOp29
 70
     1
102
RTVSPost2010Prop30
280
     1
102
RTVSPost2010PropOp30
 70
     1
102
RTVSPost2010Prop31
280
     0
102
RTVSPost2010PropOp31
 70
     1
102
RTVSPost2010Prop32
280
     0
102
RTVSPost2010PropOp32
 70
     1
102
RTVSPost2010Prop33
280
     0
102
RTVSPost2010PropOp33
 70
     1
102
RTVSPost2010Prop34
280
     0
102
RTVSPost2010PropOp34
 70
     1
102
RTVSPost2010Prop35
280
     0
102
RTVSPost2010PropOp35
 70
     1
102
RTVSPost2010Prop36
280
     0
102
RTVSPost2010PropOp36
 70
     1
102
RTVSPost2010Prop37
 90
       50
102
RTVSPost2010PropOp37
 70
     1
102
RTVSPost2010Prop38
140
0.0
102
RTVSPost2010PropOp38
 70
     1
102
RTVSPost2010Prop39
140
1.0
102
RTVSPost2010PropOp39
 70
     1
102
RTVSPost2010Prop40
 90
        0
102
RTVSPost2010PropOp40
 70
     1
102
RTVSPost2010Prop41ColorIndex
 90
       18
102
RTVSPost2010Prop41ColorRGB
 90
        0
102
RTVSPost2010PropOp41
 70
     1
102
RTVSPost2010Prop42
 90
       50
102
RTVSPost2010PropOp42
 70
     1
102
RTVSPost2010Prop43
 90
        3
102
RTVSPost2010PropOp43
 70
     1
102
RTVSPost2010Prop44ColorIndex
 90
        5
102
RTVSPost2010Prop44ColorRGB
 90
      255
102
RTVSPost2010PropOp44
 70
     1
102
RTVSPost2010Prop45
280
     0
102
RTVSPost2010PropOp45
 70
     1
102
RTVSPost2010Prop46
 90
       50
102
RTVSPost2010PropOp46
 70
     1
102
RTVSPost2010Prop47
 90
       50
102
RTVSPost2010PropOp47
 70
     1
102
RTVSPost2010Prop48
 90
       50
102
RTVSPost2010PropOp48
 70
     1
102
RTVSPost2010Prop49
280
     0
102
RTVSPost2010PropOp49
 70
     1
102
RTVSPost2010Prop50
 90
       50
102
RTVSPost2010PropOp50
 70
     1
102
RTVSPost2010Prop51ColorIndex
 90
      256
102
RTVSPost2010Prop51ColorRGB
 90
-16777216
102
RTVSPost2010PropOp51
 70
     0
102
RTVSPost2010Prop52
140
1.0
102
RTVSPost2010PropOp52
 70
     0
102
RTVSPost2010Prop53
 90
        2
102
RTVSPost2010PropOp53
 70
     1
102
RTVSPost2010Prop54
  1
strokes_ogs.tif
102
RTVSPost2010PropOp54
 70
     1
102
RTVSPost2010Prop55
280
     0
102
RTVSPost2010PropOp55
 70
     1
102
RTVSPost2010Prop56
140
1.0
102
RTVSPost2010PropOp56
 70
     1
102
RTVSPost2010Prop57
140
1.0
102
RTVSPost2010PropOp57
 70
     1
102
RTVSPropertyOp0
 70
     1
102
RTVSPropertyOp1
 70
     1
102
RTVSPropertyOp2
 70
     1
102
RTVSPropertyOp3
 70
     1
102
RTVSPropertyOp4
 70
     1
102
RTVSPropertyOp5
 70
     1
102
RTVSPropertyOp6
 70
     1
102
RTVSPropertyOp7
 70
     1
102
RTVSPropertyOp8
 70
     1
102
RTVSPropertyOp9
 70
     1
102
RTVSPropertyOp10
 70
     1
102
RTVSPropertyOp11
 70
     1
102
RTVSPropertyOp12
 70
     1
102
RTVSPropertyOp13
 70
     1
102
RTVSPropertyOp14
 70
     1
102
RTVSPropertyOp15
 70
     1
102
RTVSPropertyOp16
 70
     1
102
RTVSPropertyOp17
 70
     1
102
RTVSPropertyOp18
 70
     1
102
RTVSPropertyOp19
 70
     1
102
RTVSPropertyOp20
 70
     1
102
RTVSPropertyOp21
 70
     1
102
RTVSPropertyOp22
 70
     1
102
RTVSPropertyOp23
 70
     1
102
RTVSPropertyOp24
 70
     1
102
RTVSPropertyOp25
 70
     1
102
RTVSPropertyOp26
 70
     1
102
RTVSPropertyOp27
 70
     1
102
RTVSPropertyOp28
 70
     1
102
RTVSPropertyOp29
 70
     1
102
RTVSPropertyOp30
 70
     1
102
RTVSPropertyOp31
 70
     1
102
RTVSPropertyOp32
 70
     1
102
RTVSPropertyOp33
 70
     1
102
RTVSPropertyOp34
 70
     1
102
RTVSPropertyOp35
 70
     1
102
RTVSPropertyOp36
 70
     1
102
RTVSPropertyOp37
 70
     1
102
RTVSPropertyOp38
 70
     1
102
RTVSPropertyOp39
 70
     1
102
RTVSPropertyOp40
 70
     1
102
RTVSPropertyOp41
 70
     1
102
RTVSPropertyOp42
 70
     1
102
RTVSPropertyOp43
 70
     1
102
RTVSPropertyOp44
 70
     1
102
RTVSPropertyOp45
 70
     1
102
RTVSPropertyOp46
 70
     1
102
RTVSPropertyOp47
 70
     1
102
RTVSPropertyOp48
 70
     1
102
RTVSPropertyOp49
 70
     1
102
RTVSPropertyOp50
 70
     1
102
RTVSPropertyOp51
 70
     0
102
RTVSPropertyOp52
 70
     0
102
RTVSPropertyOp53
 70
     1
102
RTVSPropertyOp54
 70
     1
102
RTVSPropertyOp55
 70
     1
102
RTVSPropertyOp56
 70
     1
102
RTVSPropertyOp57
 70
     1
102
RTVSPropertyOp58
 70
     1
102
RTVSPropertyOp59
 70
     1
102
RTVSPropertyOp60
 70
     1
102
RTVSPropertyOp61
 70
     1
102
RTVSPropertyOp62
 70
     1
  0
XRECORD
  5
FD376
102
{ACAD_REACTORS
330
FD375
102
}
330
FD375
100
AcDbXrecord
280
     1
102
RTVSPost2010Prop28
280
     0
102
RTVSPost2010PropOp28
 70
     0
102
RTVSPost2010Prop29
280
     1
102
RTVSPost2010PropOp29
 70
     0
102
RTVSPost2010Prop30
280
     1
102
RTVSPost2010PropOp30
 70
     0
102
RTVSPost2010Prop31
280
     0
102
RTVSPost2010PropOp31
 70
     0
102
RTVSPost2010Prop32
280
     0
102
RTVSPost2010PropOp32
 70
     0
102
RTVSPost2010Prop33
280
     0
102
RTVSPost2010PropOp33
 70
     0
102
RTVSPost2010Prop34
280
     0
102
RTVSPost2010PropOp34
 70
     0
102
RTVSPost2010Prop35
280
     0
102
RTVSPost2010PropOp35
 70
     0
102
RTVSPost2010Prop36
280
     0
102
RTVSPost2010PropOp36
 70
     0
102
RTVSPost2010Prop37
 90
       50
102
RTVSPost2010PropOp37
 70
     0
102
RTVSPost2010Prop38
140
0.0
102
RTVSPost2010PropOp38
 70
     0
102
RTVSPost2010Prop39
140
1.0
102
RTVSPost2010PropOp39
 70
     0
102
RTVSPost2010Prop40
 90
        0
102
RTVSPost2010PropOp40
 70
     0
102
RTVSPost2010Prop41ColorIndex
 90
       18
102
RTVSPost2010Prop41ColorRGB
 90
        0
102
RTVSPost2010PropOp41
 70
     0
102
RTVSPost2010Prop42
 90
       50
102
RTVSPost2010PropOp42
 70
     0
102
RTVSPost2010Prop43
 90
        3
102
RTVSPost2010PropOp43
 70
     0
102
RTVSPost2010Prop44ColorIndex
 90
        5
102
RTVSPost2010Prop44ColorRGB
 90
      255
102
RTVSPost2010PropOp44
 70
     0
102
RTVSPost2010Prop45
280
     0
102
RTVSPost2010PropOp45
 70
     0
102
RTVSPost2010Prop46
 90
       50
102
RTVSPost2010PropOp46
 70
     0
102
RTVSPost2010Prop47
 90
       50
102
RTVSPost2010PropOp47
 70
     0
102
RTVSPost2010Prop48
 90
       50
102
RTVSPost2010PropOp48
 70
     0
102
RTVSPost2010Prop49
280
     0
102
RTVSPost2010PropOp49
 70
     0
102
RTVSPost2010Prop50
 90
       50
102
RTVSPost2010PropOp50
 70
     0
102
RTVSPost2010Prop51ColorIndex
 90
      256
102
RTVSPost2010Prop51ColorRGB
 90
-16777216
102
RTVSPost2010PropOp51
 70
     0
102
RTVSPost2010Prop52
140
1.0
102
RTVSPost2010PropOp52
 70
     0
102
RTVSPost2010Prop53
 90
        2
102
RTVSPost2010PropOp53
 70
     0
102
RTVSPost2010Prop54
  1
strokes_ogs.tif
102
RTVSPost2010PropOp54
 70
     0
102
RTVSPost2010Prop55
280
     0
102
RTVSPost2010PropOp55
 70
     0
102
RTVSPost2010Prop56
140
1.0
102
RTVSPost2010PropOp56
 70
     0
102
RTVSPost2010Prop57
140
1.0
102
RTVSPost2010PropOp57
 70
     0
102
RTVSPropertyOp0
 70
     0
102
RTVSPropertyOp1
 70
     0
102
RTVSPropertyOp2
 70
     0
102
RTVSPropertyOp3
 70
     0
102
RTVSPropertyOp4
 70
     0
102
RTVSPropertyOp5
 70
     0
102
RTVSPropertyOp6
 70
     0
102
RTVSPropertyOp7
 70
     0
102
RTVSPropertyOp8
 70
     0
102
RTVSPropertyOp9
 70
     0
102
RTVSPropertyOp10
 70
     0
102
RTVSPropertyOp11
 70
     0
102
RTVSPropertyOp12
 70
     0
102
RTVSPropertyOp13
 70
     0
102
RTVSPropertyOp14
 70
     2
102
RTVSPropertyOp15
 70
     0
102
RTVSPropertyOp16
 70
     0
102
RTVSPropertyOp17
 70
     0
102
RTVSPropertyOp18
 70
     0
102
RTVSPropertyOp19
 70
     0
102
RTVSPropertyOp20
 70
     0
102
RTVSPropertyOp21
 70
     0
102
RTVSPropertyOp22
 70
     0
102
RTVSPropertyOp23
 70
     0
102
RTVSPropertyOp24
 70
     0
102
RTVSPropertyOp25
 70
     0
102
RTVSPropertyOp26
 70
     0
102
RTVSPropertyOp27
 70
     0
102
RTVSPropertyOp28
 70
     0
102
RTVSPropertyOp29
 70
     0
102
RTVSPropertyOp30
 70
     0
102
RTVSPropertyOp31
 70
     0
102
RTVSPropertyOp32
 70
     0
102
RTVSPropertyOp33
 70
     0
102
RTVSPropertyOp34
 70
     0
102
RTVSPropertyOp35
 70
     0
102
RTVSPropertyOp36
 70
     0
102
RTVSPropertyOp37
 70
     0
102
RTVSPropertyOp38
 70
     0
102
RTVSPropertyOp39
 70
     0
102
RTVSPropertyOp40
 70
     0
102
RTVSPropertyOp41
 70
     0
102
RTVSPropertyOp42
 70
     0
102
RTVSPropertyOp43
 70
     0
102
RTVSPropertyOp44
 70
     0
102
RTVSPropertyOp45
 70
     0
102
RTVSPropertyOp46
 70
     0
102
RTVSPropertyOp47
 70
     0
102
RTVSPropertyOp48
 70
     0
102
RTVSPropertyOp49
 70
     0
102
RTVSPropertyOp50
 70
     0
102
RTVSPropertyOp51
 70
     0
102
RTVSPropertyOp52
 70
     0
102
RTVSPropertyOp53
 70
     0
102
RTVSPropertyOp54
 70
     0
102
RTVSPropertyOp55
 70
     0
102
RTVSPropertyOp56
 70
     0
102
RTVSPropertyOp57
 70
     0
102
RTVSPropertyOp58
 70
     0
102
RTVSPropertyOp59
 70
     0
102
RTVSPropertyOp60
 70
     0
102
RTVSPropertyOp61
 70
     0
102
RTVSPropertyOp62
 70
     0
  0
XRECORD
  5
FD364
102
{ACAD_REACTORS
330
FD363
102
}
330
FD363
100
AcDbXrecord
280
     1
102
RTVSPost2010Prop28
280
     0
102
RTVSPost2010PropOp28
 70
     1
102
RTVSPost2010Prop29
280
     1
102
RTVSPost2010PropOp29
 70
     1
102
RTVSPost2010Prop30
280
     1
102
RTVSPost2010PropOp30
 70
     1
102
RTVSPost2010Prop31
280
     0
102
RTVSPost2010PropOp31
 70
     1
102
RTVSPost2010Prop32
280
     0
102
RTVSPost2010PropOp32
 70
     1
102
RTVSPost2010Prop33
280
     0
102
RTVSPost2010PropOp33
 70
     1
102
RTVSPost2010Prop34
280
     0
102
RTVSPost2010PropOp34
 70
     1
102
RTVSPost2010Prop35
280
     0
102
RTVSPost2010PropOp35
 70
     1
102
RTVSPost2010Prop36
280
     0
102
RTVSPost2010PropOp36
 70
     1
102
RTVSPost2010Prop37
 90
       50
102
RTVSPost2010PropOp37
 70
     1
102
RTVSPost2010Prop38
140
0.0
102
RTVSPost2010PropOp38
 70
     1
102
RTVSPost2010Prop39
140
1.0
102
RTVSPost2010PropOp39
 70
     1
102
RTVSPost2010Prop40
 90
        0
102
RTVSPost2010PropOp40
 70
     1
102
RTVSPost2010Prop41ColorIndex
 90
       18
102
RTVSPost2010Prop41ColorRGB
 90
        0
102
RTVSPost2010PropOp41
 70
     1
102
RTVSPost2010Prop42
 90
       50
102
RTVSPost2010PropOp42
 70
     1
102
RTVSPost2010Prop43
 90
        3
102
RTVSPost2010PropOp43
 70
     1
102
RTVSPost2010Prop44ColorIndex
 90
        5
102
RTVSPost2010Prop44ColorRGB
 90
      255
102
RTVSPost2010PropOp44
 70
     1
102
RTVSPost2010Prop45
280
     0
102
RTVSPost2010PropOp45
 70
     1
102
RTVSPost2010Prop46
 90
       50
102
RTVSPost2010PropOp46
 70
     1
102
RTVSPost2010Prop47
 90
       50
102
RTVSPost2010PropOp47
 70
     1
102
RTVSPost2010Prop48
 90
       50
102
RTVSPost2010PropOp48
 70
     1
102
RTVSPost2010Prop49
280
     0
102
RTVSPost2010PropOp49
 70
     1
102
RTVSPost2010Prop50
 90
       50
102
RTVSPost2010PropOp50
 70
     1
102
RTVSPost2010Prop51ColorIndex
 90
      256
102
RTVSPost2010Prop51ColorRGB
 90
-16777216
102
RTVSPost2010PropOp51
 70
     0
102
RTVSPost2010Prop52
140
1.0
102
RTVSPost2010PropOp52
 70
     0
102
RTVSPost2010Prop53
 90
        2
102
RTVSPost2010PropOp53
 70
     1
102
RTVSPost2010Prop54
  1
strokes_ogs.tif
102
RTVSPost2010PropOp54
 70
     1
102
RTVSPost2010Prop55
280
     0
102
RTVSPost2010PropOp55
 70
     1
102
RTVSPost2010Prop56
140
1.0
102
RTVSPost2010PropOp56
 70
     1
102
RTVSPost2010Prop57
140
1.0
102
RTVSPost2010PropOp57
 70
     1
102
RTVSPropertyOp0
 70
     1
102
RTVSPropertyOp1
 70
     1
102
RTVSPropertyOp2
 70
     1
102
RTVSPropertyOp3
 70
     1
102
RTVSPropertyOp4
 70
     1
102
RTVSPropertyOp5
 70
     1
102
RTVSPropertyOp6
 70
     1
102
RTVSPropertyOp7
 70
     1
102
RTVSPropertyOp8
 70
     1
102
RTVSPropertyOp9
 70
     1
102
RTVSPropertyOp10
 70
     1
102
RTVSPropertyOp11
 70
     1
102
RTVSPropertyOp12
 70
     1
102
RTVSPropertyOp13
 70
     1
102
RTVSPropertyOp14
 70
     1
102
RTVSPropertyOp15
 70
     1
102
RTVSPropertyOp16
 70
     1
102
RTVSPropertyOp17
 70
     1
102
RTVSPropertyOp18
 70
     1
102
RTVSPropertyOp19
 70
     1
102
RTVSPropertyOp20
 70
     1
102
RTVSPropertyOp21
 70
     1
102
RTVSPropertyOp22
 70
     1
102
RTVSPropertyOp23
 70
     1
102
RTVSPropertyOp24
 70
     1
102
RTVSPropertyOp25
 70
     1
102
RTVSPropertyOp26
 70
     1
102
RTVSPropertyOp27
 70
     1
102
RTVSPropertyOp28
 70
     1
102
RTVSPropertyOp29
 70
     1
102
RTVSPropertyOp30
 70
     1
102
RTVSPropertyOp31
 70
     1
102
RTVSPropertyOp32
 70
     1
102
RTVSPropertyOp33
 70
     1
102
RTVSPropertyOp34
 70
     1
102
RTVSPropertyOp35
 70
     1
102
RTVSPropertyOp36
 70
     1
102
RTVSPropertyOp37
 70
     1
102
RTVSPropertyOp38
 70
     1
102
RTVSPropertyOp39
 70
     1
102
RTVSPropertyOp40
 70
     1
102
RTVSPropertyOp41
 70
     1
102
RTVSPropertyOp42
 70
     1
102
RTVSPropertyOp43
 70
     1
102
RTVSPropertyOp44
 70
     1
102
RTVSPropertyOp45
 70
     1
102
RTVSPropertyOp46
 70
     1
102
RTVSPropertyOp47
 70
     1
102
RTVSPropertyOp48
 70
     1
102
RTVSPropertyOp49
 70
     1
102
RTVSPropertyOp50
 70
     1
102
RTVSPropertyOp51
 70
     0
102
RTVSPropertyOp52
 70
     0
102
RTVSPropertyOp53
 70
     1
102
RTVSPropertyOp54
 70
     1
102
RTVSPropertyOp55
 70
     1
102
RTVSPropertyOp56
 70
     1
102
RTVSPropertyOp57
 70
     1
102
RTVSPropertyOp58
 70
     1
102
RTVSPropertyOp59
 70
     1
102
RTVSPropertyOp60
 70
     1
102
RTVSPropertyOp61
 70
     1
102
RTVSPropertyOp62
 70
     1
  0
XRECORD
  5
FD348
102
{ACAD_REACTORS
330
FD347
102
}
330
FD347
100
AcDbXrecord
280
     1
102
RTVSPost2010Prop28
280
     0
102
RTVSPost2010PropOp28
 70
     1
102
RTVSPost2010Prop29
280
     1
102
RTVSPost2010PropOp29
 70
     1
102
RTVSPost2010Prop30
280
     1
102
RTVSPost2010PropOp30
 70
     1
102
RTVSPost2010Prop31
280
     0
102
RTVSPost2010PropOp31
 70
     1
102
RTVSPost2010Prop32
280
     0
102
RTVSPost2010PropOp32
 70
     1
102
RTVSPost2010Prop33
280
     0
102
RTVSPost2010PropOp33
 70
     1
102
RTVSPost2010Prop34
280
     0
102
RTVSPost2010PropOp34
 70
     1
102
RTVSPost2010Prop35
280
     0
102
RTVSPost2010PropOp35
 70
     1
102
RTVSPost2010Prop36
280
     0
102
RTVSPost2010PropOp36
 70
     1
102
RTVSPost2010Prop37
 90
       50
102
RTVSPost2010PropOp37
 70
     1
102
RTVSPost2010Prop38
140
0.0
102
RTVSPost2010PropOp38
 70
     1
102
RTVSPost2010Prop39
140
1.0
102
RTVSPost2010PropOp39
 70
     1
102
RTVSPost2010Prop40
 90
        0
102
RTVSPost2010PropOp40
 70
     1
102
RTVSPost2010Prop41ColorIndex
 90
       18
102
RTVSPost2010Prop41ColorRGB
 90
        0
102
RTVSPost2010PropOp41
 70
     1
102
RTVSPost2010Prop42
 90
       50
102
RTVSPost2010PropOp42
 70
     1
102
RTVSPost2010Prop43
 90
        3
102
RTVSPost2010PropOp43
 70
     1
102
RTVSPost2010Prop44ColorIndex
 90
        5
102
RTVSPost2010Prop44ColorRGB
 90
      255
102
RTVSPost2010PropOp44
 70
     1
102
RTVSPost2010Prop45
280
     0
102
RTVSPost2010PropOp45
 70
     1
102
RTVSPost2010Prop46
 90
       50
102
RTVSPost2010PropOp46
 70
     1
102
RTVSPost2010Prop47
 90
       50
102
RTVSPost2010PropOp47
 70
     1
102
RTVSPost2010Prop48
 90
       50
102
RTVSPost2010PropOp48
 70
     1
102
RTVSPost2010Prop49
280
     0
102
RTVSPost2010PropOp49
 70
     1
102
RTVSPost2010Prop50
 90
       50
102
RTVSPost2010PropOp50
 70
     1
102
RTVSPost2010Prop51ColorIndex
 90
      256
102
RTVSPost2010Prop51ColorRGB
 90
-16777216
102
RTVSPost2010PropOp51
 70
     0
102
RTVSPost2010Prop52
140
1.0
102
RTVSPost2010PropOp52
 70
     0
102
RTVSPost2010Prop53
 90
        2
102
RTVSPost2010PropOp53
 70
     1
102
RTVSPost2010Prop54
  1
strokes_ogs.tif
102
RTVSPost2010PropOp54
 70
     1
102
RTVSPost2010Prop55
280
     0
102
RTVSPost2010PropOp55
 70
     1
102
RTVSPost2010Prop56
140
1.0
102
RTVSPost2010PropOp56
 70
     1
102
RTVSPost2010Prop57
140
1.0
102
RTVSPost2010PropOp57
 70
     1
102
RTVSPropertyOp0
 70
     1
102
RTVSPropertyOp1
 70
     1
102
RTVSPropertyOp2
 70
     1
102
RTVSPropertyOp3
 70
     1
102
RTVSPropertyOp4
 70
     1
102
RTVSPropertyOp5
 70
     1
102
RTVSPropertyOp6
 70
     1
102
RTVSPropertyOp7
 70
     1
102
RTVSPropertyOp8
 70
     1
102
RTVSPropertyOp9
 70
     1
102
RTVSPropertyOp10
 70
     1
102
RTVSPropertyOp11
 70
     1
102
RTVSPropertyOp12
 70
     1
102
RTVSPropertyOp13
 70
     1
102
RTVSPropertyOp14
 70
     1
102
RTVSPropertyOp15
 70
     1
102
RTVSPropertyOp16
 70
     1
102
RTVSPropertyOp17
 70
     1
102
RTVSPropertyOp18
 70
     1
102
RTVSPropertyOp19
 70
     1
102
RTVSPropertyOp20
 70
     1
102
RTVSPropertyOp21
 70
     1
102
RTVSPropertyOp22
 70
     1
102
RTVSPropertyOp23
 70
     1
102
RTVSPropertyOp24
 70
     1
102
RTVSPropertyOp25
 70
     1
102
RTVSPropertyOp26
 70
     1
102
RTVSPropertyOp27
 70
     1
102
RTVSPropertyOp28
 70
     1
102
RTVSPropertyOp29
 70
     1
102
RTVSPropertyOp30
 70
     1
102
RTVSPropertyOp31
 70
     1
102
RTVSPropertyOp32
 70
     1
102
RTVSPropertyOp33
 70
     1
102
RTVSPropertyOp34
 70
     1
102
RTVSPropertyOp35
 70
     1
102
RTVSPropertyOp36
 70
     1
102
RTVSPropertyOp37
 70
     1
102
RTVSPropertyOp38
 70
     1
102
RTVSPropertyOp39
 70
     1
102
RTVSPropertyOp40
 70
     1
102
RTVSPropertyOp41
 70
     1
102
RTVSPropertyOp42
 70
     1
102
RTVSPropertyOp43
 70
     1
102
RTVSPropertyOp44
 70
     1
102
RTVSPropertyOp45
 70
     1
102
RTVSPropertyOp46
 70
     1
102
RTVSPropertyOp47
 70
     1
102
RTVSPropertyOp48
 70
     1
102
RTVSPropertyOp49
 70
     1
102
RTVSPropertyOp50
 70
     1
102
RTVSPropertyOp51
 70
     0
102
RTVSPropertyOp52
 70
     0
102
RTVSPropertyOp53
 70
     1
102
RTVSPropertyOp54
 70
     1
102
RTVSPropertyOp55
 70
     1
102
RTVSPropertyOp56
 70
     1
102
RTVSPropertyOp57
 70
     1
102
RTVSPropertyOp58
 70
     1
102
RTVSPropertyOp59
 70
     1
102
RTVSPropertyOp60
 70
     1
102
RTVSPropertyOp61
 70
     1
102
RTVSPropertyOp62
 70
     1
  0
XRECORD
  5
FD34A
102
{ACAD_REACTORS
330
FD349
102
}
330
FD349
100
AcDbXrecord
280
     1
102
RTVSPost2010Prop28
280
     0
102
RTVSPost2010PropOp28
 70
     1
102
RTVSPost2010Prop29
280
     1
102
RTVSPost2010PropOp29
 70
     1
102
RTVSPost2010Prop30
280
     1
102
RTVSPost2010PropOp30
 70
     1
102
RTVSPost2010Prop31
280
     0
102
RTVSPost2010PropOp31
 70
     1
102
RTVSPost2010Prop32
280
     0
102
RTVSPost2010PropOp32
 70
     1
102
RTVSPost2010Prop33
280
     0
102
RTVSPost2010PropOp33
 70
     1
102
RTVSPost2010Prop34
280
     0
102
RTVSPost2010PropOp34
 70
     1
102
RTVSPost2010Prop35
280
     0
102
RTVSPost2010PropOp35
 70
     1
102
RTVSPost2010Prop36
280
     0
102
RTVSPost2010PropOp36
 70
     1
102
RTVSPost2010Prop37
 90
       50
102
RTVSPost2010PropOp37
 70
     1
102
RTVSPost2010Prop38
140
0.0
102
RTVSPost2010PropOp38
 70
     1
102
RTVSPost2010Prop39
140
1.0
102
RTVSPost2010PropOp39
 70
     1
102
RTVSPost2010Prop40
 90
        0
102
RTVSPost2010PropOp40
 70
     1
102
RTVSPost2010Prop41ColorIndex
 90
       18
102
RTVSPost2010Prop41ColorRGB
 90
        0
102
RTVSPost2010PropOp41
 70
     1
102
RTVSPost2010Prop42
 90
       50
102
RTVSPost2010PropOp42
 70
     1
102
RTVSPost2010Prop43
 90
        3
102
RTVSPost2010PropOp43
 70
     1
102
RTVSPost2010Prop44ColorIndex
 90
        5
102
RTVSPost2010Prop44ColorRGB
 90
      255
102
RTVSPost2010PropOp44
 70
     1
102
RTVSPost2010Prop45
280
     0
102
RTVSPost2010PropOp45
 70
     1
102
RTVSPost2010Prop46
 90
       50
102
RTVSPost2010PropOp46
 70
     1
102
RTVSPost2010Prop47
 90
       50
102
RTVSPost2010PropOp47
 70
     1
102
RTVSPost2010Prop48
 90
       50
102
RTVSPost2010PropOp48
 70
     1
102
RTVSPost2010Prop49
280
     0
102
RTVSPost2010PropOp49
 70
     1
102
RTVSPost2010Prop50
 90
       50
102
RTVSPost2010PropOp50
 70
     1
102
RTVSPost2010Prop51ColorIndex
 90
      256
102
RTVSPost2010Prop51ColorRGB
 90
-16777216
102
RTVSPost2010PropOp51
 70
     0
102
RTVSPost2010Prop52
140
1.0
102
RTVSPost2010PropOp52
 70
     0
102
RTVSPost2010Prop53
 90
        2
102
RTVSPost2010PropOp53
 70
     1
102
RTVSPost2010Prop54
  1
strokes_ogs.tif
102
RTVSPost2010PropOp54
 70
     1
102
RTVSPost2010Prop55
280
     0
102
RTVSPost2010PropOp55
 70
     1
102
RTVSPost2010Prop56
140
1.0
102
RTVSPost2010PropOp56
 70
     1
102
RTVSPost2010Prop57
140
1.0
102
RTVSPost2010PropOp57
 70
     1
102
RTVSPropertyOp0
 70
     1
102
RTVSPropertyOp1
 70
     1
102
RTVSPropertyOp2
 70
     1
102
RTVSPropertyOp3
 70
     1
102
RTVSPropertyOp4
 70
     1
102
RTVSPropertyOp5
 70
     1
102
RTVSPropertyOp6
 70
     1
102
RTVSPropertyOp7
 70
     1
102
RTVSPropertyOp8
 70
     1
102
RTVSPropertyOp9
 70
     1
102
RTVSPropertyOp10
 70
     1
102
RTVSPropertyOp11
 70
     1
102
RTVSPropertyOp12
 70
     1
102
RTVSPropertyOp13
 70
     1
102
RTVSPropertyOp14
 70
     1
102
RTVSPropertyOp15
 70
     1
102
RTVSPropertyOp16
 70
     1
102
RTVSPropertyOp17
 70
     1
102
RTVSPropertyOp18
 70
     1
102
RTVSPropertyOp19
 70
     1
102
RTVSPropertyOp20
 70
     1
102
RTVSPropertyOp21
 70
     1
102
RTVSPropertyOp22
 70
     1
102
RTVSPropertyOp23
 70
     1
102
RTVSPropertyOp24
 70
     1
102
RTVSPropertyOp25
 70
     1
102
RTVSPropertyOp26
 70
     1
102
RTVSPropertyOp27
 70
     1
102
RTVSPropertyOp28
 70
     1
102
RTVSPropertyOp29
 70
     1
102
RTVSPropertyOp30
 70
     1
102
RTVSPropertyOp31
 70
     1
102
RTVSPropertyOp32
 70
     1
102
RTVSPropertyOp33
 70
     1
102
RTVSPropertyOp34
 70
     1
102
RTVSPropertyOp35
 70
     1
102
RTVSPropertyOp36
 70
     1
102
RTVSPropertyOp37
 70
     1
102
RTVSPropertyOp38
 70
     1
102
RTVSPropertyOp39
 70
     1
102
RTVSPropertyOp40
 70
     1
102
RTVSPropertyOp41
 70
     1
102
RTVSPropertyOp42
 70
     1
102
RTVSPropertyOp43
 70
     1
102
RTVSPropertyOp44
 70
     1
102
RTVSPropertyOp45
 70
     1
102
RTVSPropertyOp46
 70
     1
102
RTVSPropertyOp47
 70
     1
102
RTVSPropertyOp48
 70
     1
102
RTVSPropertyOp49
 70
     1
102
RTVSPropertyOp50
 70
     1
102
RTVSPropertyOp51
 70
     0
102
RTVSPropertyOp52
 70
     0
102
RTVSPropertyOp53
 70
     1
102
RTVSPropertyOp54
 70
     1
102
RTVSPropertyOp55
 70
     1
102
RTVSPropertyOp56
 70
     1
102
RTVSPropertyOp57
 70
     1
102
RTVSPropertyOp58
 70
     1
102
RTVSPropertyOp59
 70
     1
102
RTVSPropertyOp60
 70
     1
102
RTVSPropertyOp61
 70
     1
102
RTVSPropertyOp62
 70
     1
  0
XRECORD
  5
FD34C
102
{ACAD_REACTORS
330
FD34B
102
}
330
FD34B
100
AcDbXrecord
280
     1
102
RTVSPost2010Prop28
280
     0
102
RTVSPost2010PropOp28
 70
     1
102
RTVSPost2010Prop29
280
     1
102
RTVSPost2010PropOp29
 70
     1
102
RTVSPost2010Prop30
280
     1
102
RTVSPost2010PropOp30
 70
     1
102
RTVSPost2010Prop31
280
     0
102
RTVSPost2010PropOp31
 70
     1
102
RTVSPost2010Prop32
280
     0
102
RTVSPost2010PropOp32
 70
     1
102
RTVSPost2010Prop33
280
     0
102
RTVSPost2010PropOp33
 70
     1
102
RTVSPost2010Prop34
280
     0
102
RTVSPost2010PropOp34
 70
     1
102
RTVSPost2010Prop35
280
     0
102
RTVSPost2010PropOp35
 70
     1
102
RTVSPost2010Prop36
280
     0
102
RTVSPost2010PropOp36
 70
     1
102
RTVSPost2010Prop37
 90
       50
102
RTVSPost2010PropOp37
 70
     1
102
RTVSPost2010Prop38
140
0.0
102
RTVSPost2010PropOp38
 70
     1
102
RTVSPost2010Prop39
140
1.0
102
RTVSPost2010PropOp39
 70
     1
102
RTVSPost2010Prop40
 90
        0
102
RTVSPost2010PropOp40
 70
     1
102
RTVSPost2010Prop41ColorIndex
 90
       18
102
RTVSPost2010Prop41ColorRGB
 90
        0
102
RTVSPost2010PropOp41
 70
     1
102
RTVSPost2010Prop42
 90
       50
102
RTVSPost2010PropOp42
 70
     1
102
RTVSPost2010Prop43
 90
        3
102
RTVSPost2010PropOp43
 70
     1
102
RTVSPost2010Prop44ColorIndex
 90
        5
102
RTVSPost2010Prop44ColorRGB
 90
      255
102
RTVSPost2010PropOp44
 70
     1
102
RTVSPost2010Prop45
280
     0
102
RTVSPost2010PropOp45
 70
     1
102
RTVSPost2010Prop46
 90
       50
102
RTVSPost2010PropOp46
 70
     1
102
RTVSPost2010Prop47
 90
       50
102
RTVSPost2010PropOp47
 70
     1
102
RTVSPost2010Prop48
 90
       50
102
RTVSPost2010PropOp48
 70
     1
102
RTVSPost2010Prop49
280
     0
102
RTVSPost2010PropOp49
 70
     1
102
RTVSPost2010Prop50
 90
       50
102
RTVSPost2010PropOp50
 70
     1
102
RTVSPost2010Prop51ColorIndex
 90
      256
102
RTVSPost2010Prop51ColorRGB
 90
-16777216
102
RTVSPost2010PropOp51
 70
     0
102
RTVSPost2010Prop52
140
1.0
102
RTVSPost2010PropOp52
 70
     0
102
RTVSPost2010Prop53
 90
        2
102
RTVSPost2010PropOp53
 70
     1
102
RTVSPost2010Prop54
  1
strokes_ogs.tif
102
RTVSPost2010PropOp54
 70
     1
102
RTVSPost2010Prop55
280
     0
102
RTVSPost2010PropOp55
 70
     1
102
RTVSPost2010Prop56
140
1.0
102
RTVSPost2010PropOp56
 70
     1
102
RTVSPost2010Prop57
140
1.0
102
RTVSPost2010PropOp57
 70
     1
102
RTVSPropertyOp0
 70
     1
102
RTVSPropertyOp1
 70
     1
102
RTVSPropertyOp2
 70
     1
102
RTVSPropertyOp3
 70
     1
102
RTVSPropertyOp4
 70
     1
102
RTVSPropertyOp5
 70
     1
102
RTVSPropertyOp6
 70
     1
102
RTVSPropertyOp7
 70
     1
102
RTVSPropertyOp8
 70
     1
102
RTVSPropertyOp9
 70
     1
102
RTVSPropertyOp10
 70
     1
102
RTVSPropertyOp11
 70
     1
102
RTVSPropertyOp12
 70
     1
102
RTVSPropertyOp13
 70
     1
102
RTVSPropertyOp14
 70
     1
102
RTVSPropertyOp15
 70
     1
102
RTVSPropertyOp16
 70
     1
102
RTVSPropertyOp17
 70
     1
102
RTVSPropertyOp18
 70
     1
102
RTVSPropertyOp19
 70
     1
102
RTVSPropertyOp20
 70
     1
102
RTVSPropertyOp21
 70
     1
102
RTVSPropertyOp22
 70
     1
102
RTVSPropertyOp23
 70
     1
102
RTVSPropertyOp24
 70
     1
102
RTVSPropertyOp25
 70
     1
102
RTVSPropertyOp26
 70
     1
102
RTVSPropertyOp27
 70
     1
102
RTVSPropertyOp28
 70
     1
102
RTVSPropertyOp29
 70
     1
102
RTVSPropertyOp30
 70
     1
102
RTVSPropertyOp31
 70
     1
102
RTVSPropertyOp32
 70
     1
102
RTVSPropertyOp33
 70
     1
102
RTVSPropertyOp34
 70
     1
102
RTVSPropertyOp35
 70
     1
102
RTVSPropertyOp36
 70
     1
102
RTVSPropertyOp37
 70
     1
102
RTVSPropertyOp38
 70
     1
102
RTVSPropertyOp39
 70
     1
102
RTVSPropertyOp40
 70
     1
102
RTVSPropertyOp41
 70
     1
102
RTVSPropertyOp42
 70
     1
102
RTVSPropertyOp43
 70
     1
102
RTVSPropertyOp44
 70
     1
102
RTVSPropertyOp45
 70
     1
102
RTVSPropertyOp46
 70
     1
102
RTVSPropertyOp47
 70
     1
102
RTVSPropertyOp48
 70
     1
102
RTVSPropertyOp49
 70
     1
102
RTVSPropertyOp50
 70
     1
102
RTVSPropertyOp51
 70
     0
102
RTVSPropertyOp52
 70
     0
102
RTVSPropertyOp53
 70
     1
102
RTVSPropertyOp54
 70
     1
102
RTVSPropertyOp55
 70
     1
102
RTVSPropertyOp56
 70
     1
102
RTVSPropertyOp57
 70
     1
102
RTVSPropertyOp58
 70
     1
102
RTVSPropertyOp59
 70
     1
102
RTVSPropertyOp60
 70
     1
102
RTVSPropertyOp61
 70
     1
102
RTVSPropertyOp62
 70
     1
  0
XRECORD
  5
FD34E
102
{ACAD_REACTORS
330
FD34D
102
}
330
FD34D
100
AcDbXrecord
280
     1
102
RTVSPost2010Prop28
280
     0
102
RTVSPost2010PropOp28
 70
     1
102
RTVSPost2010Prop29
280
     1
102
RTVSPost2010PropOp29
 70
     1
102
RTVSPost2010Prop30
280
     1
102
RTVSPost2010PropOp30
 70
     1
102
RTVSPost2010Prop31
280
     0
102
RTVSPost2010PropOp31
 70
     1
102
RTVSPost2010Prop32
280
     0
102
RTVSPost2010PropOp32
 70
     1
102
RTVSPost2010Prop33
280
     0
102
RTVSPost2010PropOp33
 70
     1
102
RTVSPost2010Prop34
280
     0
102
RTVSPost2010PropOp34
 70
     1
102
RTVSPost2010Prop35
280
     0
102
RTVSPost2010PropOp35
 70
     1
102
RTVSPost2010Prop36
280
     0
102
RTVSPost2010PropOp36
 70
     1
102
RTVSPost2010Prop37
 90
       50
102
RTVSPost2010PropOp37
 70
     1
102
RTVSPost2010Prop38
140
0.0
102
RTVSPost2010PropOp38
 70
     1
102
RTVSPost2010Prop39
140
1.0
102
RTVSPost2010PropOp39
 70
     1
102
RTVSPost2010Prop40
 90
        0
102
RTVSPost2010PropOp40
 70
     1
102
RTVSPost2010Prop41ColorIndex
 90
       18
102
RTVSPost2010Prop41ColorRGB
 90
        0
102
RTVSPost2010PropOp41
 70
     1
102
RTVSPost2010Prop42
 90
       50
102
RTVSPost2010PropOp42
 70
     1
102
RTVSPost2010Prop43
 90
        3
102
RTVSPost2010PropOp43
 70
     1
102
RTVSPost2010Prop44ColorIndex
 90
        5
102
RTVSPost2010Prop44ColorRGB
 90
      255
102
RTVSPost2010PropOp44
 70
     1
102
RTVSPost2010Prop45
280
     0
102
RTVSPost2010PropOp45
 70
     1
102
RTVSPost2010Prop46
 90
       50
102
RTVSPost2010PropOp46
 70
     1
102
RTVSPost2010Prop47
 90
       50
102
RTVSPost2010PropOp47
 70
     1
102
RTVSPost2010Prop48
 90
       50
102
RTVSPost2010PropOp48
 70
     1
102
RTVSPost2010Prop49
280
     0
102
RTVSPost2010PropOp49
 70
     1
102
RTVSPost2010Prop50
 90
       50
102
RTVSPost2010PropOp50
 70
     1
102
RTVSPost2010Prop51ColorIndex
 90
      256
102
RTVSPost2010Prop51ColorRGB
 90
-16777216
102
RTVSPost2010PropOp51
 70
     0
102
RTVSPost2010Prop52
140
1.0
102
RTVSPost2010PropOp52
 70
     0
102
RTVSPost2010Prop53
 90
        2
102
RTVSPost2010PropOp53
 70
     1
102
RTVSPost2010Prop54
  1
strokes_ogs.tif
102
RTVSPost2010PropOp54
 70
     1
102
RTVSPost2010Prop55
280
     0
102
RTVSPost2010PropOp55
 70
     1
102
RTVSPost2010Prop56
140
1.0
102
RTVSPost2010PropOp56
 70
     1
102
RTVSPost2010Prop57
140
1.0
102
RTVSPost2010PropOp57
 70
     1
102
RTVSPropertyOp0
 70
     1
102
RTVSPropertyOp1
 70
     1
102
RTVSPropertyOp2
 70
     1
102
RTVSPropertyOp3
 70
     1
102
RTVSPropertyOp4
 70
     1
102
RTVSPropertyOp5
 70
     1
102
RTVSPropertyOp6
 70
     1
102
RTVSPropertyOp7
 70
     1
102
RTVSPropertyOp8
 70
     1
102
RTVSPropertyOp9
 70
     1
102
RTVSPropertyOp10
 70
     1
102
RTVSPropertyOp11
 70
     1
102
RTVSPropertyOp12
 70
     1
102
RTVSPropertyOp13
 70
     1
102
RTVSPropertyOp14
 70
     1
102
RTVSPropertyOp15
 70
     1
102
RTVSPropertyOp16
 70
     1
102
RTVSPropertyOp17
 70
     1
102
RTVSPropertyOp18
 70
     1
102
RTVSPropertyOp19
 70
     1
102
RTVSPropertyOp20
 70
     1
102
RTVSPropertyOp21
 70
     1
102
RTVSPropertyOp22
 70
     1
102
RTVSPropertyOp23
 70
     1
102
RTVSPropertyOp24
 70
     1
102
RTVSPropertyOp25
 70
     1
102
RTVSPropertyOp26
 70
     1
102
RTVSPropertyOp27
 70
     1
102
RTVSPropertyOp28
 70
     1
102
RTVSPropertyOp29
 70
     1
102
RTVSPropertyOp30
 70
     1
102
RTVSPropertyOp31
 70
     1
102
RTVSPropertyOp32
 70
     1
102
RTVSPropertyOp33
 70
     1
102
RTVSPropertyOp34
 70
     1
102
RTVSPropertyOp35
 70
     1
102
RTVSPropertyOp36
 70
     1
102
RTVSPropertyOp37
 70
     1
102
RTVSPropertyOp38
 70
     1
102
RTVSPropertyOp39
 70
     1
102
RTVSPropertyOp40
 70
     1
102
RTVSPropertyOp41
 70
     1
102
RTVSPropertyOp42
 70
     1
102
RTVSPropertyOp43
 70
     1
102
RTVSPropertyOp44
 70
     1
102
RTVSPropertyOp45
 70
     1
102
RTVSPropertyOp46
 70
     1
102
RTVSPropertyOp47
 70
     1
102
RTVSPropertyOp48
 70
     1
102
RTVSPropertyOp49
 70
     1
102
RTVSPropertyOp50
 70
     1
102
RTVSPropertyOp51
 70
     0
102
RTVSPropertyOp52
 70
     0
102
RTVSPropertyOp53
 70
     1
102
RTVSPropertyOp54
 70
     1
102
RTVSPropertyOp55
 70
     1
102
RTVSPropertyOp56
 70
     1
102
RTVSPropertyOp57
 70
     1
102
RTVSPropertyOp58
 70
     1
102
RTVSPropertyOp59
 70
     1
102
RTVSPropertyOp60
 70
     1
102
RTVSPropertyOp61
 70
     1
102
RTVSPropertyOp62
 70
     1
  0
XRECORD
  5
FD356
102
{ACAD_REACTORS
330
FD355
102
}
330
FD355
100
AcDbXrecord
280
     1
102
RTVSPost2010Prop28
280
     0
102
RTVSPost2010PropOp28
 70
     1
102
RTVSPost2010Prop29
280
     1
102
RTVSPost2010PropOp29
 70
     1
102
RTVSPost2010Prop30
280
     1
102
RTVSPost2010PropOp30
 70
     1
102
RTVSPost2010Prop31
280
     0
102
RTVSPost2010PropOp31
 70
     1
102
RTVSPost2010Prop32
280
     0
102
RTVSPost2010PropOp32
 70
     1
102
RTVSPost2010Prop33
280
     0
102
RTVSPost2010PropOp33
 70
     1
102
RTVSPost2010Prop34
280
     0
102
RTVSPost2010PropOp34
 70
     1
102
RTVSPost2010Prop35
280
     0
102
RTVSPost2010PropOp35
 70
     1
102
RTVSPost2010Prop36
280
     0
102
RTVSPost2010PropOp36
 70
     1
102
RTVSPost2010Prop37
 90
       50
102
RTVSPost2010PropOp37
 70
     1
102
RTVSPost2010Prop38
140
0.0
102
RTVSPost2010PropOp38
 70
     1
102
RTVSPost2010Prop39
140
1.0
102
RTVSPost2010PropOp39
 70
     1
102
RTVSPost2010Prop40
 90
        0
102
RTVSPost2010PropOp40
 70
     1
102
RTVSPost2010Prop41ColorIndex
 90
       18
102
RTVSPost2010Prop41ColorRGB
 90
        0
102
RTVSPost2010PropOp41
 70
     1
102
RTVSPost2010Prop42
 90
       50
102
RTVSPost2010PropOp42
 70
     1
102
RTVSPost2010Prop43
 90
        3
102
RTVSPost2010PropOp43
 70
     1
102
RTVSPost2010Prop44ColorIndex
 90
        5
102
RTVSPost2010Prop44ColorRGB
 90
      255
102
RTVSPost2010PropOp44
 70
     1
102
RTVSPost2010Prop45
280
     0
102
RTVSPost2010PropOp45
 70
     1
102
RTVSPost2010Prop46
 90
       50
102
RTVSPost2010PropOp46
 70
     1
102
RTVSPost2010Prop47
 90
       50
102
RTVSPost2010PropOp47
 70
     1
102
RTVSPost2010Prop48
 90
       50
102
RTVSPost2010PropOp48
 70
     1
102
RTVSPost2010Prop49
280
     0
102
RTVSPost2010PropOp49
 70
     1
102
RTVSPost2010Prop50
 90
       50
102
RTVSPost2010PropOp50
 70
     1
102
RTVSPost2010Prop51ColorIndex
 90
      256
102
RTVSPost2010Prop51ColorRGB
 90
-16777216
102
RTVSPost2010PropOp51
 70
     0
102
RTVSPost2010Prop52
140
1.0
102
RTVSPost2010PropOp52
 70
     0
102
RTVSPost2010Prop53
 90
        2
102
RTVSPost2010PropOp53
 70
     1
102
RTVSPost2010Prop54
  1
strokes_ogs.tif
102
RTVSPost2010PropOp54
 70
     1
102
RTVSPost2010Prop55
280
     0
102
RTVSPost2010PropOp55
 70
     1
102
RTVSPost2010Prop56
140
1.0
102
RTVSPost2010PropOp56
 70
     1
102
RTVSPost2010Prop57
140
1.0
102
RTVSPost2010PropOp57
 70
     1
102
RTVSPropertyOp0
 70
     1
102
RTVSPropertyOp1
 70
     1
102
RTVSPropertyOp2
 70
     1
102
RTVSPropertyOp3
 70
     1
102
RTVSPropertyOp4
 70
     1
102
RTVSPropertyOp5
 70
     1
102
RTVSPropertyOp6
 70
     1
102
RTVSPropertyOp7
 70
     1
102
RTVSPropertyOp8
 70
     1
102
RTVSPropertyOp9
 70
     1
102
RTVSPropertyOp10
 70
     1
102
RTVSPropertyOp11
 70
     1
102
RTVSPropertyOp12
 70
     1
102
RTVSPropertyOp13
 70
     1
102
RTVSPropertyOp14
 70
     1
102
RTVSPropertyOp15
 70
     1
102
RTVSPropertyOp16
 70
     1
102
RTVSPropertyOp17
 70
     1
102
RTVSPropertyOp18
 70
     1
102
RTVSPropertyOp19
 70
     1
102
RTVSPropertyOp20
 70
     1
102
RTVSPropertyOp21
 70
     1
102
RTVSPropertyOp22
 70
     1
102
RTVSPropertyOp23
 70
     1
102
RTVSPropertyOp24
 70
     1
102
RTVSPropertyOp25
 70
     1
102
RTVSPropertyOp26
 70
     1
102
RTVSPropertyOp27
 70
     1
102
RTVSPropertyOp28
 70
     1
102
RTVSPropertyOp29
 70
     1
102
RTVSPropertyOp30
 70
     1
102
RTVSPropertyOp31
 70
     1
102
RTVSPropertyOp32
 70
     1
102
RTVSPropertyOp33
 70
     1
102
RTVSPropertyOp34
 70
     1
102
RTVSPropertyOp35
 70
     1
102
RTVSPropertyOp36
 70
     1
102
RTVSPropertyOp37
 70
     1
102
RTVSPropertyOp38
 70
     1
102
RTVSPropertyOp39
 70
     1
102
RTVSPropertyOp40
 70
     1
102
RTVSPropertyOp41
 70
     1
102
RTVSPropertyOp42
 70
     1
102
RTVSPropertyOp43
 70
     1
102
RTVSPropertyOp44
 70
     1
102
RTVSPropertyOp45
 70
     1
102
RTVSPropertyOp46
 70
     1
102
RTVSPropertyOp47
 70
     1
102
RTVSPropertyOp48
 70
     1
102
RTVSPropertyOp49
 70
     1
102
RTVSPropertyOp50
 70
     1
102
RTVSPropertyOp51
 70
     0
102
RTVSPropertyOp52
 70
     0
102
RTVSPropertyOp53
 70
     1
102
RTVSPropertyOp54
 70
     1
102
RTVSPropertyOp55
 70
     1
102
RTVSPropertyOp56
 70
     1
102
RTVSPropertyOp57
 70
     1
102
RTVSPropertyOp58
 70
     1
102
RTVSPropertyOp59
 70
     1
102
RTVSPropertyOp60
 70
     1
102
RTVSPropertyOp61
 70
     1
102
RTVSPropertyOp62
 70
     1
  0
XRECORD
  5
FD372
102
{ACAD_REACTORS
330
FD371
102
}
330
FD371
100
AcDbXrecord
280
     1
102
RTVSPost2010Prop28
280
     0
102
RTVSPost2010PropOp28
 70
     0
102
RTVSPost2010Prop29
280
     1
102
RTVSPost2010PropOp29
 70
     0
102
RTVSPost2010Prop30
280
     1
102
RTVSPost2010PropOp30
 70
     0
102
RTVSPost2010Prop31
280
     0
102
RTVSPost2010PropOp31
 70
     0
102
RTVSPost2010Prop32
280
     0
102
RTVSPost2010PropOp32
 70
     0
102
RTVSPost2010Prop33
280
     0
102
RTVSPost2010PropOp33
 70
     0
102
RTVSPost2010Prop34
280
     0
102
RTVSPost2010PropOp34
 70
     0
102
RTVSPost2010Prop35
280
     0
102
RTVSPost2010PropOp35
 70
     0
102
RTVSPost2010Prop36
280
     0
102
RTVSPost2010PropOp36
 70
     0
102
RTVSPost2010Prop37
 90
       50
102
RTVSPost2010PropOp37
 70
     0
102
RTVSPost2010Prop38
140
0.0
102
RTVSPost2010PropOp38
 70
     0
102
RTVSPost2010Prop39
140
1.0
102
RTVSPost2010PropOp39
 70
     0
102
RTVSPost2010Prop40
 90
        0
102
RTVSPost2010PropOp40
 70
     0
102
RTVSPost2010Prop41ColorIndex
 90
       18
102
RTVSPost2010Prop41ColorRGB
 90
        0
102
RTVSPost2010PropOp41
 70
     0
102
RTVSPost2010Prop42
 90
       50
102
RTVSPost2010PropOp42
 70
     0
102
RTVSPost2010Prop43
 90
        3
102
RTVSPost2010PropOp43
 70
     0
102
RTVSPost2010Prop44ColorIndex
 90
        5
102
RTVSPost2010Prop44ColorRGB
 90
      255
102
RTVSPost2010PropOp44
 70
     0
102
RTVSPost2010Prop45
280
     0
102
RTVSPost2010PropOp45
 70
     0
102
RTVSPost2010Prop46
 90
       50
102
RTVSPost2010PropOp46
 70
     0
102
RTVSPost2010Prop47
 90
       50
102
RTVSPost2010PropOp47
 70
     0
102
RTVSPost2010Prop48
 90
       50
102
RTVSPost2010PropOp48
 70
     0
102
RTVSPost2010Prop49
280
     0
102
RTVSPost2010PropOp49
 70
     0
102
RTVSPost2010Prop50
 90
       50
102
RTVSPost2010PropOp50
 70
     0
102
RTVSPost2010Prop51ColorIndex
 90
      256
102
RTVSPost2010Prop51ColorRGB
 90
-16777216
102
RTVSPost2010PropOp51
 70
     0
102
RTVSPost2010Prop52
140
1.0
102
RTVSPost2010PropOp52
 70
     0
102
RTVSPost2010Prop53
 90
        2
102
RTVSPost2010PropOp53
 70
     0
102
RTVSPost2010Prop54
  1
strokes_ogs.tif
102
RTVSPost2010PropOp54
 70
     0
102
RTVSPost2010Prop55
280
     0
102
RTVSPost2010PropOp55
 70
     0
102
RTVSPost2010Prop56
140
1.0
102
RTVSPost2010PropOp56
 70
     0
102
RTVSPost2010Prop57
140
1.0
102
RTVSPost2010PropOp57
 70
     0
102
RTVSPropertyOp0
 70
     0
102
RTVSPropertyOp1
 70
     0
102
RTVSPropertyOp2
 70
     0
102
RTVSPropertyOp3
 70
     0
102
RTVSPropertyOp4
 70
     0
102
RTVSPropertyOp5
 70
     0
102
RTVSPropertyOp6
 70
     0
102
RTVSPropertyOp7
 70
     0
102
RTVSPropertyOp8
 70
     0
102
RTVSPropertyOp9
 70
     0
102
RTVSPropertyOp10
 70
     0
102
RTVSPropertyOp11
 70
     0
102
RTVSPropertyOp12
 70
     0
102
RTVSPropertyOp13
 70
     0
102
RTVSPropertyOp14
 70
     2
102
RTVSPropertyOp15
 70
     0
102
RTVSPropertyOp16
 70
     0
102
RTVSPropertyOp17
 70
     0
102
RTVSPropertyOp18
 70
     0
102
RTVSPropertyOp19
 70
     0
102
RTVSPropertyOp20
 70
     0
102
RTVSPropertyOp21
 70
     0
102
RTVSPropertyOp22
 70
     0
102
RTVSPropertyOp23
 70
     0
102
RTVSPropertyOp24
 70
     0
102
RTVSPropertyOp25
 70
     0
102
RTVSPropertyOp26
 70
     0
102
RTVSPropertyOp27
 70
     0
102
RTVSPropertyOp28
 70
     0
102
RTVSPropertyOp29
 70
     0
102
RTVSPropertyOp30
 70
     0
102
RTVSPropertyOp31
 70
     0
102
RTVSPropertyOp32
 70
     0
102
RTVSPropertyOp33
 70
     0
102
RTVSPropertyOp34
 70
     0
102
RTVSPropertyOp35
 70
     0
102
RTVSPropertyOp36
 70
     0
102
RTVSPropertyOp37
 70
     0
102
RTVSPropertyOp38
 70
     0
102
RTVSPropertyOp39
 70
     0
102
RTVSPropertyOp40
 70
     0
102
RTVSPropertyOp41
 70
     0
102
RTVSPropertyOp42
 70
     0
102
RTVSPropertyOp43
 70
     0
102
RTVSPropertyOp44
 70
     0
102
RTVSPropertyOp45
 70
     0
102
RTVSPropertyOp46
 70
     0
102
RTVSPropertyOp47
 70
     0
102
RTVSPropertyOp48
 70
     0
102
RTVSPropertyOp49
 70
     0
102
RTVSPropertyOp50
 70
     0
102
RTVSPropertyOp51
 70
     0
102
RTVSPropertyOp52
 70
     0
102
RTVSPropertyOp53
 70
     0
102
RTVSPropertyOp54
 70
     0
102
RTVSPropertyOp55
 70
     0
102
RTVSPropertyOp56
 70
     0
102
RTVSPropertyOp57
 70
     0
102
RTVSPropertyOp58
 70
     0
102
RTVSPropertyOp59
 70
     0
102
RTVSPropertyOp60
 70
     0
102
RTVSPropertyOp61
 70
     0
102
RTVSPropertyOp62
 70
     0
  0
XRECORD
  5
FD362
102
{ACAD_REACTORS
330
FD361
102
}
330
FD361
100
AcDbXrecord
280
     1
102
RTVSPost2010Prop28
280
     0
102
RTVSPost2010PropOp28
 70
     1
102
RTVSPost2010Prop29
280
     1
102
RTVSPost2010PropOp29
 70
     1
102
RTVSPost2010Prop30
280
     1
102
RTVSPost2010PropOp30
 70
     1
102
RTVSPost2010Prop31
280
     0
102
RTVSPost2010PropOp31
 70
     1
102
RTVSPost2010Prop32
280
     0
102
RTVSPost2010PropOp32
 70
     1
102
RTVSPost2010Prop33
280
     0
102
RTVSPost2010PropOp33
 70
     1
102
RTVSPost2010Prop34
280
     0
102
RTVSPost2010PropOp34
 70
     1
102
RTVSPost2010Prop35
280
     0
102
RTVSPost2010PropOp35
 70
     1
102
RTVSPost2010Prop36
280
     0
102
RTVSPost2010PropOp36
 70
     1
102
RTVSPost2010Prop37
 90
       50
102
RTVSPost2010PropOp37
 70
     1
102
RTVSPost2010Prop38
140
0.0
102
RTVSPost2010PropOp38
 70
     1
102
RTVSPost2010Prop39
140
1.0
102
RTVSPost2010PropOp39
 70
     1
102
RTVSPost2010Prop40
 90
        0
102
RTVSPost2010PropOp40
 70
     1
102
RTVSPost2010Prop41ColorIndex
 90
       18
102
RTVSPost2010Prop41ColorRGB
 90
        0
102
RTVSPost2010PropOp41
 70
     1
102
RTVSPost2010Prop42
 90
       50
102
RTVSPost2010PropOp42
 70
     1
102
RTVSPost2010Prop43
 90
        3
102
RTVSPost2010PropOp43
 70
     1
102
RTVSPost2010Prop44ColorIndex
 90
        5
102
RTVSPost2010Prop44ColorRGB
 90
      255
102
RTVSPost2010PropOp44
 70
     1
102
RTVSPost2010Prop45
280
     0
102
RTVSPost2010PropOp45
 70
     1
102
RTVSPost2010Prop46
 90
       50
102
RTVSPost2010PropOp46
 70
     1
102
RTVSPost2010Prop47
 90
       50
102
RTVSPost2010PropOp47
 70
     1
102
RTVSPost2010Prop48
 90
       50
102
RTVSPost2010PropOp48
 70
     1
102
RTVSPost2010Prop49
280
     0
102
RTVSPost2010PropOp49
 70
     1
102
RTVSPost2010Prop50
 90
       50
102
RTVSPost2010PropOp50
 70
     1
102
RTVSPost2010Prop51ColorIndex
 90
      256
102
RTVSPost2010Prop51ColorRGB
 90
-16777216
102
RTVSPost2010PropOp51
 70
     0
102
RTVSPost2010Prop52
140
1.0
102
RTVSPost2010PropOp52
 70
     0
102
RTVSPost2010Prop53
 90
        2
102
RTVSPost2010PropOp53
 70
     1
102
RTVSPost2010Prop54
  1
strokes_ogs.tif
102
RTVSPost2010PropOp54
 70
     1
102
RTVSPost2010Prop55
280
     0
102
RTVSPost2010PropOp55
 70
     1
102
RTVSPost2010Prop56
140
1.0
102
RTVSPost2010PropOp56
 70
     1
102
RTVSPost2010Prop57
140
1.0
102
RTVSPost2010PropOp57
 70
     1
102
RTVSPropertyOp0
 70
     1
102
RTVSPropertyOp1
 70
     1
102
RTVSPropertyOp2
 70
     1
102
RTVSPropertyOp3
 70
     1
102
RTVSPropertyOp4
 70
     1
102
RTVSPropertyOp5
 70
     1
102
RTVSPropertyOp6
 70
     1
102
RTVSPropertyOp7
 70
     1
102
RTVSPropertyOp8
 70
     1
102
RTVSPropertyOp9
 70
     1
102
RTVSPropertyOp10
 70
     1
102
RTVSPropertyOp11
 70
     1
102
RTVSPropertyOp12
 70
     1
102
RTVSPropertyOp13
 70
     1
102
RTVSPropertyOp14
 70
     1
102
RTVSPropertyOp15
 70
     1
102
RTVSPropertyOp16
 70
     1
102
RTVSPropertyOp17
 70
     1
102
RTVSPropertyOp18
 70
     1
102
RTVSPropertyOp19
 70
     1
102
RTVSPropertyOp20
 70
     1
102
RTVSPropertyOp21
 70
     1
102
RTVSPropertyOp22
 70
     1
102
RTVSPropertyOp23
 70
     1
102
RTVSPropertyOp24
 70
     1
102
RTVSPropertyOp25
 70
     1
102
RTVSPropertyOp26
 70
     1
102
RTVSPropertyOp27
 70
     1
102
RTVSPropertyOp28
 70
     1
102
RTVSPropertyOp29
 70
     1
102
RTVSPropertyOp30
 70
     1
102
RTVSPropertyOp31
 70
     1
102
RTVSPropertyOp32
 70
     1
102
RTVSPropertyOp33
 70
     1
102
RTVSPropertyOp34
 70
     1
102
RTVSPropertyOp35
 70
     1
102
RTVSPropertyOp36
 70
     1
102
RTVSPropertyOp37
 70
     1
102
RTVSPropertyOp38
 70
     1
102
RTVSPropertyOp39
 70
     1
102
RTVSPropertyOp40
 70
     1
102
RTVSPropertyOp41
 70
     1
102
RTVSPropertyOp42
 70
     1
102
RTVSPropertyOp43
 70
     1
102
RTVSPropertyOp44
 70
     1
102
RTVSPropertyOp45
 70
     1
102
RTVSPropertyOp46
 70
     1
102
RTVSPropertyOp47
 70
     1
102
RTVSPropertyOp48
 70
     1
102
RTVSPropertyOp49
 70
     1
102
RTVSPropertyOp50
 70
     1
102
RTVSPropertyOp51
 70
     0
102
RTVSPropertyOp52
 70
     0
102
RTVSPropertyOp53
 70
     1
102
RTVSPropertyOp54
 70
     1
102
RTVSPropertyOp55
 70
     1
102
RTVSPropertyOp56
 70
     1
102
RTVSPropertyOp57
 70
     1
102
RTVSPropertyOp58
 70
     1
102
RTVSPropertyOp59
 70
     1
102
RTVSPropertyOp60
 70
     1
102
RTVSPropertyOp61
 70
     1
102
RTVSPropertyOp62
 70
     1
  0
XRECORD
  5
FD374
102
{ACAD_REACTORS
330
FD373
102
}
330
FD373
100
AcDbXrecord
280
     1
102
RTVSPost2010Prop28
280
     0
102
RTVSPost2010PropOp28
 70
     0
102
RTVSPost2010Prop29
280
     1
102
RTVSPost2010PropOp29
 70
     0
102
RTVSPost2010Prop30
280
     1
102
RTVSPost2010PropOp30
 70
     0
102
RTVSPost2010Prop31
280
     0
102
RTVSPost2010PropOp31
 70
     0
102
RTVSPost2010Prop32
280
     0
102
RTVSPost2010PropOp32
 70
     0
102
RTVSPost2010Prop33
280
     0
102
RTVSPost2010PropOp33
 70
     0
102
RTVSPost2010Prop34
280
     0
102
RTVSPost2010PropOp34
 70
     0
102
RTVSPost2010Prop35
280
     0
102
RTVSPost2010PropOp35
 70
     0
102
RTVSPost2010Prop36
280
     0
102
RTVSPost2010PropOp36
 70
     0
102
RTVSPost2010Prop37
 90
       50
102
RTVSPost2010PropOp37
 70
     0
102
RTVSPost2010Prop38
140
0.0
102
RTVSPost2010PropOp38
 70
     0
102
RTVSPost2010Prop39
140
1.0
102
RTVSPost2010PropOp39
 70
     0
102
RTVSPost2010Prop40
 90
        0
102
RTVSPost2010PropOp40
 70
     0
102
RTVSPost2010Prop41ColorIndex
 90
       18
102
RTVSPost2010Prop41ColorRGB
 90
        0
102
RTVSPost2010PropOp41
 70
     0
102
RTVSPost2010Prop42
 90
       50
102
RTVSPost2010PropOp42
 70
     0
102
RTVSPost2010Prop43
 90
        3
102
RTVSPost2010PropOp43
 70
     0
102
RTVSPost2010Prop44ColorIndex
 90
        5
102
RTVSPost2010Prop44ColorRGB
 90
      255
102
RTVSPost2010PropOp44
 70
     0
102
RTVSPost2010Prop45
280
     0
102
RTVSPost2010PropOp45
 70
     0
102
RTVSPost2010Prop46
 90
       50
102
RTVSPost2010PropOp46
 70
     0
102
RTVSPost2010Prop47
 90
       50
102
RTVSPost2010PropOp47
 70
     0
102
RTVSPost2010Prop48
 90
       50
102
RTVSPost2010PropOp48
 70
     0
102
RTVSPost2010Prop49
280
     0
102
RTVSPost2010PropOp49
 70
     0
102
RTVSPost2010Prop50
 90
       50
102
RTVSPost2010PropOp50
 70
     0
102
RTVSPost2010Prop51ColorIndex
 90
      256
102
RTVSPost2010Prop51ColorRGB
 90
-16777216
102
RTVSPost2010PropOp51
 70
     0
102
RTVSPost2010Prop52
140
1.0
102
RTVSPost2010PropOp52
 70
     0
102
RTVSPost2010Prop53
 90
        2
102
RTVSPost2010PropOp53
 70
     0
102
RTVSPost2010Prop54
  1
strokes_ogs.tif
102
RTVSPost2010PropOp54
 70
     0
102
RTVSPost2010Prop55
280
     0
102
RTVSPost2010PropOp55
 70
     0
102
RTVSPost2010Prop56
140
1.0
102
RTVSPost2010PropOp56
 70
     0
102
RTVSPost2010Prop57
140
1.0
102
RTVSPost2010PropOp57
 70
     0
102
RTVSPropertyOp0
 70
     0
102
RTVSPropertyOp1
 70
     0
102
RTVSPropertyOp2
 70
     0
102
RTVSPropertyOp3
 70
     0
102
RTVSPropertyOp4
 70
     0
102
RTVSPropertyOp5
 70
     0
102
RTVSPropertyOp6
 70
     0
102
RTVSPropertyOp7
 70
     0
102
RTVSPropertyOp8
 70
     0
102
RTVSPropertyOp9
 70
     0
102
RTVSPropertyOp10
 70
     0
102
RTVSPropertyOp11
 70
     0
102
RTVSPropertyOp12
 70
     0
102
RTVSPropertyOp13
 70
     0
102
RTVSPropertyOp14
 70
     2
102
RTVSPropertyOp15
 70
     0
102
RTVSPropertyOp16
 70
     0
102
RTVSPropertyOp17
 70
     0
102
RTVSPropertyOp18
 70
     0
102
RTVSPropertyOp19
 70
     0
102
RTVSPropertyOp20
 70
     0
102
RTVSPropertyOp21
 70
     0
102
RTVSPropertyOp22
 70
     0
102
RTVSPropertyOp23
 70
     0
102
RTVSPropertyOp24
 70
     0
102
RTVSPropertyOp25
 70
     0
102
RTVSPropertyOp26
 70
     0
102
RTVSPropertyOp27
 70
     0
102
RTVSPropertyOp28
 70
     0
102
RTVSPropertyOp29
 70
     0
102
RTVSPropertyOp30
 70
     0
102
RTVSPropertyOp31
 70
     0
102
RTVSPropertyOp32
 70
     0
102
RTVSPropertyOp33
 70
     0
102
RTVSPropertyOp34
 70
     0
102
RTVSPropertyOp35
 70
     0
102
RTVSPropertyOp36
 70
     0
102
RTVSPropertyOp37
 70
     0
102
RTVSPropertyOp38
 70
     0
102
RTVSPropertyOp39
 70
     0
102
RTVSPropertyOp40
 70
     0
102
RTVSPropertyOp41
 70
     0
102
RTVSPropertyOp42
 70
     0
102
RTVSPropertyOp43
 70
     0
102
RTVSPropertyOp44
 70
     0
102
RTVSPropertyOp45
 70
     0
102
RTVSPropertyOp46
 70
     0
102
RTVSPropertyOp47
 70
     0
102
RTVSPropertyOp48
 70
     0
102
RTVSPropertyOp49
 70
     0
102
RTVSPropertyOp50
 70
     0
102
RTVSPropertyOp51
 70
     0
102
RTVSPropertyOp52
 70
     0
102
RTVSPropertyOp53
 70
     0
102
RTVSPropertyOp54
 70
     0
102
RTVSPropertyOp55
 70
     0
102
RTVSPropertyOp56
 70
     0
102
RTVSPropertyOp57
 70
     0
102
RTVSPropertyOp58
 70
     0
102
RTVSPropertyOp59
 70
     0
102
RTVSPropertyOp60
 70
     0
102
RTVSPropertyOp61
 70
     0
102
RTVSPropertyOp62
 70
     0
  0
XRECORD
  5
FD35A
102
{ACAD_REACTORS
330
FD359
102
}
330
FD359
100
AcDbXrecord
280
     1
102
RTVSPost2010Prop28
280
     0
102
RTVSPost2010PropOp28
 70
     1
102
RTVSPost2010Prop29
280
     1
102
RTVSPost2010PropOp29
 70
     1
102
RTVSPost2010Prop30
280
     1
102
RTVSPost2010PropOp30
 70
     1
102
RTVSPost2010Prop31
280
     0
102
RTVSPost2010PropOp31
 70
     1
102
RTVSPost2010Prop32
280
     0
102
RTVSPost2010PropOp32
 70
     1
102
RTVSPost2010Prop33
280
     0
102
RTVSPost2010PropOp33
 70
     1
102
RTVSPost2010Prop34
280
     0
102
RTVSPost2010PropOp34
 70
     1
102
RTVSPost2010Prop35
280
     0
102
RTVSPost2010PropOp35
 70
     1
102
RTVSPost2010Prop36
280
     0
102
RTVSPost2010PropOp36
 70
     1
102
RTVSPost2010Prop37
 90
       50
102
RTVSPost2010PropOp37
 70
     1
102
RTVSPost2010Prop38
140
0.0
102
RTVSPost2010PropOp38
 70
     1
102
RTVSPost2010Prop39
140
1.0
102
RTVSPost2010PropOp39
 70
     1
102
RTVSPost2010Prop40
 90
        0
102
RTVSPost2010PropOp40
 70
     1
102
RTVSPost2010Prop41ColorIndex
 90
       18
102
RTVSPost2010Prop41ColorRGB
 90
        0
102
RTVSPost2010PropOp41
 70
     1
102
RTVSPost2010Prop42
 90
       50
102
RTVSPost2010PropOp42
 70
     1
102
RTVSPost2010Prop43
 90
        3
102
RTVSPost2010PropOp43
 70
     1
102
RTVSPost2010Prop44ColorIndex
 90
        5
102
RTVSPost2010Prop44ColorRGB
 90
      255
102
RTVSPost2010PropOp44
 70
     1
102
RTVSPost2010Prop45
280
     0
102
RTVSPost2010PropOp45
 70
     1
102
RTVSPost2010Prop46
 90
       50
102
RTVSPost2010PropOp46
 70
     1
102
RTVSPost2010Prop47
 90
       50
102
RTVSPost2010PropOp47
 70
     1
102
RTVSPost2010Prop48
 90
       50
102
RTVSPost2010PropOp48
 70
     1
102
RTVSPost2010Prop49
280
     0
102
RTVSPost2010PropOp49
 70
     1
102
RTVSPost2010Prop50
 90
       50
102
RTVSPost2010PropOp50
 70
     1
102
RTVSPost2010Prop51ColorIndex
 90
      256
102
RTVSPost2010Prop51ColorRGB
 90
-16777216
102
RTVSPost2010PropOp51
 70
     0
102
RTVSPost2010Prop52
140
1.0
102
RTVSPost2010PropOp52
 70
     0
102
RTVSPost2010Prop53
 90
        2
102
RTVSPost2010PropOp53
 70
     1
102
RTVSPost2010Prop54
  1
strokes_ogs.tif
102
RTVSPost2010PropOp54
 70
     1
102
RTVSPost2010Prop55
280
     0
102
RTVSPost2010PropOp55
 70
     1
102
RTVSPost2010Prop56
140
1.0
102
RTVSPost2010PropOp56
 70
     1
102
RTVSPost2010Prop57
140
1.0
102
RTVSPost2010PropOp57
 70
     1
102
RTVSPropertyOp0
 70
     1
102
RTVSPropertyOp1
 70
     1
102
RTVSPropertyOp2
 70
     1
102
RTVSPropertyOp3
 70
     1
102
RTVSPropertyOp4
 70
     1
102
RTVSPropertyOp5
 70
     1
102
RTVSPropertyOp6
 70
     1
102
RTVSPropertyOp7
 70
     1
102
RTVSPropertyOp8
 70
     1
102
RTVSPropertyOp9
 70
     1
102
RTVSPropertyOp10
 70
     1
102
RTVSPropertyOp11
 70
     1
102
RTVSPropertyOp12
 70
     1
102
RTVSPropertyOp13
 70
     1
102
RTVSPropertyOp14
 70
     1
102
RTVSPropertyOp15
 70
     1
102
RTVSPropertyOp16
 70
     1
102
RTVSPropertyOp17
 70
     1
102
RTVSPropertyOp18
 70
     1
102
RTVSPropertyOp19
 70
     1
102
RTVSPropertyOp20
 70
     1
102
RTVSPropertyOp21
 70
     1
102
RTVSPropertyOp22
 70
     1
102
RTVSPropertyOp23
 70
     1
102
RTVSPropertyOp24
 70
     1
102
RTVSPropertyOp25
 70
     1
102
RTVSPropertyOp26
 70
     1
102
RTVSPropertyOp27
 70
     1
102
RTVSPropertyOp28
 70
     1
102
RTVSPropertyOp29
 70
     1
102
RTVSPropertyOp30
 70
     1
102
RTVSPropertyOp31
 70
     1
102
RTVSPropertyOp32
 70
     1
102
RTVSPropertyOp33
 70
     1
102
RTVSPropertyOp34
 70
     1
102
RTVSPropertyOp35
 70
     1
102
RTVSPropertyOp36
 70
     1
102
RTVSPropertyOp37
 70
     1
102
RTVSPropertyOp38
 70
     1
102
RTVSPropertyOp39
 70
     1
102
RTVSPropertyOp40
 70
     1
102
RTVSPropertyOp41
 70
     1
102
RTVSPropertyOp42
 70
     1
102
RTVSPropertyOp43
 70
     1
102
RTVSPropertyOp44
 70
     1
102
RTVSPropertyOp45
 70
     1
102
RTVSPropertyOp46
 70
     1
102
RTVSPropertyOp47
 70
     1
102
RTVSPropertyOp48
 70
     1
102
RTVSPropertyOp49
 70
     1
102
RTVSPropertyOp50
 70
     1
102
RTVSPropertyOp51
 70
     0
102
RTVSPropertyOp52
 70
     0
102
RTVSPropertyOp53
 70
     1
102
RTVSPropertyOp54
 70
     1
102
RTVSPropertyOp55
 70
     1
102
RTVSPropertyOp56
 70
     1
102
RTVSPropertyOp57
 70
     1
102
RTVSPropertyOp58
 70
     1
102
RTVSPropertyOp59
 70
     1
102
RTVSPropertyOp60
 70
     1
102
RTVSPropertyOp61
 70
     1
102
RTVSPropertyOp62
 70
     1
  0
XRECORD
  5
FD370
102
{ACAD_REACTORS
330
FD36F
102
}
330
FD36F
100
AcDbXrecord
280
     1
102
RTVSPost2010Prop28
280
     0
102
RTVSPost2010PropOp28
 70
     1
102
RTVSPost2010Prop29
280
     1
102
RTVSPost2010PropOp29
 70
     1
102
RTVSPost2010Prop30
280
     1
102
RTVSPost2010PropOp30
 70
     1
102
RTVSPost2010Prop31
280
     0
102
RTVSPost2010PropOp31
 70
     1
102
RTVSPost2010Prop32
280
     0
102
RTVSPost2010PropOp32
 70
     1
102
RTVSPost2010Prop33
280
     0
102
RTVSPost2010PropOp33
 70
     1
102
RTVSPost2010Prop34
280
     0
102
RTVSPost2010PropOp34
 70
     1
102
RTVSPost2010Prop35
280
     0
102
RTVSPost2010PropOp35
 70
     1
102
RTVSPost2010Prop36
280
     0
102
RTVSPost2010PropOp36
 70
     1
102
RTVSPost2010Prop37
 90
       50
102
RTVSPost2010PropOp37
 70
     1
102
RTVSPost2010Prop38
140
0.0
102
RTVSPost2010PropOp38
 70
     1
102
RTVSPost2010Prop39
140
1.0
102
RTVSPost2010PropOp39
 70
     1
102
RTVSPost2010Prop40
 90
        0
102
RTVSPost2010PropOp40
 70
     1
102
RTVSPost2010Prop41ColorIndex
 90
       18
102
RTVSPost2010Prop41ColorRGB
 90
        0
102
RTVSPost2010PropOp41
 70
     1
102
RTVSPost2010Prop42
 90
       50
102
RTVSPost2010PropOp42
 70
     1
102
RTVSPost2010Prop43
 90
        3
102
RTVSPost2010PropOp43
 70
     1
102
RTVSPost2010Prop44ColorIndex
 90
        5
102
RTVSPost2010Prop44ColorRGB
 90
      255
102
RTVSPost2010PropOp44
 70
     1
102
RTVSPost2010Prop45
280
     0
102
RTVSPost2010PropOp45
 70
     1
102
RTVSPost2010Prop46
 90
       50
102
RTVSPost2010PropOp46
 70
     1
102
RTVSPost2010Prop47
 90
       50
102
RTVSPost2010PropOp47
 70
     1
102
RTVSPost2010Prop48
 90
       50
102
RTVSPost2010PropOp48
 70
     1
102
RTVSPost2010Prop49
280
     0
102
RTVSPost2010PropOp49
 70
     1
102
RTVSPost2010Prop50
 90
       50
102
RTVSPost2010PropOp50
 70
     1
102
RTVSPost2010Prop51ColorIndex
 90
      256
102
RTVSPost2010Prop51ColorRGB
 90
-16777216
102
RTVSPost2010PropOp51
 70
     0
102
RTVSPost2010Prop52
140
1.0
102
RTVSPost2010PropOp52
 70
     0
102
RTVSPost2010Prop53
 90
        2
102
RTVSPost2010PropOp53
 70
     1
102
RTVSPost2010Prop54
  1
strokes_ogs.tif
102
RTVSPost2010PropOp54
 70
     1
102
RTVSPost2010Prop55
280
     0
102
RTVSPost2010PropOp55
 70
     1
102
RTVSPost2010Prop56
140
1.0
102
RTVSPost2010PropOp56
 70
     1
102
RTVSPost2010Prop57
140
1.0
102
RTVSPost2010PropOp57
 70
     1
102
RTVSPropertyOp0
 70
     1
102
RTVSPropertyOp1
 70
     1
102
RTVSPropertyOp2
 70
     1
102
RTVSPropertyOp3
 70
     1
102
RTVSPropertyOp4
 70
     1
102
RTVSPropertyOp5
 70
     1
102
RTVSPropertyOp6
 70
     1
102
RTVSPropertyOp7
 70
     1
102
RTVSPropertyOp8
 70
     1
102
RTVSPropertyOp9
 70
     1
102
RTVSPropertyOp10
 70
     1
102
RTVSPropertyOp11
 70
     1
102
RTVSPropertyOp12
 70
     1
102
RTVSPropertyOp13
 70
     1
102
RTVSPropertyOp14
 70
     1
102
RTVSPropertyOp15
 70
     1
102
RTVSPropertyOp16
 70
     1
102
RTVSPropertyOp17
 70
     1
102
RTVSPropertyOp18
 70
     1
102
RTVSPropertyOp19
 70
     1
102
RTVSPropertyOp20
 70
     1
102
RTVSPropertyOp21
 70
     1
102
RTVSPropertyOp22
 70
     1
102
RTVSPropertyOp23
 70
     1
102
RTVSPropertyOp24
 70
     1
102
RTVSPropertyOp25
 70
     1
102
RTVSPropertyOp26
 70
     1
102
RTVSPropertyOp27
 70
     1
102
RTVSPropertyOp28
 70
     1
102
RTVSPropertyOp29
 70
     1
102
RTVSPropertyOp30
 70
     1
102
RTVSPropertyOp31
 70
     1
102
RTVSPropertyOp32
 70
     1
102
RTVSPropertyOp33
 70
     1
102
RTVSPropertyOp34
 70
     1
102
RTVSPropertyOp35
 70
     1
102
RTVSPropertyOp36
 70
     1
102
RTVSPropertyOp37
 70
     1
102
RTVSPropertyOp38
 70
     1
102
RTVSPropertyOp39
 70
     1
102
RTVSPropertyOp40
 70
     1
102
RTVSPropertyOp41
 70
     1
102
RTVSPropertyOp42
 70
     1
102
RTVSPropertyOp43
 70
     1
102
RTVSPropertyOp44
 70
     1
102
RTVSPropertyOp45
 70
     1
102
RTVSPropertyOp46
 70
     1
102
RTVSPropertyOp47
 70
     1
102
RTVSPropertyOp48
 70
     1
102
RTVSPropertyOp49
 70
     1
102
RTVSPropertyOp50
 70
     1
102
RTVSPropertyOp51
 70
     0
102
RTVSPropertyOp52
 70
     0
102
RTVSPropertyOp53
 70
     1
102
RTVSPropertyOp54
 70
     1
102
RTVSPropertyOp55
 70
     1
102
RTVSPropertyOp56
 70
     1
102
RTVSPropertyOp57
 70
     1
102
RTVSPropertyOp58
 70
     1
102
RTVSPropertyOp59
 70
     1
102
RTVSPropertyOp60
 70
     1
102
RTVSPropertyOp61
 70
     1
102
RTVSPropertyOp62
 70
     1
  0
XRECORD
  5
FD36E
102
{ACAD_REACTORS
330
FD36D
102
}
330
FD36D
100
AcDbXrecord
280
     1
102
RTVSPost2010Prop28
280
     0
102
RTVSPost2010PropOp28
 70
     1
102
RTVSPost2010Prop29
280
     1
102
RTVSPost2010PropOp29
 70
     1
102
RTVSPost2010Prop30
280
     1
102
RTVSPost2010PropOp30
 70
     1
102
RTVSPost2010Prop31
280
     0
102
RTVSPost2010PropOp31
 70
     1
102
RTVSPost2010Prop32
280
     0
102
RTVSPost2010PropOp32
 70
     1
102
RTVSPost2010Prop33
280
     0
102
RTVSPost2010PropOp33
 70
     1
102
RTVSPost2010Prop34
280
     0
102
RTVSPost2010PropOp34
 70
     1
102
RTVSPost2010Prop35
280
     0
102
RTVSPost2010PropOp35
 70
     1
102
RTVSPost2010Prop36
280
     0
102
RTVSPost2010PropOp36
 70
     1
102
RTVSPost2010Prop37
 90
       50
102
RTVSPost2010PropOp37
 70
     1
102
RTVSPost2010Prop38
140
0.0
102
RTVSPost2010PropOp38
 70
     1
102
RTVSPost2010Prop39
140
1.0
102
RTVSPost2010PropOp39
 70
     1
102
RTVSPost2010Prop40
 90
        0
102
RTVSPost2010PropOp40
 70
     1
102
RTVSPost2010Prop41ColorIndex
 90
       18
102
RTVSPost2010Prop41ColorRGB
 90
        0
102
RTVSPost2010PropOp41
 70
     1
102
RTVSPost2010Prop42
 90
       50
102
RTVSPost2010PropOp42
 70
     1
102
RTVSPost2010Prop43
 90
        3
102
RTVSPost2010PropOp43
 70
     1
102
RTVSPost2010Prop44ColorIndex
 90
        5
102
RTVSPost2010Prop44ColorRGB
 90
      255
102
RTVSPost2010PropOp44
 70
     1
102
RTVSPost2010Prop45
280
     0
102
RTVSPost2010PropOp45
 70
     1
102
RTVSPost2010Prop46
 90
       50
102
RTVSPost2010PropOp46
 70
     1
102
RTVSPost2010Prop47
 90
       50
102
RTVSPost2010PropOp47
 70
     1
102
RTVSPost2010Prop48
 90
       50
102
RTVSPost2010PropOp48
 70
     1
102
RTVSPost2010Prop49
280
     0
102
RTVSPost2010PropOp49
 70
     1
102
RTVSPost2010Prop50
 90
       50
102
RTVSPost2010PropOp50
 70
     1
102
RTVSPost2010Prop51ColorIndex
 90
      256
102
RTVSPost2010Prop51ColorRGB
 90
-16777216
102
RTVSPost2010PropOp51
 70
     0
102
RTVSPost2010Prop52
140
1.0
102
RTVSPost2010PropOp52
 70
     0
102
RTVSPost2010Prop53
 90
        2
102
RTVSPost2010PropOp53
 70
     1
102
RTVSPost2010Prop54
  1
strokes_ogs.tif
102
RTVSPost2010PropOp54
 70
     1
102
RTVSPost2010Prop55
280
     0
102
RTVSPost2010PropOp55
 70
     1
102
RTVSPost2010Prop56
140
1.0
102
RTVSPost2010PropOp56
 70
     1
102
RTVSPost2010Prop57
140
1.0
102
RTVSPost2010PropOp57
 70
     1
102
RTVSPropertyOp0
 70
     1
102
RTVSPropertyOp1
 70
     1
102
RTVSPropertyOp2
 70
     1
102
RTVSPropertyOp3
 70
     1
102
RTVSPropertyOp4
 70
     1
102
RTVSPropertyOp5
 70
     1
102
RTVSPropertyOp6
 70
     1
102
RTVSPropertyOp7
 70
     1
102
RTVSPropertyOp8
 70
     1
102
RTVSPropertyOp9
 70
     1
102
RTVSPropertyOp10
 70
     1
102
RTVSPropertyOp11
 70
     1
102
RTVSPropertyOp12
 70
     1
102
RTVSPropertyOp13
 70
     1
102
RTVSPropertyOp14
 70
     1
102
RTVSPropertyOp15
 70
     1
102
RTVSPropertyOp16
 70
     1
102
RTVSPropertyOp17
 70
     1
102
RTVSPropertyOp18
 70
     1
102
RTVSPropertyOp19
 70
     1
102
RTVSPropertyOp20
 70
     1
102
RTVSPropertyOp21
 70
     1
102
RTVSPropertyOp22
 70
     1
102
RTVSPropertyOp23
 70
     1
102
RTVSPropertyOp24
 70
     1
102
RTVSPropertyOp25
 70
     1
102
RTVSPropertyOp26
 70
     1
102
RTVSPropertyOp27
 70
     1
102
RTVSPropertyOp28
 70
     1
102
RTVSPropertyOp29
 70
     1
102
RTVSPropertyOp30
 70
     1
102
RTVSPropertyOp31
 70
     1
102
RTVSPropertyOp32
 70
     1
102
RTVSPropertyOp33
 70
     1
102
RTVSPropertyOp34
 70
     1
102
RTVSPropertyOp35
 70
     1
102
RTVSPropertyOp36
 70
     1
102
RTVSPropertyOp37
 70
     1
102
RTVSPropertyOp38
 70
     1
102
RTVSPropertyOp39
 70
     1
102
RTVSPropertyOp40
 70
     1
102
RTVSPropertyOp41
 70
     1
102
RTVSPropertyOp42
 70
     1
102
RTVSPropertyOp43
 70
     1
102
RTVSPropertyOp44
 70
     1
102
RTVSPropertyOp45
 70
     1
102
RTVSPropertyOp46
 70
     1
102
RTVSPropertyOp47
 70
     1
102
RTVSPropertyOp48
 70
     1
102
RTVSPropertyOp49
 70
     1
102
RTVSPropertyOp50
 70
     1
102
RTVSPropertyOp51
 70
     0
102
RTVSPropertyOp52
 70
     0
102
RTVSPropertyOp53
 70
     1
102
RTVSPropertyOp54
 70
     1
102
RTVSPropertyOp55
 70
     1
102
RTVSPropertyOp56
 70
     1
102
RTVSPropertyOp57
 70
     1
102
RTVSPropertyOp58
 70
     1
102
RTVSPropertyOp59
 70
     1
102
RTVSPropertyOp60
 70
     1
102
RTVSPropertyOp61
 70
     1
102
RTVSPropertyOp62
 70
     1
  0
XRECORD
  5
FD368
102
{ACAD_REACTORS
330
FD367
102
}
330
FD367
100
AcDbXrecord
280
     1
102
RTVSPost2010Prop28
280
     0
102
RTVSPost2010PropOp28
 70
     1
102
RTVSPost2010Prop29
280
     1
102
RTVSPost2010PropOp29
 70
     1
102
RTVSPost2010Prop30
280
     1
102
RTVSPost2010PropOp30
 70
     1
102
RTVSPost2010Prop31
280
     0
102
RTVSPost2010PropOp31
 70
     1
102
RTVSPost2010Prop32
280
     0
102
RTVSPost2010PropOp32
 70
     1
102
RTVSPost2010Prop33
280
     0
102
RTVSPost2010PropOp33
 70
     1
102
RTVSPost2010Prop34
280
     0
102
RTVSPost2010PropOp34
 70
     1
102
RTVSPost2010Prop35
280
     0
102
RTVSPost2010PropOp35
 70
     1
102
RTVSPost2010Prop36
280
     0
102
RTVSPost2010PropOp36
 70
     1
102
RTVSPost2010Prop37
 90
       50
102
RTVSPost2010PropOp37
 70
     1
102
RTVSPost2010Prop38
140
0.0
102
RTVSPost2010PropOp38
 70
     1
102
RTVSPost2010Prop39
140
1.0
102
RTVSPost2010PropOp39
 70
     1
102
RTVSPost2010Prop40
 90
        0
102
RTVSPost2010PropOp40
 70
     1
102
RTVSPost2010Prop41ColorIndex
 90
       18
102
RTVSPost2010Prop41ColorRGB
 90
        0
102
RTVSPost2010PropOp41
 70
     1
102
RTVSPost2010Prop42
 90
       50
102
RTVSPost2010PropOp42
 70
     1
102
RTVSPost2010Prop43
 90
        3
102
RTVSPost2010PropOp43
 70
     1
102
RTVSPost2010Prop44ColorIndex
 90
        5
102
RTVSPost2010Prop44ColorRGB
 90
      255
102
RTVSPost2010PropOp44
 70
     1
102
RTVSPost2010Prop45
280
     0
102
RTVSPost2010PropOp45
 70
     1
102
RTVSPost2010Prop46
 90
       50
102
RTVSPost2010PropOp46
 70
     1
102
RTVSPost2010Prop47
 90
       50
102
RTVSPost2010PropOp47
 70
     1
102
RTVSPost2010Prop48
 90
       50
102
RTVSPost2010PropOp48
 70
     1
102
RTVSPost2010Prop49
280
     0
102
RTVSPost2010PropOp49
 70
     1
102
RTVSPost2010Prop50
 90
       50
102
RTVSPost2010PropOp50
 70
     1
102
RTVSPost2010Prop51ColorIndex
 90
      256
102
RTVSPost2010Prop51ColorRGB
 90
-16777216
102
RTVSPost2010PropOp51
 70
     0
102
RTVSPost2010Prop52
140
1.0
102
RTVSPost2010PropOp52
 70
     0
102
RTVSPost2010Prop53
 90
        2
102
RTVSPost2010PropOp53
 70
     1
102
RTVSPost2010Prop54
  1
strokes_ogs.tif
102
RTVSPost2010PropOp54
 70
     1
102
RTVSPost2010Prop55
280
     0
102
RTVSPost2010PropOp55
 70
     1
102
RTVSPost2010Prop56
140
1.0
102
RTVSPost2010PropOp56
 70
     1
102
RTVSPost2010Prop57
140
1.0
102
RTVSPost2010PropOp57
 70
     1
102
RTVSPropertyOp0
 70
     1
102
RTVSPropertyOp1
 70
     1
102
RTVSPropertyOp2
 70
     1
102
RTVSPropertyOp3
 70
     1
102
RTVSPropertyOp4
 70
     1
102
RTVSPropertyOp5
 70
     1
102
RTVSPropertyOp6
 70
     1
102
RTVSPropertyOp7
 70
     1
102
RTVSPropertyOp8
 70
     1
102
RTVSPropertyOp9
 70
     1
102
RTVSPropertyOp10
 70
     1
102
RTVSPropertyOp11
 70
     1
102
RTVSPropertyOp12
 70
     1
102
RTVSPropertyOp13
 70
     1
102
RTVSPropertyOp14
 70
     1
102
RTVSPropertyOp15
 70
     1
102
RTVSPropertyOp16
 70
     1
102
RTVSPropertyOp17
 70
     1
102
RTVSPropertyOp18
 70
     1
102
RTVSPropertyOp19
 70
     1
102
RTVSPropertyOp20
 70
     1
102
RTVSPropertyOp21
 70
     1
102
RTVSPropertyOp22
 70
     1
102
RTVSPropertyOp23
 70
     1
102
RTVSPropertyOp24
 70
     1
102
RTVSPropertyOp25
 70
     1
102
RTVSPropertyOp26
 70
     1
102
RTVSPropertyOp27
 70
     1
102
RTVSPropertyOp28
 70
     1
102
RTVSPropertyOp29
 70
     1
102
RTVSPropertyOp30
 70
     1
102
RTVSPropertyOp31
 70
     1
102
RTVSPropertyOp32
 70
     1
102
RTVSPropertyOp33
 70
     1
102
RTVSPropertyOp34
 70
     1
102
RTVSPropertyOp35
 70
     1
102
RTVSPropertyOp36
 70
     1
102
RTVSPropertyOp37
 70
     1
102
RTVSPropertyOp38
 70
     1
102
RTVSPropertyOp39
 70
     1
102
RTVSPropertyOp40
 70
     1
102
RTVSPropertyOp41
 70
     1
102
RTVSPropertyOp42
 70
     1
102
RTVSPropertyOp43
 70
     1
102
RTVSPropertyOp44
 70
     1
102
RTVSPropertyOp45
 70
     1
102
RTVSPropertyOp46
 70
     1
102
RTVSPropertyOp47
 70
     1
102
RTVSPropertyOp48
 70
     1
102
RTVSPropertyOp49
 70
     1
102
RTVSPropertyOp50
 70
     1
102
RTVSPropertyOp51
 70
     0
102
RTVSPropertyOp52
 70
     0
102
RTVSPropertyOp53
 70
     1
102
RTVSPropertyOp54
 70
     1
102
RTVSPropertyOp55
 70
     1
102
RTVSPropertyOp56
 70
     1
102
RTVSPropertyOp57
 70
     1
102
RTVSPropertyOp58
 70
     1
102
RTVSPropertyOp59
 70
     1
102
RTVSPropertyOp60
 70
     1
102
RTVSPropertyOp61
 70
     1
102
RTVSPropertyOp62
 70
     1
  0
XRECORD
  5
FD36A
102
{ACAD_REACTORS
330
FD369
102
}
330
FD369
100
AcDbXrecord
280
     1
102
RTVSPost2010Prop28
280
     0
102
RTVSPost2010PropOp28
 70
     1
102
RTVSPost2010Prop29
280
     1
102
RTVSPost2010PropOp29
 70
     1
102
RTVSPost2010Prop30
280
     1
102
RTVSPost2010PropOp30
 70
     1
102
RTVSPost2010Prop31
280
     0
102
RTVSPost2010PropOp31
 70
     1
102
RTVSPost2010Prop32
280
     0
102
RTVSPost2010PropOp32
 70
     1
102
RTVSPost2010Prop33
280
     0
102
RTVSPost2010PropOp33
 70
     1
102
RTVSPost2010Prop34
280
     0
102
RTVSPost2010PropOp34
 70
     1
102
RTVSPost2010Prop35
280
     0
102
RTVSPost2010PropOp35
 70
     1
102
RTVSPost2010Prop36
280
     0
102
RTVSPost2010PropOp36
 70
     1
102
RTVSPost2010Prop37
 90
       50
102
RTVSPost2010PropOp37
 70
     1
102
RTVSPost2010Prop38
140
0.0
102
RTVSPost2010PropOp38
 70
     1
102
RTVSPost2010Prop39
140
1.0
102
RTVSPost2010PropOp39
 70
     1
102
RTVSPost2010Prop40
 90
        0
102
RTVSPost2010PropOp40
 70
     1
102
RTVSPost2010Prop41ColorIndex
 90
       18
102
RTVSPost2010Prop41ColorRGB
 90
        0
102
RTVSPost2010PropOp41
 70
     1
102
RTVSPost2010Prop42
 90
       50
102
RTVSPost2010PropOp42
 70
     1
102
RTVSPost2010Prop43
 90
        3
102
RTVSPost2010PropOp43
 70
     1
102
RTVSPost2010Prop44ColorIndex
 90
        5
102
RTVSPost2010Prop44ColorRGB
 90
      255
102
RTVSPost2010PropOp44
 70
     1
102
RTVSPost2010Prop45
280
     0
102
RTVSPost2010PropOp45
 70
     1
102
RTVSPost2010Prop46
 90
       50
102
RTVSPost2010PropOp46
 70
     1
102
RTVSPost2010Prop47
 90
       50
102
RTVSPost2010PropOp47
 70
     1
102
RTVSPost2010Prop48
 90
       50
102
RTVSPost2010PropOp48
 70
     1
102
RTVSPost2010Prop49
280
     0
102
RTVSPost2010PropOp49
 70
     1
102
RTVSPost2010Prop50
 90
       50
102
RTVSPost2010PropOp50
 70
     1
102
RTVSPost2010Prop51ColorIndex
 90
      256
102
RTVSPost2010Prop51ColorRGB
 90
-16777216
102
RTVSPost2010PropOp51
 70
     0
102
RTVSPost2010Prop52
140
1.0
102
RTVSPost2010PropOp52
 70
     0
102
RTVSPost2010Prop53
 90
        2
102
RTVSPost2010PropOp53
 70
     1
102
RTVSPost2010Prop54
  1
strokes_ogs.tif
102
RTVSPost2010PropOp54
 70
     1
102
RTVSPost2010Prop55
280
     0
102
RTVSPost2010PropOp55
 70
     1
102
RTVSPost2010Prop56
140
1.0
102
RTVSPost2010PropOp56
 70
     1
102
RTVSPost2010Prop57
140
1.0
102
RTVSPost2010PropOp57
 70
     1
102
RTVSPropertyOp0
 70
     1
102
RTVSPropertyOp1
 70
     1
102
RTVSPropertyOp2
 70
     1
102
RTVSPropertyOp3
 70
     1
102
RTVSPropertyOp4
 70
     1
102
RTVSPropertyOp5
 70
     1
102
RTVSPropertyOp6
 70
     1
102
RTVSPropertyOp7
 70
     1
102
RTVSPropertyOp8
 70
     1
102
RTVSPropertyOp9
 70
     1
102
RTVSPropertyOp10
 70
     1
102
RTVSPropertyOp11
 70
     1
102
RTVSPropertyOp12
 70
     1
102
RTVSPropertyOp13
 70
     1
102
RTVSPropertyOp14
 70
     1
102
RTVSPropertyOp15
 70
     1
102
RTVSPropertyOp16
 70
     1
102
RTVSPropertyOp17
 70
     1
102
RTVSPropertyOp18
 70
     1
102
RTVSPropertyOp19
 70
     1
102
RTVSPropertyOp20
 70
     1
102
RTVSPropertyOp21
 70
     1
102
RTVSPropertyOp22
 70
     1
102
RTVSPropertyOp23
 70
     1
102
RTVSPropertyOp24
 70
     1
102
RTVSPropertyOp25
 70
     1
102
RTVSPropertyOp26
 70
     1
102
RTVSPropertyOp27
 70
     1
102
RTVSPropertyOp28
 70
     1
102
RTVSPropertyOp29
 70
     1
102
RTVSPropertyOp30
 70
     1
102
RTVSPropertyOp31
 70
     1
102
RTVSPropertyOp32
 70
     1
102
RTVSPropertyOp33
 70
     1
102
RTVSPropertyOp34
 70
     1
102
RTVSPropertyOp35
 70
     1
102
RTVSPropertyOp36
 70
     1
102
RTVSPropertyOp37
 70
     1
102
RTVSPropertyOp38
 70
     1
102
RTVSPropertyOp39
 70
     1
102
RTVSPropertyOp40
 70
     1
102
RTVSPropertyOp41
 70
     1
102
RTVSPropertyOp42
 70
     1
102
RTVSPropertyOp43
 70
     1
102
RTVSPropertyOp44
 70
     1
102
RTVSPropertyOp45
 70
     1
102
RTVSPropertyOp46
 70
     1
102
RTVSPropertyOp47
 70
     1
102
RTVSPropertyOp48
 70
     1
102
RTVSPropertyOp49
 70
     1
102
RTVSPropertyOp50
 70
     1
102
RTVSPropertyOp51
 70
     0
102
RTVSPropertyOp52
 70
     0
102
RTVSPropertyOp53
 70
     1
102
RTVSPropertyOp54
 70
     1
102
RTVSPropertyOp55
 70
     1
102
RTVSPropertyOp56
 70
     1
102
RTVSPropertyOp57
 70
     1
102
RTVSPropertyOp58
 70
     1
102
RTVSPropertyOp59
 70
     1
102
RTVSPropertyOp60
 70
     1
102
RTVSPropertyOp61
 70
     1
102
RTVSPropertyOp62
 70
     1
  0
XRECORD
  5
FD360
102
{ACAD_REACTORS
330
FD35F
102
}
330
FD35F
100
AcDbXrecord
280
     1
102
RTVSPost2010Prop28
280
     0
102
RTVSPost2010PropOp28
 70
     1
102
RTVSPost2010Prop29
280
     1
102
RTVSPost2010PropOp29
 70
     1
102
RTVSPost2010Prop30
280
     1
102
RTVSPost2010PropOp30
 70
     1
102
RTVSPost2010Prop31
280
     0
102
RTVSPost2010PropOp31
 70
     1
102
RTVSPost2010Prop32
280
     0
102
RTVSPost2010PropOp32
 70
     1
102
RTVSPost2010Prop33
280
     0
102
RTVSPost2010PropOp33
 70
     1
102
RTVSPost2010Prop34
280
     0
102
RTVSPost2010PropOp34
 70
     1
102
RTVSPost2010Prop35
280
     0
102
RTVSPost2010PropOp35
 70
     1
102
RTVSPost2010Prop36
280
     0
102
RTVSPost2010PropOp36
 70
     1
102
RTVSPost2010Prop37
 90
       50
102
RTVSPost2010PropOp37
 70
     1
102
RTVSPost2010Prop38
140
0.0
102
RTVSPost2010PropOp38
 70
     1
102
RTVSPost2010Prop39
140
1.0
102
RTVSPost2010PropOp39
 70
     1
102
RTVSPost2010Prop40
 90
        0
102
RTVSPost2010PropOp40
 70
     1
102
RTVSPost2010Prop41ColorIndex
 90
       18
102
RTVSPost2010Prop41ColorRGB
 90
        0
102
RTVSPost2010PropOp41
 70
     1
102
RTVSPost2010Prop42
 90
       50
102
RTVSPost2010PropOp42
 70
     1
102
RTVSPost2010Prop43
 90
        3
102
RTVSPost2010PropOp43
 70
     1
102
RTVSPost2010Prop44ColorIndex
 90
        5
102
RTVSPost2010Prop44ColorRGB
 90
      255
102
RTVSPost2010PropOp44
 70
     1
102
RTVSPost2010Prop45
280
     0
102
RTVSPost2010PropOp45
 70
     1
102
RTVSPost2010Prop46
 90
       50
102
RTVSPost2010PropOp46
 70
     1
102
RTVSPost2010Prop47
 90
       50
102
RTVSPost2010PropOp47
 70
     1
102
RTVSPost2010Prop48
 90
       50
102
RTVSPost2010PropOp48
 70
     1
102
RTVSPost2010Prop49
280
     0
102
RTVSPost2010PropOp49
 70
     1
102
RTVSPost2010Prop50
 90
       50
102
RTVSPost2010PropOp50
 70
     1
102
RTVSPost2010Prop51ColorIndex
 90
      256
102
RTVSPost2010Prop51ColorRGB
 90
-16777216
102
RTVSPost2010PropOp51
 70
     0
102
RTVSPost2010Prop52
140
1.0
102
RTVSPost2010PropOp52
 70
     0
102
RTVSPost2010Prop53
 90
        2
102
RTVSPost2010PropOp53
 70
     1
102
RTVSPost2010Prop54
  1
strokes_ogs.tif
102
RTVSPost2010PropOp54
 70
     1
102
RTVSPost2010Prop55
280
     0
102
RTVSPost2010PropOp55
 70
     1
102
RTVSPost2010Prop56
140
1.0
102
RTVSPost2010PropOp56
 70
     1
102
RTVSPost2010Prop57
140
1.0
102
RTVSPost2010PropOp57
 70
     1
102
RTVSPropertyOp0
 70
     1
102
RTVSPropertyOp1
 70
     1
102
RTVSPropertyOp2
 70
     1
102
RTVSPropertyOp3
 70
     1
102
RTVSPropertyOp4
 70
     1
102
RTVSPropertyOp5
 70
     1
102
RTVSPropertyOp6
 70
     1
102
RTVSPropertyOp7
 70
     1
102
RTVSPropertyOp8
 70
     1
102
RTVSPropertyOp9
 70
     1
102
RTVSPropertyOp10
 70
     1
102
RTVSPropertyOp11
 70
     1
102
RTVSPropertyOp12
 70
     1
102
RTVSPropertyOp13
 70
     1
102
RTVSPropertyOp14
 70
     1
102
RTVSPropertyOp15
 70
     1
102
RTVSPropertyOp16
 70
     1
102
RTVSPropertyOp17
 70
     1
102
RTVSPropertyOp18
 70
     1
102
RTVSPropertyOp19
 70
     1
102
RTVSPropertyOp20
 70
     1
102
RTVSPropertyOp21
 70
     1
102
RTVSPropertyOp22
 70
     1
102
RTVSPropertyOp23
 70
     1
102
RTVSPropertyOp24
 70
     1
102
RTVSPropertyOp25
 70
     1
102
RTVSPropertyOp26
 70
     1
102
RTVSPropertyOp27
 70
     1
102
RTVSPropertyOp28
 70
     1
102
RTVSPropertyOp29
 70
     1
102
RTVSPropertyOp30
 70
     1
102
RTVSPropertyOp31
 70
     1
102
RTVSPropertyOp32
 70
     1
102
RTVSPropertyOp33
 70
     1
102
RTVSPropertyOp34
 70
     1
102
RTVSPropertyOp35
 70
     1
102
RTVSPropertyOp36
 70
     1
102
RTVSPropertyOp37
 70
     1
102
RTVSPropertyOp38
 70
     1
102
RTVSPropertyOp39
 70
     1
102
RTVSPropertyOp40
 70
     1
102
RTVSPropertyOp41
 70
     1
102
RTVSPropertyOp42
 70
     1
102
RTVSPropertyOp43
 70
     1
102
RTVSPropertyOp44
 70
     1
102
RTVSPropertyOp45
 70
     1
102
RTVSPropertyOp46
 70
     1
102
RTVSPropertyOp47
 70
     1
102
RTVSPropertyOp48
 70
     1
102
RTVSPropertyOp49
 70
     1
102
RTVSPropertyOp50
 70
     1
102
RTVSPropertyOp51
 70
     0
102
RTVSPropertyOp52
 70
     0
102
RTVSPropertyOp53
 70
     1
102
RTVSPropertyOp54
 70
     1
102
RTVSPropertyOp55
 70
     1
102
RTVSPropertyOp56
 70
     1
102
RTVSPropertyOp57
 70
     1
102
RTVSPropertyOp58
 70
     1
102
RTVSPropertyOp59
 70
     1
102
RTVSPropertyOp60
 70
     1
102
RTVSPropertyOp61
 70
     1
102
RTVSPropertyOp62
 70
     1
  0
XRECORD
  5
FD354
102
{ACAD_REACTORS
330
FD353
102
}
330
FD353
100
AcDbXrecord
280
     1
102
RTVSPost2010Prop28
280
     0
102
RTVSPost2010PropOp28
 70
     1
102
RTVSPost2010Prop29
280
     1
102
RTVSPost2010PropOp29
 70
     1
102
RTVSPost2010Prop30
280
     1
102
RTVSPost2010PropOp30
 70
     1
102
RTVSPost2010Prop31
280
     0
102
RTVSPost2010PropOp31
 70
     1
102
RTVSPost2010Prop32
280
     0
102
RTVSPost2010PropOp32
 70
     1
102
RTVSPost2010Prop33
280
     0
102
RTVSPost2010PropOp33
 70
     1
102
RTVSPost2010Prop34
280
     0
102
RTVSPost2010PropOp34
 70
     1
102
RTVSPost2010Prop35
280
     0
102
RTVSPost2010PropOp35
 70
     1
102
RTVSPost2010Prop36
280
     0
102
RTVSPost2010PropOp36
 70
     1
102
RTVSPost2010Prop37
 90
       50
102
RTVSPost2010PropOp37
 70
     1
102
RTVSPost2010Prop38
140
0.0
102
RTVSPost2010PropOp38
 70
     1
102
RTVSPost2010Prop39
140
1.0
102
RTVSPost2010PropOp39
 70
     1
102
RTVSPost2010Prop40
 90
        0
102
RTVSPost2010PropOp40
 70
     1
102
RTVSPost2010Prop41ColorIndex
 90
       18
102
RTVSPost2010Prop41ColorRGB
 90
        0
102
RTVSPost2010PropOp41
 70
     1
102
RTVSPost2010Prop42
 90
       50
102
RTVSPost2010PropOp42
 70
     1
102
RTVSPost2010Prop43
 90
        3
102
RTVSPost2010PropOp43
 70
     1
102
RTVSPost2010Prop44ColorIndex
 90
        5
102
RTVSPost2010Prop44ColorRGB
 90
      255
102
RTVSPost2010PropOp44
 70
     1
102
RTVSPost2010Prop45
280
     0
102
RTVSPost2010PropOp45
 70
     1
102
RTVSPost2010Prop46
 90
       50
102
RTVSPost2010PropOp46
 70
     1
102
RTVSPost2010Prop47
 90
       50
102
RTVSPost2010PropOp47
 70
     1
102
RTVSPost2010Prop48
 90
       50
102
RTVSPost2010PropOp48
 70
     1
102
RTVSPost2010Prop49
280
     0
102
RTVSPost2010PropOp49
 70
     1
102
RTVSPost2010Prop50
 90
       50
102
RTVSPost2010PropOp50
 70
     1
102
RTVSPost2010Prop51ColorIndex
 90
      256
102
RTVSPost2010Prop51ColorRGB
 90
-16777216
102
RTVSPost2010PropOp51
 70
     0
102
RTVSPost2010Prop52
140
1.0
102
RTVSPost2010PropOp52
 70
     0
102
RTVSPost2010Prop53
 90
        2
102
RTVSPost2010PropOp53
 70
     1
102
RTVSPost2010Prop54
  1
strokes_ogs.tif
102
RTVSPost2010PropOp54
 70
     1
102
RTVSPost2010Prop55
280
     0
102
RTVSPost2010PropOp55
 70
     1
102
RTVSPost2010Prop56
140
1.0
102
RTVSPost2010PropOp56
 70
     1
102
RTVSPost2010Prop57
140
1.0
102
RTVSPost2010PropOp57
 70
     1
102
RTVSPropertyOp0
 70
     1
102
RTVSPropertyOp1
 70
     1
102
RTVSPropertyOp2
 70
     1
102
RTVSPropertyOp3
 70
     1
102
RTVSPropertyOp4
 70
     1
102
RTVSPropertyOp5
 70
     1
102
RTVSPropertyOp6
 70
     1
102
RTVSPropertyOp7
 70
     1
102
RTVSPropertyOp8
 70
     1
102
RTVSPropertyOp9
 70
     1
102
RTVSPropertyOp10
 70
     1
102
RTVSPropertyOp11
 70
     1
102
RTVSPropertyOp12
 70
     1
102
RTVSPropertyOp13
 70
     1
102
RTVSPropertyOp14
 70
     1
102
RTVSPropertyOp15
 70
     1
102
RTVSPropertyOp16
 70
     1
102
RTVSPropertyOp17
 70
     1
102
RTVSPropertyOp18
 70
     1
102
RTVSPropertyOp19
 70
     1
102
RTVSPropertyOp20
 70
     1
102
RTVSPropertyOp21
 70
     1
102
RTVSPropertyOp22
 70
     1
102
RTVSPropertyOp23
 70
     1
102
RTVSPropertyOp24
 70
     1
102
RTVSPropertyOp25
 70
     1
102
RTVSPropertyOp26
 70
     1
102
RTVSPropertyOp27
 70
     1
102
RTVSPropertyOp28
 70
     1
102
RTVSPropertyOp29
 70
     1
102
RTVSPropertyOp30
 70
     1
102
RTVSPropertyOp31
 70
     1
102
RTVSPropertyOp32
 70
     1
102
RTVSPropertyOp33
 70
     1
102
RTVSPropertyOp34
 70
     1
102
RTVSPropertyOp35
 70
     1
102
RTVSPropertyOp36
 70
     1
102
RTVSPropertyOp37
 70
     1
102
RTVSPropertyOp38
 70
     1
102
RTVSPropertyOp39
 70
     1
102
RTVSPropertyOp40
 70
     1
102
RTVSPropertyOp41
 70
     1
102
RTVSPropertyOp42
 70
     1
102
RTVSPropertyOp43
 70
     1
102
RTVSPropertyOp44
 70
     1
102
RTVSPropertyOp45
 70
     1
102
RTVSPropertyOp46
 70
     1
102
RTVSPropertyOp47
 70
     1
102
RTVSPropertyOp48
 70
     1
102
RTVSPropertyOp49
 70
     1
102
RTVSPropertyOp50
 70
     1
102
RTVSPropertyOp51
 70
     0
102
RTVSPropertyOp52
 70
     0
102
RTVSPropertyOp53
 70
     1
102
RTVSPropertyOp54
 70
     1
102
RTVSPropertyOp55
 70
     1
102
RTVSPropertyOp56
 70
     1
102
RTVSPropertyOp57
 70
     1
102
RTVSPropertyOp58
 70
     1
102
RTVSPropertyOp59
 70
     1
102
RTVSPropertyOp60
 70
     1
102
RTVSPropertyOp61
 70
     1
102
RTVSPropertyOp62
 70
     1
  0
XRECORD
  5
FD36C
102
{ACAD_REACTORS
330
FD36B
102
}
330
FD36B
100
AcDbXrecord
280
     1
102
RTVSPost2010Prop28
280
     0
102
RTVSPost2010PropOp28
 70
     1
102
RTVSPost2010Prop29
280
     1
102
RTVSPost2010PropOp29
 70
     1
102
RTVSPost2010Prop30
280
     1
102
RTVSPost2010PropOp30
 70
     1
102
RTVSPost2010Prop31
280
     0
102
RTVSPost2010PropOp31
 70
     1
102
RTVSPost2010Prop32
280
     0
102
RTVSPost2010PropOp32
 70
     1
102
RTVSPost2010Prop33
280
     0
102
RTVSPost2010PropOp33
 70
     1
102
RTVSPost2010Prop34
280
     0
102
RTVSPost2010PropOp34
 70
     1
102
RTVSPost2010Prop35
280
     0
102
RTVSPost2010PropOp35
 70
     1
102
RTVSPost2010Prop36
280
     0
102
RTVSPost2010PropOp36
 70
     1
102
RTVSPost2010Prop37
 90
       50
102
RTVSPost2010PropOp37
 70
     1
102
RTVSPost2010Prop38
140
0.0
102
RTVSPost2010PropOp38
 70
     1
102
RTVSPost2010Prop39
140
1.0
102
RTVSPost2010PropOp39
 70
     1
102
RTVSPost2010Prop40
 90
        0
102
RTVSPost2010PropOp40
 70
     1
102
RTVSPost2010Prop41ColorIndex
 90
       18
102
RTVSPost2010Prop41ColorRGB
 90
        0
102
RTVSPost2010PropOp41
 70
     1
102
RTVSPost2010Prop42
 90
       50
102
RTVSPost2010PropOp42
 70
     1
102
RTVSPost2010Prop43
 90
        3
102
RTVSPost2010PropOp43
 70
     1
102
RTVSPost2010Prop44ColorIndex
 90
        5
102
RTVSPost2010Prop44ColorRGB
 90
      255
102
RTVSPost2010PropOp44
 70
     1
102
RTVSPost2010Prop45
280
     0
102
RTVSPost2010PropOp45
 70
     1
102
RTVSPost2010Prop46
 90
       50
102
RTVSPost2010PropOp46
 70
     1
102
RTVSPost2010Prop47
 90
       50
102
RTVSPost2010PropOp47
 70
     1
102
RTVSPost2010Prop48
 90
       50
102
RTVSPost2010PropOp48
 70
     1
102
RTVSPost2010Prop49
280
     0
102
RTVSPost2010PropOp49
 70
     1
102
RTVSPost2010Prop50
 90
       50
102
RTVSPost2010PropOp50
 70
     1
102
RTVSPost2010Prop51ColorIndex
 90
      256
102
RTVSPost2010Prop51ColorRGB
 90
-16777216
102
RTVSPost2010PropOp51
 70
     0
102
RTVSPost2010Prop52
140
1.0
102
RTVSPost2010PropOp52
 70
     0
102
RTVSPost2010Prop53
 90
        2
102
RTVSPost2010PropOp53
 70
     1
102
RTVSPost2010Prop54
  1
strokes_ogs.tif
102
RTVSPost2010PropOp54
 70
     1
102
RTVSPost2010Prop55
280
     0
102
RTVSPost2010PropOp55
 70
     1
102
RTVSPost2010Prop56
140
1.0
102
RTVSPost2010PropOp56
 70
     1
102
RTVSPost2010Prop57
140
1.0
102
RTVSPost2010PropOp57
 70
     1
102
RTVSPropertyOp0
 70
     1
102
RTVSPropertyOp1
 70
     1
102
RTVSPropertyOp2
 70
     1
102
RTVSPropertyOp3
 70
     1
102
RTVSPropertyOp4
 70
     1
102
RTVSPropertyOp5
 70
     1
102
RTVSPropertyOp6
 70
     1
102
RTVSPropertyOp7
 70
     1
102
RTVSPropertyOp8
 70
     1
102
RTVSPropertyOp9
 70
     1
102
RTVSPropertyOp10
 70
     1
102
RTVSPropertyOp11
 70
     1
102
RTVSPropertyOp12
 70
     1
102
RTVSPropertyOp13
 70
     1
102
RTVSPropertyOp14
 70
     1
102
RTVSPropertyOp15
 70
     1
102
RTVSPropertyOp16
 70
     1
102
RTVSPropertyOp17
 70
     1
102
RTVSPropertyOp18
 70
     1
102
RTVSPropertyOp19
 70
     1
102
RTVSPropertyOp20
 70
     1
102
RTVSPropertyOp21
 70
     1
102
RTVSPropertyOp22
 70
     1
102
RTVSPropertyOp23
 70
     1
102
RTVSPropertyOp24
 70
     1
102
RTVSPropertyOp25
 70
     1
102
RTVSPropertyOp26
 70
     1
102
RTVSPropertyOp27
 70
     1
102
RTVSPropertyOp28
 70
     1
102
RTVSPropertyOp29
 70
     1
102
RTVSPropertyOp30
 70
     1
102
RTVSPropertyOp31
 70
     1
102
RTVSPropertyOp32
 70
     1
102
RTVSPropertyOp33
 70
     1
102
RTVSPropertyOp34
 70
     1
102
RTVSPropertyOp35
 70
     1
102
RTVSPropertyOp36
 70
     1
102
RTVSPropertyOp37
 70
     1
102
RTVSPropertyOp38
 70
     1
102
RTVSPropertyOp39
 70
     1
102
RTVSPropertyOp40
 70
     1
102
RTVSPropertyOp41
 70
     1
102
RTVSPropertyOp42
 70
     1
102
RTVSPropertyOp43
 70
     1
102
RTVSPropertyOp44
 70
     1
102
RTVSPropertyOp45
 70
     1
102
RTVSPropertyOp46
 70
     1
102
RTVSPropertyOp47
 70
     1
102
RTVSPropertyOp48
 70
     1
102
RTVSPropertyOp49
 70
     1
102
RTVSPropertyOp50
 70
     1
102
RTVSPropertyOp51
 70
     0
102
RTVSPropertyOp52
 70
     0
102
RTVSPropertyOp53
 70
     1
102
RTVSPropertyOp54
 70
     1
102
RTVSPropertyOp55
 70
     1
102
RTVSPropertyOp56
 70
     1
102
RTVSPropertyOp57
 70
     1
102
RTVSPropertyOp58
 70
     1
102
RTVSPropertyOp59
 70
     1
102
RTVSPropertyOp60
 70
     1
102
RTVSPropertyOp61
 70
     1
102
RTVSPropertyOp62
 70
     1
  0
ENDSEC
  0
EOF
