  0
SECTION
  2
HEADER
  9
$ACADVER
  1
AC1018
  9
$ACADMAINTVER
 70
   104
  9
$DWGCODEPAGE
  3
ANSI_932
  9
$LASTSAVEDBY
  1
開発
  9
$INSBASE
 10
0.0
 20
0.0
 30
0.0
  9
$EXTMIN
 10
53.24340924299725
 20
49.04832533356773
 30
-0.0000000000112498
  9
$EXTMAX
 10
260.5325325305255
 20
297.756821371099
 30
0.0000000000002956
  9
$LIMMIN
 10
0.0
 20
0.0
  9
$LIMMAX
 10
420.0
 20
297.0
  9
$ORTHOMODE
 70
     0
  9
$REGENMODE
 70
     1
  9
$FILLMODE
 70
     1
  9
$QTEXTMODE
 70
     0
  9
$MIRRTEXT
 70
     0
  9
$LTSCALE
 40
1.0
  9
$ATTMODE
 70
     1
  9
$TEXTSIZE
 40
2.5
  9
$TRACEWID
 40
1.0
  9
$TEXTSTYLE
  7
2014++
  9
$CLAYER
  8
04_ele1_0.15
  9
$CELTYPE
  6
ByLayer
  9
$CECOLOR
 62
   256
  9
$CELTSCALE
 40
1.0
  9
$DISPSILH
 70
     0
  9
$DIMSCALE
 40
1.0
  9
$DIMASZ
 40
2.5
  9
$DIMEXO
 40
1.0
  9
$DIMDLI
 40
10.0
  9
$DIMRND
 40
0.0
  9
$DIMDLE
 40
0.0
  9
$DIMEXE
 40
1.0
  9
$DIMTP
 40
0.1
  9
$DIMTM
 40
0.1
  9
$DIMTXT
 40
3.5
  9
$DIMCEN
 40
0.0
  9
$DIMTSZ
 40
0.0
  9
$DIMTOL
 70
     0
  9
$DIMLIM
 70
     0
  9
$DIMTIH
 70
     0
  9
$DIMTOH
 70
     0
  9
$DIMSE1
 70
     0
  9
$DIMSE2
 70
     0
  9
$DIMTAD
 70
     1
  9
$DIMZIN
 70
     8
  9
$DIMBLK
  1

  9
$DIMASO
 70
     1
  9
$DIMSHO
 70
     1
  9
$DIMPOST
  1

  9
$DIMAPOST
  1
"
  9
$DIMALT
 70
     0
  9
$DIMALTD
 70
     2
  9
$DIMALTF
 40
0.0393701
  9
$DIMLFAC
 40
1.0
  9
$DIMTOFL
 70
     1
  9
$DIMTVP
 40
0.0
  9
$DIMTIX
 70
     0
  9
$DIMSOXD
 70
     0
  9
$DIMSAH
 70
     0
  9
$DIMBLK1
  1

  9
$DIMBLK2
  1

  9
$DIMSTYLE
  2
AM_ISO
  9
$DIMCLRD
 70
   256
  9
$DIMCLRE
 70
   256
  9
$DIMCLRT
 70
     2
  9
$DIMTFAC
 40
0.71
  9
$DIMGAP
 40
1.5
  9
$DIMJUST
 70
     0
  9
$DIMSD1
 70
     0
  9
$DIMSD2
 70
     0
  9
$DIMTOLJ
 70
     0
  9
$DIMTZIN
 70
     8
  9
$DIMALTZ
 70
     0
  9
$DIMALTTZ
 70
     0
  9
$DIMUPT
 70
     0
  9
$DIMDEC
 70
     2
  9
$DIMTDEC
 70
     3
  9
$DIMALTU
 70
     2
  9
$DIMALTTD
 70
     4
  9
$DIMTXSTY
  7
STANDARD
  9
$DIMAUNIT
 70
     0
  9
$DIMADEC
 70
     0
  9
$DIMALTRND
 40
0.0
  9
$DIMAZIN
 70
     2
  9
$DIMDSEP
 70
    46
  9
$DIMATFIT
 70
     3
  9
$DIMFRAC
 70
     0
  9
$DIMLDRBLK
  1

  9
$DIMLUNIT
 70
     2
  9
$DIMLWD
 70
    -1
  9
$DIMLWE
 70
    -1
  9
$DIMTMOVE
 70
     0
  9
$LUNITS
 70
     2
  9
$LUPREC
 70
     2
  9
$SKETCHINC
 40
1.0
  9
$FILLETRAD
 40
2.5
  9
$AUNITS
 70
     0
  9
$AUPREC
 70
     0
  9
$MENU
  1
.
  9
$ELEVATION
 40
0.0
  9
$PELEVATION
 40
0.0
  9
$THICKNESS
 40
0.0
  9
$LIMCHECK
 70
     0
  9
$CHAMFERA
 40
2.5
  9
$CHAMFERB
 40
2.5
  9
$CHAMFERC
 40
20.0
  9
$CHAMFERD
 40
0.0
  9
$SKPOLY
 70
     0
  9
$TDCREATE
 40
2457115.695143044
  9
$TDUCREATE
 40
2457115.320143044
  9
$TDUPDATE
 40
2458397.604514260
  9
$TDUUPDATE
 40
2458397.229514260
  9
$TDINDWG
 40
0.0168014468
  9
$TDUSRTIMER
 40
0.0168012384
  9
$USRTIMER
 70
     1
  9
$ANGBASE
 50
0.0
  9
$ANGDIR
 70
     0
  9
$PDMODE
 70
     0
  9
$PDSIZE
 40
0.0
  9
$PLINEWID
 40
0.0
  9
$SPLFRAME
 70
     0
  9
$SPLINETYPE
 70
     6
  9
$SPLINESEGS
 70
     8
  9
$HANDSEED
  5
FBCA1
  9
$SURFTAB1
 70
     6
  9
$SURFTAB2
 70
     6
  9
$SURFTYPE
 70
     6
  9
$SURFU
 70
     6
  9
$SURFV
 70
     6
  9
$UCSBASE
  2

  9
$UCSNAME
  2

  9
$UCSORG
 10
0.0
 20
0.0
 30
0.0
  9
$UCSXDIR
 10
1.0
 20
0.0
 30
0.0
  9
$UCSYDIR
 10
0.0
 20
1.0
 30
0.0
  9
$UCSORTHOREF
  2

  9
$UCSORTHOVIEW
 70
     0
  9
$UCSORGTOP
 10
0.0
 20
0.0
 30
0.0
  9
$UCSORGBOTTOM
 10
0.0
 20
0.0
 30
0.0
  9
$UCSORGLEFT
 10
0.0
 20
0.0
 30
0.0
  9
$UCSORGRIGHT
 10
0.0
 20
0.0
 30
0.0
  9
$UCSORGFRONT
 10
0.0
 20
0.0
 30
0.0
  9
$UCSORGBACK
 10
0.0
 20
0.0
 30
0.0
  9
$PUCSBASE
  2

  9
$PUCSNAME
  2

  9
$PUCSORG
 10
0.0
 20
0.0
 30
0.0
  9
$PUCSXDIR
 10
1.0
 20
0.0
 30
0.0
  9
$PUCSYDIR
 10
0.0
 20
1.0
 30
0.0
  9
$PUCSORTHOREF
  2

  9
$PUCSORTHOVIEW
 70
     0
  9
$PUCSORGTOP
 10
0.0
 20
0.0
 30
0.0
  9
$PUCSORGBOTTOM
 10
0.0
 20
0.0
 30
0.0
  9
$PUCSORGLEFT
 10
0.0
 20
0.0
 30
0.0
  9
$PUCSORGRIGHT
 10
0.0
 20
0.0
 30
0.0
  9
$PUCSORGFRONT
 10
0.0
 20
0.0
 30
0.0
  9
$PUCSORGBACK
 10
0.0
 20
0.0
 30
0.0
  9
$USERI1
 70
     0
  9
$USERI2
 70
     0
  9
$USERI3
 70
     0
  9
$USERI4
 70
     0
  9
$USERI5
 70
     0
  9
$USERR1
 40
0.0
  9
$USERR2
 40
0.0
  9
$USERR3
 40
0.0
  9
$USERR4
 40
0.0
  9
$USERR5
 40
0.0
  9
$WORLDVIEW
 70
     1
  9
$SHADEDGE
 70
     3
  9
$SHADEDIF
 70
    70
  9
$TILEMODE
 70
     1
  9
$MAXACTVP
 70
    64
  9
$PINSBASE
 10
0.0
 20
0.0
 30
0.0
  9
$PLIMCHECK
 70
     0
  9
$PEXTMIN
 10
1.000000000000000E+20
 20
1.000000000000000E+20
 30
1.000000000000000E+20
  9
$PEXTMAX
 10
-1.000000000000000E+20
 20
-1.000000000000000E+20
 30
-1.000000000000000E+20
  9
$PLIMMIN
 10
-5.873748779296875
 20
-5.873749732971191
  9
$PLIMMAX
 10
291.05224609375
 20
204.0995779037475
  9
$UNITMODE
 70
     0
  9
$VISRETAIN
 70
     1
  9
$PLINEGEN
 70
     0
  9
$PSLTSCALE
 70
     1
  9
$TREEDEPTH
 70
  3020
  9
$CMLSTYLE
  2
Standard
  9
$CMLJUST
 70
     0
  9
$CMLSCALE
 40
20.0
  9
$PROXYGRAPHICS
 70
     1
  9
$MEASUREMENT
 70
     1
  9
$CELWEIGHT
370
    -1
  9
$ENDCAPS
280
     0
  9
$JOINSTYLE
280
     0
  9
$LWDISPLAY
290
     0
  9
$INSUNITS
 70
     4
  9
$HYPERLINKBASE
  1

  9
$STYLESHEET
  1
MONOCHROME.CTB
  9
$XEDIT
290
     1
  9
$CEPSNTYPE
380
     0
  9
$PSTYLEMODE
290
     1
  9
$FINGERPRINTGUID
  2
{50BE1C40-7876-4AFD-8770-B7778E71A178}
  9
$VERSIONGUID
  2
{7BF5A4A3-7629-4720-B595-F520AF6B2812}
  9
$EXTNAMES
290
     1
  9
$PSVPSCALE
 40
0.0
  9
$OLESTARTUP
290
     0
  9
$SORTENTS
280
    96
  9
$INDEXCTL
280
     0
  9
$HIDETEXT
280
     0
  9
$XCLIPFRAME
290
     0
  9
$HALOGAP
280
     0
  9
$OBSCOLOR
 70
   257
  9
$OBSLTYPE
280
     0
  9
$INTERSECTIONDISPLAY
280
     0
  9
$INTERSECTIONCOLOR
 70
   257
  9
$DIMASSOC
280
     1
  9
$PROJECTNAME
  1

  0
ENDSEC
  0
SECTION
  2
CLASSES
  0
CLASS
  1
ACDBDICTIONARYWDFLT
  2
AcDbDictionaryWithDefault
  3
ObjectDBX Classes
 90
        0
 91
        1
280
     0
281
     0
  0
CLASS
  1
DICTIONARYVAR
  2
AcDbDictionaryVar
  3
ObjectDBX Classes
 90
        0
 91
       11
280
     0
281
     0
  0
CLASS
  1
ACME_DOCUMENT
  2
AcMeDbDoc
  3
AcMeServices
 90
     1024
 91
        1
280
     0
281
     0
  0
CLASS
  1
ACMESCOPE
  2
AcMeScope
  3
AcMeServices
 90
     1024
 91
        1
280
     0
281
     0
  0
CLASS
  1
ACMECOMMANDHISTORY
  2
AcMeCommandHistory
  3
AcMeServices
 90
     1024
 91
        1
280
     0
281
     0
  0
CLASS
  1
ACIMSYSVARMAN
  2
AcImSysVarManager
  3
AcMeServices
 90
     1024
 91
        3
280
     0
281
     0
  0
CLASS
  1
ACIMINTSYSVAR
  2
AcImIntSysVar
  3
AcMeServices
 90
     1024
 91
        3
280
     0
281
     0
  0
CLASS
  1
ACMEDRAWINGMAN
  2
AcMeDrawingMan
  3
AcMeServices
 90
     1024
 91
        0
280
     0
281
     0
  0
CLASS
  1
ACMEVIEW
  2
AcMeView
  3
AcMeServices
 90
     1024
 91
        0
280
     0
281
     0
  0
CLASS
  1
ACDBENTITYCACHE
  2
AcMeEntityCache
  3
AcMeServices
 90
     1024
 91
        1
280
     0
281
     0
  0
CLASS
  1
GSMANAGER
  2
AcMeGSManager
  3
AcMeServices
 90
        0
 91
        0
280
     0
281
     0
  0
CLASS
  1
AMDTINTERNALREACTOR
  2
AmdtInternalReactor
  3
AcMeServices
 90
     1024
 91
        0
280
     0
281
     0
  0
CLASS
  1
ACMESTATEMGR
  2
AcMeStateMgr
  3
AcMeServices
 90
     1024
 91
        1
280
     0
281
     0
  0
CLASS
  1
ACGREFMASTER
  2
AcGrefMaster
  3
AcAttribServices
 90
     1024
 91
        1
280
     0
281
     0
  0
CLASS
  1
AM_DRAWING_MGR
  2
AcDmDwgMgr
  3
AcMechDwgViewMgmt
 90
     1024
 91
        0
280
     0
281
     0
  0
CLASS
  1
AM_DWG_DOCUMENT
  2
AcDmDwgDocument
  3
AcMechDwgViewMgmt
 90
     1024
 91
        0
280
     0
281
     0
  0
CLASS
  1
AM_DWG_SHEET
  2
AcDmSheet
  3
AcMechDwgViewMgmt
 90
     1024
 91
        0
280
     0
281
     0
  0
CLASS
  1
AM_VIEWDIMPARMAP
  2
AcDmViewDimParMap
  3
AcMechDwgViewMgmt
 90
     1024
 91
        0
280
     0
281
     0
  0
CLASS
  1
ACIMREALSYSVAR
  2
AcImRealSysVar
  3
AcMeServices
 90
     1024
 91
        0
280
     0
281
     0
  0
CLASS
  1
AM_DWGMGR_NAME
  2
AcDmDwgMgrName
  3
AcMechDwgViewMgmt
 90
     1024
 91
        0
280
     0
281
     0
  0
CLASS
  1
ACME_DATABASE
  2
AcMeDbDatabase
  3
AcMeServices
 90
     1024
 91
        3
280
     0
281
     0
  0
CLASS
  1
ACRFINSADJUSTERMGR
  2
AcRfInsAdjusterMgr
  3
AcMeServices
 90
     1024
 91
        1
280
     0
281
     0
  0
CLASS
  1
ACGREFACADMASTER
  2
AcGrefacadMaster
  3
AcGrefServices
 90
     1024
 91
        1
280
     0
281
     0
  0
CLASS
  1
AMDTMENUSTATEMGR
  2
AmdtMenuStateMgr
  3
McadcomServices
 90
     1024
 91
        1
280
     0
281
     0
  0
CLASS
  1
AMDTMCOMMENUSTATE
  2
AmdtMcomMenuState
  3
McadcomServices
 90
     1024
 91
        1
280
     0
281
     0
  0
CLASS
  1
AMIMASTER
  2
AmiMaster
  3
AmiServices
 90
     1024
 91
        1
280
     0
281
     0
  0
CLASS
  1
AMGSETTINGSOBJ
  2
AmgSettingsObj
  3
"AcadM|Product Description: AutoCAD Mechanical|Company: Autodesk, Inc."
 90
     1024
 91
        2
280
     0
281
     0
  0
CLASS
  1
MAPIAMMOUDLE
  2
MApiAmModule
  3
MApiAmServices
 90
     1024
 91
        1
280
     0
281
     0
  0
CLASS
  1
AMDTADMENUSTATE
  2
AmdtAdMenuState
  3
DesignerServices
 90
        0
 91
        0
280
     0
281
     0
  0
CLASS
  1
ADAPPL
  2
AcAdAppl
  3
DesignerAssemblies
 90
     1024
 91
        0
280
     0
281
     0
  0
CLASS
  1
DEPMGR
  2
AcAdDepMgr
  3
DesignerAssemblies
 90
     1024
 91
        0
280
     0
281
     0
  0
CLASS
  1
PARAMMGR
  2
AcAdParamMgr
  3
DesignerAssemblies
 90
     1024
 91
        0
280
     0
281
     0
  0
CLASS
  1
PARAMSCOPE
  2
AcAdParamScope
  3
DesignerAssemblies
 90
     1024
 91
        0
280
     0
281
     0
  0
CLASS
  1
NAMEDAPPL
  2
AcAdNamedAppl
  3
DesignerAssemblies
 90
     1024
 91
        0
280
     0
281
     0
  0
CLASS
  1
AMDTDMMENUSTATE
  2
AmdtDmMenuState
  3
AcMechDwgViewMgmt
 90
        0
 91
        0
280
     0
281
     0
  0
CLASS
  1
AMDTAMMENUSTATE
  2
AmdtAmMenuState
  3
DesignerAssemblies
 90
     1024
 91
        1
280
     0
281
     0
  0
CLASS
  1
ACIMSTRSYSVAR
  2
AcImStrSysVar
  3
AcMeServices
 90
     1024
 91
        5
280
     0
281
     0
  0
CLASS
  1
ACAMPROJECT
  2
AcAmProject
  3
DesignerAssemblies
 90
     1024
 91
        1
280
     0
281
     0
  0
CLASS
  1
ACAMGRCOMPDEF
  2
AcAmGrCompDef
  3
DesignerAssemblies
 90
     1024
 91
        1
280
     0
281
     0
  0
CLASS
  1
ACCMCONTEXT
  2
AcCmContext
  3
DesignerAssemblies
 90
     1024
 91
        0
280
     0
281
     0
  0
CLASS
  1
ACAMCOMPDEF
  2
AcAmCompDef
  3
DesignerAssemblies
 90
     1024
 91
        1
280
     0
281
     0
  0
CLASS
  1
ACAMCOMPDEFMGR
  2
AcAmCompDefMgr
  3
DesignerAssemblies
 90
     1024
 91
        1
280
     0
281
     0
  0
CLASS
  1
AMCONTEXTMGR
  2
AcAmContextMgr
  3
DesignerAssemblies
 90
     1024
 91
        1
280
     0
281
     0
  0
CLASS
  1
ACAMCONTEXTMODELER
  2
AcAmContextModeler
  3
DesignerAssemblies
 90
     1024
 91
        1
280
     0
281
     0
  0
CLASS
  1
ACMDATADICTIONARY
  2
AcmDataDictionary
  3
"AcmSymBB|Product Description: AutoCAD Mechanical|Company: Autodesk, Inc."
 90
     1024
 91
        1
280
     0
281
     0
  0
CLASS
  1
CATALOGSTATE
  2
AcAmCatalogState
  3
DesignerAssemblies
 90
     1024
 91
        0
280
     0
281
     0
  0
CLASS
  1
ACAMGRCOMPDEFSET
  2
AcAmGrCompDefSet
  3
DesignerAssemblies
 90
     1024
 91
        1
280
     0
281
     0
  0
CLASS
  1
AMDTBROWSERDBTAB
  2
AmdtBrowserDbTab
  3
McadcomServices
 90
     1024
 91
        1
280
     0
281
     0
  0
CLASS
  1
CBROWSERAPPOBJECT
  2
CBrowserAppObject
  3
McadcomServices
 90
     1024
 91
        2
280
     0
281
     0
  0
CLASS
  1
DM_PLACEHOLDER
  2
AcDmSelsetPlaceholder
  3
McadcomServices
 90
     1024
 91
        1
280
     0
281
     0
  0
CLASS
  1
ACMSTANDARDISO
  2
AcmStandardISO
  3
"Amdt_StdImp|Product Description: AutoCAD Mechanical|Company: Autodesk, Inc."
 90
     1024
 91
        1
280
     0
281
     0
  0
CLASS
  1
AMGOBJPROPCFG
  2
AmgObjPropCfg
  3
"AmgLay|Product Description: AutoCAD Mechanical|Company: Autodesk, Inc."
 90
     1024
 91
        1
280
     0
281
     0
  0
CLASS
  1
AMDTEDGESTANDARDISO
  2
AmdtEdgeStdISO
  3
"Amdt_StdImp|Product Description: AutoCAD Mechanical|Company: Autodesk, Inc."
 90
     1024
 91
        0
280
     0
281
     0
  0
CLASS
  1
ACMSURFSTANDARDISO
  2
AcmSurfTextStdISO
  3
"Amdt_StdImp|Product Description: AutoCAD Mechanical|Company: Autodesk, Inc."
 90
     1024
 91
        0
280
     0
281
     0
  0
CLASS
  1
ACMFCFSTANDARDISO
  2
AcmFCFStdISO
  3
"Amdt_StdImp|Product Description: AutoCAD Mechanical|Company: Autodesk, Inc."
 90
     1024
 91
        0
280
     0
281
     0
  0
CLASS
  1
ACMWELDSTANDARDISO
  2
AcmWeldingStdISO
  3
"Amdt_StdImp|Product Description: AutoCAD Mechanical|Company: Autodesk, Inc."
 90
     1024
 91
        1
280
     0
281
     0
  0
CLASS
  1
ACMIDSTANDARDISO
  2
AcmIdStdISO
  3
"Amdt_StdImp|Product Description: AutoCAD Mechanical|Company: Autodesk, Inc."
 90
     1024
 91
        0
280
     0
281
     0
  0
CLASS
  1
ACMDATUMSTANDARDISO
  2
AcmDatumStdISO
  3
"Amdt_StdImp|Product Description: AutoCAD Mechanical|Company: Autodesk, Inc."
 90
     1024
 91
        0
280
     0
281
     0
  0
CLASS
  1
ACMBOMSTANDARDISO
  2
AcmBOMStdISO
  3
"Amdt_StdImp|Product Description: AutoCAD Mechanical|Company: Autodesk, Inc."
 90
     1024
 91
        1
280
     0
281
     0
  0
CLASS
  1
ACMDETAILSTANDARDISO
  2
AmdtDetailSymStdISO
  3
"Amdt_StdImp|Product Description: AutoCAD Mechanical|Company: Autodesk, Inc."
 90
     1024
 91
        1
280
     0
281
     0
  0
CLASS
  1
ACMSECTIONSTANDARDISO
  2
AmdtSectionSymStdISO
  3
"Amdt_StdImp|Product Description: AutoCAD Mechanical|Company: Autodesk, Inc."
 90
     1024
 91
        0
280
     0
281
     0
  0
CLASS
  1
ACMCENTERLINESTANDARDISO
  2
AmdtCenterLineStdISO
  3
"Amdt_StdImp|Product Description: AutoCAD Mechanical|Company: Autodesk, Inc."
 90
     1024
 91
        1
280
     0
281
     0
  0
CLASS
  1
ACMTHREADLINESTANDARDISO
  2
AmdtThreadLineStdISO
  3
"Amdt_StdImp|Product Description: AutoCAD Mechanical|Company: Autodesk, Inc."
 90
     1024
 91
        1
280
     0
281
     0
  0
CLASS
  1
ACMNOTESTANDARDISO
  2
AmdtNoteStdISO
  3
"Amdt_StdImp|Product Description: AutoCAD Mechanical|Company: Autodesk, Inc."
 90
     1024
 91
        1
280
     0
281
     0
  0
CLASS
  1
AMDTNOTETEMPLATEDB
  2
AmdtNoteTemplateDB
  3
AcmSymBB|Product Description: AutoCAD Mechanical|Company: Autodesk, Inc.
 90
     1024
 91
        7
280
     0
281
     0
  0
CLASS
  1
ACAMGLAYSTD
  2
AcAmgLayStd
  3
"AmgLay|Product Description: AutoCAD Mechanical|Company: Autodesk, Inc."
 90
     1024
 91
        1
280
     0
281
     0
  0
CLASS
  1
ACAMGDIMSTD
  2
AcAmgDimStd
  3
"AmgDim|Product Description: AutoCAD Mechanical|Company: Autodesk, Inc."
 90
     1024
 91
        1
280
     0
281
     0
  0
CLASS
  1
ACAMGHOLECHARTSTDISO
  2
AcAmgHoleChartStdISO
  3
AmgDim|Product Description: AutoCAD Mechanical|Company: Autodesk, Inc.
 90
     1024
 91
        1
280
     0
281
     0
  0
CLASS
  1
ACAMGTITLESTD
  2
AcAmgTitleStd
  3
"AmgTitle|Product Description: AutoCAD Mechanical|Company: Autodesk, Inc."
 90
     1024
 91
        1
280
     0
281
     0
  0
CLASS
  1
LAYER_INDEX
  2
AcDbLayerIndex
  3
ObjectDBX Classes
 90
        0
 91
        0
280
     0
281
     0
  0
CLASS
  1
IDBUFFER
  2
AcDbIdBuffer
  3
ObjectDBX Classes
 90
        0
 91
        0
280
     0
281
     0
  0
CLASS
  1
ACMSTANDARDANSI
  2
AcmStandardANSI
  3
"Amdt_StdImp|Product Description: AutoCAD Mechanical|Company: Autodesk, Inc."
 90
     1024
 91
        0
280
     0
281
     0
  0
CLASS
  1
ACMSURFSTANDARDANSI
  2
AcmSurfTextStdANSI
  3
"Amdt_StdImp|Product Description: AutoCAD Mechanical|Company: Autodesk, Inc."
 90
     1024
 91
        0
280
     0
281
     0
  0
CLASS
  1
ACMFCFSTANDARDANSI
  2
AcmFCFStdANSI
  3
"Amdt_StdImp|Product Description: AutoCAD Mechanical|Company: Autodesk, Inc."
 90
     1024
 91
        0
280
     0
281
     0
  0
CLASS
  1
ACMWELDSTANDARDANSI
  2
AcmWeldingStdANSI
  3
"Amdt_StdImp|Product Description: AutoCAD Mechanical|Company: Autodesk, Inc."
 90
     1024
 91
        0
280
     0
281
     0
  0
CLASS
  1
ACMIDSTANDARDANSI
  2
AcmIdStdANSI
  3
"Amdt_StdImp|Product Description: AutoCAD Mechanical|Company: Autodesk, Inc."
 90
     1024
 91
        0
280
     0
281
     0
  0
CLASS
  1
ACMDATUMSTANDARDANSI
  2
AcmDatumStdANSI
  3
"Amdt_StdImp|Product Description: AutoCAD Mechanical|Company: Autodesk, Inc."
 90
     1024
 91
        0
280
     0
281
     0
  0
CLASS
  1
ACMBOMSTANDARDANSI
  2
AcmBOMStdANSI
  3
"Amdt_StdImp|Product Description: AutoCAD Mechanical|Company: Autodesk, Inc."
 90
     1024
 91
        0
280
     0
281
     0
  0
CLASS
  1
ACMDETAILSTANDARDANSI
  2
AmdtDetailSymStdANSI
  3
"Amdt_StdImp|Product Description: AutoCAD Mechanical|Company: Autodesk, Inc."
 90
     1024
 91
        0
280
     0
281
     0
  0
CLASS
  1
ACMSECTIONSTANDARDANSI
  2
AmdtSectionSymStdANSI
  3
"Amdt_StdImp|Product Description: AutoCAD Mechanical|Company: Autodesk, Inc."
 90
     1024
 91
        0
280
     0
281
     0
  0
CLASS
  1
ACMCENTERLINESTANDARDANSI
  2
AmdtCenterLineStdANSI
  3
"Amdt_StdImp|Product Description: AutoCAD Mechanical|Company: Autodesk, Inc."
 90
     1024
 91
        0
280
     0
281
     0
  0
CLASS
  1
ACMTHREADLINESTANDARDANSI
  2
AmdtThreadLineStdANSI
  3
"Amdt_StdImp|Product Description: AutoCAD Mechanical|Company: Autodesk, Inc."
 90
     1024
 91
        0
280
     0
281
     0
  0
CLASS
  1
ACMNOTESTANDARDANSI
  2
AmdtNoteStdANSI
  3
"Amdt_StdImp|Product Description: AutoCAD Mechanical|Company: Autodesk, Inc."
 90
     1024
 91
        0
280
     0
281
     0
  0
CLASS
  1
ACAMGHOLECHARTSTDANSI
  2
AcAmgHoleChartStdANSI
  3
AmgDim|Product Description: AutoCAD Mechanical|Company: Autodesk, Inc.
 90
     1024
 91
        0
280
     0
281
     0
  0
CLASS
  1
ACAMGFILTERDAT
  2
AcAmgFilterDat
  3
"AcadM|Product Description: AutoCAD Mechanical|Company: Autodesk, Inc."
 90
     1024
 91
        0
280
     0
281
     0
  0
CLASS
  1
ACRFATTGENMGR
  2
AcRfAttGeneralMgr
  3
AcAttribServices
 90
     1024
 91
        0
280
     0
281
     0
  0
CLASS
  1
MATERIAL
  2
AcDbMaterial
  3
ObjectDBX Classes
 90
     1153
 91
        3
280
     0
281
     0
  0
CLASS
  1
VISUALSTYLE
  2
AcDbVisualStyle
  3
ObjectDBX Classes
 90
     4095
 91
       24
280
     0
281
     0
  0
CLASS
  1
TABLESTYLE
  2
AcDbTableStyle
  3
ObjectDBX Classes
 90
     4095
 91
        1
280
     0
281
     0
  0
CLASS
  1
SCALE
  2
AcDbScale
  3
ObjectDBX Classes
 90
     1153
 91
       17
280
     0
281
     0
  0
CLASS
  1
MLEADERSTYLE
  2
AcDbMLeaderStyle
  3
ACDB_MLEADERSTYLE_CLASS
 90
     4095
 91
        1
280
     0
281
     0
  0
CLASS
  1
ACDBSECTIONVIEWSTYLE
  2
AcDbSectionViewStyle
  3
ObjectDBX Classes
 90
     1025
 91
        2
280
     0
281
     0
  0
CLASS
  1
ACDBDETAILVIEWSTYLE
  2
AcDbDetailViewStyle
  3
ObjectDBX Classes
 90
     1025
 91
        2
280
     0
281
     0
  0
CLASS
  1
ACMTAPERSTANDARDISO
  2
AcmTaperStdISO
  3
"Amdt_StdImp|Product Description: AutoCAD Mechanical|Company: Autodesk, Inc."
 90
     1024
 91
        1
280
     0
281
     0
  0
CLASS
  1
ACMANOOTATIONVIEWSTANDARDISO
  2
AmdtAnViewStdISO
  3
"Amdt_StdImp|Product Description: AutoCAD Mechanical|Company: Autodesk, Inc."
 90
     1024
 91
        1
280
     0
281
     0
  0
CLASS
  1
ACMSECTIONSTANDARDCUSTOM
  2
AmdtSectionSymStdCustom
  3
"Amdt_StdImp|Product Description: AutoCAD Mechanical|Company: Autodesk, Inc."
 90
     1024
 91
        1
280
     0
281
     0
  0
CLASS
  1
ACMDETAILTANDARDCUSTOM
  2
AmdtDetailSymStdCustom
  3
"Amdt_StdImp|Product Description: AutoCAD Mechanical|Company: Autodesk, Inc."
 90
     1024
 91
        1
280
     0
281
     0
  0
CLASS
  1
FIELD
  2
AcDbField
  3
ObjectDBX Classes
 90
     1152
 91
        3
280
     0
281
     0
  0
CLASS
  1
FIELDLIST
  2
AcDbFieldList
  3
ObjectDBX Classes
 90
     1152
 91
        1
280
     0
281
     0
  0
CLASS
  1
CELLSTYLEMAP
  2
AcDbCellStyleMap
  3
ObjectDBX Classes
 90
     1152
 91
        2
280
     0
281
     0
  0
CLASS
  1
AMDTEDGESTANDARDISO13715
  2
AmdtEdgeStdISO13715
  3
"Amdt_StdImp|Product Description: AutoCAD Mechanical|Company: Autodesk, Inc."
 90
     1024
 91
        1
280
     0
281
     0
  0
CLASS
  1
ACMSURFSTANDARDISO2002
  2
AcmSurfTextStdISO2002
  3
"Amdt_StdImp|Product Description: AutoCAD Mechanical|Company: Autodesk, Inc."
 90
     1024
 91
        1
280
     0
281
     0
  0
CLASS
  1
ACMFCFSTANDARDISO2012
  2
AcmFCFStdISO2012
  3
"Amdt_StdImp|Product Description: AutoCAD Mechanical|Company: Autodesk, Inc."
 90
     1024
 91
        1
280
     0
281
     0
  0
CLASS
  1
ACMIDSTANDARDISO2012
  2
AcmIdStdISO2012
  3
"Amdt_StdImp|Product Description: AutoCAD Mechanical|Company: Autodesk, Inc."
 90
     1024
 91
        1
280
     0
281
     0
  0
CLASS
  1
ACMDATUMSTANDARDISO2012
  2
AcmDatumStdISO2012
  3
"Amdt_StdImp|Product Description: AutoCAD Mechanical|Company: Autodesk, Inc."
 90
     1024
 91
        1
280
     0
281
     0
  0
CLASS
  1
ACMSECTIONSTANDARDISO2001
  2
AmdtSectionSymStdISO2001
  3
"Amdt_StdImp|Product Description: AutoCAD Mechanical|Company: Autodesk, Inc."
 90
     1024
 91
        1
280
     0
281
     0
  0
ENDSEC
  0
SECTION
  2
TABLES
  0
TABLE
  2
VPORT
  5
8
330
0
100
AcDbSymbolTable
 70
     1
  0
VPORT
  5
FB67F
330
8
100
AcDbSymbolTableRecord
100
AcDbViewportTableRecord
  2
*Active
 70
     0
 10
0.0
 20
0.0
 11
1.0
 21
1.0
 12
156.8879708867614
 22
173.4025733523334
 13
0.0
 23
0.0
 14
2.5
 24
2.5
 15
10.0
 25
10.0
 16
0.0
 26
0.0
 36
1.0
 17
0.0
 27
0.0
 37
0.0
 40
250.4497457180741
 41
1.807242990654205
 42
50.0
 43
0.0
 44
0.0
 50
0.0
 51
0.0
 71
     0
 72
   100
 73
     1
 74
     3
 75
     0
 76
     0
 77
     0
 78
     0
281
     0
 65
     0
110
0.0
120
0.0
130
0.0
111
1.0
121
0.0
131
0.0
112
0.0
122
1.0
132
0.0
 79
     0
146
0.0
1001
ACAD_NAV_VCDISPLAY
1070
     3
  0
ENDTAB
  0
TABLE
  2
LTYPE
  5
5
330
0
100
AcDbSymbolTable
 70
    15
  0
LTYPE
  5
14
330
5
100
AcDbSymbolTableRecord
100
AcDbLinetypeTableRecord
  2
ByBlock
 70
     0
  3

 72
    65
 73
     0
 40
0.0
  0
LTYPE
  5
15
330
5
100
AcDbSymbolTableRecord
100
AcDbLinetypeTableRecord
  2
ByLayer
 70
     0
  3

 72
    65
 73
     0
 40
0.0
  0
LTYPE
  5
16
330
5
100
AcDbSymbolTableRecord
100
AcDbLinetypeTableRecord
  2
Continuous
 70
     0
  3
Solid line
 72
    65
 73
     0
 40
0.0
  0
LTYPE
  5
16D41
330
5
100
AcDbSymbolTableRecord
100
AcDbLinetypeTableRecord
  2
AM_ISO02W050
 70
     0
  3
__ __ __ __ __ __ __ __ __ __ __ __ __ __ __
 72
    65
 73
     2
 40
7.5
 49
6.0
 74
     0
 49
-1.5
 74
     0
  0
LTYPE
  5
16D42
330
5
100
AcDbSymbolTableRecord
100
AcDbLinetypeTableRecord
  2
AM_ISO08W050
 70
     0
  3
____ . ____ . ____ . ____ . ____ . ____ . ____
 72
    65
 73
     4
 40
18.0
 49
12.0
 74
     0
 49
-1.5
 74
     0
 49
3.0
 74
     0
 49
-1.5
 74
     0
  0
LTYPE
  5
16D43
330
5
100
AcDbSymbolTableRecord
100
AcDbLinetypeTableRecord
  2
AM_ISO09W050
 70
     0
  3
_____ . . _____ . . _____ . . ____ .. ____
 72
    65
 73
     6
 40
22.5
 49
12.0
 74
     0
 49
-1.5
 74
     0
 49
3.0
 74
     0
 49
-1.5
 74
     0
 49
3.0
 74
     0
 49
-1.5
 74
     0
  0
LTYPE
  5
16D44
330
5
100
AcDbSymbolTableRecord
100
AcDbLinetypeTableRecord
  2
Amconstr
 70
     0
  3
_______________________
 72
    65
 73
     2
 40
9999.0
 49
9999.0
 74
     0
 49
0.0
 74
     0
  0
LTYPE
  5
16D45
330
5
100
AcDbSymbolTableRecord
100
AcDbLinetypeTableRecord
  2
AM_ISO08W050x2
 70
     0
  3
__ . __ . __ . __ . __ . __
 72
    65
 73
     4
 40
9.0
 49
6.0
 74
     0
 49
-0.75
 74
     0
 49
1.5
 74
     0
 49
-0.75
 74
     0
  0
LTYPE
  5
16D46
330
5
100
AcDbSymbolTableRecord
100
AcDbLinetypeTableRecord
  2
AM_ISO02W050x2
 70
     0
  3
 _ _ _ _ _ _ _ _ _ _ _ _
 72
    65
 73
     2
 40
3.75
 49
3.0
 74
     0
 49
-0.75
 74
     0
  0
LTYPE
  5
16D47
330
5
100
AcDbSymbolTableRecord
100
AcDbLinetypeTableRecord
  2
Amzigzag
 70
     0
  3
/\/-/\/-/\/-/\/-/\/-/\/
 72
    65
 73
     2
 40
11.0001
 49
0.0001
 74
     4
 75
   135
340
3AE2
 46
0.04
 50
0.0
 44
0.0
 45
0.0
 49
-11.0
 74
     0
  0
LTYPE
  5
16D56
330
5
100
AcDbSymbolTableRecord
100
AcDbLinetypeTableRecord
  2
ACISOWELD
 70
     0
  3
_ _ _ _ _
 72
    65
 73
     2
 40
2.0
 49
2.0
 74
     0
 49
-1.0
 74
     0
  0
LTYPE
  5
16D57
330
5
100
AcDbSymbolTableRecord
100
AcDbLinetypeTableRecord
  2
ACISOTGB
 70
     0
  3
__ . . __ . .
 72
    65
 73
     6
 40
9.0
 49
4.0
 74
     0
 49
-1.0
 74
     0
 49
1.0
 74
     0
 49
-1.0
 74
     0
 49
1.0
 74
     0
 49
-1.0
 74
     0
  0
LTYPE
  5
16D58
330
5
100
AcDbSymbolTableRecord
100
AcDbLinetypeTableRecord
  2
ACISOTGL
 70
     0
  3
_ _ _ _ _
 72
    65
 73
     2
 40
3.0
 49
2.0
 74
     0
 49
-1.0
 74
     0
  0
LTYPE
  5
FB9CE
330
5
100
AcDbSymbolTableRecord
100
AcDbLinetypeTableRecord
  2
HIDDEN
 70
     0
  3
Hidden __ __ __ __ __ __ __ __ __ __ __ __ __ _
 72
    65
 73
     2
 40
9.524999999999998
 49
6.349999999999999
 74
     0
 49
-3.174999999999999
 74
     0
  0
LTYPE
  5
FB9CF
330
5
100
AcDbSymbolTableRecord
100
AcDbLinetypeTableRecord
  2
PHANTOM2
 70
     0
  3
Phantom (.5x) ___ _ _ ___ _ _ ___ _ _ ___ _ _
 72
    65
 73
     6
 40
31.75
 49
15.875
 74
     0
 49
-3.174999999999999
 74
     0
 49
3.174999999999999
 74
     0
 49
-3.174999999999999
 74
     0
 49
3.174999999999999
 74
     0
 49
-3.174999999999999
 74
     0
  0
LTYPE
  5
FB9D0
330
5
100
AcDbSymbolTableRecord
100
AcDbLinetypeTableRecord
  2
CENTER
 70
     0
  3
Center ____ _ ____ _ ____ _ ____ _ ____ _ ____
 72
    65
 73
     4
 40
50.8
 49
31.75
 74
     0
 49
-6.349999999999999
 74
     0
 49
6.349999999999999
 74
     0
 49
-6.349999999999999
 74
     0
  0
ENDTAB
  0
TABLE
  2
LAYER
  5
2
102
{ACAD_XDICTIONARY
360
F82BD
102
}
330
0
100
AcDbSymbolTable
 70
     5
  0
LAYER
  5
10
102
{ACAD_XDICTIONARY
360
FB7F6
102
}
330
2
100
AcDbSymbolTableRecord
100
AcDbLayerTableRecord
  2
0
 70
     0
 62
     7
  6
Continuous
370
    20
390
F
  0
LAYER
  5
54
330
2
100
AcDbSymbolTableRecord
100
AcDbLayerTableRecord
  2
Defpoints
 70
     0
 62
     7
  6
Continuous
290
     0
370
    -3
390
F
  0
LAYER
  5
86C9
102
{ACAD_XDICTIONARY
360
FB7F8
102
}
330
2
100
AcDbSymbolTableRecord
100
AcDbLayerTableRecord
  2
04_ele1_0.15
 70
     0
 62
     4
  6
Continuous
370
    15
390
F
  0
LAYER
  5
FB8D2
330
2
100
AcDbSymbolTableRecord
100
AcDbLayerTableRecord
  2
AM_5
 70
     0
 62
     3
  6
Continuous
370
    25
390
F
1001
AcAecLayerStandard
1000

1000

  0
LAYER
  5
FBA4C
102
{ACAD_XDICTIONARY
360
FBA4D
102
}
330
2
100
AcDbSymbolTableRecord
100
AcDbLayerTableRecord
  2
02寸法線
 70
     0
 62
     8
  6
Continuous
370
     9
390
F
  0
ENDTAB
  0
TABLE
  2
STYLE
  5
3
330
0
100
AcDbSymbolTable
 70
     5
  0
STYLE
  5
11
330
3
100
AcDbSymbolTableRecord
100
AcDbTextStyleTableRecord
  2
STANDARD
 70
     0
 40
0.0
 41
1.0
 50
0.0
 71
     0
 42
2.5
  3
ISOCP.SHX
  4
EXTFONT.SHX
  0
STYLE
  5
3AE2
330
3
100
AcDbSymbolTableRecord
100
AcDbTextStyleTableRecord
  2

 70
     1
 40
0.0
 41
1.0
 50
0.0
 71
     0
 42
2.5
  3
ltypeshp.shx
  4

  0
STYLE
  5
16D55
330
3
100
AcDbSymbolTableRecord
100
AcDbTextStyleTableRecord
  2
ACISOGDT
 70
     0
 40
0.0
 41
1.0
 50
0.0
 71
     0
 42
2.5
  3
amgdt.shx
  4

  0
STYLE
  5
F61F9
330
3
100
AcDbSymbolTableRecord
100
AcDbTextStyleTableRecord
  2
2014++
 70
     0
 40
0.0
 41
0.8
 50
0.0
 71
     0
 42
2.5
  3
simplex.shx
  4
bigfont.shx
  0
STYLE
  5
FBA08
330
3
100
AcDbSymbolTableRecord
100
AcDbTextStyleTableRecord
  2
ACISOTS
 70
     0
 40
0.0
 41
1.0
 50
0.0
 71
     0
 42
2.5
  3
isocp.shx
  4
extfont.shx
  0
ENDTAB
  0
TABLE
  2
VIEW
  5
6
330
0
100
AcDbSymbolTable
 70
     0
  0
ENDTAB
  0
TABLE
  2
UCS
  5
7
330
0
100
AcDbSymbolTable
 70
     0
  0
ENDTAB
  0
TABLE
  2
APPID
  5
9
330
0
100
AcDbSymbolTable
 70
    22
  0
APPID
  5
12
330
9
100
AcDbSymbolTableRecord
100
AcDbRegAppTableRecord
  2
ACAD
 70
     0
  0
APPID
  5
16CD8
330
9
100
AcDbSymbolTableRecord
100
AcDbRegAppTableRecord
  2
MCAD_NO_VIS
 70
     0
  0
APPID
  5
16CD9
330
9
100
AcDbSymbolTableRecord
100
AcDbRegAppTableRecord
  2
ACAD_TEMP_GRAPHIC
 70
     0
  0
APPID
  5
16D0B
330
9
100
AcDbSymbolTableRecord
100
AcDbRegAppTableRecord
  2
AD_DRAW
 70
     0
  0
APPID
  5
16D0E
330
9
100
AcDbSymbolTableRecord
100
AcDbRegAppTableRecord
  2
ACATTRIBSERVICES
 70
     0
  0
APPID
  5
16D30
330
9
100
AcDbSymbolTableRecord
100
AcDbRegAppTableRecord
  2
DESIGNERASSEMBLIES
 70
     0
  0
APPID
  5
16D36
330
9
100
AcDbSymbolTableRecord
100
AcDbRegAppTableRecord
  2
ACADM_DIM_EDIT
 70
     0
  0
APPID
  5
16D37
330
9
100
AcDbSymbolTableRecord
100
AcDbRegAppTableRecord
  2
AMDT_DM_ADJ
 70
     0
  0
APPID
  5
16D6D
330
9
100
AcDbSymbolTableRecord
100
AcDbRegAppTableRecord
  2
GENIUS_GENSCREG_15
 70
     0
  0
APPID
  5
16D6E
330
9
100
AcDbSymbolTableRecord
100
AcDbRegAppTableRecord
  2
GENIUS_GENOBJ-N-SDF_13
 70
     0
  0
APPID
  5
16D6F
330
9
100
AcDbSymbolTableRecord
100
AcDbRegAppTableRecord
  2
GENIUS_GENODEF_13
 70
     0
  0
APPID
  5
ADC12
330
9
100
AcDbSymbolTableRecord
100
AcDbRegAppTableRecord
  2
GENIUS_GENDTOL_13
 70
     0
  0
APPID
  5
BA934
330
9
100
AcDbSymbolTableRecord
100
AcDbRegAppTableRecord
  2
GENIUS_GENOBJ-N-FIL_13
 70
     0
  0
APPID
  5
F4A76
330
9
100
AcDbSymbolTableRecord
100
AcDbRegAppTableRecord
  2
DCO15
 70
     0
  0
APPID
  5
FB71C
330
9
100
AcDbSymbolTableRecord
100
AcDbRegAppTableRecord
  2
ACAD_PSEXT
 70
     0
  0
APPID
  5
FB724
330
9
100
AcDbSymbolTableRecord
100
AcDbRegAppTableRecord
  2
ACAD_NAV_VCDISPLAY
 70
     0
  0
APPID
  5
FB725
330
9
100
AcDbSymbolTableRecord
100
AcDbRegAppTableRecord
  2
ACAD_DSTYLE_DIMINSPECT
 70
     0
  0
APPID
  5
FB854
330
9
100
AcDbSymbolTableRecord
100
AcDbRegAppTableRecord
  2
ACAD_MLEADERVER
 70
     0
  0
APPID
  5
FB8AB
330
9
100
AcDbSymbolTableRecord
100
AcDbRegAppTableRecord
  2
ACAD_DSTYLE_DIMBREAK
 70
     0
  0
APPID
  5
FB8AC
330
9
100
AcDbSymbolTableRecord
100
AcDbRegAppTableRecord
  2
ACAD_DSTYLE_DIMJAG
 70
     0
  0
APPID
  5
FB8D3
330
9
100
AcDbSymbolTableRecord
100
AcDbRegAppTableRecord
  2
AcAecLayerStandard
 70
     0
  0
APPID
  5
FBBAB
330
9
100
AcDbSymbolTableRecord
100
AcDbRegAppTableRecord
  2
ACAD_EXEMPT_FROM_CAD_STANDARDS
 70
     0
  0
ENDTAB
  0
TABLE
  2
DIMSTYLE
  5
A
330
0
100
AcDbSymbolTable
 70
     8
100
AcDbDimStyleTable
 71
     3
340
16D60
340
16D6A
340
16D65
  0
DIMSTYLE
105
16D60
102
{ACAD_REACTORS
330
FB9F2
102
}
330
A
100
AcDbSymbolTableRecord
100
AcDbDimStyleTableRecord
  2
AM_ISO
 70
     0
  4
"
 41
2.5
 42
1.0
 43
10.0
 44
1.0
 47
0.1
 48
0.1
 73
     0
 74
     0
 77
     1
 78
     8
 79
     2
140
3.5
141
0.0
143
0.0393701
146
0.71
147
1.5
172
     1
176
   256
177
   256
178
     2
271
     2
272
     3
274
     4
283
     0
284
     8
340
11
371
    -1
372
    -1
  0
DIMSTYLE
105
16D61
102
{ACAD_REACTORS
330
FB11C
102
}
330
A
100
AcDbSymbolTableRecord
100
AcDbDimStyleTableRecord
  2
AM_ISO$3
 70
     0
  4
"
 41
2.5
 42
1.0
 43
10.0
 44
1.0
 47
0.1
 48
0.1
 73
     0
 77
     1
 78
     8
 79
     2
140
3.5
141
0.0
143
0.0393701
146
0.71
147
1.5
176
   256
177
   256
178
     2
271
     2
272
     3
274
     4
283
     0
284
     8
288
     1
289
     0
340
11
371
    -1
372
    -1
  0
DIMSTYLE
105
16D62
330
A
100
AcDbSymbolTableRecord
100
AcDbDimStyleTableRecord
  2
AM_ISO$4
 70
     0
  4
"
 41
2.5
 42
1.0
 43
10.0
 44
1.0
 47
0.1
 48
0.1
 73
     0
 77
     1
 78
     8
 79
     2
140
3.5
141
0.0
143
0.0393701
146
0.71
147
1.5
176
   256
177
   256
178
     2
271
     2
272
     3
274
     4
283
     0
284
     8
288
     1
289
     0
340
11
371
    -1
372
    -1
  0
DIMSTYLE
105
16D63
330
A
100
AcDbSymbolTableRecord
100
AcDbDimStyleTableRecord
  2
AM_ISO$6
 70
     0
  4
"
 41
2.5
 42
1.0
 43
10.0
 44
1.0
 47
0.1
 48
0.1
 73
     0
 74
     0
 78
     8
 79
     2
140
3.5
141
0.0
143
0.0393701
146
0.71
147
1.5
172
     1
176
   256
177
   256
178
     2
271
     2
272
     3
274
     4
283
     0
284
     8
340
11
371
    -1
372
    -1
  0
DIMSTYLE
105
16D64
102
{ACAD_REACTORS
330
FBB3E
102
}
330
A
100
AcDbSymbolTableRecord
100
AcDbDimStyleTableRecord
  2
AM_ISO$7
 70
     0
  4
"
 41
2.5
 42
1.0
 43
10.0
 44
1.0
 47
0.1
 48
0.1
 73
     0
 74
     0
 77
     1
 78
     8
 79
     2
140
5.0
141
0.0
143
0.0393701
146
0.71
147
1.5
172
     1
176
   256
177
   256
178
     2
271
     2
272
     3
274
     4
283
     0
284
     8
340
11
371
    -1
372
    -1
  0
DIMSTYLE
105
16D65
330
A
100
AcDbSymbolTableRecord
100
AcDbDimStyleTableRecord
  2
AM_ISO$SF
 70
     0
  4
"
 41
2.5
 42
1.0
 43
10.0
 44
1.0
 47
0.1
 48
0.1
 73
     0
 74
     0
 75
     1
 76
     1
 77
     1
 78
     8
 79
     2
140
3.5
141
0.0
143
0.0393701
146
0.71
147
1.5
172
     1
176
   256
177
   256
178
     2
271
     2
272
     3
274
     4
283
     0
284
     8
340
11
371
    -1
372
    -1
  0
DIMSTYLE
105
16D6A
330
A
100
AcDbSymbolTableRecord
100
AcDbDimStyleTableRecord
  2
AM_ISO$SH
 70
     0
  4
"
 41
2.5
 42
1.0
 43
10.0
 44
1.0
 47
0.1
 48
0.1
 73
     0
 74
     0
 75
     1
 76
     1
 77
     1
 78
     8
 79
     2
140
3.5
141
0.0
143
0.0393701
144
2.0
146
0.71
147
1.5
172
     1
173
     1
176
   256
177
   256
178
     2
271
     2
272
     3
274
     4
283
     0
284
     8
340
11
343
16D66
371
    -1
372
    -1
  0
DIMSTYLE
105
FB8D7
102
{ACAD_REACTORS
330
FB0CE
330
FB0DE
330
FBACF
330
FB0D1
330
FB0D6
330
FB0D2
330
FB0D3
330
FB0D0
330
FB0D7
330
FB0D8
330
FB0CF
330
FB11D
330
FB0D5
330
FBB46
330
FBADF
330
FBB43
102
}
330
A
100
AcDbSymbolTableRecord
100
AcDbDimStyleTableRecord
  2
AM_ISO$0
 70
     0
  4
"
 41
2.5
 42
1.0
 43
10.0
 44
1.0
 47
0.1
 48
0.1
 73
     0
 74
     0
 77
     1
 78
     8
 79
     2
140
3.5
141
0.0
143
0.0393701
146
0.71
147
1.5
172
     1
176
   256
177
   256
178
     2
271
     2
272
     3
274
     4
283
     0
284
     8
340
11
371
    -1
372
    -1
1001
ACAD_DSTYLE_DIMBREAK
1070
   391
1040
3.75
1001
ACAD_DSTYLE_DIMJAG
1070
   388
1040
1.5
  0
ENDTAB
  0
TABLE
  2
BLOCK_RECORD
  5
1
330
0
100
AcDbSymbolTable
 70
    26
  0
BLOCK_RECORD
  5
1F
102
{ACAD_XDICTIONARY
360
16D78
102
}
330
1
100
AcDbSymbolTableRecord
100
AcDbBlockTableRecord
  2
*Model_Space
340
22
  0
BLOCK_RECORD
  5
FB710
330
1
100
AcDbSymbolTableRecord
100
AcDbBlockTableRecord
  2
*Paper_Space
340
FB711
  0
BLOCK_RECORD
  5
16D66
330
1
100
AcDbSymbolTableRecord
100
AcDbBlockTableRecord
  2
GENAXEH
340
0
  0
BLOCK_RECORD
  5
FB18B
330
1
100
AcDbSymbolTableRecord
100
AcDbBlockTableRecord
  2
*D1
340
0
  0
BLOCK_RECORD
  5
FB197
330
1
100
AcDbSymbolTableRecord
100
AcDbBlockTableRecord
  2
*D2
340
0
  0
BLOCK_RECORD
  5
FB20F
330
1
100
AcDbSymbolTableRecord
100
AcDbBlockTableRecord
  2
*D3
340
0
  0
BLOCK_RECORD
  5
FB21E
330
1
100
AcDbSymbolTableRecord
100
AcDbBlockTableRecord
  2
*D4
340
0
  0
BLOCK_RECORD
  5
FB22A
330
1
100
AcDbSymbolTableRecord
100
AcDbBlockTableRecord
  2
*D5
340
0
  0
BLOCK_RECORD
  5
FB236
330
1
100
AcDbSymbolTableRecord
100
AcDbBlockTableRecord
  2
*D6
340
0
  0
BLOCK_RECORD
  5
FB242
330
1
100
AcDbSymbolTableRecord
100
AcDbBlockTableRecord
  2
*D7
340
0
  0
BLOCK_RECORD
  5
FB24E
330
1
100
AcDbSymbolTableRecord
100
AcDbBlockTableRecord
  2
*D8
340
0
  0
BLOCK_RECORD
  5
FB264
330
1
100
AcDbSymbolTableRecord
100
AcDbBlockTableRecord
  2
*D9
340
0
  0
BLOCK_RECORD
  5
FB272
330
1
100
AcDbSymbolTableRecord
100
AcDbBlockTableRecord
  2
*D10
340
0
  0
BLOCK_RECORD
  5
FB27E
330
1
100
AcDbSymbolTableRecord
100
AcDbBlockTableRecord
  2
*D11
340
0
  0
BLOCK_RECORD
  5
FB28A
330
1
100
AcDbSymbolTableRecord
100
AcDbBlockTableRecord
  2
*D12
340
0
  0
BLOCK_RECORD
  5
FB296
330
1
100
AcDbSymbolTableRecord
100
AcDbBlockTableRecord
  2
*D13
340
0
  0
BLOCK_RECORD
  5
FBA18
330
1
100
AcDbSymbolTableRecord
100
AcDbBlockTableRecord
  2
*D15
340
0
  0
BLOCK_RECORD
  5
FBA24
330
1
100
AcDbSymbolTableRecord
100
AcDbBlockTableRecord
  2
*D16
340
0
  0
BLOCK_RECORD
  5
FBA30
330
1
100
AcDbSymbolTableRecord
100
AcDbBlockTableRecord
  2
*D17
340
0
  0
BLOCK_RECORD
  5
FBA3E
330
1
100
AcDbSymbolTableRecord
100
AcDbBlockTableRecord
  2
*D18
340
0
  0
BLOCK_RECORD
  5
FBB47
330
1
100
AcDbSymbolTableRecord
100
AcDbBlockTableRecord
  2
*D20
340
0
  0
BLOCK_RECORD
  5
FBB53
330
1
100
AcDbSymbolTableRecord
100
AcDbBlockTableRecord
  2
*D21
340
0
  0
BLOCK_RECORD
  5
FBB61
330
1
100
AcDbSymbolTableRecord
100
AcDbBlockTableRecord
  2
*D22
340
0
  0
BLOCK_RECORD
  5
FBB6D
330
1
100
AcDbSymbolTableRecord
100
AcDbBlockTableRecord
  2
*D23
340
0
  0
BLOCK_RECORD
  5
FBBB2
330
1
100
AcDbSymbolTableRecord
100
AcDbBlockTableRecord
  2
*D25
340
0
  0
ENDTAB
  0
ENDSEC
  0
SECTION
  2
BLOCKS
  0
BLOCK
  5
20
330
1F
100
AcDbEntity
  8
0
100
AcDbBlockBegin
  2
*Model_Space
 70
     0
 10
0.0
 20
0.0
 30
0.0
  3
*Model_Space
  1

  0
ENDBLK
  5
21
330
1F
100
AcDbEntity
  8
0
100
AcDbBlockEnd
  0
BLOCK
  5
FB712
330
FB710
100
AcDbEntity
 67
     1
  8
0
100
AcDbBlockBegin
  2
*Paper_Space
 70
     0
 10
0.0
 20
0.0
 30
0.0
  3
*Paper_Space
  1

  0
ENDBLK
  5
FB713
330
FB710
100
AcDbEntity
 67
     1
  8
0
100
AcDbBlockEnd
  0
BLOCK
  5
16D68
330
16D66
100
AcDbEntity
  8
0
100
AcDbBlockBegin
  2
GENAXEH
 70
     0
 10
0.0
 20
0.0
 30
0.0
  3
GENAXEH
  1

  0
LINE
  5
16D67
330
16D66
100
AcDbEntity
  8
0
100
AcDbLine
 10
-1.0
 20
0.0
 30
0.0
 11
1.0
 21
0.0
 31
0.0
  0
ENDBLK
  5
16D69
330
16D66
100
AcDbEntity
  8
0
100
AcDbBlockEnd
  0
BLOCK
  5
FB195
330
FB18B
100
AcDbEntity
  8
0
100
AcDbBlockBegin
  2
*D1
 70
     1
 10
0.0
 20
0.0
 30
0.0
  3
*D1
  1

  0
LINE
  5
FBC06
330
FB18B
100
AcDbEntity
  8
AM_5
440
 16777216
100
AcDbLine
 10
164.4773044705767
 20
228.5456996872458
 30
0.0
 11
130.6159087281246
 21
198.439304935194
 31
0.0
  0
LINE
  5
FBC07
330
FB18B
100
AcDbEntity
  8
AM_5
440
 16777216
100
AcDbLine
 10
123.2920896625682
 20
191.9276481341186
 30
0.0
 11
121.4237684723753
 21
190.2665111950688
 31
0.0
  0
MTEXT
  5
FBC08
102
{ACAD_XDICTIONARY
360
FBC9F
102
}
330
FB18B
100
AcDbEntity
  8
AM_5
 62
     2
440
 16777216
100
AcDbMText
 10
156.0963168864692
 20
225.4429312274607
 30
0.0
 40
3.5
 41
0.0
 71
     5
 72
     1
  1
4-\U+22054.8
 11
0.7473284760771869
 21
0.6644547756199437
 31
0.0
 73
     1
 44
1.0
  0
LINE
  5
FBC09
330
FB18B
100
AcDbEntity
  8
AM_5
440
 16777216
100
AcDbLine
 10
125.1604108527612
 20
193.5887850731685
 30
0.0
 11
128.7475875379316
 21
196.7781679961441
 31
0.0
  0
SOLID
  5
FBC0A
330
FB18B
100
AcDbEntity
  8
AM_5
440
 16777216
100
AcDbTrace
 10
123.0152335060599
 20
192.2390349991508
 30
0.0
 11
123.5689458190765
 21
191.6162612690864
 31
0.0
 12
125.1604108527612
 22
193.5887850731685
 32
0.0
 13
125.1604108527612
 23
193.5887850731685
 33
0.0
  0
SOLID
  5
FBC0B
330
FB18B
100
AcDbEntity
  8
AM_5
440
 16777216
100
AcDbTrace
 10
130.3390525716163
 20
198.7506918002261
 30
0.0
 11
130.8927648846329
 21
198.1279180701618
 31
0.0
 12
128.7475875379316
 22
196.7781679961441
 32
0.0
 13
128.7475875379316
 23
196.7781679961441
 33
0.0
  0
POINT
  5
FBC0C
330
FB18B
100
AcDbEntity
  8
Defpoints
 62
     0
440
 16777216
100
AcDbPoint
 10
128.7475875379316
 20
196.7781679961441
 30
0.0
  0
POINT
  5
FBC0D
330
FB18B
100
AcDbEntity
  8
Defpoints
 62
     0
440
 16777216
100
AcDbPoint
 10
125.1604108527612
 20
193.5887850731685
 30
0.0
  0
ENDBLK
  5
FB196
330
FB18B
100
AcDbEntity
  8
0
100
AcDbBlockEnd
  0
BLOCK
  5
FB1A1
330
FB197
100
AcDbEntity
  8
0
100
AcDbBlockBegin
  2
*D2
 70
     1
 10
0.0
 20
0.0
 30
0.0
  3
*D2
  1

  0
LINE
  5
FBC32
330
FB197
100
AcDbEntity
  8
AM_5
440
 16777216
100
AcDbLine
 10
126.9539991953463
 20
202.183476534656
 30
0.0
 11
126.9539991953463
 21
226.2306478814626
 31
0.0
  0
LINE
  5
FBC33
330
FB197
100
AcDbEntity
  8
AM_5
440
 16777216
100
AcDbLine
 10
136.9539991953464
 20
211.1834765346561
 30
0.0
 11
136.9539991953464
 21
226.2306478814626
 31
0.0
  0
LINE
  5
FBC34
330
FB197
100
AcDbEntity
  8
AM_5
440
 16777216
100
AcDbLine
 10
129.4539991953463
 20
225.2306478814626
 30
0.0
 11
134.4539991953464
 21
225.2306478814626
 31
0.0
  0
SOLID
  5
FBC35
330
FB197
100
AcDbEntity
  8
AM_5
440
 16777216
100
AcDbTrace
 10
129.4539991953463
 20
225.6473145481292
 30
0.0
 11
129.4539991953463
 21
224.813981214796
 31
0.0
 12
126.9539991953463
 22
225.2306478814626
 32
0.0
 13
126.9539991953463
 23
225.2306478814626
 33
0.0
  0
SOLID
  5
FBC36
330
FB197
100
AcDbEntity
  8
AM_5
440
 16777216
100
AcDbTrace
 10
134.4539991953464
 20
225.6473145481292
 30
0.0
 11
134.4539991953464
 21
224.813981214796
 31
0.0
 12
136.9539991953464
 22
225.2306478814626
 32
0.0
 13
136.9539991953464
 23
225.2306478814626
 33
0.0
  0
MTEXT
  5
FBC37
330
FB197
100
AcDbEntity
  8
AM_5
 62
     2
440
 16777216
100
AcDbMText
 10
131.9539991953463
 20
228.4806478814626
 30
0.0
 40
3.5
 41
0.0
 71
     5
 72
     1
  1
10
 73
     1
 44
1.0
  0
POINT
  5
FBC38
330
FB197
100
AcDbEntity
  8
Defpoints
 62
     0
440
 16777216
100
AcDbPoint
 10
126.9539991953463
 20
201.183476534656
 30
0.0
  0
POINT
  5
FBC39
330
FB197
100
AcDbEntity
  8
Defpoints
 62
     0
440
 16777216
100
AcDbPoint
 10
136.9539991953464
 20
210.1834765346561
 30
0.0
  0
POINT
  5
FBC3A
330
FB197
100
AcDbEntity
  8
Defpoints
 62
     0
440
 16777216
100
AcDbPoint
 10
136.9539991953464
 20
225.2306478814626
 30
0.0
  0
ENDBLK
  5
FB1A2
330
FB197
100
AcDbEntity
  8
0
100
AcDbBlockEnd
  0
BLOCK
  5
FB21C
330
FB20F
100
AcDbEntity
  8
0
100
AcDbBlockBegin
  2
*D3
 70
     1
 10
0.0
 20
0.0
 30
0.0
  3
*D3
  1

  0
LINE
  5
FB913
330
FB20F
100
AcDbEntity
  8
AM_5
440
 16777216
100
AcDbLine
 10
58.2539991953464
 20
64.18347653465534
 30
0.0
 11
58.2539991953464
 21
49.06522801902292
 31
0.0
  0
LINE
  5
FB914
330
FB20F
100
AcDbEntity
  8
AM_5
440
 16777216
100
AcDbLine
 10
58.95399919534646
 20
64.18347653465534
 30
0.0
 11
58.95399919534646
 21
49.06522801902292
 31
0.0
  0
LINE
  5
FB915
330
FB20F
100
AcDbEntity
  8
AM_5
440
 16777216
100
AcDbLine
 10
55.7539991953464
 20
50.06522801902292
 30
0.0
 11
53.2539991953464
 21
50.06522801902292
 31
0.0
  0
LINE
  5
FB916
330
FB20F
100
AcDbEntity
  8
AM_5
440
 16777216
100
AcDbLine
 10
61.45399919534646
 20
50.06522801902292
 30
0.0
 11
78.22849158113328
 21
50.06522801902292
 31
0.0
  0
LINE
  5
FB917
330
FB20F
100
AcDbEntity
  8
AM_5
440
 16777216
100
AcDbLine
 10
58.2539991953464
 20
50.06522801902292
 30
0.0
 11
58.95399919534646
 21
50.06522801902292
 31
0.0
  0
SOLID
  5
FB918
330
FB20F
100
AcDbEntity
  8
AM_5
440
 16777216
100
AcDbTrace
 10
55.7539991953464
 20
50.48189468568959
 30
0.0
 11
55.7539991953464
 21
49.64856135235626
 31
0.0
 12
58.2539991953464
 22
50.06522801902292
 32
0.0
 13
58.2539991953464
 23
50.06522801902292
 33
0.0
  0
SOLID
  5
FB919
330
FB20F
100
AcDbEntity
  8
AM_5
440
 16777216
100
AcDbTrace
 10
61.45399919534646
 20
50.48189468568959
 30
0.0
 11
61.45399919534646
 21
49.64856135235626
 31
0.0
 12
58.95399919534646
 22
50.06522801902292
 32
0.0
 13
58.95399919534646
 23
50.06522801902292
 33
0.0
  0
MTEXT
  5
FB91A
330
FB20F
100
AcDbEntity
  8
AM_5
 62
     2
440
 16777216
100
AcDbMText
 10
72.00349158113327
 20
53.31522801902292
 30
0.0
 40
3.5
 41
0.0
 71
     5
 72
     1
  1
t=0.7
 73
     1
 44
1.0
1001
ACAD
1000
MTEXTBEGIN
1070
    73
1070
     1
1070
    44
1040
1.0
1070
    74
1070
     0
1000
MTEXTEND
  0
POINT
  5
FB91B
330
FB20F
100
AcDbEntity
  8
Defpoints
 62
     0
440
 16777216
100
AcDbPoint
 10
58.2539991953464
 20
65.18347653465534
 30
0.0
  0
POINT
  5
FB91C
330
FB20F
100
AcDbEntity
  8
Defpoints
 62
     0
440
 16777216
100
AcDbPoint
 10
58.95399919534646
 20
65.18347653465534
 30
0.0
  0
POINT
  5
FB91D
330
FB20F
100
AcDbEntity
  8
Defpoints
 62
     0
440
 16777216
100
AcDbPoint
 10
58.95399919534646
 20
50.06522801902292
 30
0.0
  0
ENDBLK
  5
FB21D
330
FB20F
100
AcDbEntity
  8
0
100
AcDbBlockEnd
  0
BLOCK
  5
FB228
330
FB21E
100
AcDbEntity
  8
0
100
AcDbBlockBegin
  2
*D4
 70
     1
 10
0.0
 20
0.0
 30
0.0
  3
*D4
  1

  0
LINE
  5
FBC29
330
FB21E
100
AcDbEntity
  8
AM_5
440
 16777216
100
AcDbLine
 10
119.9539991953464
 20
195.1834765346561
 30
0.0
 11
96.00736087584415
 21
195.1834765346561
 31
0.0
  0
LINE
  5
FBC2A
330
FB21E
100
AcDbEntity
  8
AM_5
440
 16777216
100
AcDbLine
 10
110.9539991953464
 20
215.1834765346561
 30
0.0
 11
96.00736087584415
 21
215.1834765346561
 31
0.0
  0
LINE
  5
FBC2B
330
FB21E
100
AcDbEntity
  8
AM_5
440
 16777216
100
AcDbLine
 10
97.00736087584417
 20
197.6834765346561
 30
0.0
 11
97.00736087584417
 21
212.6834765346561
 31
0.0
  0
SOLID
  5
FBC2C
330
FB21E
100
AcDbEntity
  8
AM_5
440
 16777216
100
AcDbTrace
 10
96.59069420917749
 20
197.6834765346561
 30
0.0
 11
97.42402754251083
 21
197.6834765346561
 31
0.0
 12
97.00736087584417
 22
195.1834765346561
 32
0.0
 13
97.00736087584417
 23
195.1834765346561
 33
0.0
  0
SOLID
  5
FBC2D
330
FB21E
100
AcDbEntity
  8
AM_5
440
 16777216
100
AcDbTrace
 10
96.59069420917749
 20
212.6834765346561
 30
0.0
 11
97.42402754251083
 21
212.6834765346561
 31
0.0
 12
97.00736087584417
 22
215.1834765346561
 32
0.0
 13
97.00736087584417
 23
215.1834765346561
 33
0.0
  0
MTEXT
  5
FBC2E
330
FB21E
100
AcDbEntity
  8
AM_5
 62
     2
440
 16777216
100
AcDbMText
 10
93.75701638765516
 20
205.1834765346562
 30
0.0
 40
3.5
 41
0.0
 71
     5
 72
     1
  1
20
 11
0.0000000000000001
 21
1.0
 31
0.0
 73
     1
 44
1.0
  0
POINT
  5
FBC2F
330
FB21E
100
AcDbEntity
  8
Defpoints
 62
     0
440
 16777216
100
AcDbPoint
 10
120.9539991953464
 20
195.1834765346561
 30
0.0
  0
POINT
  5
FBC30
330
FB21E
100
AcDbEntity
  8
Defpoints
 62
     0
440
 16777216
100
AcDbPoint
 10
111.9539991953464
 20
215.1834765346561
 30
0.0
  0
POINT
  5
FBC31
330
FB21E
100
AcDbEntity
  8
Defpoints
 62
     0
440
 16777216
100
AcDbPoint
 10
97.00736087584417
 20
215.1834765346561
 30
0.0
  0
ENDBLK
  5
FB229
330
FB21E
100
AcDbEntity
  8
0
100
AcDbBlockEnd
  0
BLOCK
  5
FB234
330
FB22A
100
AcDbEntity
  8
0
100
AcDbBlockBegin
  2
*D5
 70
     1
 10
0.0
 20
0.0
 30
0.0
  3
*D5
  1

  0
LINE
  5
FBC0E
330
FB22A
100
AcDbEntity
  8
AM_5
440
 16777216
100
AcDbLine
 10
109.9539991953464
 20
175.1834765346552
 30
0.0
 11
96.00736087584415
 21
175.1834765346552
 31
0.0
  0
LINE
  5
FBC0F
330
FB22A
100
AcDbEntity
  8
AM_5
440
 16777216
100
AcDbLine
 10
119.9539991953464
 20
195.1834765346561
 30
0.0
 11
96.00736087584415
 21
195.1834765346561
 31
0.0
  0
LINE
  5
FBC10
330
FB22A
100
AcDbEntity
  8
AM_5
440
 16777216
100
AcDbLine
 10
97.00736087584417
 20
177.6834765346552
 30
0.0
 11
97.00736087584417
 21
192.6834765346561
 31
0.0
  0
SOLID
  5
FBC11
330
FB22A
100
AcDbEntity
  8
AM_5
440
 16777216
100
AcDbTrace
 10
96.59069420917749
 20
177.6834765346552
 30
0.0
 11
97.42402754251083
 21
177.6834765346552
 31
0.0
 12
97.00736087584417
 22
175.1834765346552
 32
0.0
 13
97.00736087584417
 23
175.1834765346552
 33
0.0
  0
SOLID
  5
FBC12
330
FB22A
100
AcDbEntity
  8
AM_5
440
 16777216
100
AcDbTrace
 10
96.59069420917749
 20
192.6834765346561
 30
0.0
 11
97.42402754251083
 21
192.6834765346561
 31
0.0
 12
97.00736087584417
 22
195.1834765346561
 32
0.0
 13
97.00736087584417
 23
195.1834765346561
 33
0.0
  0
MTEXT
  5
FBC13
330
FB22A
100
AcDbEntity
  8
AM_5
 62
     2
440
 16777216
100
AcDbMText
 10
93.75701638765516
 20
185.1834765346556
 30
0.0
 40
3.5
 41
0.0
 71
     5
 72
     1
  1
20
 11
0.0000000000000001
 21
1.0
 31
0.0
 73
     1
 44
1.0
  0
POINT
  5
FBC14
330
FB22A
100
AcDbEntity
  8
Defpoints
 62
     0
440
 16777216
100
AcDbPoint
 10
110.9539991953464
 20
175.1834765346552
 30
0.0
  0
POINT
  5
FBC15
330
FB22A
100
AcDbEntity
  8
Defpoints
 62
     0
440
 16777216
100
AcDbPoint
 10
120.9539991953464
 20
195.1834765346561
 30
0.0
  0
POINT
  5
FBC16
330
FB22A
100
AcDbEntity
  8
Defpoints
 62
     0
440
 16777216
100
AcDbPoint
 10
97.00736087584417
 20
195.1834765346561
 30
0.0
  0
ENDBLK
  5
FB235
330
FB22A
100
AcDbEntity
  8
0
100
AcDbBlockEnd
  0
BLOCK
  5
FB240
330
FB236
100
AcDbEntity
  8
0
100
AcDbBlockBegin
  2
*D6
 70
     1
 10
0.0
 20
0.0
 30
0.0
  3
*D6
  1

  0
LINE
  5
FBBE2
330
FB236
100
AcDbEntity
  8
AM_5
440
 16777216
100
AcDbLine
 10
119.9539991953463
 20
105.1834765346552
 30
0.0
 11
96.00736087584415
 21
105.1834765346552
 31
0.0
  0
LINE
  5
FBBE3
330
FB236
100
AcDbEntity
  8
AM_5
440
 16777216
100
AcDbLine
 10
109.9539991953464
 20
175.1834765346552
 30
0.0
 11
96.00736087584415
 21
175.1834765346552
 31
0.0
  0
LINE
  5
FBBE4
330
FB236
100
AcDbEntity
  8
AM_5
440
 16777216
100
AcDbLine
 10
97.00736087584415
 20
107.6834765346552
 30
0.0
 11
97.00736087584417
 21
172.6834765346552
 31
0.0
  0
SOLID
  5
FBBE5
330
FB236
100
AcDbEntity
  8
AM_5
440
 16777216
100
AcDbTrace
 10
96.59069420917747
 20
107.6834765346552
 30
0.0
 11
97.42402754251081
 21
107.6834765346552
 31
0.0
 12
97.00736087584415
 22
105.1834765346552
 32
0.0
 13
97.00736087584415
 23
105.1834765346552
 33
0.0
  0
SOLID
  5
FBBE6
330
FB236
100
AcDbEntity
  8
AM_5
440
 16777216
100
AcDbTrace
 10
96.59069420917749
 20
172.6834765346552
 30
0.0
 11
97.42402754251083
 21
172.6834765346552
 31
0.0
 12
97.00736087584417
 22
175.1834765346552
 32
0.0
 13
97.00736087584417
 23
175.1834765346552
 33
0.0
  0
MTEXT
  5
FBBE7
330
FB236
100
AcDbEntity
  8
AM_5
 62
     2
440
 16777216
100
AcDbMText
 10
93.75736087584412
 20
140.1834765346552
 30
0.0
 40
3.5
 41
0.0
 71
     5
 72
     1
  1
70
 11
0.0000000000000001
 21
1.0
 31
0.0
 73
     1
 44
1.0
  0
POINT
  5
FBBE8
330
FB236
100
AcDbEntity
  8
Defpoints
 62
     0
440
 16777216
100
AcDbPoint
 10
120.9539991953463
 20
105.1834765346552
 30
0.0
  0
POINT
  5
FBBE9
330
FB236
100
AcDbEntity
  8
Defpoints
 62
     0
440
 16777216
100
AcDbPoint
 10
110.9539991953464
 20
175.1834765346552
 30
0.0
  0
POINT
  5
FBBEA
330
FB236
100
AcDbEntity
  8
Defpoints
 62
     0
440
 16777216
100
AcDbPoint
 10
97.00736087584417
 20
175.1834765346552
 30
0.0
  0
ENDBLK
  5
FB241
330
FB236
100
AcDbEntity
  8
0
100
AcDbBlockEnd
  0
BLOCK
  5
FB24C
330
FB242
100
AcDbEntity
  8
0
100
AcDbBlockBegin
  2
*D7
 70
     1
 10
0.0
 20
0.0
 30
0.0
  3
*D7
  1

  0
LINE
  5
FBBF4
330
FB242
100
AcDbEntity
  8
AM_5
440
 16777216
100
AcDbLine
 10
109.9539991953463
 20
85.18347653465523
 30
0.0
 11
96.00736087584415
 21
85.18347653465523
 31
0.0
  0
LINE
  5
FBBF5
330
FB242
100
AcDbEntity
  8
AM_5
440
 16777216
100
AcDbLine
 10
119.9539991953463
 20
105.1834765346552
 30
0.0
 11
96.00736087584415
 21
105.1834765346552
 31
0.0
  0
LINE
  5
FBBF6
330
FB242
100
AcDbEntity
  8
AM_5
440
 16777216
100
AcDbLine
 10
97.00736087584415
 20
87.68347653465523
 30
0.0
 11
97.00736087584417
 21
102.6834765346552
 31
0.0
  0
SOLID
  5
FBBF7
330
FB242
100
AcDbEntity
  8
AM_5
440
 16777216
100
AcDbTrace
 10
96.59069420917747
 20
87.68347653465523
 30
0.0
 11
97.42402754251081
 21
87.68347653465523
 31
0.0
 12
97.00736087584415
 22
85.18347653465523
 32
0.0
 13
97.00736087584415
 23
85.18347653465523
 33
0.0
  0
SOLID
  5
FBBF8
330
FB242
100
AcDbEntity
  8
AM_5
440
 16777216
100
AcDbTrace
 10
96.59069420917749
 20
102.6834765346552
 30
0.0
 11
97.42402754251083
 21
102.6834765346552
 31
0.0
 12
97.00736087584417
 22
105.1834765346552
 32
0.0
 13
97.00736087584417
 23
105.1834765346552
 33
0.0
  0
MTEXT
  5
FBBF9
330
FB242
100
AcDbEntity
  8
AM_5
 62
     2
440
 16777216
100
AcDbMText
 10
93.75701638765516
 20
95.18347653465525
 30
0.0
 40
3.5
 41
0.0
 71
     5
 72
     1
  1
20
 11
0.0000000000000001
 21
1.0
 31
0.0
 73
     1
 44
1.0
  0
POINT
  5
FBBFA
330
FB242
100
AcDbEntity
  8
Defpoints
 62
     0
440
 16777216
100
AcDbPoint
 10
110.9539991953463
 20
85.18347653465523
 30
0.0
  0
POINT
  5
FBBFB
330
FB242
100
AcDbEntity
  8
Defpoints
 62
     0
440
 16777216
100
AcDbPoint
 10
120.9539991953463
 20
105.1834765346552
 30
0.0
  0
POINT
  5
FBBFC
330
FB242
100
AcDbEntity
  8
Defpoints
 62
     0
440
 16777216
100
AcDbPoint
 10
97.00736087584417
 20
105.1834765346552
 30
0.0
  0
ENDBLK
  5
FB24D
330
FB242
100
AcDbEntity
  8
0
100
AcDbBlockEnd
  0
BLOCK
  5
FB258
330
FB24E
100
AcDbEntity
  8
0
100
AcDbBlockBegin
  2
*D8
 70
     1
 10
0.0
 20
0.0
 30
0.0
  3
*D8
  1

  0
LINE
  5
FBBFD
330
FB24E
100
AcDbEntity
  8
AM_5
440
 16777216
100
AcDbLine
 10
110.9539991953464
 20
65.18347653465522
 30
0.0
 11
96.00736087584415
 21
65.18347653465522
 31
0.0
  0
LINE
  5
FBBFE
330
FB24E
100
AcDbEntity
  8
AM_5
440
 16777216
100
AcDbLine
 10
109.9539991953463
 20
85.18347653465523
 30
0.0
 11
96.00736087584415
 21
85.18347653465523
 31
0.0
  0
LINE
  5
FBBFF
330
FB24E
100
AcDbEntity
  8
AM_5
440
 16777216
100
AcDbLine
 10
97.00736087584417
 20
67.68347653465522
 30
0.0
 11
97.00736087584417
 21
82.68347653465523
 31
0.0
  0
SOLID
  5
FBC00
330
FB24E
100
AcDbEntity
  8
AM_5
440
 16777216
100
AcDbTrace
 10
96.59069420917749
 20
67.68347653465522
 30
0.0
 11
97.42402754251083
 21
67.68347653465522
 31
0.0
 12
97.00736087584417
 22
65.18347653465522
 32
0.0
 13
97.00736087584417
 23
65.18347653465522
 33
0.0
  0
SOLID
  5
FBC01
330
FB24E
100
AcDbEntity
  8
AM_5
440
 16777216
100
AcDbTrace
 10
96.59069420917749
 20
82.68347653465523
 30
0.0
 11
97.42402754251083
 21
82.68347653465523
 31
0.0
 12
97.00736087584417
 22
85.18347653465523
 32
0.0
 13
97.00736087584417
 23
85.18347653465523
 33
0.0
  0
MTEXT
  5
FBC02
330
FB24E
100
AcDbEntity
  8
AM_5
 62
     2
440
 16777216
100
AcDbMText
 10
93.75701638765518
 20
75.18347653465525
 30
0.0
 40
3.5
 41
0.0
 71
     5
 72
     1
  1
20
 11
0.0000000000000001
 21
1.0
 31
0.0
 73
     1
 44
1.0
  0
POINT
  5
FBC03
330
FB24E
100
AcDbEntity
  8
Defpoints
 62
     0
440
 16777216
100
AcDbPoint
 10
111.9539991953464
 20
65.18347653465522
 30
0.0
  0
POINT
  5
FBC04
330
FB24E
100
AcDbEntity
  8
Defpoints
 62
     0
440
 16777216
100
AcDbPoint
 10
110.9539991953463
 20
85.18347653465523
 30
0.0
  0
POINT
  5
FBC05
330
FB24E
100
AcDbEntity
  8
Defpoints
 62
     0
440
 16777216
100
AcDbPoint
 10
97.00736087584417
 20
85.18347653465523
 30
0.0
  0
ENDBLK
  5
FB259
330
FB24E
100
AcDbEntity
  8
0
100
AcDbBlockEnd
  0
BLOCK
  5
FB270
330
FB264
100
AcDbEntity
  8
0
100
AcDbBlockBegin
  2
*D9
 70
     1
 10
0.0
 20
0.0
 30
0.0
  3
*D9
  1

  0
LINE
  5
FBC3B
330
FB264
100
AcDbEntity
  8
AM_5
440
 16777216
100
AcDbLine
 10
105.8139991953463
 20
255.9583717393053
 30
0.0
 11
96.00736087584415
 21
255.9583717393053
 31
0.0
  0
LINE
  5
FBC3C
330
FB264
100
AcDbEntity
  8
AM_5
440
 16777216
100
AcDbLine
 10
105.8139991953463
 20
256.6583717393053
 30
0.0
 11
96.00736087584415
 21
256.6583717393053
 31
0.0
  0
LINE
  5
FBC3D
330
FB264
100
AcDbEntity
  8
AM_5
440
 16777216
100
AcDbLine
 10
97.00736087584417
 20
253.4583717393053
 30
0.0
 11
97.00736087584417
 21
250.9583717393053
 31
0.0
  0
LINE
  5
FBC3E
330
FB264
100
AcDbEntity
  8
AM_5
440
 16777216
100
AcDbLine
 10
97.00736087584417
 20
259.1583717393053
 30
0.0
 11
97.00736087584417
 21
274.1083717393053
 31
0.0
  0
LINE
  5
FBC3F
330
FB264
100
AcDbEntity
  8
AM_5
440
 16777216
100
AcDbLine
 10
97.00736087584417
 20
255.9583717393053
 30
0.0
 11
97.00736087584417
 21
256.6583717393053
 31
0.0
  0
SOLID
  5
FBC40
330
FB264
100
AcDbEntity
  8
AM_5
440
 16777216
100
AcDbTrace
 10
96.59069420917749
 20
253.4583717393053
 30
0.0
 11
97.42402754251083
 21
253.4583717393053
 31
0.0
 12
97.00736087584417
 22
255.9583717393053
 32
0.0
 13
97.00736087584417
 23
255.9583717393053
 33
0.0
  0
SOLID
  5
FBC41
330
FB264
100
AcDbEntity
  8
AM_5
440
 16777216
100
AcDbTrace
 10
96.59069420917749
 20
259.1583717393053
 30
0.0
 11
97.42402754251083
 21
259.1583717393053
 31
0.0
 12
97.00736087584417
 22
256.6583717393053
 32
0.0
 13
97.00736087584417
 23
256.6583717393053
 33
0.0
  0
MTEXT
  5
FBC42
330
FB264
100
AcDbEntity
  8
AM_5
 62
     2
440
 16777216
100
AcDbMText
 10
93.75736087584412
 20
267.8833717393053
 30
0.0
 40
3.5
 41
0.0
 71
     5
 72
     1
  1
t=0.7
 11
0.0000000000000001
 21
1.0
 31
0.0
 73
     1
 44
1.0
  0
POINT
  5
FBC43
330
FB264
100
AcDbEntity
  8
Defpoints
 62
     0
440
 16777216
100
AcDbPoint
 10
106.8139991953463
 20
255.9583717393053
 30
0.0
  0
POINT
  5
FBC44
330
FB264
100
AcDbEntity
  8
Defpoints
 62
     0
440
 16777216
100
AcDbPoint
 10
106.8139991953463
 20
256.6583717393053
 30
0.0
  0
POINT
  5
FBC45
330
FB264
100
AcDbEntity
  8
Defpoints
 62
     0
440
 16777216
100
AcDbPoint
 10
97.00736087584417
 20
256.6583717393053
 30
0.0
  0
ENDBLK
  5
FB271
330
FB264
100
AcDbEntity
  8
0
100
AcDbBlockEnd
  0
BLOCK
  5
FB27C
330
FB272
100
AcDbEntity
  8
0
100
AcDbBlockBegin
  2
*D10
 70
     1
 10
0.0
 20
0.0
 30
0.0
  3
*D10
  1

  0
LINE
  5
FBBEB
330
FB272
100
AcDbEntity
  8
AM_5
440
 16777216
100
AcDbLine
 10
110.9539991953464
 20
65.18347653465522
 30
0.0
 11
87.81440393651655
 21
65.18347653465522
 31
0.0
  0
LINE
  5
FBBEC
330
FB272
100
AcDbEntity
  8
AM_5
440
 16777216
100
AcDbLine
 10
110.9539991953464
 20
215.1834765346561
 30
0.0
 11
87.81440393651656
 21
215.1834765346561
 31
0.0
  0
LINE
  5
FBBED
330
FB272
100
AcDbEntity
  8
AM_5
440
 16777216
100
AcDbLine
 10
88.81440393651654
 20
67.68347653465522
 30
0.0
 11
88.81440393651656
 21
212.6834765346561
 31
0.0
  0
SOLID
  5
FBBEE
330
FB272
100
AcDbEntity
  8
AM_5
440
 16777216
100
AcDbTrace
 10
88.39773726984986
 20
67.68347653465522
 30
0.0
 11
89.2310706031832
 21
67.68347653465522
 31
0.0
 12
88.81440393651654
 22
65.18347653465522
 32
0.0
 13
88.81440393651654
 23
65.18347653465522
 33
0.0
  0
SOLID
  5
FBBEF
330
FB272
100
AcDbEntity
  8
AM_5
440
 16777216
100
AcDbTrace
 10
88.3977372698499
 20
212.6834765346561
 30
0.0
 11
89.23107060318324
 21
212.6834765346561
 31
0.0
 12
88.81440393651656
 22
215.1834765346561
 32
0.0
 13
88.81440393651656
 23
215.1834765346561
 33
0.0
  0
MTEXT
  5
FBBF0
330
FB272
100
AcDbEntity
  8
AM_5
 62
     2
440
 16777216
100
AcDbMText
 10
85.56440393651653
 20
140.1834765346556
 30
0.0
 40
3.5
 41
0.0
 71
     5
 72
     1
  1
150
 11
0.0000000000000001
 21
1.0
 31
0.0
 73
     1
 44
1.0
  0
POINT
  5
FBBF1
330
FB272
100
AcDbEntity
  8
Defpoints
 62
     0
440
 16777216
100
AcDbPoint
 10
111.9539991953464
 20
65.18347653465522
 30
0.0
  0
POINT
  5
FBBF2
330
FB272
100
AcDbEntity
  8
Defpoints
 62
     0
440
 16777216
100
AcDbPoint
 10
111.9539991953464
 20
215.1834765346561
 30
0.0
  0
POINT
  5
FBBF3
330
FB272
100
AcDbEntity
  8
Defpoints
 62
     0
440
 16777216
100
AcDbPoint
 10
88.81440393651656
 20
215.1834765346561
 30
0.0
  0
ENDBLK
  5
FB27D
330
FB272
100
AcDbEntity
  8
0
100
AcDbBlockEnd
  0
BLOCK
  5
FB288
330
FB27E
100
AcDbEntity
  8
0
100
AcDbBlockBegin
  2
*D11
 70
     1
 10
0.0
 20
0.0
 30
0.0
  3
*D11
  1

  0
LINE
  5
FBC17
330
FB27E
100
AcDbEntity
  8
AM_5
440
 16777216
100
AcDbLine
 10
116.9539991953464
 20
182.1834765346552
 30
0.0
 11
116.9539991953464
 21
226.2306478814626
 31
0.0
  0
LINE
  5
FBC18
330
FB27E
100
AcDbEntity
  8
AM_5
440
 16777216
100
AcDbLine
 10
126.9539991953464
 20
202.1834765346561
 30
0.0
 11
126.9539991953464
 21
226.2306478814626
 31
0.0
  0
LINE
  5
FBC19
330
FB27E
100
AcDbEntity
  8
AM_5
440
 16777216
100
AcDbLine
 10
119.4539991953464
 20
225.2306478814626
 30
0.0
 11
124.4539991953464
 21
225.2306478814626
 31
0.0
  0
SOLID
  5
FBC1A
330
FB27E
100
AcDbEntity
  8
AM_5
440
 16777216
100
AcDbTrace
 10
119.4539991953464
 20
225.6473145481292
 30
0.0
 11
119.4539991953464
 21
224.813981214796
 31
0.0
 12
116.9539991953464
 22
225.2306478814626
 32
0.0
 13
116.9539991953464
 23
225.2306478814626
 33
0.0
  0
SOLID
  5
FBC1B
330
FB27E
100
AcDbEntity
  8
AM_5
440
 16777216
100
AcDbTrace
 10
124.4539991953464
 20
225.6473145481292
 30
0.0
 11
124.4539991953464
 21
224.813981214796
 31
0.0
 12
126.9539991953464
 22
225.2306478814626
 32
0.0
 13
126.9539991953464
 23
225.2306478814626
 33
0.0
  0
MTEXT
  5
FBC1C
330
FB27E
100
AcDbEntity
  8
AM_5
 62
     2
440
 16777216
100
AcDbMText
 10
121.9539991953464
 20
228.4806478814626
 30
0.0
 40
3.5
 41
0.0
 71
     5
 72
     1
  1
10
 73
     1
 44
1.0
  0
POINT
  5
FBC1D
330
FB27E
100
AcDbEntity
  8
Defpoints
 62
     0
440
 16777216
100
AcDbPoint
 10
116.9539991953464
 20
181.1834765346552
 30
0.0
  0
POINT
  5
FBC1E
330
FB27E
100
AcDbEntity
  8
Defpoints
 62
     0
440
 16777216
100
AcDbPoint
 10
126.9539991953464
 20
201.1834765346561
 30
0.0
  0
POINT
  5
FBC1F
330
FB27E
100
AcDbEntity
  8
Defpoints
 62
     0
440
 16777216
100
AcDbPoint
 10
126.9539991953464
 20
225.2306478814626
 30
0.0
  0
ENDBLK
  5
FB289
330
FB27E
100
AcDbEntity
  8
0
100
AcDbBlockEnd
  0
BLOCK
  5
FB294
330
FB28A
100
AcDbEntity
  8
0
100
AcDbBlockBegin
  2
*D12
 70
     1
 10
0.0
 20
0.0
 30
0.0
  3
*D12
  1

  0
LINE
  5
FBC20
330
FB28A
100
AcDbEntity
  8
AM_5
440
 16777216
100
AcDbLine
 10
106.9539991953464
 20
211.183476534656
 30
0.0
 11
106.9539991953464
 21
226.2306478814628
 31
0.0
  0
LINE
  5
FBC21
330
FB28A
100
AcDbEntity
  8
AM_5
440
 16777216
100
AcDbLine
 10
116.9539991953464
 20
182.1834765346552
 30
0.0
 11
116.9539991953464
 21
226.2306478814628
 31
0.0
  0
LINE
  5
FBC22
330
FB28A
100
AcDbEntity
  8
AM_5
440
 16777216
100
AcDbLine
 10
109.4539991953464
 20
225.2306478814628
 30
0.0
 11
114.4539991953464
 21
225.2306478814628
 31
0.0
  0
SOLID
  5
FBC23
330
FB28A
100
AcDbEntity
  8
AM_5
440
 16777216
100
AcDbTrace
 10
109.4539991953464
 20
225.6473145481295
 30
0.0
 11
109.4539991953464
 21
224.8139812147962
 31
0.0
 12
106.9539991953464
 22
225.2306478814628
 32
0.0
 13
106.9539991953464
 23
225.2306478814628
 33
0.0
  0
SOLID
  5
FBC24
330
FB28A
100
AcDbEntity
  8
AM_5
440
 16777216
100
AcDbTrace
 10
114.4539991953464
 20
225.6473145481295
 30
0.0
 11
114.4539991953464
 21
224.8139812147962
 31
0.0
 12
116.9539991953464
 22
225.2306478814628
 32
0.0
 13
116.9539991953464
 23
225.2306478814628
 33
0.0
  0
MTEXT
  5
FBC25
330
FB28A
100
AcDbEntity
  8
AM_5
 62
     2
440
 16777216
100
AcDbMText
 10
111.9539991953464
 20
228.4806478814628
 30
0.0
 40
3.5
 41
0.0
 71
     5
 72
     1
  1
10
 73
     1
 44
1.0
  0
POINT
  5
FBC26
330
FB28A
100
AcDbEntity
  8
Defpoints
 62
     0
440
 16777216
100
AcDbPoint
 10
106.9539991953464
 20
210.183476534656
 30
0.0
  0
POINT
  5
FBC27
330
FB28A
100
AcDbEntity
  8
Defpoints
 62
     0
440
 16777216
100
AcDbPoint
 10
116.9539991953464
 20
181.1834765346552
 30
0.0
  0
POINT
  5
FBC28
330
FB28A
100
AcDbEntity
  8
Defpoints
 62
     0
440
 16777216
100
AcDbPoint
 10
116.9539991953464
 20
225.2306478814628
 30
0.0
  0
ENDBLK
  5
FB295
330
FB28A
100
AcDbEntity
  8
0
100
AcDbBlockEnd
  0
BLOCK
  5
FB2A0
330
FB296
100
AcDbEntity
  8
0
100
AcDbBlockBegin
  2
*D13
 70
     1
 10
0.0
 20
0.0
 30
0.0
  3
*D13
  1

  0
LINE
  5
FB91E
330
FB296
100
AcDbEntity
  8
AM_5
440
 16777216
100
AcDbLine
 10
106.9539991953464
 20
69.18347653465521
 30
0.0
 11
106.9539991953464
 21
51.52291665022648
 31
0.0
  0
LINE
  5
FB91F
330
FB296
100
AcDbEntity
  8
AM_5
440
 16777216
100
AcDbLine
 10
136.9539991953464
 20
68.5584765346552
 30
0.0
 11
136.9539991953464
 21
51.52291665022648
 31
0.0
  0
LINE
  5
FB920
330
FB296
100
AcDbEntity
  8
AM_5
440
 16777216
100
AcDbLine
 10
109.4539991953464
 20
52.52291665022648
 30
0.0
 11
134.4539991953464
 21
52.52291665022648
 31
0.0
  0
SOLID
  5
FB921
330
FB296
100
AcDbEntity
  8
AM_5
440
 16777216
100
AcDbTrace
 10
109.4539991953464
 20
52.93958331689314
 30
0.0
 11
109.4539991953464
 21
52.10624998355982
 31
0.0
 12
106.9539991953464
 22
52.52291665022648
 32
0.0
 13
106.9539991953464
 23
52.52291665022648
 33
0.0
  0
SOLID
  5
FB922
330
FB296
100
AcDbEntity
  8
AM_5
440
 16777216
100
AcDbTrace
 10
134.4539991953464
 20
52.93958331689314
 30
0.0
 11
134.4539991953464
 21
52.10624998355982
 31
0.0
 12
136.9539991953464
 22
52.52291665022648
 32
0.0
 13
136.9539991953464
 23
52.52291665022648
 33
0.0
  0
MTEXT
  5
FB923
330
FB296
100
AcDbEntity
  8
AM_5
 62
     2
440
 16777216
100
AcDbMText
 10
121.9539991953464
 20
55.77291665022648
 30
0.0
 40
3.5
 41
0.0
 71
     5
 72
     1
  1
30
 73
     1
 44
1.0
1001
ACAD
1000
MTEXTBEGIN
1070
    73
1070
     1
1070
    44
1040
1.0
1070
    74
1070
     0
1000
MTEXTEND
  0
POINT
  5
FB924
330
FB296
100
AcDbEntity
  8
Defpoints
 62
     0
440
 16777216
100
AcDbPoint
 10
106.9539991953464
 20
70.18347653465522
 30
0.0
  0
POINT
  5
FB925
330
FB296
100
AcDbEntity
  8
Defpoints
 62
     0
440
 16777216
100
AcDbPoint
 10
136.9539991953464
 20
69.5584765346552
 30
0.0
  0
POINT
  5
FB926
330
FB296
100
AcDbEntity
  8
Defpoints
 62
     0
440
 16777216
100
AcDbPoint
 10
136.9539991953464
 20
52.52291665022648
 30
0.0
  0
ENDBLK
  5
FB2A1
330
FB296
100
AcDbEntity
  8
0
100
AcDbBlockEnd
  0
BLOCK
  5
FBA19
330
FBA18
100
AcDbEntity
  8
0
100
AcDbBlockBegin
  2
*D15
 70
     1
 10
0.0
 20
0.0
 30
0.0
  3
*D15
  1

  0
LINE
  5
FBA1A
330
FBA18
100
AcDbEntity
  8
AM_5
440
 16777216
100
AcDbLine
 10
-130.0345097363488
 20
187.8848577539977
 30
0.0
 11
-144.1083762263123
 21
187.8848577539977
 31
0.0
  0
LINE
  5
FBA1B
330
FBA18
100
AcDbEntity
  8
AM_5
440
 16777216
100
AcDbLine
 10
-125.9345097363489
 20
142.8848577539977
 30
0.0
 11
-144.1083762263123
 21
142.8848577539977
 31
0.0
  0
LINE
  5
FBA1C
330
FBA18
100
AcDbEntity
  8
AM_5
440
 16777216
100
AcDbLine
 10
-143.1083762263123
 20
185.3848577539977
 30
0.0
 11
-143.1083762263123
 21
145.3848577539977
 31
0.0
  0
SOLID
  5
FBA1D
330
FBA18
100
AcDbEntity
  8
AM_5
440
 16777216
100
AcDbTrace
 10
-143.525042892979
 20
185.3848577539977
 30
0.0
 11
-142.6917095596456
 21
185.3848577539977
 31
0.0
 12
-143.1083762263123
 22
187.8848577539977
 32
0.0
 13
-143.1083762263123
 23
187.8848577539977
 33
0.0
  0
SOLID
  5
FBA1E
330
FBA18
100
AcDbEntity
  8
AM_5
440
 16777216
100
AcDbTrace
 10
-143.525042892979
 20
145.3848577539977
 30
0.0
 11
-142.6917095596456
 21
145.3848577539977
 31
0.0
 12
-143.1083762263123
 22
142.8848577539977
 32
0.0
 13
-143.1083762263123
 23
142.8848577539977
 33
0.0
  0
MTEXT
  5
FBA1F
330
FBA18
100
AcDbEntity
  8
AM_5
 62
     2
440
 16777216
100
AcDbMText
 10
-146.3583762263123
 20
165.3848577539977
 30
0.0
 40
3.5
 41
0.0
 71
     5
 72
     1
  1
45
 11
0.0000000000000001
 21
1.0
 31
0.0
 73
     1
 44
1.0
  0
POINT
  5
FBA20
330
FBA18
100
AcDbEntity
  8
Defpoints
 62
     0
440
 16777216
100
AcDbPoint
 10
-129.0345097363488
 20
187.8848577539977
 30
0.0
  0
POINT
  5
FBA21
330
FBA18
100
AcDbEntity
  8
Defpoints
 62
     0
440
 16777216
100
AcDbPoint
 10
-124.9345097363489
 20
142.8848577539977
 30
0.0
  0
POINT
  5
FBA22
330
FBA18
100
AcDbEntity
  8
Defpoints
 62
     0
440
 16777216
100
AcDbPoint
 10
-143.1083762263123
 20
142.8848577539977
 30
0.0
  0
ENDBLK
  5
FBA23
330
FBA18
100
AcDbEntity
  8
0
100
AcDbBlockEnd
  0
BLOCK
  5
FBA25
330
FBA24
100
AcDbEntity
  8
0
100
AcDbBlockBegin
  2
*D16
 70
     1
 10
0.0
 20
0.0
 30
0.0
  3
*D16
  1

  0
LINE
  5
FBA26
330
FBA24
100
AcDbEntity
  8
AM_5
440
 16777216
100
AcDbLine
 10
-128.9345097363489
 20
219.8216043165505
 30
0.0
 11
-128.9345097363489
 21
229.1457559954586
 31
0.0
  0
LINE
  5
FBA27
330
FBA24
100
AcDbEntity
  8
AM_5
440
 16777216
100
AcDbLine
 10
-120.9345097363489
 20
219.8216043165505
 30
0.0
 11
-120.9345097363489
 21
229.1457559954586
 31
0.0
  0
LINE
  5
FBA28
330
FBA24
100
AcDbEntity
  8
AM_5
440
 16777216
100
AcDbLine
 10
-126.4345097363489
 20
228.1457559954588
 30
0.0
 11
-123.4345097363489
 21
228.1457559954588
 31
0.0
  0
SOLID
  5
FBA29
330
FBA24
100
AcDbEntity
  8
AM_5
440
 16777216
100
AcDbTrace
 10
-126.4345097363489
 20
228.5624226621254
 30
0.0
 11
-126.4345097363489
 21
227.7290893287921
 31
0.0
 12
-128.9345097363489
 22
228.1457559954588
 32
0.0
 13
-128.9345097363489
 23
228.1457559954588
 33
0.0
  0
SOLID
  5
FBA2A
330
FBA24
100
AcDbEntity
  8
AM_5
440
 16777216
100
AcDbTrace
 10
-123.4345097363489
 20
228.5624226621254
 30
0.0
 11
-123.4345097363489
 21
227.7290893287921
 31
0.0
 12
-120.9345097363489
 22
228.1457559954588
 32
0.0
 13
-120.9345097363489
 23
228.1457559954588
 33
0.0
  0
MTEXT
  5
FBA2B
330
FBA24
100
AcDbEntity
  8
AM_5
 62
     2
440
 16777216
100
AcDbMText
 10
-124.9345097363489
 20
231.3957559954587
 30
0.0
 40
3.5
 41
0.0
 71
     5
 72
     1
  1
%%c8
 73
     1
 44
1.0
  0
POINT
  5
FBA2C
330
FBA24
100
AcDbEntity
  8
Defpoints
 62
     0
440
 16777216
100
AcDbPoint
 10
-128.9345097363489
 20
218.8216043165505
 30
0.0
  0
POINT
  5
FBA2D
330
FBA24
100
AcDbEntity
  8
Defpoints
 62
     0
440
 16777216
100
AcDbPoint
 10
-120.9345097363489
 20
218.8216043165505
 30
0.0
  0
POINT
  5
FBA2E
330
FBA24
100
AcDbEntity
  8
Defpoints
 62
     0
440
 16777216
100
AcDbPoint
 10
-120.9345097363489
 20
228.1457559954588
 30
0.0
  0
ENDBLK
  5
FBA2F
330
FBA24
100
AcDbEntity
  8
0
100
AcDbBlockEnd
  0
BLOCK
  5
FBA31
330
FBA30
100
AcDbEntity
  8
0
100
AcDbBlockBegin
  2
*D17
 70
     1
 10
0.0
 20
0.0
 30
0.0
  3
*D17
  1

  0
LINE
  5
FBA32
330
FBA30
100
AcDbEntity
  8
AM_5
440
 16777216
100
AcDbLine
 10
-127.6845097363492
 20
164.7507947687525
 30
0.0
 11
-127.6845097363492
 21
160.7791210558003
 31
0.0
  0
LINE
  5
FBA33
330
FBA30
100
AcDbEntity
  8
AM_5
440
 16777216
100
AcDbLine
 10
-122.1845097363492
 20
165.1888699698294
 30
0.0
 11
-122.1845097363492
 21
160.7791210558003
 31
0.0
  0
LINE
  5
FBA34
330
FBA30
100
AcDbEntity
  8
AM_5
440
 16777216
100
AcDbLine
 10
-130.1845097363492
 20
161.7791210558003
 30
0.0
 11
-132.6845097363491
 21
161.7791210558003
 31
0.0
  0
LINE
  5
FBA35
330
FBA30
100
AcDbEntity
  8
AM_5
440
 16777216
100
AcDbLine
 10
-119.6845097363492
 20
161.7791210558003
 30
0.0
 11
-105.9895349895186
 21
161.7791210558003
 31
0.0
  0
LINE
  5
FBA36
330
FBA30
100
AcDbEntity
  8
AM_5
440
 16777216
100
AcDbLine
 10
-127.6845097363492
 20
161.7791210558003
 30
0.0
 11
-122.1845097363492
 21
161.7791210558003
 31
0.0
  0
SOLID
  5
FBA37
330
FBA30
100
AcDbEntity
  8
AM_5
440
 16777216
100
AcDbTrace
 10
-130.1845097363492
 20
162.1957877224669
 30
0.0
 11
-130.1845097363492
 21
161.3624543891335
 31
0.0
 12
-127.6845097363492
 22
161.7791210558003
 32
0.0
 13
-127.6845097363492
 23
161.7791210558003
 33
0.0
  0
SOLID
  5
FBA38
330
FBA30
100
AcDbEntity
  8
AM_5
440
 16777216
100
AcDbTrace
 10
-119.6845097363492
 20
162.1957877224669
 30
0.0
 11
-119.6845097363492
 21
161.3624543891335
 31
0.0
 12
-122.1845097363492
 22
161.7791210558003
 32
0.0
 13
-122.1845097363492
 23
161.7791210558003
 33
0.0
  0
MTEXT
  5
FBA39
330
FBA30
100
AcDbEntity
  8
AM_5
 62
     2
440
 16777216
100
AcDbMText
 10
-111.5870223629339
 20
165.0291210558003
 30
0.0
 40
3.5
 41
0.0
 71
     5
 72
     1
  1
%%c5.5
 73
     1
 44
1.0
  0
POINT
  5
FBA3A
330
FBA30
100
AcDbEntity
  8
Defpoints
 62
     0
440
 16777216
100
AcDbPoint
 10
-127.6845097363492
 20
165.7507947687525
 30
0.0
  0
POINT
  5
FBA3B
330
FBA30
100
AcDbEntity
  8
Defpoints
 62
     0
440
 16777216
100
AcDbPoint
 10
-122.1845097363492
 20
166.1888699698294
 30
0.0
  0
POINT
  5
FBA3C
330
FBA30
100
AcDbEntity
  8
Defpoints
 62
     0
440
 16777216
100
AcDbPoint
 10
-122.1845097363492
 20
161.7791210558003
 30
0.0
  0
ENDBLK
  5
FBA3D
330
FBA30
100
AcDbEntity
  8
0
100
AcDbBlockEnd
  0
BLOCK
  5
FBA3F
330
FBA3E
100
AcDbEntity
  8
0
100
AcDbBlockBegin
  2
*D18
 70
     1
 10
0.0
 20
0.0
 30
0.0
  3
*D18
  1

  0
LINE
  5
FBA40
330
FBA3E
100
AcDbEntity
  8
AM_5
440
 16777216
100
AcDbLine
 10
-121.934509736349
 20
182.3848577539977
 30
0.0
 11
-107.834509736349
 21
182.3848577539977
 31
0.0
  0
LINE
  5
FBA41
330
FBA3E
100
AcDbEntity
  8
AM_5
440
 16777216
100
AcDbLine
 10
-119.834509736349
 20
187.8848577539977
 30
0.0
 11
-107.834509736349
 21
187.8848577539977
 31
0.0
  0
LINE
  5
FBA42
330
FBA3E
100
AcDbEntity
  8
AM_5
440
 16777216
100
AcDbLine
 10
-108.834509736349
 20
179.8848577539977
 30
0.0
 11
-108.834509736349
 21
177.3848577539977
 31
0.0
  0
LINE
  5
FBA43
330
FBA3E
100
AcDbEntity
  8
AM_5
440
 16777216
100
AcDbLine
 10
-108.834509736349
 20
190.3848577539977
 30
0.0
 11
-108.834509736349
 21
200.9298325008283
 31
0.0
  0
LINE
  5
FBA44
330
FBA3E
100
AcDbEntity
  8
AM_5
440
 16777216
100
AcDbLine
 10
-108.834509736349
 20
182.3848577539977
 30
0.0
 11
-108.834509736349
 21
187.8848577539977
 31
0.0
  0
SOLID
  5
FBA45
330
FBA3E
100
AcDbEntity
  8
AM_5
440
 16777216
100
AcDbTrace
 10
-109.2511764030156
 20
179.8848577539977
 30
0.0
 11
-108.4178430696823
 21
179.8848577539977
 31
0.0
 12
-108.834509736349
 22
182.3848577539977
 32
0.0
 13
-108.834509736349
 23
182.3848577539977
 33
0.0
  0
SOLID
  5
FBA46
330
FBA3E
100
AcDbEntity
  8
AM_5
440
 16777216
100
AcDbTrace
 10
-109.2511764030156
 20
190.3848577539977
 30
0.0
 11
-108.4178430696823
 21
190.3848577539977
 31
0.0
 12
-108.834509736349
 22
187.8848577539977
 32
0.0
 13
-108.834509736349
 23
187.8848577539977
 33
0.0
  0
MTEXT
  5
FBA47
330
FBA3E
100
AcDbEntity
  8
AM_5
 62
     2
440
 16777216
100
AcDbMText
 10
-112.084509736349
 20
196.9073451274129
 30
0.0
 40
3.5
 41
0.0
 71
     5
 72
     1
  1
5.5
 11
0.0000000000000001
 21
1.0
 31
0.0
 73
     1
 44
1.0
  0
POINT
  5
FBA48
330
FBA3E
100
AcDbEntity
  8
Defpoints
 62
     0
440
 16777216
100
AcDbPoint
 10
-122.934509736349
 20
182.3848577539977
 30
0.0
  0
POINT
  5
FBA49
330
FBA3E
100
AcDbEntity
  8
Defpoints
 62
     0
440
 16777216
100
AcDbPoint
 10
-120.834509736349
 20
187.8848577539977
 30
0.0
  0
POINT
  5
FBA4A
330
FBA3E
100
AcDbEntity
  8
Defpoints
 62
     0
440
 16777216
100
AcDbPoint
 10
-108.834509736349
 20
187.8848577539977
 30
0.0
  0
ENDBLK
  5
FBA4B
330
FBA3E
100
AcDbEntity
  8
0
100
AcDbBlockEnd
  0
BLOCK
  5
FBB48
330
FBB47
100
AcDbEntity
  8
0
100
AcDbBlockBegin
  2
*D20
 70
     1
 10
0.0
 20
0.0
 30
0.0
  3
*D20
  1

  0
LINE
  5
FBBD9
330
FBB47
100
AcDbEntity
  8
AM_5
440
 16777216
100
AcDbLine
 10
226.8423113611318
 20
229.8115265830142
 30
0.0
 11
212.7684448711683
 21
229.8115265830142
 31
0.0
  0
LINE
  5
FBBDA
330
FBB47
100
AcDbEntity
  8
AM_5
440
 16777216
100
AcDbLine
 10
230.9423113611317
 20
184.8115265830141
 30
0.0
 11
212.7684448711683
 21
184.8115265830141
 31
0.0
  0
LINE
  5
FBBDB
330
FBB47
100
AcDbEntity
  8
AM_5
440
 16777216
100
AcDbLine
 10
213.7684448711683
 20
227.3115265830142
 30
0.0
 11
213.7684448711683
 21
187.3115265830141
 31
0.0
  0
SOLID
  5
FBBDC
330
FBB47
100
AcDbEntity
  8
AM_5
440
 16777216
100
AcDbTrace
 10
213.3517782045017
 20
227.3115265830142
 30
0.0
 11
214.185111537835
 21
227.3115265830142
 31
0.0
 12
213.7684448711683
 22
229.8115265830142
 32
0.0
 13
213.7684448711683
 23
229.8115265830142
 33
0.0
  0
SOLID
  5
FBBDD
330
FBB47
100
AcDbEntity
  8
AM_5
440
 16777216
100
AcDbTrace
 10
213.3517782045017
 20
187.3115265830141
 30
0.0
 11
214.1851115378349
 21
187.3115265830141
 31
0.0
 12
213.7684448711683
 22
184.8115265830141
 32
0.0
 13
213.7684448711683
 23
184.8115265830141
 33
0.0
  0
MTEXT
  5
FBBDE
330
FBB47
100
AcDbEntity
  8
AM_5
 62
     2
440
 16777216
100
AcDbMText
 10
210.5184448711683
 20
207.3115265830142
 30
0.0
 40
3.5
 41
0.0
 71
     5
 72
     1
  1
45
 11
0.0000000000000001
 21
1.0
 31
0.0
 73
     1
 44
1.0
  0
POINT
  5
FBBDF
330
FBB47
100
AcDbEntity
  8
Defpoints
 62
     0
440
 16777216
100
AcDbPoint
 10
227.8423113611318
 20
229.8115265830142
 30
0.0
  0
POINT
  5
FBBE0
330
FBB47
100
AcDbEntity
  8
Defpoints
 62
     0
440
 16777216
100
AcDbPoint
 10
231.9423113611317
 20
184.8115265830141
 30
0.0
  0
POINT
  5
FBBE1
330
FBB47
100
AcDbEntity
  8
Defpoints
 62
     0
440
 16777216
100
AcDbPoint
 10
213.7684448711683
 20
184.8115265830141
 30
0.0
  0
ENDBLK
  5
FBB49
330
FBB47
100
AcDbEntity
  8
0
100
AcDbBlockEnd
  0
BLOCK
  5
FBB54
330
FBB53
100
AcDbEntity
  8
0
100
AcDbBlockBegin
  2
*D21
 70
     1
 10
0.0
 20
0.0
 30
0.0
  3
*D21
  1

  0
LINE
  5
FBC51
330
FBB53
100
AcDbEntity
  8
AM_5
440
 16777216
100
AcDbLine
 10
229.1923113611314
 20
206.6774635977689
 30
0.0
 11
229.1923113611314
 21
202.7057898848168
 31
0.0
  0
LINE
  5
FBC52
330
FBB53
100
AcDbEntity
  8
AM_5
440
 16777216
100
AcDbLine
 10
234.6923113611314
 20
207.1155387988458
 30
0.0
 11
234.6923113611314
 21
202.7057898848168
 31
0.0
  0
LINE
  5
FBC53
330
FBB53
100
AcDbEntity
  8
AM_5
440
 16777216
100
AcDbLine
 10
226.6923113611314
 20
203.7057898848168
 30
0.0
 11
224.1923113611314
 21
203.7057898848168
 31
0.0
  0
LINE
  5
FBC54
330
FBB53
100
AcDbEntity
  8
AM_5
440
 16777216
100
AcDbLine
 10
237.1923113611314
 20
203.7057898848168
 30
0.0
 11
250.887286107962
 21
203.7057898848168
 31
0.0
  0
LINE
  5
FBC55
330
FBB53
100
AcDbEntity
  8
AM_5
440
 16777216
100
AcDbLine
 10
229.1923113611314
 20
203.7057898848168
 30
0.0
 11
234.6923113611314
 21
203.7057898848168
 31
0.0
  0
SOLID
  5
FBC56
330
FBB53
100
AcDbEntity
  8
AM_5
440
 16777216
100
AcDbTrace
 10
226.6923113611314
 20
204.1224565514834
 30
0.0
 11
226.6923113611314
 21
203.2891232181501
 31
0.0
 12
229.1923113611314
 22
203.7057898848168
 32
0.0
 13
229.1923113611314
 23
203.7057898848168
 33
0.0
  0
SOLID
  5
FBC57
330
FBB53
100
AcDbEntity
  8
AM_5
440
 16777216
100
AcDbTrace
 10
237.1923113611314
 20
204.1224565514834
 30
0.0
 11
237.1923113611314
 21
203.2891232181501
 31
0.0
 12
234.6923113611314
 22
203.7057898848168
 32
0.0
 13
234.6923113611314
 23
203.7057898848168
 33
0.0
  0
MTEXT
  5
FBC58
330
FBB53
100
AcDbEntity
  8
AM_5
 62
     2
440
 16777216
100
AcDbMText
 10
245.2897987345467
 20
206.9557898848167
 30
0.0
 40
3.5
 41
0.0
 71
     5
 72
     1
  1
%%c5.5
 73
     1
 44
1.0
  0
POINT
  5
FBC59
330
FBB53
100
AcDbEntity
  8
Defpoints
 62
     0
440
 16777216
100
AcDbPoint
 10
229.1923113611314
 20
207.6774635977689
 30
0.0
  0
POINT
  5
FBC5A
330
FBB53
100
AcDbEntity
  8
Defpoints
 62
     0
440
 16777216
100
AcDbPoint
 10
234.6923113611314
 20
208.1155387988459
 30
0.0
  0
POINT
  5
FBC5B
330
FBB53
100
AcDbEntity
  8
Defpoints
 62
     0
440
 16777216
100
AcDbPoint
 10
234.6923113611314
 20
203.7057898848168
 30
0.0
  0
ENDBLK
  5
FBB55
330
FBB53
100
AcDbEntity
  8
0
100
AcDbBlockEnd
  0
BLOCK
  5
FBB62
330
FBB61
100
AcDbEntity
  8
0
100
AcDbBlockBegin
  2
*D22
 70
     1
 10
0.0
 20
0.0
 30
0.0
  3
*D22
  1

  0
LINE
  5
FBC5C
330
FBB61
100
AcDbEntity
  8
AM_5
440
 16777216
100
AcDbLine
 10
227.9423113611317
 20
261.748273145567
 30
0.0
 11
227.9423113611317
 21
271.0724248244752
 31
0.0
  0
LINE
  5
FBC5D
330
FBB61
100
AcDbEntity
  8
AM_5
440
 16777216
100
AcDbLine
 10
235.9423113611317
 20
261.748273145567
 30
0.0
 11
235.9423113611317
 21
271.0724248244752
 31
0.0
  0
LINE
  5
FBC5E
330
FBB61
100
AcDbEntity
  8
AM_5
440
 16777216
100
AcDbLine
 10
230.4423113611317
 20
270.0724248244752
 30
0.0
 11
233.4423113611317
 21
270.0724248244752
 31
0.0
  0
SOLID
  5
FBC5F
330
FBB61
100
AcDbEntity
  8
AM_5
440
 16777216
100
AcDbTrace
 10
230.4423113611317
 20
270.4890914911419
 30
0.0
 11
230.4423113611317
 21
269.6557581578085
 31
0.0
 12
227.9423113611317
 22
270.0724248244752
 32
0.0
 13
227.9423113611317
 23
270.0724248244752
 33
0.0
  0
SOLID
  5
FBC60
330
FBB61
100
AcDbEntity
  8
AM_5
440
 16777216
100
AcDbTrace
 10
233.4423113611317
 20
270.4890914911419
 30
0.0
 11
233.4423113611317
 21
269.6557581578085
 31
0.0
 12
235.9423113611317
 22
270.0724248244752
 32
0.0
 13
235.9423113611317
 23
270.0724248244752
 33
0.0
  0
MTEXT
  5
FBC61
330
FBB61
100
AcDbEntity
  8
AM_5
 62
     2
440
 16777216
100
AcDbMText
 10
231.9423113611317
 20
273.3224248244752
 30
0.0
 40
3.5
 41
0.0
 71
     5
 72
     1
  1
%%c8
 73
     1
 44
1.0
  0
POINT
  5
FBC62
330
FBB61
100
AcDbEntity
  8
Defpoints
 62
     0
440
 16777216
100
AcDbPoint
 10
227.9423113611317
 20
260.7482731455669
 30
0.0
  0
POINT
  5
FBC63
330
FBB61
100
AcDbEntity
  8
Defpoints
 62
     0
440
 16777216
100
AcDbPoint
 10
235.9423113611317
 20
260.7482731455669
 30
0.0
  0
POINT
  5
FBC64
330
FBB61
100
AcDbEntity
  8
Defpoints
 62
     0
440
 16777216
100
AcDbPoint
 10
235.9423113611317
 20
270.0724248244752
 30
0.0
  0
ENDBLK
  5
FBB63
330
FBB61
100
AcDbEntity
  8
0
100
AcDbBlockEnd
  0
BLOCK
  5
FBB6E
330
FBB6D
100
AcDbEntity
  8
0
100
AcDbBlockBegin
  2
*D23
 70
     1
 10
0.0
 20
0.0
 30
0.0
  3
*D23
  1

  0
LINE
  5
FBC46
330
FBB6D
100
AcDbEntity
  8
AM_5
440
 16777216
100
AcDbLine
 10
234.9423113611316
 20
224.3115265830141
 30
0.0
 11
249.0423113611316
 21
224.3115265830141
 31
0.0
  0
LINE
  5
FBC47
330
FBB6D
100
AcDbEntity
  8
AM_5
440
 16777216
100
AcDbLine
 10
237.0423113611316
 20
229.8115265830142
 30
0.0
 11
249.0423113611316
 21
229.8115265830142
 31
0.0
  0
LINE
  5
FBC48
330
FBB6D
100
AcDbEntity
  8
AM_5
440
 16777216
100
AcDbLine
 10
248.0423113611316
 20
221.8115265830141
 30
0.0
 11
248.0423113611316
 21
219.3115265830142
 31
0.0
  0
LINE
  5
FBC49
330
FBB6D
100
AcDbEntity
  8
AM_5
440
 16777216
100
AcDbLine
 10
248.0423113611316
 20
232.3115265830141
 30
0.0
 11
248.0423113611316
 21
242.8565013298447
 31
0.0
  0
LINE
  5
FBC4A
330
FBB6D
100
AcDbEntity
  8
AM_5
440
 16777216
100
AcDbLine
 10
248.0423113611316
 20
224.3115265830141
 30
0.0
 11
248.0423113611316
 21
229.8115265830142
 31
0.0
  0
SOLID
  5
FBC4B
330
FBB6D
100
AcDbEntity
  8
AM_5
440
 16777216
100
AcDbTrace
 10
247.6256446944649
 20
221.8115265830141
 30
0.0
 11
248.4589780277983
 21
221.8115265830141
 31
0.0
 12
248.0423113611316
 22
224.3115265830141
 32
0.0
 13
248.0423113611316
 23
224.3115265830141
 33
0.0
  0
SOLID
  5
FBC4C
330
FBB6D
100
AcDbEntity
  8
AM_5
440
 16777216
100
AcDbTrace
 10
247.6256446944649
 20
232.3115265830141
 30
0.0
 11
248.4589780277983
 21
232.3115265830141
 31
0.0
 12
248.0423113611316
 22
229.8115265830142
 32
0.0
 13
248.0423113611316
 23
229.8115265830142
 33
0.0
  0
MTEXT
  5
FBC4D
330
FBB6D
100
AcDbEntity
  8
AM_5
 62
     2
440
 16777216
100
AcDbMText
 10
244.7923113611316
 20
238.8340139564295
 30
0.0
 40
3.5
 41
0.0
 71
     5
 72
     1
  1
5.5
 11
0.0000000000000001
 21
1.0
 31
0.0
 73
     1
 44
1.0
  0
POINT
  5
FBC4E
330
FBB6D
100
AcDbEntity
  8
Defpoints
 62
     0
440
 16777216
100
AcDbPoint
 10
233.9423113611316
 20
224.3115265830141
 30
0.0
  0
POINT
  5
FBC4F
330
FBB6D
100
AcDbEntity
  8
Defpoints
 62
     0
440
 16777216
100
AcDbPoint
 10
236.0423113611316
 20
229.8115265830142
 30
0.0
  0
POINT
  5
FBC50
330
FBB6D
100
AcDbEntity
  8
Defpoints
 62
     0
440
 16777216
100
AcDbPoint
 10
248.0423113611316
 20
229.8115265830142
 30
0.0
  0
ENDBLK
  5
FBB6F
330
FBB6D
100
AcDbEntity
  8
0
100
AcDbBlockEnd
  0
BLOCK
  5
FBBB3
330
FBBB2
100
AcDbEntity
  8
0
100
AcDbBlockBegin
  2
*D25
 70
     1
 10
0.0
 20
0.0
 30
0.0
  3
*D25
  1

  0
LINE
  5
FBBD0
330
FBBB2
100
AcDbEntity
  8
AM_5
440
 16777216
100
AcDbLine
 10
-38.86878942295039
 20
269.4262790096878
 30
0.0
 11
-38.86878942295039
 21
221.4989062497302
 31
0.0
  0
LINE
  5
FBBD1
330
FBBB2
100
AcDbEntity
  8
AM_5
440
 16777216
100
AcDbLine
 10
14.63903240123682
 20
268.2573186823397
 30
0.0
 11
14.63903240123681
 21
221.4989062497302
 31
0.0
  0
LINE
  5
FBBD2
330
FBBB2
100
AcDbEntity
  8
AM_5
440
 16777216
100
AcDbLine
 10
-36.36878942295039
 20
222.4989062497302
 30
0.0
 11
12.13903240123681
 21
222.4989062497302
 31
0.0
  0
SOLID
  5
FBBD3
330
FBBB2
100
AcDbEntity
  8
AM_5
440
 16777216
100
AcDbTrace
 10
-36.36878942295039
 20
222.9155729163969
 30
0.0
 11
-36.36878942295039
 21
222.0822395830636
 31
0.0
 12
-38.86878942295039
 22
222.4989062497302
 32
0.0
 13
-38.86878942295039
 23
222.4989062497302
 33
0.0
  0
SOLID
  5
FBBD4
330
FBBB2
100
AcDbEntity
  8
AM_5
440
 16777216
100
AcDbTrace
 10
12.13903240123681
 20
222.9155729163969
 30
0.0
 11
12.13903240123681
 21
222.0822395830636
 31
0.0
 12
14.63903240123681
 22
222.4989062497302
 32
0.0
 13
14.63903240123681
 23
222.4989062497302
 33
0.0
  0
MTEXT
  5
FBBD5
330
FBBB2
100
AcDbEntity
  8
AM_5
 62
     2
440
 16777216
100
AcDbMText
 10
-12.11487851085678
 20
225.7489062497302
 30
0.0
 40
3.5
 41
0.0
 71
     5
 72
     1
  1
53.51
 73
     1
 44
1.0
  0
POINT
  5
FBBD6
330
FBBB2
100
AcDbEntity
  8
Defpoints
 62
     0
440
 16777216
100
AcDbPoint
 10
-38.86878942295039
 20
270.4262790096878
 30
0.0
  0
POINT
  5
FBBD7
330
FBBB2
100
AcDbEntity
  8
Defpoints
 62
     0
440
 16777216
100
AcDbPoint
 10
14.63903240123682
 20
269.2573186823397
 30
0.0
  0
POINT
  5
FBBD8
330
FBBB2
100
AcDbEntity
  8
Defpoints
 62
     0
440
 16777216
100
AcDbPoint
 10
14.63903240123681
 20
222.4989062497302
 30
0.0
  0
ENDBLK
  5
FBBB4
330
FBBB2
100
AcDbEntity
  8
0
100
AcDbBlockEnd
  0
ENDSEC
  0
SECTION
  2
ENTITIES
  0
DIMENSION
  5
FB0CE
330
1F
100
AcDbEntity
  8
AM_5
100
AcDbDimension
  2
*D3
 10
58.95399919534646
 20
50.06522801902292
 30
0.0
 11
72.00349158113327
 21
50.06522801902292
 31
0.0
 70
   160
  1
t=0.7
 71
     5
 42
0.7000000000000597
  3
AM_ISO$0
100
AcDbAlignedDimension
 13
58.2539991953464
 23
65.18347653465534
 33
0.0
 14
58.95399919534646
 24
65.18347653465534
 34
0.0
 50
180.0
100
AcDbRotatedDimension
1001
ACAD_DSTYLE_DIMINSPECT
1070
   396
1000
100%
1070
   395
1000

1070
   394
1070
    33
1070
   393
1070
     0
  0
DIMENSION
  5
FB0CF
330
1F
100
AcDbEntity
  8
AM_5
100
AcDbDimension
  2
*D4
 10
97.00736087584417
 20
215.1834765346561
 30
0.0
 11
93.75701638765516
 21
205.1834765346562
 31
0.0
 70
    32
 71
     5
 42
20.0
  3
AM_ISO$0
100
AcDbAlignedDimension
 13
120.9539991953464
 23
195.1834765346561
 33
0.0
 14
111.9539991953464
 24
215.1834765346561
 34
0.0
 50
90.0
100
AcDbRotatedDimension
1001
ACAD_DSTYLE_DIMINSPECT
1070
   396
1000
100%
1070
   395
1000

1070
   394
1070
    33
1070
   393
1070
     0
  0
DIMENSION
  5
FB0D0
330
1F
100
AcDbEntity
  8
AM_5
100
AcDbDimension
  2
*D5
 10
97.00736087584417
 20
195.1834765346561
 30
0.0
 11
93.75701638765516
 21
185.1834765346556
 31
0.0
 70
    32
 71
     5
 42
20.00000000000091
  3
AM_ISO$0
100
AcDbAlignedDimension
 13
110.9539991953464
 23
175.1834765346552
 33
0.0
 14
120.9539991953464
 24
195.1834765346561
 34
0.0
 50
90.0
100
AcDbRotatedDimension
1001
ACAD_DSTYLE_DIMINSPECT
1070
   396
1000
100%
1070
   395
1000

1070
   394
1070
    33
1070
   393
1070
     0
  0
DIMENSION
  5
FB0D1
330
1F
100
AcDbEntity
  8
AM_5
100
AcDbDimension
  2
*D6
 10
97.00736087584417
 20
175.1834765346552
 30
0.0
 11
93.75736087584412
 21
140.1834765346552
 31
0.0
 70
    32
 71
     5
 42
69.99999999999999
  3
AM_ISO$0
100
AcDbAlignedDimension
 13
120.9539991953463
 23
105.1834765346552
 33
0.0
 14
110.9539991953464
 24
175.1834765346552
 34
0.0
 50
90.0
100
AcDbRotatedDimension
1001
ACAD_DSTYLE_DIMINSPECT
1070
   396
1000
100%
1070
   395
1000

1070
   394
1070
    33
1070
   393
1070
     0
  0
DIMENSION
  5
FB0D2
330
1F
100
AcDbEntity
  8
AM_5
100
AcDbDimension
  2
*D7
 10
97.00736087584417
 20
105.1834765346552
 30
0.0
 11
93.75701638765516
 21
95.18347653465525
 31
0.0
 70
    32
 71
     5
 42
19.99999999999997
  3
AM_ISO$0
100
AcDbAlignedDimension
 13
110.9539991953463
 23
85.18347653465523
 33
0.0
 14
120.9539991953463
 24
105.1834765346552
 34
0.0
 50
90.0
100
AcDbRotatedDimension
1001
ACAD_DSTYLE_DIMINSPECT
1070
   396
1000
100%
1070
   395
1000

1070
   394
1070
    33
1070
   393
1070
     0
  0
DIMENSION
  5
FB0D3
330
1F
100
AcDbEntity
  8
AM_5
100
AcDbDimension
  2
*D8
 10
97.00736087584417
 20
85.18347653465523
 30
0.0
 11
93.75701638765518
 21
75.18347653465525
 31
0.0
 70
    32
  1
<>
 71
     5
 42
20.00000000000003
  3
AM_ISO$0
100
AcDbAlignedDimension
 13
111.9539991953464
 23
65.18347653465522
 33
0.0
 14
110.9539991953463
 24
85.18347653465523
 34
0.0
 50
90.0
100
AcDbRotatedDimension
1001
ACAD_DSTYLE_DIMINSPECT
1070
   396
1000
100%
1070
   395
1000

1070
   394
1070
    33
1070
   393
1070
     0
  0
DIMENSION
  5
FB0D5
330
1F
100
AcDbEntity
  8
AM_5
100
AcDbDimension
  2
*D9
 10
97.00736087584417
 20
256.6583717393053
 30
0.0
 11
93.75736087584412
 21
267.8833717393053
 31
0.0
 70
    32
  1
t=<>
 71
     5
 42
0.6999999999999887
  3
AM_ISO$0
100
AcDbAlignedDimension
 13
106.8139991953463
 23
255.9583717393053
 33
0.0
 14
106.8139991953463
 24
256.6583717393053
 34
0.0
 50
90.0
100
AcDbRotatedDimension
1001
ACAD_DSTYLE_DIMINSPECT
1070
   396
1000
100%
1070
   395
1000

1070
   394
1070
    33
1070
   393
1070
     0
  0
DIMENSION
  5
FB0D6
330
1F
100
AcDbEntity
  8
AM_5
100
AcDbDimension
  2
*D10
 10
88.81440393651656
 20
215.1834765346561
 30
0.0
 11
85.56440393651653
 21
140.1834765346556
 31
0.0
 70
    32
  1
<>
 71
     5
 42
150.0000000000009
  3
AM_ISO$0
100
AcDbAlignedDimension
 13
111.9539991953464
 23
65.18347653465522
 33
0.0
 14
111.9539991953464
 24
215.1834765346561
 34
0.0
 50
90.0
100
AcDbRotatedDimension
1001
ACAD_DSTYLE_DIMINSPECT
1070
   396
1000
100%
1070
   395
1000

1070
   394
1070
    33
1070
   393
1070
     0
  0
DIMENSION
  5
FB0D7
330
1F
100
AcDbEntity
  8
AM_5
100
AcDbDimension
  2
*D11
 10
126.9539991953464
 20
225.2306478814626
 30
0.0
 11
121.9539991953464
 21
228.4806478814626
 31
0.0
 70
    32
 71
     5
 42
10.0
  3
AM_ISO$0
100
AcDbAlignedDimension
 13
116.9539991953464
 23
181.1834765346552
 33
0.0
 14
126.9539991953464
 24
201.1834765346561
 34
0.0
 50
180.0
100
AcDbRotatedDimension
1001
ACAD_DSTYLE_DIMINSPECT
1070
   396
1000
100%
1070
   395
1000

1070
   394
1070
    33
1070
   393
1070
     0
  0
DIMENSION
  5
FB0D8
330
1F
100
AcDbEntity
  8
AM_5
100
AcDbDimension
  2
*D12
 10
116.9539991953464
 20
225.2306478814628
 30
0.0
 11
111.9539991953464
 21
228.4806478814628
 31
0.0
 70
    32
 71
     5
 42
10.0
  3
AM_ISO$0
100
AcDbAlignedDimension
 13
106.9539991953464
 23
210.183476534656
 33
0.0
 14
116.9539991953464
 24
181.1834765346552
 34
0.0
 50
180.0
100
AcDbRotatedDimension
1001
ACAD_DSTYLE_DIMINSPECT
1070
   396
1000
100%
1070
   395
1000

1070
   394
1070
    33
1070
   393
1070
     0
  0
LINE
  5
FB0D9
330
1F
100
AcDbEntity
  8
AM_5
100
AcDbLine
 10
136.9539991953464
 20
210.1834765346561
 30
0.0
 11
136.9539991953462
 21
70.1834765346552
 31
0.0
  0
LINE
  5
FB0DA
330
1F
100
AcDbEntity
  8
AM_5
100
AcDbLine
 10
106.9539991953464
 20
210.183476534656
 30
0.0
 11
106.9539991953464
 21
70.18347653465524
 31
0.0
  0
LINE
  5
FB0DB
330
1F
100
AcDbEntity
  8
AM_5
100
AcDbLine
 10
116.9539991953464
 20
79.18347653465524
 30
0.0
 11
116.9539991953464
 21
91.18347653465523
 31
0.0
  0
CIRCLE
  5
FB0DC
330
1F
100
AcDbEntity
  8
AM_5
100
AcDbCircle
 10
116.9539991953464
 20
85.1834765346552
 30
0.0
 40
4.00000000000002
  0
DIMENSION
  5
FB0DE
330
1F
100
AcDbEntity
  8
AM_5
100
AcDbDimension
  2
*D13
 10
136.9539991953464
 20
52.52291665022648
 30
0.0
 11
121.9539991953464
 21
55.77291665022648
 31
0.0
 70
    32
  1
<>
 71
     5
 42
30.00000000000002
  3
AM_ISO$0
100
AcDbAlignedDimension
 13
106.9539991953464
 23
70.18347653465522
 33
0.0
 14
136.9539991953464
 24
69.5584765346552
 34
0.0
 50
180.0
100
AcDbRotatedDimension
1001
ACAD_DSTYLE_DIMINSPECT
1070
   396
1000
100%
1070
   395
1000

1070
   394
1070
    33
1070
   393
1070
     0
  0
LINE
  5
FB0DF
330
1F
100
AcDbEntity
  8
AM_5
100
AcDbLine
 10
111.9539991953464
 20
65.18347653465524
 30
0.0
 11
131.9539991953452
 21
65.18347653465524
 31
0.0
  0
ARC
  5
FB0E0
330
1F
100
AcDbEntity
  8
AM_5
100
AcDbCircle
 10
131.9539991953453
 20
70.1834765346552
 30
0.0
 40
5.00000000000003
100
AcDbArc
 50
270.0
 51
0.0
  0
ARC
  5
FB0E1
330
1F
100
AcDbEntity
  8
AM_5
100
AcDbCircle
 10
111.9539991953464
 20
70.1834765346552
 30
0.0
 40
5.00000000000003
100
AcDbArc
 50
180.0
 51
270.0
  0
LINE
  5
FB0E2
330
1F
100
AcDbEntity
  8
AM_5
100
AcDbLine
 10
120.9539991953463
 20
105.1834765346552
 30
0.0
 11
132.9539991953464
 21
105.1834765346552
 31
0.0
  0
LINE
  5
FB0E3
330
1F
100
AcDbEntity
  8
AM_5
100
AcDbLine
 10
110.9539991953463
 20
85.18347653465523
 30
0.0
 11
122.9539991953464
 21
85.18347653465523
 31
0.0
  0
LINE
  5
FB0E4
330
1F
100
AcDbEntity
  8
AM_5
100
AcDbLine
 10
126.9539991953464
 20
99.18347653465524
 30
0.0
 11
126.9539991953464
 21
111.1834765346552
 31
0.0
  0
CIRCLE
  5
FB0E5
330
1F
100
AcDbEntity
  8
AM_5
100
AcDbCircle
 10
126.9539991953464
 20
105.1834765346552
 30
0.0
 40
4.00000000000002
  0
CIRCLE
  5
FB0E6
330
1F
100
AcDbEntity
  8
AM_5
100
AcDbCircle
 10
126.9539991953464
 20
105.1834765346552
 30
0.0
 40
2.399999999999999
  0
CIRCLE
  5
FB0E7
330
1F
100
AcDbEntity
  8
AM_5
100
AcDbCircle
 10
116.9539991953464
 20
85.1834765346552
 30
0.0
 40
2.399999999999999
  0
LINE
  5
FB0F1
330
1F
100
AcDbEntity
  8
AM_5
100
AcDbLine
 10
120.4539991953464
 20
140.1834765346552
 30
0.0
 11
123.4539991953464
 21
140.1834765346552
 31
0.0
  0
LINE
  5
FB0F2
330
1F
100
AcDbEntity
  8
AM_5
100
AcDbLine
 10
123.4539991953464
 20
128.7084765346552
 30
0.0
 11
121.9539991953453
 21
128.1834765346552
 31
0.0
  0
LINE
  5
FB0F3
330
1F
100
AcDbEntity
  8
AM_5
100
AcDbLine
 10
123.4539991953464
 20
129.4501132381702
 30
0.0
 11
121.9539991953453
 21
128.9251132381702
 31
0.0
  0
LINE
  5
FB0F4
330
1F
100
AcDbEntity
  8
AM_5
100
AcDbLine
 10
123.4539991953464
 20
125.1834765346552
 30
0.0
 11
121.9539991953453
 21
120.1834765346552
 31
0.0
  0
LINE
  5
FB0F5
330
1F
100
AcDbEntity
  8
AM_5
100
AcDbLine
 10
123.4539991953464
 20
140.1834765346552
 30
0.0
 11
123.4539991953464
 21
125.1834765346552
 31
0.0
  0
LINE
  5
FB0F6
330
1F
100
AcDbEntity
  8
AM_5
100
AcDbLine
 10
120.4539991953464
 20
140.1834765346552
 30
0.0
 11
120.4539991953464
 21
125.1834765346552
 31
0.0
  0
LINE
  5
FB0F7
330
1F
100
AcDbEntity
  8
AM_5
100
AcDbLine
 10
121.9539991953453
 20
140.1834765346552
 30
0.0
 11
121.9539991953453
 21
128.1834765346552
 31
0.0
  0
LINE
  5
FB0F8
330
1F
100
AcDbEntity
  8
AM_5
100
AcDbLine
 10
120.4539991953464
 20
125.1834765346552
 30
0.0
 11
121.9539991953453
 21
120.1834765346552
 31
0.0
  0
LINE
  5
FB0F9
330
1F
100
AcDbEntity
  8
AM_5
100
AcDbLine
 10
121.9539991953453
 20
128.9251132381702
 30
0.0
 11
120.4539991953464
 21
129.4501132381702
 31
0.0
  0
LINE
  5
FB0FA
330
1F
100
AcDbEntity
  8
AM_5
100
AcDbLine
 10
121.9539991953453
 20
128.1834765346552
 30
0.0
 11
120.4539991953464
 21
128.7084765346552
 31
0.0
  0
LINE
  5
FB111
330
1F
100
AcDbEntity
  8
AM_5
100
AcDbLine
 10
110.9539991953464
 20
175.1834765346552
 30
0.0
 11
122.9539991953464
 21
175.1834765346552
 31
0.0
  0
CIRCLE
  5
FB118
330
1F
100
AcDbEntity
  8
AM_5
100
AcDbCircle
 10
116.9539991953464
 20
175.1834765346552
 30
0.0
 40
2.399999999999999
  0
CIRCLE
  5
FB119
330
1F
100
AcDbEntity
  8
AM_5
100
AcDbCircle
 10
116.9539991953464
 20
175.1834765346552
 30
0.0
 40
4.00000000000002
  0
LINE
  5
FB11A
330
1F
100
AcDbEntity
  8
AM_5
100
AcDbLine
 10
116.9539991953464
 20
169.1834765346552
 30
0.0
 11
116.9539991953464
 21
181.1834765346552
 31
0.0
  0
DIMENSION
  5
FB11C
330
1F
100
AcDbEntity
  8
AM_5
100
AcDbDimension
  2
*D1
 10
125.1604108527612
 20
193.5887850731685
 30
0.0
 11
158.2557949072341
 21
223.0141136802098
 31
0.0
 70
   163
  1
4-<>
 71
     5
 42
4.79999999999984
  3
AM_ISO$3
100
AcDbDiametricDimension
 15
128.7475875379316
 25
196.7781679961441
 35
0.0
 40
0.0
1001
ACAD
1000
DSTYLE
1002
{
1070
    74
1070
     0
1070
   172
1070
     1
1070
   288
1070
     0
1070
   289
1070
     3
1002
}
1001
ACAD_DSTYLE_DIMINSPECT
1070
   396
1000
100%
1070
   395
1000

1070
   394
1070
    33
1070
   393
1070
     0
  0
DIMENSION
  5
FB11D
330
1F
100
AcDbEntity
  8
AM_5
100
AcDbDimension
  2
*D2
 10
136.9539991953464
 20
225.2306478814626
 30
0.0
 11
131.9539991953463
 21
228.4806478814626
 31
0.0
 70
    32
 71
     5
 42
10.00000000000013
  3
AM_ISO$0
100
AcDbAlignedDimension
 13
126.9539991953463
 23
201.183476534656
 33
0.0
 14
136.9539991953464
 24
210.1834765346561
 34
0.0
 50
180.0
100
AcDbRotatedDimension
1001
ACAD_DSTYLE_DIMINSPECT
1070
   396
1000
100%
1070
   395
1000

1070
   394
1070
    33
1070
   393
1070
     0
  0
LINE
  5
FB11E
330
1F
100
AcDbEntity
  8
AM_5
100
AcDbLine
 10
120.9539991953464
 20
195.1834765346561
 30
0.0
 11
132.9539991953464
 21
195.1834765346561
 31
0.0
  0
LINE
  5
FB11F
330
1F
100
AcDbEntity
  8
AM_5
100
AcDbLine
 10
131.9539991953453
 20
215.183476534656
 30
0.0
 11
111.9539991953464
 21
215.183476534656
 31
0.0
  0
CIRCLE
  5
FB120
330
1F
100
AcDbEntity
  8
AM_5
100
AcDbCircle
 10
126.9539991953464
 20
195.1834765346561
 30
0.0
 40
4.00000000000002
  0
LINE
  5
FB121
330
1F
100
AcDbEntity
  8
AM_5
100
AcDbLine
 10
126.9539991953464
 20
189.1834765346561
 30
0.0
 11
126.9539991953464
 21
201.1834765346561
 31
0.0
  0
CIRCLE
  5
FB122
330
1F
100
AcDbEntity
  8
AM_5
100
AcDbCircle
 10
126.9539991953464
 20
195.1834765346561
 30
0.0
 40
2.399999999999999
  0
ARC
  5
FB123
330
1F
100
AcDbEntity
  8
AM_5
100
AcDbCircle
 10
131.9539991953453
 20
210.1834765346561
 30
0.0
 40
5.00000000000003
100
AcDbArc
 50
0.0
 51
90.0
  0
ARC
  5
FB124
330
1F
100
AcDbEntity
  8
AM_5
100
AcDbCircle
 10
111.9539991953464
 20
210.1834765346561
 30
0.0
 40
5.00000000000003
100
AcDbArc
 50
90.0
 51
180.0
  0
LINE
  5
FB126
330
1F
100
AcDbEntity
  8
AM_5
100
AcDbLine
 10
120.4539991953464
 20
248.9005897393052
 30
0.0
 11
123.4539991953464
 21
248.9005897393052
 31
0.0
  0
LINE
  5
FB127
330
1F
100
AcDbEntity
  8
AM_5
100
AcDbLine
 10
120.4539991953464
 20
248.2005897393053
 30
0.0
 11
123.4539991953464
 21
248.2005897393053
 31
0.0
  0
LINE
  5
FB128
330
1F
100
AcDbEntity
  8
AM_5
100
AcDbLine
 10
121.9539991953453
 20
256.6583717393052
 30
0.0
 11
123.4539991953464
 21
251.6583717393052
 31
0.0
  0
LINE
  5
FB129
330
1F
100
AcDbEntity
  8
AM_5
100
AcDbLine
 10
106.8139991953463
 20
256.6583717393053
 30
0.0
 11
136.8139991953454
 21
256.6583717393052
 31
0.0
  0
LINE
  5
FB12A
330
1F
100
AcDbEntity
  8
AM_5
100
AcDbLine
 10
106.8139991953463
 20
255.9583717393053
 30
0.0
 11
136.8139991953454
 21
255.9583717393053
 31
0.0
  0
LINE
  5
FB12C
330
1F
100
AcDbEntity
  8
AM_5
100
AcDbLine
 10
123.4539991953464
 20
248.2005897393053
 30
0.0
 11
123.4539991953464
 21
255.9583717393053
 31
0.0
  0
LINE
  5
FB12D
330
1F
100
AcDbEntity
  8
AM_5
100
AcDbLine
 10
126.8139991953454
 20
259.3152119210773
 30
0.0
 11
126.8139991953454
 21
253.9583717393053
 31
0.0
  0
LINE
  5
FB12E
330
1F
100
AcDbEntity
  8
AM_5
100
AcDbLine
 10
136.8139991953454
 20
255.9583717393053
 30
0.0
 11
136.8139991953454
 21
256.6583717393052
 31
0.0
  0
LINE
  5
FB12F
330
1F
100
AcDbEntity
  8
AM_5
100
AcDbLine
 10
123.0891535222155
 20
256.6583717393052
 30
0.0
 11
124.8720054441654
 21
257.3152119210773
 31
0.0
  0
LINE
  5
FB130
330
1F
100
AcDbEntity
  8
AM_5
100
AcDbLine
 10
123.2139991953455
 20
255.9583717393053
 30
0.0
 11
125.1139991953454
 21
256.6583717393052
 31
0.0
  0
LINE
  5
FB131
330
1F
100
AcDbEntity
  8
AM_5
100
AcDbLine
 10
125.1139991953454
 20
256.6583717393052
 30
0.0
 11
124.8720054441654
 21
257.3152119210773
 31
0.0
  0
LINE
  5
FB132
330
1F
100
AcDbEntity
  8
AM_5
100
AcDbLine
 10
126.8139991953454
 20
255.9583717393053
 30
0.0
 11
126.8139991953454
 21
257.3152119210773
 31
0.0
  0
LINE
  5
FB133
330
1F
100
AcDbEntity
  8
AM_5
100
AcDbLine
 10
128.7559929465254
 20
257.3152119210773
 30
0.0
 11
130.5388448684745
 21
256.6583717393052
 31
0.0
  0
LINE
  5
FB134
330
1F
100
AcDbEntity
  8
AM_5
100
AcDbLine
 10
128.5139991953455
 20
256.6583717393052
 30
0.0
 11
128.7559929465254
 21
257.3152119210773
 31
0.0
  0
LINE
  5
FB135
330
1F
100
AcDbEntity
  8
AM_5
100
AcDbLine
 10
128.5139991953455
 20
256.6583717393052
 30
0.0
 11
130.4139991953444
 21
255.9583717393053
 31
0.0
  0
LINE
  5
FB136
330
1F
100
AcDbEntity
  8
AM_5
100
AcDbLine
 10
124.8720054441654
 20
257.3152119210773
 30
0.0
 11
128.7559929465254
 21
257.3152119210773
 31
0.0
  0
LINE
  5
FB138
330
1F
100
AcDbEntity
  8
AM_5
100
AcDbLine
 10
116.8139991953454
 20
259.3152119210773
 30
0.0
 11
116.8139991953454
 21
253.9583717393053
 31
0.0
  0
LINE
  5
FB139
330
1F
100
AcDbEntity
  8
AM_5
100
AcDbLine
 10
120.4539991953464
 20
248.2005897393053
 30
0.0
 11
120.4539991953464
 21
255.9583717393053
 31
0.0
  0
LINE
  5
FB13A
330
1F
100
AcDbEntity
  8
AM_5
100
AcDbLine
 10
121.9539991953453
 20
256.6583717393052
 30
0.0
 11
120.4539991953464
 21
251.6583717393053
 31
0.0
  0
LINE
  5
FB13B
330
1F
100
AcDbEntity
  8
AM_5
100
AcDbLine
 10
121.6039991953465
 20
255.9583717393053
 30
0.0
 11
106.8139991953463
 21
255.9583717393053
 31
0.0
  0
LINE
  5
FB13C
330
1F
100
AcDbEntity
  8
AM_5
100
AcDbLine
 10
116.8139991953454
 20
255.9583717393053
 30
0.0
 11
116.8139991953454
 21
257.3152119210773
 31
0.0
  0
LINE
  5
FB13D
330
1F
100
AcDbEntity
  8
AM_5
100
AcDbLine
 10
114.8720054441654
 20
257.3152119210773
 30
0.0
 11
118.7559929465254
 21
257.3152119210773
 31
0.0
  0
LINE
  5
FB13E
330
1F
100
AcDbEntity
  8
AM_5
100
AcDbLine
 10
118.5139991953455
 20
256.6583717393053
 30
0.0
 11
118.7559929465254
 21
257.3152119210773
 31
0.0
  0
LINE
  5
FB13F
330
1F
100
AcDbEntity
  8
AM_5
100
AcDbLine
 10
115.1139991953454
 20
256.6583717393053
 30
0.0
 11
114.8720054441654
 21
257.3152119210773
 31
0.0
  0
LINE
  5
FB140
330
1F
100
AcDbEntity
  8
AM_5
100
AcDbLine
 10
118.7559929465254
 20
257.3152119210773
 30
0.0
 11
120.5388448684745
 21
256.6583717393053
 31
0.0
  0
LINE
  5
FB141
330
1F
100
AcDbEntity
  8
AM_5
100
AcDbLine
 10
118.5139991953455
 20
256.6583717393053
 30
0.0
 11
120.4139991953444
 21
255.9583717393053
 31
0.0
  0
LINE
  5
FB142
330
1F
100
AcDbEntity
  8
AM_5
100
AcDbLine
 10
113.0891535222155
 20
256.6583717393053
 30
0.0
 11
114.8720054441654
 21
257.3152119210773
 31
0.0
  0
LINE
  5
FB143
330
1F
100
AcDbEntity
  8
AM_5
100
AcDbLine
 10
113.2139991953455
 20
255.9583717393053
 30
0.0
 11
115.1139991953454
 21
256.6583717393053
 31
0.0
  0
LINE
  5
FB144
330
1F
100
AcDbEntity
  8
AM_5
100
AcDbLine
 10
106.8139991953463
 20
256.6583717393053
 30
0.0
 11
106.8139991953463
 21
255.9583717393053
 31
0.0
  0
LINE
  5
FB147
330
1F
100
AcDbEntity
  8
AM_5
100
AcDbLine
 10
58.2539991953464
 20
215.183476534656
 30
0.0
 11
58.25399919534628
 21
65.18347653465524
 31
0.0
  0
LINE
  5
FB148
330
1F
100
AcDbEntity
  8
AM_5
100
AcDbLine
 10
58.95399919534646
 20
215.183476534656
 30
0.0
 11
58.95399919534636
 21
65.18347653465524
 31
0.0
  0
LINE
  5
FB14B
330
1F
100
AcDbEntity
  8
AM_5
100
AcDbLine
 10
58.25399919534628
 20
81.45863086152315
 30
0.0
 11
57.59715901357435
 21
83.24148278347616
 31
0.0
  0
LINE
  5
FB14C
330
1F
100
AcDbEntity
  8
AM_5
100
AcDbLine
 10
58.95399919534636
 20
81.58347653465511
 30
0.0
 11
58.25399919534628
 21
83.48347653465522
 31
0.0
  0
LINE
  5
FB14D
330
1F
100
AcDbEntity
  8
AM_5
100
AcDbLine
 10
58.25399919534628
 20
65.18347653465524
 30
0.0
 11
58.95399919534636
 21
65.18347653465524
 31
0.0
  0
LINE
  5
FB14F
330
1F
100
AcDbEntity
  8
AM_5
100
AcDbLine
 10
55.59715901357435
 20
85.18347653465523
 30
0.0
 11
60.95399919534635
 21
85.18347653465523
 31
0.0
  0
LINE
  5
FB150
330
1F
100
AcDbEntity
  8
AM_5
100
AcDbLine
 10
57.59715901357435
 20
87.12547028583413
 30
0.0
 11
58.25399919534628
 21
88.90832220778722
 31
0.0
  0
LINE
  5
FB151
330
1F
100
AcDbEntity
  8
AM_5
100
AcDbLine
 10
58.25399919534628
 20
86.88347653465518
 30
0.0
 11
57.59715901357435
 21
87.12547028583413
 31
0.0
  0
LINE
  5
FB152
330
1F
100
AcDbEntity
  8
AM_5
100
AcDbLine
 10
58.25399919534628
 20
86.88347653465518
 30
0.0
 11
58.95399919534636
 21
88.78347653465516
 31
0.0
  0
LINE
  5
FB153
330
1F
100
AcDbEntity
  8
AM_5
100
AcDbLine
 10
58.25399919534628
 20
83.48347653465522
 30
0.0
 11
57.59715901357435
 21
83.24148278347616
 31
0.0
  0
LINE
  5
FB154
330
1F
100
AcDbEntity
  8
AM_5
100
AcDbLine
 10
58.95399919534636
 20
85.18347653465523
 30
0.0
 11
57.59715901357435
 21
85.18347653465523
 31
0.0
  0
LINE
  5
FB155
330
1F
100
AcDbEntity
  8
AM_5
100
AcDbLine
 10
57.59715901357435
 20
83.24148278347616
 30
0.0
 11
57.59715901357435
 21
87.12547028583413
 31
0.0
  0
LINE
  5
FB156
330
1F
100
AcDbEntity
  8
AM_5
100
AcDbLine
 10
55.59715901357435
 20
105.1834765346552
 30
0.0
 11
60.95399919534635
 21
105.1834765346552
 31
0.0
  0
LINE
  5
FB157
330
1F
100
AcDbEntity
  8
AM_5
100
AcDbLine
 10
57.59715901357447
 20
107.1254702858341
 30
0.0
 11
58.2539991953464
 21
108.9083222077872
 31
0.0
  0
LINE
  5
FB158
330
1F
100
AcDbEntity
  8
AM_5
100
AcDbLine
 10
58.2539991953464
 20
106.8834765346552
 30
0.0
 11
58.95399919534646
 21
108.7834765346551
 31
0.0
  0
LINE
  5
FB159
330
1F
100
AcDbEntity
  8
AM_5
100
AcDbLine
 10
58.2539991953464
 20
106.8834765346552
 30
0.0
 11
57.59715901357447
 21
107.1254702858341
 31
0.0
  0
LINE
  5
FB15A
330
1F
100
AcDbEntity
  8
AM_5
100
AcDbLine
 10
58.95399919534646
 20
105.1834765346552
 30
0.0
 11
57.59715901357447
 21
105.1834765346552
 31
0.0
  0
LINE
  5
FB15B
330
1F
100
AcDbEntity
  8
AM_5
100
AcDbLine
 10
58.2539991953464
 20
103.4834765346552
 30
0.0
 11
57.59715901357447
 21
103.2414827834761
 31
0.0
  0
LINE
  5
FB15C
330
1F
100
AcDbEntity
  8
AM_5
100
AcDbLine
 10
58.2539991953464
 20
101.4586308615231
 30
0.0
 11
57.59715901357447
 21
103.2414827834761
 31
0.0
  0
LINE
  5
FB15D
330
1F
100
AcDbEntity
  8
AM_5
100
AcDbLine
 10
58.95399919534646
 20
101.5834765346551
 30
0.0
 11
58.2539991953464
 21
103.4834765346552
 31
0.0
  0
LINE
  5
FB15E
330
1F
100
AcDbEntity
  8
AM_5
100
AcDbLine
 10
57.59715901357447
 20
103.2414827834761
 30
0.0
 11
57.59715901357447
 21
107.1254702858341
 31
0.0
  0
LINE
  5
FB15F
330
1F
100
AcDbEntity
  8
AM_5
100
AcDbLine
 10
58.2539991953464
 20
137.4546544987997
 30
0.0
 11
64.43608018313352
 21
129.5062646573583
 31
0.0
  0
LINE
  5
FB160
330
1F
100
AcDbEntity
  8
AM_5
100
AcDbLine
 10
58.2539991953464
 20
137.9433011095557
 30
0.0
 11
64.67288584834648
 21
129.6904468414122
 31
0.0
  0
LINE
  5
FB161
330
1F
100
AcDbEntity
  8
AM_5
100
AcDbLine
 10
58.95399919534646
 20
138.1834765346552
 30
0.0
 11
65.22543240051049
 21
130.1202052708731
 31
0.0
  0
LINE
  5
FB162
330
1F
100
AcDbEntity
  8
AM_5
100
AcDbLine
 10
58.35399919534643
 20
129.1834765346552
 30
0.0
 11
57.8033072144874
 21
128.1834765346552
 31
0.0
  0
ARC
  5
FB163
330
1F
100
AcDbEntity
  8
AM_5
100
AcDbCircle
 10
64.27820973965845
 20
129.3834765346551
 30
0.0
 40
1.199999999999999
100
AcDbArc
 50
270.0
 51
37.87498365110081
  0
ARC
  5
FB164
330
1F
100
AcDbEntity
  8
AM_5
100
AcDbCircle
 10
64.27820973965845
 20
129.3834765346551
 30
0.0
 40
0.5
100
AcDbArc
 50
270.0
 51
37.87498365110081
  0
ARC
  5
FB165
330
1F
100
AcDbEntity
  8
AM_5
100
AcDbCircle
 10
64.27820973965845
 20
129.3834765346551
 30
0.0
 40
0.2
100
AcDbArc
 50
270.0
 51
37.87498365110081
  0
LINE
  5
FB166
330
1F
100
AcDbEntity
  8
AM_5
100
AcDbLine
 10
64.27820973965845
 20
128.1834765346552
 30
0.0
 11
57.8033072144874
 21
128.1834765346552
 31
0.0
  0
LINE
  5
FB167
330
1F
100
AcDbEntity
  8
AM_5
100
AcDbLine
 10
64.27820973965845
 20
128.8834765346552
 30
0.0
 11
58.18879160108871
 21
128.8834765346552
 31
0.0
  0
LINE
  5
FB168
330
1F
100
AcDbEntity
  8
AM_5
100
AcDbLine
 10
64.27820973965845
 20
129.1834765346552
 30
0.0
 11
58.35399919534643
 21
129.1834765346552
 31
0.0
  0
LINE
  5
FB169
330
1F
100
AcDbEntity
  8
AM_5
100
AcDbLine
 10
58.95399919534646
 20
138.1834765346552
 30
0.0
 11
58.35399919534643
 21
138.1834765346552
 31
0.0
  0
LINE
  5
FB16A
330
1F
100
AcDbEntity
  8
AM_5
100
AcDbLine
 10
58.95399919534646
 20
138.1834765346552
 30
0.0
 11
58.2539991953464
 21
138.1834765346552
 31
0.0
  0
LINE
  5
FB16B
330
1F
100
AcDbEntity
  8
AM_5
100
AcDbLine
 10
55.59715901357435
 20
175.1834765346552
 30
0.0
 11
60.95399919534635
 21
175.1834765346552
 31
0.0
  0
LINE
  5
FB16C
330
1F
100
AcDbEntity
  8
AM_5
100
AcDbLine
 10
58.2539991953464
 20
176.8834765346552
 30
0.0
 11
57.59715901357447
 21
177.1254702858341
 31
0.0
  0
LINE
  5
FB16D
330
1F
100
AcDbEntity
  8
AM_5
100
AcDbLine
 10
58.2539991953464
 20
176.8834765346552
 30
0.0
 11
58.95399919534646
 21
178.7834765346552
 31
0.0
  0
LINE
  5
FB16E
330
1F
100
AcDbEntity
  8
AM_5
100
AcDbLine
 10
57.59715901357447
 20
173.2414827834763
 30
0.0
 11
57.59715901357447
 21
177.1254702858341
 31
0.0
  0
LINE
  5
FB16F
330
1F
100
AcDbEntity
  8
AM_5
100
AcDbLine
 10
58.2539991953464
 20
173.4834765346552
 30
0.0
 11
57.59715901357447
 21
173.2414827834763
 31
0.0
  0
LINE
  5
FB170
330
1F
100
AcDbEntity
  8
AM_5
100
AcDbLine
 10
58.95399919534646
 20
175.1834765346552
 30
0.0
 11
57.59715901357447
 21
175.1834765346552
 31
0.0
  0
LINE
  5
FB171
330
1F
100
AcDbEntity
  8
AM_5
100
AcDbLine
 10
58.2539991953464
 20
171.4586308615243
 30
0.0
 11
57.59715901357447
 21
173.2414827834763
 31
0.0
  0
LINE
  5
FB172
330
1F
100
AcDbEntity
  8
AM_5
100
AcDbLine
 10
58.95399919534646
 20
171.5834765346551
 30
0.0
 11
58.2539991953464
 21
173.4834765346552
 31
0.0
  0
LINE
  5
FB173
330
1F
100
AcDbEntity
  8
AM_5
100
AcDbLine
 10
57.59715901357447
 20
177.1254702858341
 30
0.0
 11
58.2539991953464
 21
178.908322207787
 31
0.0
  0
LINE
  5
FB175
330
1F
100
AcDbEntity
  8
AM_5
100
AcDbLine
 10
55.59715901357435
 20
195.1834765346561
 30
0.0
 11
60.95399919534635
 21
195.1834765346561
 31
0.0
  0
LINE
  5
FB176
330
1F
100
AcDbEntity
  8
AM_5
100
AcDbLine
 10
57.59715901357447
 20
193.2414827834762
 30
0.0
 11
57.59715901357447
 21
197.125470285835
 31
0.0
  0
LINE
  5
FB177
330
1F
100
AcDbEntity
  8
AM_5
100
AcDbLine
 10
58.2539991953464
 20
193.4834765346552
 30
0.0
 11
57.59715901357447
 21
193.2414827834762
 31
0.0
  0
LINE
  5
FB178
330
1F
100
AcDbEntity
  8
AM_5
100
AcDbLine
 10
58.2539991953464
 20
191.4586308615242
 30
0.0
 11
57.59715901357447
 21
193.2414827834762
 31
0.0
  0
LINE
  5
FB179
330
1F
100
AcDbEntity
  8
AM_5
100
AcDbLine
 10
58.95399919534646
 20
191.5834765346561
 30
0.0
 11
58.2539991953464
 21
193.4834765346552
 31
0.0
  0
LINE
  5
FB17A
330
1F
100
AcDbEntity
  8
AM_5
100
AcDbLine
 10
57.59715901357447
 20
197.125470285835
 30
0.0
 11
58.2539991953464
 21
198.9083222077871
 31
0.0
  0
LINE
  5
FB17B
330
1F
100
AcDbEntity
  8
AM_5
100
AcDbLine
 10
58.2539991953464
 20
196.883476534655
 30
0.0
 11
57.59715901357447
 21
197.125470285835
 31
0.0
  0
LINE
  5
FB17C
330
1F
100
AcDbEntity
  8
AM_5
100
AcDbLine
 10
58.2539991953464
 20
196.883476534655
 30
0.0
 11
58.95399919534646
 21
198.7834765346552
 31
0.0
  0
LINE
  5
FB17D
330
1F
100
AcDbEntity
  8
AM_5
100
AcDbLine
 10
58.95399919534646
 20
195.183476534656
 30
0.0
 11
57.59715901357447
 21
195.183476534656
 31
0.0
  0
LINE
  5
FB17E
330
1F
100
AcDbEntity
  8
AM_5
100
AcDbLine
 10
58.2539991953464
 20
215.183476534656
 30
0.0
 11
58.95399919534646
 21
215.183476534656
 31
0.0
  0
LINE
  5
FBACD
330
1F
100
AcDbEntity
  8
AM_5
100
AcDbLine
 10
233.2447657965755
 20
190.0353859994928
 30
0.0
 11
233.7923113611315
 21
192.2314713100563
 31
0.0
  0
LINE
  5
FBACE
330
1F
100
AcDbEntity
  8
AM_5
100
AcDbLine
 10
230.8488456655873
 20
189.1971779461789
 30
0.0
 11
230.2915529956249
 21
191.4323567612638
 31
0.0
  0
DIMENSION
  5
FBACF
330
1F
100
AcDbEntity
  8
AM_5
100
AcDbDimension
  2
*D20
 10
213.7684448711683
 20
184.8115265830141
 30
0.0
 11
210.5184448711683
 21
207.3115265830142
 31
0.0
 70
    32
  1
<>
 71
     5
 42
45.0
  3
AM_ISO$0
100
AcDbAlignedDimension
 13
227.8423113611318
 23
229.8115265830142
 33
0.0
 14
231.9423113611317
 24
184.8115265830141
 34
0.0
 50
270.0
100
AcDbRotatedDimension
1001
ACAD_DSTYLE_DIMINSPECT
1070
   396
1000
100%
1070
   395
1000

1070
   394
1070
    33
1070
   393
1070
     0
  0
LINE
  5
FBAD0
330
1F
100
AcDbEntity
  8
AM_5
100
AcDbLine
 10
231.9423113611316
 20
236.970344889853
 30
0.0
 11
231.9423113611314
 21
182.8115287640638
 31
0.0
  0
LINE
  5
FBAD1
330
1F
100
AcDbEntity
  8
AM_5
100
AcDbLine
 10
231.5723455422201
 20
186.2953784355645
 30
0.0
 11
231.0173113611316
 21
188.521498946535
 31
0.0
  0
LINE
  5
FBAD2
330
1F
100
AcDbEntity
  8
AM_5
100
AcDbLine
 10
232.3846096162387
 20
186.5854879915349
 30
0.0
 11
230.8206873762542
 21
186.0269149841514
 31
0.0
  0
LINE
  5
FBAD3
330
1F
100
AcDbEntity
  8
AM_5
100
AcDbLine
 10
231.7425585878956
 20
185.6126911973302
 30
0.0
 11
230.8206873762542
 21
186.0269149841514
 31
0.0
  0
LINE
  5
FBAD4
330
1F
100
AcDbEntity
  8
AM_5
100
AcDbLine
 10
233.2527799359971
 20
186.1806535228487
 30
0.0
 11
230.8206873762542
 21
186.0269149841514
 31
0.0
  0
LINE
  5
FBAD5
330
1F
100
AcDbEntity
  8
AM_5
100
AcDbLine
 10
234.0510355868522
 20
189.6594162217478
 30
0.0
 11
230.0185962383053
 21
188.906716779629
 31
0.0
  0
LINE
  5
FBAD6
330
1F
100
AcDbEntity
  8
AM_5
100
AcDbLine
 10
233.2447657965755
 20
190.0353859994929
 30
0.0
 11
230.0185962383053
 21
188.906716779629
 31
0.0
  0
LINE
  5
FBAD7
330
1F
100
AcDbEntity
  8
AM_5
100
AcDbLine
 10
234.0510355868522
 20
189.6594162217478
 30
0.0
 11
231.0173113611316
 21
188.521498946535
 31
0.0
  0
LINE
  5
FBAD8
330
1F
100
AcDbEntity
  8
AM_5
100
AcDbLine
 10
231.0173113611316
 20
188.521498946535
 30
0.0
 11
230.018596238306
 21
188.9067167796287
 31
0.0
  0
LINE
  5
FBAD9
330
1F
100
AcDbEntity
  8
AM_5
100
AcDbLine
 10
233.2527799359971
 20
186.1806535228487
 30
0.0
 11
231.7425585878956
 21
185.6126911973302
 31
0.0
  0
LINE
  5
FBADA
330
1F
100
AcDbEntity
  8
AM_5
100
AcDbLine
 10
232.3846096162387
 20
186.5854879915349
 30
0.0
 11
233.2527799359983
 21
186.1806535228481
 31
0.0
  0
LINE
  5
FBADB
330
1F
100
AcDbEntity
  8
AM_5
100
AcDbLine
 10
231.9423113611317
 20
184.8115265830141
 30
0.0
 11
231.7425585878956
 21
185.6126911973302
 31
0.0
  0
LINE
  5
FBADC
330
1F
100
AcDbEntity
  8
AM_5
100
AcDbLine
 10
231.9423113611313
 20
184.8115265830141
 30
0.0
 11
232.1834005598002
 21
185.7784825443164
 31
0.0
  0
LINE
  5
FBADD
330
1F
100
AcDbEntity
  8
AM_5
100
AcDbLine
 10
233.2447657965755
 20
190.0353859994929
 30
0.0
 11
234.0510355868522
 21
189.6594162217478
 31
0.0
  0
LINE
  5
FBADE
330
1F
100
AcDbEntity
  8
AM_5
100
AcDbLine
 10
232.3846096162387
 20
186.5854879915349
 30
0.0
 11
233.0581732730502
 21
189.2870042637971
 31
0.0
  0
DIMENSION
  5
FBADF
330
1F
100
AcDbEntity
  8
AM_5
100
AcDbDimension
  2
*D21
 10
234.6923113611314
 20
203.7057898848168
 30
0.0
 11
245.2897987345467
 21
203.7057898848168
 31
0.0
 70
   160
  1
%%c<>
 71
     5
 42
5.5
  3
AM_ISO$0
100
AcDbAlignedDimension
 13
229.1923113611314
 23
207.6774635977689
 33
0.0
 14
234.6923113611314
 24
208.1155387988459
 34
0.0
100
AcDbRotatedDimension
1001
ACAD_DSTYLE_DIMINSPECT
1070
   396
1000
100%
1070
   395
1000

1070
   394
1070
    33
1070
   393
1070
     0
  0
LINE
  5
FBAE0
330
1F
100
AcDbEntity
  8
AM_5
100
AcDbLine
 10
233.7923113611316
 20
215.0025836495466
 30
0.0
 11
233.7923113611316
 21
212.5791030418099
 31
0.0
  0
LINE
  5
FBAE1
330
1F
100
AcDbEntity
  8
AM_5
100
AcDbLine
 10
230.0923113611315
 20
213.6177867054295
 30
0.0
 11
229.1923113611314
 21
214.037463597769
 31
0.0
  0
LINE
  5
FBAE2
330
1F
100
AcDbEntity
  8
AM_5
100
AcDbLine
 10
234.6923113611314
 20
215.3394261494669
 30
0.0
 11
230.0923113611315
 21
213.6177867054295
 31
0.0
  0
LINE
  5
FBAE3
330
1F
100
AcDbEntity
  8
AM_5
100
AcDbLine
 10
233.7923113611316
 20
202.2825836495465
 30
0.0
 11
233.7923113611316
 21
199.8591030418097
 31
0.0
  0
LINE
  5
FBAE4
330
1F
100
AcDbEntity
  8
AM_5
100
AcDbLine
 10
230.0923113611315
 20
204.0777867054294
 30
0.0
 11
230.0923113611315
 21
201.6543060976899
 31
0.0
  0
LINE
  5
FBAE5
330
1F
100
AcDbEntity
  8
AM_5
100
AcDbLine
 10
233.7923113611274
 20
203.0391030418082
 30
0.0
 11
229.1923113611314
 21
201.3174635977689
 31
0.0
  0
LINE
  5
FBAE6
330
1F
100
AcDbEntity
  8
AM_5
100
AcDbLine
 10
234.6923113611314
 20
202.6194261494668
 30
0.0
 11
230.0923113611315
 21
200.8977867054293
 31
0.0
  0
LINE
  5
FBAE7
330
1F
100
AcDbEntity
  8
AM_5
100
AcDbLine
 10
234.6923113611314
 20
202.6194261494668
 30
0.0
 11
229.1923113611314
 21
201.3174635977689
 31
0.0
  0
LINE
  5
FBAE8
330
1F
100
AcDbEntity
  8
AM_5
100
AcDbLine
 10
233.7923113611274
 20
193.4991030418082
 30
0.0
 11
229.1923113611314
 21
191.7774635977689
 31
0.0
  0
LINE
  5
FBAE9
330
1F
100
AcDbEntity
  8
AM_5
100
AcDbLine
 10
234.6923113611314
 20
193.0794261494668
 30
0.0
 11
229.1923113611314
 21
191.7774635977689
 31
0.0
  0
LINE
  5
FBAEA
330
1F
100
AcDbEntity
  8
AM_5
100
AcDbLine
 10
234.6923113611314
 20
193.0794261494668
 30
0.0
 11
230.2915529956249
 21
191.4323567612638
 31
0.0
  0
LINE
  5
FBAEB
330
1F
100
AcDbEntity
  8
AM_5
100
AcDbLine
 10
234.6923113611314
 20
196.2594261494668
 30
0.0
 11
230.0923113611315
 21
194.5377867054294
 31
0.0
  0
LINE
  5
FBAEC
330
1F
100
AcDbEntity
  8
AM_5
100
AcDbLine
 10
234.6923113611314
 20
196.2594261494668
 30
0.0
 11
229.1923113611314
 21
194.9574635977689
 31
0.0
  0
LINE
  5
FBAED
330
1F
100
AcDbEntity
  8
AM_5
100
AcDbLine
 10
233.7923113611274
 20
196.6791030418082
 30
0.0
 11
229.1923113611314
 21
194.9574635977689
 31
0.0
  0
LINE
  5
FBAEE
330
1F
100
AcDbEntity
  8
AM_5
100
AcDbLine
 10
233.7923113611274
 20
199.8591030418082
 30
0.0
 11
229.1923113611314
 21
198.1374635977689
 31
0.0
  0
LINE
  5
FBAEF
330
1F
100
AcDbEntity
  8
AM_5
100
AcDbLine
 10
234.6923113611314
 20
199.4394261494668
 30
0.0
 11
229.1923113611314
 21
198.1374635977689
 31
0.0
  0
LINE
  5
FBAF0
330
1F
100
AcDbEntity
  8
AM_5
100
AcDbLine
 10
234.6923113611314
 20
199.4394261494668
 30
0.0
 11
230.0923113611315
 21
197.7177867054293
 31
0.0
  0
LINE
  5
FBAF1
330
1F
100
AcDbEntity
  8
AM_5
100
AcDbLine
 10
230.0923113611315
 20
197.7177867054293
 30
0.0
 11
230.0923113611315
 21
195.2943060976899
 31
0.0
  0
LINE
  5
FBAF2
330
1F
100
AcDbEntity
  8
AM_5
100
AcDbLine
 10
230.2915529956249
 20
191.4323567612638
 30
0.0
 11
229.1923113611314
 21
191.7774635977689
 31
0.0
  0
LINE
  5
FBAF3
330
1F
100
AcDbEntity
  8
AM_5
100
AcDbLine
 10
230.1190306008823
 20
192.124306292705
 30
0.0
 11
230.0923113611315
 21
192.231471310056
 31
0.0
  0
LINE
  5
FBAF4
330
1F
100
AcDbEntity
  8
AM_5
100
AcDbLine
 10
230.0923113611315
 20
194.5377867054294
 30
0.0
 11
229.1923113611314
 21
194.9574635977689
 31
0.0
  0
LINE
  5
FBAF5
330
1F
100
AcDbEntity
  8
AM_5
100
AcDbLine
 10
230.0923113611315
 20
194.5377867054294
 30
0.0
 11
230.0923113611315
 21
192.2314713100559
 31
0.0
  0
LINE
  5
FBAF6
330
1F
100
AcDbEntity
  8
AM_5
100
AcDbLine
 10
230.0923113611315
 20
197.7177867054293
 30
0.0
 11
229.1923113611314
 21
198.1374635977689
 31
0.0
  0
LINE
  5
FBAF7
330
1F
100
AcDbEntity
  8
AM_5
100
AcDbLine
 10
230.0923113611315
 20
200.8977867054293
 30
0.0
 11
229.1923113611314
 21
201.3174635977689
 31
0.0
  0
LINE
  5
FBAF8
330
1F
100
AcDbEntity
  8
AM_5
100
AcDbLine
 10
230.0923113611315
 20
200.8977867054293
 30
0.0
 11
230.0923113611315
 21
198.4743060976899
 31
0.0
  0
LINE
  5
FBAF9
330
1F
100
AcDbEntity
  8
AM_5
100
AcDbLine
 10
233.7923113611274
 20
193.4991030418082
 30
0.0
 11
234.6923113611314
 21
193.0794261494668
 31
0.0
  0
LINE
  5
FBAFA
330
1F
100
AcDbEntity
  8
AM_5
100
AcDbLine
 10
233.7923113611315
 20
192.7425836495465
 30
0.0
 11
233.7923113611316
 21
192.2314713100564
 31
0.0
  0
LINE
  5
FBAFB
330
1F
100
AcDbEntity
  8
AM_5
100
AcDbLine
 10
233.7923113611316
 20
195.9225836495464
 30
0.0
 11
233.7923113611316
 21
193.4991030418098
 31
0.0
  0
LINE
  5
FBAFC
330
1F
100
AcDbEntity
  8
AM_5
100
AcDbLine
 10
233.7923113611274
 20
196.6791030418082
 30
0.0
 11
234.6923113611314
 21
196.2594261494668
 31
0.0
  0
LINE
  5
FBAFD
330
1F
100
AcDbEntity
  8
AM_5
100
AcDbLine
 10
233.7923113611274
 20
199.8591030418082
 30
0.0
 11
234.6923113611314
 21
199.4394261494668
 31
0.0
  0
LINE
  5
FBAFE
330
1F
100
AcDbEntity
  8
AM_5
100
AcDbLine
 10
233.7923113611316
 20
199.1025836495465
 30
0.0
 11
233.7923113611316
 21
196.6791030418098
 31
0.0
  0
LINE
  5
FBAFF
330
1F
100
AcDbEntity
  8
AM_5
100
AcDbLine
 10
233.7923113611274
 20
206.2191030418083
 30
0.0
 11
229.1923113611314
 21
204.4974635977689
 31
0.0
  0
LINE
  5
FBB00
330
1F
100
AcDbEntity
  8
AM_5
100
AcDbLine
 10
234.6923113611314
 20
205.7994261494668
 30
0.0
 11
229.1923113611314
 21
204.4974635977689
 31
0.0
  0
LINE
  5
FBB01
330
1F
100
AcDbEntity
  8
AM_5
100
AcDbLine
 10
234.6923113611314
 20
205.7994261494668
 30
0.0
 11
230.0923113611315
 21
204.0777867054293
 31
0.0
  0
LINE
  5
FBB02
330
1F
100
AcDbEntity
  8
AM_5
100
AcDbLine
 10
234.6923113611314
 20
208.9794261494668
 30
0.0
 11
230.0923113611315
 21
207.2577867054294
 31
0.0
  0
LINE
  5
FBB03
330
1F
100
AcDbEntity
  8
AM_5
100
AcDbLine
 10
234.6923113611314
 20
208.9794261494668
 30
0.0
 11
229.1923113611314
 21
207.6774635977689
 31
0.0
  0
LINE
  5
FBB04
330
1F
100
AcDbEntity
  8
AM_5
100
AcDbLine
 10
233.7923113611274
 20
212.5791030418083
 30
0.0
 11
229.1923113611314
 21
210.857463597769
 31
0.0
  0
LINE
  5
FBB05
330
1F
100
AcDbEntity
  8
AM_5
100
AcDbLine
 10
234.6923113611314
 20
212.1594261494669
 30
0.0
 11
229.1923113611314
 21
210.857463597769
 31
0.0
  0
LINE
  5
FBB06
330
1F
100
AcDbEntity
  8
AM_5
100
AcDbLine
 10
234.6923113611314
 20
212.1594261494669
 30
0.0
 11
230.0923113611315
 21
210.4377867054294
 31
0.0
  0
LINE
  5
FBB07
330
1F
100
AcDbEntity
  8
AM_5
100
AcDbLine
 10
233.7923113611274
 20
209.3991030418083
 30
0.0
 11
229.1923113611314
 21
207.6774635977689
 31
0.0
  0
LINE
  5
FBB08
330
1F
100
AcDbEntity
  8
AM_5
100
AcDbLine
 10
230.0923113611315
 20
207.2577867054294
 30
0.0
 11
230.0923113611315
 21
204.8343060976899
 31
0.0
  0
LINE
  5
FBB09
330
1F
100
AcDbEntity
  8
AM_5
100
AcDbLine
 10
230.0923113611315
 20
207.2577867054294
 30
0.0
 11
229.1923113611314
 21
207.6774635977689
 31
0.0
  0
LINE
  5
FBB0A
330
1F
100
AcDbEntity
  8
AM_5
100
AcDbLine
 10
230.0923113611315
 20
204.0777867054293
 30
0.0
 11
229.1923113611314
 21
204.4974635977689
 31
0.0
  0
LINE
  5
FBB0B
330
1F
100
AcDbEntity
  8
AM_5
100
AcDbLine
 10
230.0923113611315
 20
213.6177867054295
 30
0.0
 11
230.0923113611315
 21
211.19430609769
 31
0.0
  0
LINE
  5
FBB0C
330
1F
100
AcDbEntity
  8
AM_5
100
AcDbLine
 10
230.0923113611315
 20
210.4377867054294
 30
0.0
 11
229.1923113611314
 21
210.857463597769
 31
0.0
  0
LINE
  5
FBB0D
330
1F
100
AcDbEntity
  8
AM_5
100
AcDbLine
 10
230.0923113611315
 20
210.4377867054294
 30
0.0
 11
230.0923113611315
 21
208.01430609769
 31
0.0
  0
LINE
  5
FBB0E
330
1F
100
AcDbEntity
  8
AM_5
100
AcDbLine
 10
233.7923113611316
 20
208.6425836495465
 30
0.0
 11
233.7923113611316
 21
206.2191030418098
 31
0.0
  0
LINE
  5
FBB0F
330
1F
100
AcDbEntity
  8
AM_5
100
AcDbLine
 10
233.7923113611274
 20
203.0391030418082
 30
0.0
 11
234.6923113611314
 21
202.6194261494668
 31
0.0
  0
LINE
  5
FBB10
330
1F
100
AcDbEntity
  8
AM_5
100
AcDbLine
 10
233.7923113611274
 20
206.2191030418083
 30
0.0
 11
234.6923113611314
 21
205.7994261494668
 31
0.0
  0
LINE
  5
FBB11
330
1F
100
AcDbEntity
  8
AM_5
100
AcDbLine
 10
233.7923113611316
 20
205.4625836495465
 30
0.0
 11
233.7923113611316
 21
203.0391030418098
 31
0.0
  0
LINE
  5
FBB12
330
1F
100
AcDbEntity
  8
AM_5
100
AcDbLine
 10
233.7923113611316
 20
211.8225836495466
 30
0.0
 11
233.7923113611316
 21
209.3991030418098
 31
0.0
  0
LINE
  5
FBB13
330
1F
100
AcDbEntity
  8
AM_5
100
AcDbLine
 10
233.7923113611274
 20
212.5791030418083
 30
0.0
 11
234.6923113611314
 21
212.1594261494669
 31
0.0
  0
LINE
  5
FBB14
330
1F
100
AcDbEntity
  8
AM_5
100
AcDbLine
 10
233.7923113611274
 20
209.3991030418083
 30
0.0
 11
234.6923113611314
 21
208.9794261494668
 31
0.0
  0
LINE
  5
FBB15
330
1F
100
AcDbEntity
  8
AM_5
100
AcDbLine
 10
233.9423113611316
 20
224.3115265830141
 30
0.0
 11
234.6923113611314
 21
225.3115265830142
 31
0.0
  0
LINE
  5
FBB16
330
1F
100
AcDbEntity
  8
AM_5
100
AcDbLine
 10
229.1923113611314
 20
225.3115265830142
 30
0.0
 11
229.9423113611317
 21
224.3115265830141
 31
0.0
  0
LINE
  5
FBB17
330
1F
100
AcDbEntity
  8
AM_5
100
AcDbLine
 10
233.1749564848072
 20
224.3115265830141
 30
0.0
 11
230.0923113611315
 21
223.1577867054295
 31
0.0
  0
LINE
  5
FBB18
330
1F
100
AcDbEntity
  8
AM_5
100
AcDbLine
 10
232.2932810576741
 20
224.3115265830141
 30
0.0
 11
229.1923113611314
 21
223.577463597769
 31
0.0
  0
LINE
  5
FBB19
330
1F
100
AcDbEntity
  8
AM_5
100
AcDbLine
 10
231.1536336018687
 20
224.3115265830141
 30
0.0
 11
229.1923113611314
 21
223.577463597769
 31
0.0
  0
LINE
  5
FBB1A
330
1F
100
AcDbEntity
  8
AM_5
100
AcDbLine
 10
233.7923113611274
 20
215.7591030418083
 30
0.0
 11
229.1923113611314
 21
214.037463597769
 31
0.0
  0
LINE
  5
FBB1B
330
1F
100
AcDbEntity
  8
AM_5
100
AcDbLine
 10
234.6923113611314
 20
215.3394261494669
 30
0.0
 11
229.1923113611314
 21
214.037463597769
 31
0.0
  0
LINE
  5
FBB1C
330
1F
100
AcDbEntity
  8
AM_5
100
AcDbLine
 10
233.7923113611274
 20
218.9391030418083
 30
0.0
 11
229.1923113611314
 21
217.217463597769
 31
0.0
  0
LINE
  5
FBB1D
330
1F
100
AcDbEntity
  8
AM_5
100
AcDbLine
 10
234.6923113611314
 20
218.5194261494669
 30
0.0
 11
230.0923113611315
 21
216.7977867054295
 31
0.0
  0
LINE
  5
FBB1E
330
1F
100
AcDbEntity
  8
AM_5
100
AcDbLine
 10
234.6923113611314
 20
218.5194261494669
 30
0.0
 11
229.1923113611314
 21
217.217463597769
 31
0.0
  0
LINE
  5
FBB1F
330
1F
100
AcDbEntity
  8
AM_5
100
AcDbLine
 10
233.7923113611274
 20
222.1191030418083
 30
0.0
 11
229.1923113611314
 21
220.397463597769
 31
0.0
  0
LINE
  5
FBB20
330
1F
100
AcDbEntity
  8
AM_5
100
AcDbLine
 10
234.6923113611314
 20
221.6994261494669
 30
0.0
 11
229.1923113611314
 21
220.397463597769
 31
0.0
  0
LINE
  5
FBB21
330
1F
100
AcDbEntity
  8
AM_5
100
AcDbLine
 10
234.6923113611314
 20
221.6994261494669
 30
0.0
 11
230.0923113611315
 21
219.9777867054295
 31
0.0
  0
LINE
  5
FBB22
330
1F
100
AcDbEntity
  8
AM_5
100
AcDbLine
 10
229.9423113611317
 20
224.3115265830141
 30
0.0
 11
233.9423113611316
 21
224.3115265830141
 31
0.0
  0
LINE
  5
FBB23
330
1F
100
AcDbEntity
  8
AM_5
100
AcDbLine
 10
230.0923113611315
 20
219.9777867054295
 30
0.0
 11
230.0923113611315
 21
217.5543060976901
 31
0.0
  0
LINE
  5
FBB24
330
1F
100
AcDbEntity
  8
AM_5
100
AcDbLine
 10
230.0923113611315
 20
216.7977867054295
 30
0.0
 11
229.1923113611314
 21
217.217463597769
 31
0.0
  0
LINE
  5
FBB25
330
1F
100
AcDbEntity
  8
AM_5
100
AcDbLine
 10
230.0923113611315
 20
216.7977867054295
 30
0.0
 11
230.0923113611315
 21
214.37430609769
 31
0.0
  0
LINE
  5
FBB26
330
1F
100
AcDbEntity
  8
AM_5
100
AcDbLine
 10
230.0923113611316
 20
224.3115265830141
 30
0.0
 11
230.0923113611315
 21
223.91430609769
 31
0.0
  0
LINE
  5
FBB27
330
1F
100
AcDbEntity
  8
AM_5
100
AcDbLine
 10
230.0923113611315
 20
223.1577867054295
 30
0.0
 11
229.1923113611314
 21
223.577463597769
 31
0.0
  0
LINE
  5
FBB28
330
1F
100
AcDbEntity
  8
AM_5
100
AcDbLine
 10
230.0923113611315
 20
223.1577867054295
 30
0.0
 11
230.0923113611315
 21
220.7343060976901
 31
0.0
  0
LINE
  5
FBB29
330
1F
100
AcDbEntity
  8
AM_5
100
AcDbLine
 10
230.0923113611315
 20
219.9777867054295
 30
0.0
 11
229.1923113611314
 21
220.397463597769
 31
0.0
  0
LINE
  5
FBB2A
330
1F
100
AcDbEntity
  8
AM_5
100
AcDbLine
 10
233.7923113611316
 20
221.3625836495465
 30
0.0
 11
233.7923113611316
 21
218.9391030418098
 31
0.0
  0
LINE
  5
FBB2B
330
1F
100
AcDbEntity
  8
AM_5
100
AcDbLine
 10
233.7923113611316
 20
218.1825836495465
 30
0.0
 11
233.7923113611316
 21
215.7591030418099
 31
0.0
  0
LINE
  5
FBB2C
330
1F
100
AcDbEntity
  8
AM_5
100
AcDbLine
 10
233.7923113611274
 20
215.7591030418083
 30
0.0
 11
234.6923113611314
 21
215.3394261494669
 31
0.0
  0
LINE
  5
FBB2D
330
1F
100
AcDbEntity
  8
AM_5
100
AcDbLine
 10
233.7923113611274
 20
218.9391030418083
 30
0.0
 11
234.6923113611314
 21
218.5194261494669
 31
0.0
  0
LINE
  5
FBB2E
330
1F
100
AcDbEntity
  8
AM_5
100
AcDbLine
 10
233.7923113611316
 20
224.3115265830141
 30
0.0
 11
233.7923113611316
 21
222.1191030418098
 31
0.0
  0
LINE
  5
FBB2F
330
1F
100
AcDbEntity
  8
AM_5
100
AcDbLine
 10
233.7923113611274
 20
222.1191030418083
 30
0.0
 11
234.6923113611314
 21
221.6994261494669
 31
0.0
  0
LINE
  5
FBB30
330
1F
100
AcDbEntity
  8
AM_5
100
AcDbLine
 10
231.9423113611317
 20
227.1341978652531
 30
0.0
 11
230.2723113611317
 21
227.5115265830141
 31
0.0
  0
LINE
  5
FBB31
330
1F
100
AcDbEntity
  8
AM_5
100
AcDbLine
 10
234.6923113611317
 20
228.3068457374433
 30
0.0
 11
229.1923113611317
 21
228.3068457374433
 31
0.0
  0
LINE
  5
FBB32
330
1F
100
AcDbEntity
  8
AM_5
100
AcDbLine
 10
236.0423113611316
 20
229.5568457374433
 30
0.0
 11
227.8423113611318
 21
229.5568457374433
 31
0.0
  0
LINE
  5
FBB33
330
1F
100
AcDbEntity
  8
AM_5
100
AcDbLine
 10
227.8423113611318
 20
229.8115265830142
 30
0.0
 11
236.0423113611316
 21
229.8115265830142
 31
0.0
  0
LINE
  5
FBB34
330
1F
100
AcDbEntity
  8
AM_5
100
AcDbLine
 10
234.6923113611314
 20
225.3115265830142
 30
0.0
 11
229.1923113611314
 21
225.3115265830142
 31
0.0
  0
LINE
  5
FBB35
330
1F
100
AcDbEntity
  8
AM_5
100
AcDbLine
 10
230.2723113611317
 20
227.5115265830141
 30
0.0
 11
230.2723113611317
 21
229.8115265830142
 31
0.0
  0
LINE
  5
FBB36
330
1F
100
AcDbEntity
  8
AM_5
100
AcDbLine
 10
227.8423113611318
 20
229.8115265830142
 30
0.0
 11
227.8423113611318
 21
229.5568457374433
 31
0.0
  0
LINE
  5
FBB37
330
1F
100
AcDbEntity
  8
AM_5
100
AcDbLine
 10
227.8423113611318
 20
229.5568457374433
 30
0.0
 11
229.1923113611317
 21
228.3068457374433
 31
0.0
  0
LINE
  5
FBB38
330
1F
100
AcDbEntity
  8
AM_5
100
AcDbLine
 10
229.1923113611317
 20
228.3068457374433
 30
0.0
 11
229.1923113611314
 21
225.3115265830142
 31
0.0
  0
LINE
  5
FBB39
330
1F
100
AcDbEntity
  8
AM_5
100
AcDbLine
 10
236.0423113611316
 20
229.5568457374433
 30
0.0
 11
234.6923113611317
 21
228.3068457374433
 31
0.0
  0
LINE
  5
FBB3A
330
1F
100
AcDbEntity
  8
AM_5
100
AcDbLine
 10
231.9423113611317
 20
227.1341978652531
 30
0.0
 11
233.6123113611317
 21
227.5115265830141
 31
0.0
  0
LINE
  5
FBB3B
330
1F
100
AcDbEntity
  8
AM_5
100
AcDbLine
 10
233.6123113611317
 20
227.5115265830141
 30
0.0
 11
233.6123113611317
 21
229.8115265830142
 31
0.0
  0
LINE
  5
FBB3C
330
1F
100
AcDbEntity
  8
AM_5
100
AcDbLine
 10
234.6923113611317
 20
228.3068457374433
 30
0.0
 11
234.6923113611314
 21
225.3115265830142
 31
0.0
  0
LINE
  5
FBB3D
330
1F
100
AcDbEntity
  8
AM_5
100
AcDbLine
 10
236.0423113611316
 20
229.8115265830142
 30
0.0
 11
236.0423113611316
 21
229.5568457374433
 31
0.0
  0
LEADER
  5
FBB3E
330
1F
100
AcDbEntity
  8
AM_5
100
AcDbLeader
  3
AM_ISO$7
 76
     3
 10
233.0738307449703
 20
259.7920936148844
 30
0.0
 10
238.3224718882273
 20
252.1971814006946
 30
0.0
 10
248.7491157764751
 20
252.1971814006946
 30
0.0
211
1.0
221
-0.0000000000000002
231
0.0
1001
ACAD
1000
DSTYLE
1002
{
1070
   140
1040
3.5
1002
}
  0
MTEXT
  5
FBB3F
330
1F
100
AcDbEntity
  8
AM_5
100
AcDbMText
 10
243.459728946566
 20
254.5887770411553
 30
0.0
 40
2.0
 41
16.24518138417357
 71
     5
 72
     5
  1
3# 四角孔
  7
2014++
 73
     1
 44
1.0
  0
LWPOLYLINE
  5
FBB40
330
1F
100
AcDbEntity
  8
AM_5
100
AcDbPolyline
 90
        4
 70
     1
 43
0.0
 10
230.2723113611317
 20
262.418273145567
 10
230.2723113611317
 20
259.0782731455673
 10
233.6123113611318
 20
259.0782731455673
 10
233.6123113611318
 20
262.418273145567
  0
LINE
  5
FBB41
330
1F
100
AcDbEntity
  8
AM_5
100
AcDbLine
 10
231.9423113611317
 20
254.7482731455669
 30
0.0
 11
231.9423113611317
 21
266.748273145567
 31
0.0
  0
CIRCLE
  5
FBB42
330
1F
100
AcDbEntity
  8
AM_5
100
AcDbCircle
 10
231.9423113611317
 20
260.7482731455669
 30
0.0
 40
4.0
  0
DIMENSION
  5
FBB43
330
1F
100
AcDbEntity
  8
AM_5
100
AcDbDimension
  2
*D22
 10
235.9423113611317
 20
270.0724248244752
 30
0.0
 11
231.9423113611317
 21
270.0724248244752
 31
0.0
 70
   160
  1
%%c<>
 71
     5
 42
8.000000000000028
  3
AM_ISO$0
100
AcDbAlignedDimension
 13
227.9423113611317
 23
260.7482731455669
 33
0.0
 14
235.9423113611317
 24
260.7482731455669
 34
0.0
100
AcDbRotatedDimension
1001
ACAD_DSTYLE_DIMINSPECT
1070
   396
1000
100%
1070
   395
1000

1070
   394
1070
    33
1070
   393
1070
     0
  0
LINE
  5
FBB44
330
1F
100
AcDbEntity
  8
AM_5
100
AcDbLine
 10
237.9423113611317
 20
260.7482731455669
 30
0.0
 11
225.9423113611317
 21
260.7482731455669
 31
0.0
  0
MTEXT
  5
FBB45
330
1F
100
AcDbEntity
  8
AM_5
100
AcDbMText
 10
214.0535118414317
 20
297.7479381209432
 30
0.0
 40
10.0
 41
16.80016178190794
 71
     1
 72
     5
  1
YA-S45
  7
2014++
 73
     1
 44
1.0
1001
ACAD
1000
ACAD_MTEXT_COLUMN_INFO_BEGIN
1070
    75
1070
     2
1070
    79
1070
     0
1070
    76
1070
     1
1070
    78
1070
     0
1070
    48
1040
16.80016178190794
1070
    49
1040
12.5
1070
    50
1070
     1
1040
0.0
1000
ACAD_MTEXT_COLUMN_INFO_END
  0
DIMENSION
  5
FBB46
330
1F
100
AcDbEntity
  8
AM_5
100
AcDbDimension
  2
*D23
 10
248.0423113611316
 20
229.8115265830142
 30
0.0
 11
244.7923113611316
 21
238.8340139564295
 31
0.0
 70
    32
 71
     5
 42
5.5
  3
AM_ISO$0
100
AcDbAlignedDimension
 13
233.9423113611316
 23
224.3115265830141
 33
0.0
 14
236.0423113611316
 24
229.8115265830142
 34
0.0
 50
90.0
100
AcDbRotatedDimension
1001
ACAD_DSTYLE_DIMINSPECT
1070
   396
1000
100%
1070
   395
1000

1070
   394
1070
    33
1070
   393
1070
     0
  0
MTEXT
  5
FBBAA
330
1F
100
AcDbEntity
  8
AM_5
100
AcDbMText
 10
59.47026441322236
 20
297.7479381209432
 30
0.0
 40
10.0
 41
110.4923117457846
 71
     1
 72
     5
  1
ビルトプレート
  7
2014++
 73
     1
 44
1.0
1001
ACAD
1000
ACAD_MTEXT_COLUMN_INFO_BEGIN
1070
    75
1070
     2
1070
    79
1070
     0
1070
    76
1070
     1
1070
    78
1070
     0
1070
    48
1040
110.4923117457846
1070
    49
1040
12.5
1070
    50
1070
     1
1040
0.0
1000
ACAD_MTEXT_COLUMN_INFO_END
  0
VIEWPORT
  5
FB719
102
{ACAD_XDICTIONARY
360
FB71A
102
}
330
FB710
100
AcDbEntity
 67
     1
  8
0
100
AcDbViewport
 10
142.5892486572266
 20
99.1129140853882
 30
0.0
 40
430.4720018747953
 41
222.1517806396485
 68
     1
 69
     1
 12
142.5892486572266
 22
99.1129140853882
 13
0.0
 23
0.0
 14
10.0
 24
10.0
 15
10.0
 25
10.0
 16
0.0
 26
0.0
 36
1.0
 17
0.0
 27
0.0
 37
0.0
 42
50.0
 43
0.0
 44
0.0
 45
222.1517806396485
 50
0.0
 51
0.0
 72
   100
 90
   819232
  1

281
     0
 71
     1
 74
     0
110
0.0
120
0.0
130
0.0
111
1.0
121
0.0
131
0.0
112
0.0
122
1.0
132
0.0
 79
     0
146
0.0
170
     0
1001
GENIUS_GENOBJ-N-SDF_13
1002
{
1000
OWNER
1000
GEN
1002
}
1001
GENIUS_GENODEF_13
1002
{
1000
HIER
1070
     0
1002
}
1002
{
1000
MANEDIT
1070
     0
1002
}
1002
{
1000
NOSEL
1070
     0
1002
}
1002
{
1000
BEHIND
1070
     0
1002
}
1002
{
1000
OTHER
1070
     0
1002
}
1002
{
1000
REACTOR
1002
}
1001
GENIUS_GENSCREG_15
1000
PF
1040
1.0
1000
DF
1040
1.0
1000
MIN
1011
-72.64675228017108
1021
-11.96297623443604
1031
0.0
1000
MAX
1011
357.8252495946242
1021
210.1888044052125
1031
0.0
1000
FLAGS
1070
     4
  0
ENDSEC
  0
SECTION
  2
OBJECTS
  0
DICTIONARY
  5
C
330
0
100
AcDbDictionary
281
     1
  3
ACAD_CIP_PREVIOUS_PRODUCT_INFO
350
FB6ED
  3
ACAD_COLOR
350
8712
  3
ACAD_DETAILVIEWSTYLE
350
FB6D6
  3
ACAD_FIELDLIST
350
FB709
  3
ACAD_GROUP
350
D
  3
ACAD_LAYOUT
350
1A
  3
ACAD_MATERIAL
350
8711
  3
ACAD_MLEADERSTYLE
350
FB6D2
  3
ACAD_MLINESTYLE
350
17
  3
ACAD_PLOTSETTINGS
350
19
  3
ACAD_PLOTSTYLENAME
350
E
  3
ACAD_SCALELIST
350
FB6C0
  3
ACAD_SECTIONVIEWSTYLE
350
FB6D4
  3
ACAD_TABLESTYLE
350
FB6BE
  3
ACAD_VISUALSTYLE
350
FB6A5
  3
AcadDim
350
CCA4E
  3
ACDB_RECOMPOSE_DATA
350
FBC67
  3
AcDbVariableDictionary
350
6B9
  3
AcmDictionary
350
16D31
  3
AMG
350
16D13
  3
AMGSNAPSETTINGS
350
17AE6
  3
ASE_INDEX_DICTIONARY
350
F4A75
  0
DICTIONARY
  5
F82BD
330
2
100
AcDbDictionary
280
     1
281
     1
  3
ACAD_LAYERFILTERS
360
F82C0
  3
ACAD_LAYERSTATES
360
F82BE
  0
DICTIONARY
  5
FB7F6
330
10
100
AcDbDictionary
280
     1
281
     1
  3
ADSK_XREC_LAYER_RECONCILED
360
FB7F7
  0
DICTIONARY
  5
FB7F8
330
86C9
100
AcDbDictionary
280
     1
281
     1
  3
ADSK_XREC_LAYER_RECONCILED
360
FB7F9
  0
DICTIONARY
  5
FBA4D
330
FBA4C
100
AcDbDictionary
280
     1
281
     1
  0
DICTIONARY
  5
16D78
330
1F
100
AcDbDictionary
280
     1
281
     1
  0
DICTIONARY
  5
FBC9F
330
FBC08
100
AcDbDictionary
280
     1
281
     1
  3
ACAD_MTEXT_2008_RT
360
FBCA0
  0
DICTIONARY
  5
FB71A
330
FB719
100
AcDbDictionary
280
     1
281
     1
  3
ASDK_XREC_ANNOTATION_SCALE_INFO
360
FB71B
  0
XRECORD
  5
FB6ED
102
{ACAD_REACTORS
330
C
102
}
330
C
100
AcDbXrecord
280
     1
300
AMECH_PP
300
2016
300
AMECH_PP_F_S
  0
DICTIONARY
  5
8712
102
{ACAD_REACTORS
330
C
102
}
330
C
100
AcDbDictionary
281
     1
  0
DICTIONARY
  5
FB6D6
102
{ACAD_REACTORS
330
C
102
}
330
C
100
AcDbDictionary
281
     1
  3
Metric50
350
FB6D7
  0
FIELDLIST
  5
FB709
102
{ACAD_REACTORS
330
C
102
}
330
C
100
AcDbIdSet
 90
        3
330
FBA0D
330
FBA0E
330
FBA0F
100
AcDbFieldList
  0
DICTIONARY
  5
D
102
{ACAD_REACTORS
330
C
102
}
330
C
100
AcDbDictionary
281
     1
  0
DICTIONARY
  5
1A
102
{ACAD_REACTORS
330
C
102
}
330
C
100
AcDbDictionary
281
     1
  3
Model
350
22
  3
レイアウト1
350
FB711
  0
DICTIONARY
  5
8711
102
{ACAD_REACTORS
330
C
102
}
330
C
100
AcDbDictionary
281
     1
  3
ByBlock
350
FB695
  3
ByLayer
350
FB68D
  3
Global
350
FB69D
  0
DICTIONARY
  5
FB6D2
102
{ACAD_REACTORS
330
C
102
}
330
C
100
AcDbDictionary
281
     1
  3
Standard
350
FB6D3
  0
DICTIONARY
  5
17
102
{ACAD_REACTORS
330
C
102
}
330
C
100
AcDbDictionary
281
     1
  3
Standard
350
18
  0
DICTIONARY
  5
19
102
{ACAD_REACTORS
330
C
102
}
330
C
100
AcDbDictionary
281
     1
  0
ACDBDICTIONARYWDFLT
  5
E
102
{ACAD_REACTORS
330
C
102
}
330
C
100
AcDbDictionary
281
     1
  3
Normal
350
F
100
AcDbDictionaryWithDefault
340
F
  0
DICTIONARY
  5
FB6C0
102
{ACAD_REACTORS
330
C
102
}
330
C
100
AcDbDictionary
281
     1
  3
A0
350
FB6C1
  3
A1
350
FB6C2
  3
A2
350
FB6C3
  3
A3
350
FB6C4
  3
A4
350
FB6C5
  3
A5
350
FB6C6
  3
A6
350
FB6C7
  3
A7
350
FB6C8
  3
A8
350
FB6C9
  3
A9
350
FB6CA
  3
B0
350
FB6CB
  3
B1
350
FB6CC
  3
B2
350
FB6CD
  3
B3
350
FB6CE
  3
B4
350
FB6CF
  3
B5
350
FB6D0
  3
B6
350
FB6D1
  0
DICTIONARY
  5
FB6D4
102
{ACAD_REACTORS
330
C
102
}
330
C
100
AcDbDictionary
281
     1
  3
Metric50
350
FB6D5
  0
DICTIONARY
  5
FB6BE
102
{ACAD_REACTORS
330
C
102
}
330
C
100
AcDbDictionary
281
     1
  3
Standard
350
FB6BF
  0
DICTIONARY
  5
FB6A5
102
{ACAD_REACTORS
330
C
102
}
330
C
100
AcDbDictionary
281
     1
  3
2dWireframe
350
FB6AB
  3
Basic
350
FB6AA
  3
Brighten
350
FB6B1
  3
ColorChange
350
FB6B5
  3
Conceptual
350
FB6AE
  3
Dim
350
FB6B0
  3
EdgeColorOff
350
FB6BD
  3
Facepattern
350
FB6B4
  3
Flat
350
FB6A6
  3
FlatWithEdges
350
FB6A7
  3
Gouraud
350
FB6A8
  3
GouraudWithEdges
350
FB6A9
  3
Hidden
350
FB6AD
  3
JitterOff
350
FB6BB
  3
Linepattern
350
FB6B3
  3
OverhangOff
350
FB6BC
  3
Realistic
350
FB6AF
  3
Shaded
350
FB6BA
  3
Shaded with edges
350
FB6B9
  3
Shades of Gray
350
FB6B6
  3
Sketchy
350
FB6B7
  3
Thicken
350
FB6B2
  3
Wireframe
350
FB6AC
  3
X-Ray
350
FB6B8
  0
XRECORD
  5
CCA4E
102
{ACAD_REACTORS
330
C
102
}
330
C
100
AcDbXrecord
280
     1
 90
   990106
  3

 60
     0
 61
     0
 62
     1
 63
     3
 64
     0
 65
     0
 66
     0
 67
     3
 68
     1
 69
     0
 70
     0
 71
     0
 72
     0
 40
17.73254125325911
170
     0
  0
XRECORD
  5
FBC67
102
{ACAD_REACTORS
330
C
102
}
330
C
100
AcDbXrecord
280
     1
 90
        1
330
FB6BF
330
FBB45
330
FBBAA
  0
DICTIONARY
  5
6B9
102
{ACAD_REACTORS
330
C
102
}
330
C
100
AcDbDictionary
281
     1
  3
CANNOSCALE
350
FB80A
  3
CMLEADERSTYLE
350
FB807
  3
CTABLESTYLE
350
FB806
  3
CVIEWDETAILSTYLE
350
FB808
  3
CVIEWSECTIONSTYLE
350
FB809
  3
DIMASSOC
350
F4248
  3
INDEXCTL
350
F4247
  3
PROJECTNAME
350
F4249
  3
SORTENTS
350
6BA
  3
XCLIPFRAME
350
FBC65
  0
DICTIONARY
  5
16D31
102
{ACAD_REACTORS
330
C
102
}
330
C
100
AcDbDictionary
281
     1
  3
AcmStdDictionary
350
16D3E
  3
AMDTSECTSYM_ARROWCOLOR
350
16DB5
  0
DICTIONARY
  5
16D13
102
{ACAD_REACTORS
330
C
102
}
330
C
100
AcDbDictionary
281
     1
  0
DICTIONARY
  5
17AE6
102
{ACAD_REACTORS
330
C
102
}
330
C
100
AcDbDictionary
281
     1
  0
DICTIONARY
  5
F4A75
102
{ACAD_REACTORS
330
C
102
}
330
C
100
AcDbDictionary
281
     1
  3
ASEBlockHierarchyIndexRecord
350
F4A77
1001
DCO15
1040
1654516794.149
  0
DICTIONARY
  5
F82C0
102
{ACAD_REACTORS
330
F82BD
102
}
330
F82BD
100
AcDbDictionary
281
     1
  0
DICTIONARY
  5
F82BE
102
{ACAD_REACTORS
330
F82BD
102
}
330
F82BD
100
AcDbDictionary
281
     1
  3
2014++
350
F82D2
  3
2014+++
350
F82BF
  0
XRECORD
  5
FB7F7
102
{ACAD_REACTORS
330
FB7F6
102
}
330
FB7F6
100
AcDbXrecord
280
     1
290
     1
  0
XRECORD
  5
FB7F9
102
{ACAD_REACTORS
330
FB7F8
102
}
330
FB7F8
100
AcDbXrecord
280
     1
290
     1
  0
XRECORD
  5
FBCA0
102
{ACAD_REACTORS
330
FBC9F
102
}
330
FBC9F
100
AcDbXrecord
280
     1
 40
4182.0
  1
4-\U+22054.8
  0
XRECORD
  5
FB71B
102
{ACAD_REACTORS
330
FB71A
102
}
330
FB71A
100
AcDbXrecord
280
     1
 90
        1
340
FB6C1
  0
ACDBDETAILVIEWSTYLE
  5
FB6D7
102
{ACAD_XDICTIONARY
360
FBC9D
102
}
102
{ACAD_REACTORS
330
FB6D6
330
FBA07
102
}
330
FB6D6
100
AcDbModelDocViewStyle
 70
     0
  3
Metric50
290
     0
100
AcDbDetailViewStyle
 70
     0
 71
     0
 90
        3
 71
     1
340
11
 62
   256
 40
5.0
340
0
 62
   256
 40
5.0
300

 40
0.0
280
     1
 71
     2
340
16
 90
       25
 62
   256
 71
     3
340
11
 62
   256
 40
5.0
 90
        0
 40
15.0
 90
        1
300
%<\AcVar ViewDetailId>% (%<\AcVar ViewScale \f "%sn">%)
 71
     4
340
16
 90
       25
 62
   256
340
16
 90
       25
 62
   256
280
     0
  0
LAYOUT
  5
22
102
{ACAD_REACTORS
330
1A
102
}
330
1A
100
AcDbPlotSettings
  1

  2
FUJITSU FAX Print Driver
  4
User261
  6

 40
3.174999952316281
 41
3.174999952316281
 42
3.17498779296875
 43
3.17498779296875
 44
297.0244750976562
 45
419.8775329589842
 46
0.0
 47
0.0
 48
0.0
 49
0.0
140
0.0
141
0.0
142
1.0
143
1.197207273994177
 70
 11952
 72
     1
 73
     1
 74
     0
  7
monochrome.ctb
 75
     0
147
0.8352772504160906
 76
     0
 77
     2
 78
   300
148
-6.027674911478015
149
-7.671586470139232
100
AcDbLayout
  1
Model
 70
     1
 71
     0
 10
0.0
 20
0.0
 11
12.0
 21
9.0
 12
0.0
 22
0.0
 32
0.0
 14
0.0
 24
0.0
 34
0.0
 15
0.0
 25
0.0
 35
0.0
146
0.0
 13
0.0
 23
0.0
 33
0.0
 16
1.0
 26
0.0
 36
0.0
 17
0.0
 27
1.0
 37
0.0
 76
     0
330
1F
331
FB67F
  0
LAYOUT
  5
FB711
102
{ACAD_REACTORS
330
1A
102
}
330
1A
100
AcDbPlotSettings
  1

  2
RICOH imagio MP C5001 RPCS
  4
A4
  6

 40
5.873749732971191
 41
5.873748779296875
 42
5.873733520507812
 43
5.873748779296875
 44
209.9733276367186
 45
296.9259948730469
 46
0.0
 47
0.0
 48
0.0
 49
0.0
140
0.0
141
0.0
142
1.0
143
1.0
 70
   688
 72
     1
 73
     1
 74
     5
  7

 75
    16
147
1.0
 76
     0
 77
     2
 78
   300
148
0.0
149
0.0
100
AcDbLayout
  1
レイアウト1
 70
     1
 71
     1
 10
-5.873748779296875
 20
-5.873749732971191
 11
291.05224609375
 21
204.0995779037475
 12
0.0
 22
0.0
 32
0.0
 14
1.000000000000000E+20
 24
1.000000000000000E+20
 34
1.000000000000000E+20
 15
-1.000000000000000E+20
 25
-1.000000000000000E+20
 35
-1.000000000000000E+20
146
0.0
 13
0.0
 23
0.0
 33
0.0
 16
1.0
 26
0.0
 36
0.0
 17
0.0
 27
1.0
 37
0.0
 76
     0
330
FB710
331
FB719
1001
ACAD_PSEXT
1000
RICOH imagio MP C5001 RPCS
1000
RICOH imagio MP C5001 RPCS
1000
IP_192.168.13.100
1000
RPCS Driver (For Windows)
1070
     0
  0
MATERIAL
  5
FB695
102
{ACAD_XDICTIONARY
360
FB696
102
}
102
{ACAD_REACTORS
330
8711
102
}
330
8711
100
AcDbMaterial
  1
ByBlock
 72
     0
 43
0.0008202099737533
 43
0.0
 43
0.0
 43
0.0
 43
0.0
 43
0.0008202099737533
 43
0.0
 43
0.0
 43
0.0
 43
0.0
 43
1.0
 43
0.0
 43
0.0
 43
0.0
 43
0.0
 43
1.0
 77
     0
 47
0.0008202099737533
 47
0.0
 47
0.0
 47
0.0
 47
0.0
 47
0.0008202099737533
 47
0.0
 47
0.0
 47
0.0
 47
0.0
 47
1.0
 47
0.0
 47
0.0
 47
0.0
 47
0.0
 47
1.0
171
     0
 49
0.0008202099737533
 49
0.0
 49
0.0
 49
0.0
 49
0.0
 49
0.0008202099737533
 49
0.0
 49
0.0
 49
0.0
 49
0.0
 49
1.0
 49
0.0
 49
0.0
 49
0.0
 49
0.0
 49
1.0
175
     0
142
0.0008202099737533
142
0.0
142
0.0
142
0.0
142
0.0
142
0.0008202099737533
142
0.0
142
0.0
142
0.0
142
0.0
142
1.0
142
0.0
142
0.0
142
0.0
142
0.0
142
1.0
179
     0
144
0.0008202099737533
144
0.0
144
0.0
144
0.0
144
0.0
144
0.0008202099737533
144
0.0
144
0.0
144
0.0
144
0.0
144
1.0
144
0.0
144
0.0
144
0.0
144
0.0
144
1.0
147
0.0008202099737533
147
0.0
147
0.0
147
0.0
147
0.0
147
0.0008202099737533
147
0.0
147
0.0
147
0.0
147
0.0
147
1.0
147
0.0
147
0.0
147
0.0
147
0.0
147
1.0
  0
MATERIAL
  5
FB68D
102
{ACAD_XDICTIONARY
360
FB68E
102
}
102
{ACAD_REACTORS
330
8711
102
}
330
8711
100
AcDbMaterial
  1
ByLayer
 72
     0
 43
0.0008202099737533
 43
0.0
 43
0.0
 43
0.0
 43
0.0
 43
0.0008202099737533
 43
0.0
 43
0.0
 43
0.0
 43
0.0
 43
1.0
 43
0.0
 43
0.0
 43
0.0
 43
0.0
 43
1.0
 77
     0
 47
0.0008202099737533
 47
0.0
 47
0.0
 47
0.0
 47
0.0
 47
0.0008202099737533
 47
0.0
 47
0.0
 47
0.0
 47
0.0
 47
1.0
 47
0.0
 47
0.0
 47
0.0
 47
0.0
 47
1.0
171
     0
 49
0.0008202099737533
 49
0.0
 49
0.0
 49
0.0
 49
0.0
 49
0.0008202099737533
 49
0.0
 49
0.0
 49
0.0
 49
0.0
 49
1.0
 49
0.0
 49
0.0
 49
0.0
 49
0.0
 49
1.0
175
     0
142
0.0008202099737533
142
0.0
142
0.0
142
0.0
142
0.0
142
0.0008202099737533
142
0.0
142
0.0
142
0.0
142
0.0
142
1.0
142
0.0
142
0.0
142
0.0
142
0.0
142
1.0
179
     0
144
0.0008202099737533
144
0.0
144
0.0
144
0.0
144
0.0
144
0.0008202099737533
144
0.0
144
0.0
144
0.0
144
0.0
144
1.0
144
0.0
144
0.0
144
0.0
144
0.0
144
1.0
147
0.0008202099737533
147
0.0
147
0.0
147
0.0
147
0.0
147
0.0008202099737533
147
0.0
147
0.0
147
0.0
147
0.0
147
1.0
147
0.0
147
0.0
147
0.0
147
0.0
147
1.0
  0
MATERIAL
  5
FB69D
102
{ACAD_XDICTIONARY
360
FB69E
102
}
102
{ACAD_REACTORS
330
8711
102
}
330
8711
100
AcDbMaterial
  1
Global
 72
     0
 43
0.0008202099737533
 43
0.0
 43
0.0
 43
0.0
 43
0.0
 43
0.0008202099737533
 43
0.0
 43
0.0
 43
0.0
 43
0.0
 43
1.0
 43
0.0
 43
0.0
 43
0.0
 43
0.0
 43
1.0
 77
     0
 47
0.0008202099737533
 47
0.0
 47
0.0
 47
0.0
 47
0.0
 47
0.0008202099737533
 47
0.0
 47
0.0
 47
0.0
 47
0.0
 47
1.0
 47
0.0
 47
0.0
 47
0.0
 47
0.0
 47
1.0
171
     0
 49
0.0008202099737533
 49
0.0
 49
0.0
 49
0.0
 49
0.0
 49
0.0008202099737533
 49
0.0
 49
0.0
 49
0.0
 49
0.0
 49
1.0
 49
0.0
 49
0.0
 49
0.0
 49
0.0
 49
1.0
175
     0
142
0.0008202099737533
142
0.0
142
0.0
142
0.0
142
0.0
142
0.0008202099737533
142
0.0
142
0.0
142
0.0
142
0.0
142
1.0
142
0.0
142
0.0
142
0.0
142
0.0
142
1.0
179
     0
144
0.0008202099737533
144
0.0
144
0.0
144
0.0
144
0.0
144
0.0008202099737533
144
0.0
144
0.0
144
0.0
144
0.0
144
1.0
144
0.0
144
0.0
144
0.0
144
0.0
144
1.0
147
0.0008202099737533
147
0.0
147
0.0
147
0.0
147
0.0
147
0.0008202099737533
147
0.0
147
0.0
147
0.0
147
0.0
147
1.0
147
0.0
147
0.0
147
0.0
147
0.0
147
1.0
  0
MLEADERSTYLE
  5
FB6D3
102
{ACAD_XDICTIONARY
360
FBC99
102
}
102
{ACAD_REACTORS
330
FB6D2
102
}
330
FB6D2
100
AcDbMLeaderStyle
170
     2
171
     1
172
     0
 90
        2
 40
0.0
 41
0.0
173
     1
 91
-1056964608
340
14
 92
       -2
290
     1
 42
2.0
291
     1
 43
0.36
  3
Standard
 44
4.0
300

342
11
174
     1
178
     6
175
     1
176
     0
 93
-1056964608
 45
4.0
292
     0
297
     0
 46
4.0
 94
-1056964608
 47
1.0
 49
1.0
140
1.0
293
     1
141
0.0
294
     1
177
     0
142
1.0
295
     0
296
     0
143
0.125
1001
ACAD_MLEADERVER
1070
     2
  0
MLINESTYLE
  5
18
102
{ACAD_REACTORS
330
17
102
}
330
17
100
AcDbMlineStyle
  2
STANDARD
 70
     0
  3

 62
   256
 51
90.0
 52
90.0
 71
     2
 49
0.5
 62
   256
  6
BYLAYER
 49
-0.5
 62
   256
  6
BYLAYER
  0
ACDBPLACEHOLDER
  5
F
102
{ACAD_REACTORS
330
E
102
}
330
E
  0
SCALE
  5
FB6C1
102
{ACAD_REACTORS
330
FB6C0
102
}
330
FB6C0
100
AcDbScale
 70
     0
300
1:1
140
1.0
141
1.0
290
     1
  0
SCALE
  5
FB6C2
102
{ACAD_REACTORS
330
FB6C0
102
}
330
FB6C0
100
AcDbScale
 70
     0
300
1:2
140
1.0
141
2.0
290
     0
  0
SCALE
  5
FB6C3
102
{ACAD_REACTORS
330
FB6C0
102
}
330
FB6C0
100
AcDbScale
 70
     0
300
1:4
140
1.0
141
4.0
290
     0
  0
SCALE
  5
FB6C4
102
{ACAD_REACTORS
330
FB6C0
102
}
330
FB6C0
100
AcDbScale
 70
     0
300
1:5
140
1.0
141
5.0
290
     0
  0
SCALE
  5
FB6C5
102
{ACAD_REACTORS
330
FB6C0
102
}
330
FB6C0
100
AcDbScale
 70
     0
300
1:8
140
1.0
141
8.0
290
     0
  0
SCALE
  5
FB6C6
102
{ACAD_REACTORS
330
FB6C0
102
}
330
FB6C0
100
AcDbScale
 70
     0
300
1:10
140
1.0
141
10.0
290
     0
  0
SCALE
  5
FB6C7
102
{ACAD_REACTORS
330
FB6C0
102
}
330
FB6C0
100
AcDbScale
 70
     0
300
1:16
140
1.0
141
16.0
290
     0
  0
SCALE
  5
FB6C8
102
{ACAD_REACTORS
330
FB6C0
102
}
330
FB6C0
100
AcDbScale
 70
     0
300
1:20
140
1.0
141
20.0
290
     0
  0
SCALE
  5
FB6C9
102
{ACAD_REACTORS
330
FB6C0
102
}
330
FB6C0
100
AcDbScale
 70
     0
300
1:30
140
1.0
141
30.0
290
     0
  0
SCALE
  5
FB6CA
102
{ACAD_REACTORS
330
FB6C0
102
}
330
FB6C0
100
AcDbScale
 70
     0
300
1:40
140
1.0
141
40.0
290
     0
  0
SCALE
  5
FB6CB
102
{ACAD_REACTORS
330
FB6C0
102
}
330
FB6C0
100
AcDbScale
 70
     0
300
1:50
140
1.0
141
50.0
290
     0
  0
SCALE
  5
FB6CC
102
{ACAD_REACTORS
330
FB6C0
102
}
330
FB6C0
100
AcDbScale
 70
     0
300
1:100
140
1.0
141
100.0
290
     0
  0
SCALE
  5
FB6CD
102
{ACAD_REACTORS
330
FB6C0
102
}
330
FB6C0
100
AcDbScale
 70
     0
300
2:1
140
2.0
141
1.0
290
     0
  0
SCALE
  5
FB6CE
102
{ACAD_REACTORS
330
FB6C0
102
}
330
FB6C0
100
AcDbScale
 70
     0
300
4:1
140
4.0
141
1.0
290
     0
  0
SCALE
  5
FB6CF
102
{ACAD_REACTORS
330
FB6C0
102
}
330
FB6C0
100
AcDbScale
 70
     0
300
8:1
140
8.0
141
1.0
290
     0
  0
SCALE
  5
FB6D0
102
{ACAD_REACTORS
330
FB6C0
102
}
330
FB6C0
100
AcDbScale
 70
     0
300
10:1
140
10.0
141
1.0
290
     0
  0
SCALE
  5
FB6D1
102
{ACAD_REACTORS
330
FB6C0
102
}
330
FB6C0
100
AcDbScale
 70
     0
300
100:1
140
100.0
141
1.0
290
     0
  0
ACDBSECTIONVIEWSTYLE
  5
FB6D5
102
{ACAD_XDICTIONARY
360
FBC9B
102
}
102
{ACAD_REACTORS
330
FB6D4
330
FBA06
102
}
330
FB6D4
100
AcDbModelDocViewStyle
 70
     0
  3
Metric50
290
     0
100
AcDbSectionViewStyle
 70
     0
 71
     0
 90
      102
 71
     1
340
11
 62
   256
 40
5.0
340
0
340
0
 62
   256
 40
5.0
300
I, O, Q, S, X, Z
 40
10.0
 90
        0
 40
2.5
 90
        0
 71
     2
340
16
 90
       25
 62
   256
340
16
 90
       50
 62
   256
 40
5.0
 40
2.5
 40
5.0
 71
     3
340
11
 62
   256
 40
5.0
 90
        0
 40
15.0
 90
        1
300
%<\AcVar ViewSectionStartId>%-%<\AcVar ViewSectionEndId>% (%<\AcVar ViewScale \f "%sn">%)
 71
     4
 62
   256
 62
   257
300
ANSI31
 40
1.0
 90
        0
290
     0
290
     0
 90
        6
 40
0.0
 40
1.570796326794896
 40
0.2617993877991494
 40
1.308996938995747
 40
-0.2617993877991494
 40
1.832595714594044
  0
TABLESTYLE
  5
FB6BF
102
{ACAD_XDICTIONARY
360
FB80C
102
}
102
{ACAD_REACTORS
330
FB6BE
102
}
330
FB6BE
100
AcDbTableStyle
  3
Standard
 70
     0
 71
     0
 40
1.5
 41
1.5
280
     0
281
     0
  7
STANDARD
140
4.5
170
     2
 62
     0
 63
     7
283
     0
274
    -2
284
     1
 64
     0
275
    -2
285
     1
 65
     0
276
    -2
286
     1
 66
     0
277
    -2
287
     1
 67
     0
278
    -2
288
     1
 68
     0
279
    -2
289
     1
 69
     0
  7
STANDARD
140
6.0
170
     5
 62
     0
 63
     7
283
     0
274
    -2
284
     1
 64
     0
275
    -2
285
     1
 65
     0
276
    -2
286
     1
 66
     0
277
    -2
287
     1
 67
     0
278
    -2
288
     1
 68
     0
279
    -2
289
     1
 69
     0
  7
STANDARD
140
4.5
170
     5
 62
     0
 63
     7
283
     0
274
    -2
284
     1
 64
     0
275
    -2
285
     1
 65
     0
276
    -2
286
     1
 66
     0
277
    -2
287
     1
 67
     0
278
    -2
288
     1
 68
     0
279
    -2
289
     1
 69
     0
  0
VISUALSTYLE
  5
FB6AB
102
{ACAD_XDICTIONARY
360
FBC72
102
}
102
{ACAD_REACTORS
330
FB6A5
102
}
330
FB6A5
100
AcDbVisualStyle
  2

 70
     4
 71
     0
 72
     2
 73
     0
 90
        0
 40
-0.6
 41
-30.0
 62
     5
 63
     7
 74
     1
 91
        4
 64
     7
 65
   257
 75
     1
175
     1
 42
1.0
 92
        0
 66
   257
 43
1.0
 76
     1
 77
     6
 78
     2
 67
     7
 79
     5
170
     0
171
     0
290
     0
174
     0
 93
        1
 44
0.0
173
     0
291
     0
 45
0.0
1001
ACAD
1000
AcDbSavedByObjectVersion
1070
     0
  0
VISUALSTYLE
  5
FB6AA
102
{ACAD_XDICTIONARY
360
FBC70
102
}
102
{ACAD_REACTORS
330
FB6A5
102
}
330
FB6A5
100
AcDbVisualStyle
  2

 70
     7
 71
     1
 72
     0
 73
     1
 90
        0
 40
-0.6
 41
-30.0
 62
     5
 63
     7
 74
     0
 91
        4
 64
     7
 65
   257
 75
     1
175
     1
 42
1.0
 92
        8
 66
     7
 43
1.0
 76
     1
 77
     6
 78
     2
 67
     7
 79
     5
170
     0
171
     0
290
     0
174
     0
 93
        1
 44
0.0
173
     0
291
     1
 45
0.0
1001
ACAD
1000
AcDbSavedByObjectVersion
1070
     0
  0
VISUALSTYLE
  5
FB6B1
102
{ACAD_XDICTIONARY
360
FBC7E
102
}
102
{ACAD_REACTORS
330
FB6A5
102
}
330
FB6A5
100
AcDbVisualStyle
  2

 70
    12
 71
     2
 72
     2
 73
     0
 90
        0
 40
-0.6
 41
-30.0
 62
     5
 63
     7
 74
     1
 91
        4
 64
     7
 65
   257
 75
     1
175
     1
 42
1.0
 92
        8
 66
     7
 43
1.0
 76
     1
 77
     6
 78
     2
 67
     7
 79
     5
170
     0
171
     0
290
     0
174
     0
 93
        1
 44
50.0
173
     0
291
     1
 45
0.0
1001
ACAD
1000
AcDbSavedByObjectVersion
1070
     0
  0
VISUALSTYLE
  5
FB6B5
102
{ACAD_XDICTIONARY
360
FBC86
102
}
102
{ACAD_REACTORS
330
FB6A5
102
}
330
FB6A5
100
AcDbVisualStyle
  2

 70
    16
 71
     2
 72
     2
 73
     3
 90
        0
 40
-0.6
 41
-30.0
 62
     5
 63
     8
 74
     1
 91
        4
 64
     7
 65
   257
 75
     1
175
     1
 42
1.0
 92
        8
 66
     8
 43
1.0
 76
     1
 77
     6
 78
     2
 67
     7
 79
     5
170
     0
171
     0
290
     0
174
     0
 93
        1
 44
0.0
173
     0
291
     1
 45
0.0
1001
ACAD
1000
AcDbSavedByObjectVersion
1070
     0
  0
VISUALSTYLE
  5
FB6AE
102
{ACAD_XDICTIONARY
360
FBC78
102
}
102
{ACAD_REACTORS
330
FB6A5
102
}
330
FB6A5
100
AcDbVisualStyle
  2

 70
     9
 71
     3
 72
     2
 73
     0
 90
        0
 40
-0.6
 41
-30.0
 62
     5
 63
     7
 74
     2
 91
        2
 64
     7
 65
   257
 75
     1
175
     1
 42
179.0
 92
        8
 66
     7
 43
1.0
 76
     1
 77
     6
 78
     2
 67
     7
 79
     3
170
     0
171
     0
290
     0
174
     0
 93
        1
 44
0.0
173
     0
291
     0
 45
0.0
1001
ACAD
1000
AcDbSavedByObjectVersion
1070
     0
  0
VISUALSTYLE
  5
FB6B0
102
{ACAD_XDICTIONARY
360
FBC7C
102
}
102
{ACAD_REACTORS
330
FB6A5
102
}
330
FB6A5
100
AcDbVisualStyle
  2

 70
    11
 71
     2
 72
     2
 73
     0
 90
        0
 40
-0.6
 41
-30.0
 62
     5
 63
     7
 74
     1
 91
        4
 64
     7
 65
   257
 75
     1
175
     1
 42
1.0
 92
        8
 66
     7
 43
1.0
 76
     1
 77
     6
 78
     2
 67
     7
 79
     5
170
     0
171
     0
290
     0
174
     0
 93
        1
 44
-50.0
173
     0
291
     1
 45
0.0
1001
ACAD
1000
AcDbSavedByObjectVersion
1070
     0
  0
VISUALSTYLE
  5
FB6BD
102
{ACAD_XDICTIONARY
360
FBC96
102
}
102
{ACAD_REACTORS
330
FB6A5
102
}
330
FB6A5
100
AcDbVisualStyle
  2

 70
    22
 71
     2
 72
     2
 73
     0
 90
        0
 40
-0.6
 41
-30.0
 62
     5
 63
     7
 74
     1
 91
        4
 64
     7
 65
   257
 75
     1
175
     1
 42
1.0
 92
        8
 66
     7
 43
1.0
 76
     1
 77
     6
 78
     2
 67
     7
 79
     5
170
     0
171
     0
290
     0
174
     0
 93
        1
 44
0.0
173
     0
291
     1
 45
0.0
1001
ACAD
1000
AcDbSavedByObjectVersion
1070
     0
  0
VISUALSTYLE
  5
FB6B4
102
{ACAD_XDICTIONARY
360
FBC84
102
}
102
{ACAD_REACTORS
330
FB6A5
102
}
330
FB6A5
100
AcDbVisualStyle
  2

 70
    15
 71
     2
 72
     2
 73
     0
 90
        0
 40
-0.6
 41
-30.0
 62
     5
 63
     7
 74
     1
 91
        4
 64
     7
 65
   257
 75
     1
175
     1
 42
1.0
 92
        8
 66
     7
 43
1.0
 76
     1
 77
     6
 78
     2
 67
     7
 79
     5
170
     0
171
     0
290
     0
174
     0
 93
        1
 44
0.0
173
     0
291
     1
 45
0.0
1001
ACAD
1000
AcDbSavedByObjectVersion
1070
     0
  0
VISUALSTYLE
  5
FB6A6
102
{ACAD_XDICTIONARY
360
FBC68
102
}
102
{ACAD_REACTORS
330
FB6A5
102
}
330
FB6A5
100
AcDbVisualStyle
  2

 70
     0
 71
     2
 72
     1
 73
     1
 90
        2
 40
-0.6
 41
30.0
 62
     5
 63
     7
 74
     0
 91
        0
 64
     7
 65
   257
 75
     1
175
     1
 42
1.0
 92
        8
 66
     7
 43
1.0
 76
     1
 77
     6
 78
     2
 67
     7
 79
     5
170
     0
171
     0
290
     0
174
     0
 93
       13
 44
0.0
173
     0
291
     1
 45
0.0
1001
ACAD
1000
AcDbSavedByObjectVersion
1070
     0
  0
VISUALSTYLE
  5
FB6A7
102
{ACAD_XDICTIONARY
360
FBC6A
102
}
102
{ACAD_REACTORS
330
FB6A5
102
}
330
FB6A5
100
AcDbVisualStyle
  2

 70
     1
 71
     2
 72
     1
 73
     1
 90
        2
 40
-0.6
 41
30.0
 62
     5
 63
     7
 74
     1
 91
        0
 64
     7
 65
   257
 75
     1
175
     1
 42
1.0
 92
        0
 66
   257
 43
1.0
 76
     1
 77
     6
 78
     2
 67
     7
 79
     5
170
     0
171
     0
290
     0
174
     0
 93
       13
 44
0.0
173
     0
291
     1
 45
0.0
1001
ACAD
1000
AcDbSavedByObjectVersion
1070
     0
  0
VISUALSTYLE
  5
FB6A8
102
{ACAD_XDICTIONARY
360
FBC6C
102
}
102
{ACAD_REACTORS
330
FB6A5
102
}
330
FB6A5
100
AcDbVisualStyle
  2

 70
     2
 71
     2
 72
     2
 73
     1
 90
        2
 40
-0.6
 41
30.0
 62
     5
 63
     7
 74
     0
 91
        0
 64
     7
 65
   257
 75
     1
175
     1
 42
1.0
 92
        0
 66
     7
 43
1.0
 76
     1
 77
     6
 78
     2
 67
     7
 79
     5
170
     0
171
     0
290
     0
174
     0
 93
       13
 44
0.0
173
     0
291
     1
 45
0.0
1001
ACAD
1000
AcDbSavedByObjectVersion
1070
     0
  0
VISUALSTYLE
  5
FB6A9
102
{ACAD_XDICTIONARY
360
FBC6E
102
}
102
{ACAD_REACTORS
330
FB6A5
102
}
330
FB6A5
100
AcDbVisualStyle
  2

 70
     3
 71
     2
 72
     2
 73
     1
 90
        2
 40
-0.6
 41
30.0
 62
     5
 63
     7
 74
     1
 91
        0
 64
     7
 65
   257
 75
     1
175
     1
 42
1.0
 92
        0
 66
   257
 43
1.0
 76
     1
 77
     6
 78
     2
 67
     7
 79
     5
170
     0
171
     0
290
     0
174
     0
 93
       13
 44
0.0
173
     0
291
     1
 45
0.0
1001
ACAD
1000
AcDbSavedByObjectVersion
1070
     0
  0
VISUALSTYLE
  5
FB6AD
102
{ACAD_XDICTIONARY
360
FBC76
102
}
102
{ACAD_REACTORS
330
FB6A5
102
}
330
FB6A5
100
AcDbVisualStyle
  2

 70
     6
 71
     1
 72
     2
 73
     2
 90
        0
 40
-0.6
 41
-30.0
 62
     5
 63
     7
 74
     2
 91
        2
 64
     7
 65
   257
 75
     2
175
     1
 42
40.0
 92
        0
 66
   257
 43
1.0
 76
     1
 77
     6
 78
     2
 67
     7
 79
     3
170
     0
171
     0
290
     0
174
     0
 93
        1
 44
0.0
173
     0
291
     0
 45
0.0
1001
ACAD
1000
AcDbSavedByObjectVersion
1070
     0
  0
VISUALSTYLE
  5
FB6BB
102
{ACAD_XDICTIONARY
360
FBC92
102
}
102
{ACAD_REACTORS
330
FB6A5
102
}
330
FB6A5
100
AcDbVisualStyle
  2

 70
    20
 71
     2
 72
     2
 73
     0
 90
        0
 40
-0.6
 41
-30.0
 62
     5
 63
     7
 74
     1
 91
        4
 64
     7
 65
   257
 75
     1
175
     1
 42
1.0
 92
       10
 66
     7
 43
1.0
 76
     1
 77
     6
 78
     2
 67
     7
 79
     5
170
     0
171
     0
290
     0
174
     0
 93
        1
 44
0.0
173
     0
291
     1
 45
0.0
1001
ACAD
1000
AcDbSavedByObjectVersion
1070
     0
  0
VISUALSTYLE
  5
FB6B3
102
{ACAD_XDICTIONARY
360
FBC82
102
}
102
{ACAD_REACTORS
330
FB6A5
102
}
330
FB6A5
100
AcDbVisualStyle
  2

 70
    14
 71
     2
 72
     2
 73
     0
 90
        0
 40
-0.6
 41
-30.0
 62
     5
 63
     7
 74
     1
 91
        4
 64
     7
 65
   257
 75
     7
175
     7
 42
1.0
 92
        8
 66
     7
 43
1.0
 76
     1
 77
     6
 78
     2
 67
     7
 79
     5
170
     0
171
     0
290
     0
174
     0
 93
        1
 44
0.0
173
     0
291
     1
 45
0.0
1001
ACAD
1000
AcDbSavedByObjectVersion
1070
     0
  0
VISUALSTYLE
  5
FB6BC
102
{ACAD_XDICTIONARY
360
FBC94
102
}
102
{ACAD_REACTORS
330
FB6A5
102
}
330
FB6A5
100
AcDbVisualStyle
  2

 70
    21
 71
     2
 72
     2
 73
     0
 90
        0
 40
-0.6
 41
-30.0
 62
     5
 63
     7
 74
     1
 91
        4
 64
     7
 65
   257
 75
     1
175
     1
 42
1.0
 92
        9
 66
     7
 43
1.0
 76
     1
 77
     6
 78
     2
 67
     7
 79
     5
170
     0
171
     0
290
     0
174
     0
 93
        1
 44
0.0
173
     0
291
     1
 45
0.0
1001
ACAD
1000
AcDbSavedByObjectVersion
1070
     0
  0
VISUALSTYLE
  5
FB6AF
102
{ACAD_XDICTIONARY
360
FBC7A
102
}
102
{ACAD_REACTORS
330
FB6A5
102
}
330
FB6A5
100
AcDbVisualStyle
  2

 70
     8
 71
     2
 72
     3
 73
     0
 90
        2
 40
-0.6
 41
30.0
 62
     5
 63
     7
 74
     0
 91
        0
 64
     7
 65
   257
 75
     1
175
     1
 42
1.0
 92
        8
 66
   257
 43
1.0
 76
     1
 77
     6
 78
     2
 67
     7
 79
     3
170
     0
171
     0
290
     0
174
     0
 93
       13
 44
0.0
173
     0
291
     0
 45
0.0
1001
ACAD
1000
AcDbSavedByObjectVersion
1070
     0
  0
VISUALSTYLE
  5
FB6BA
102
{ACAD_XDICTIONARY
360
FBC90
102
}
102
{ACAD_REACTORS
330
FB6A5
102
}
330
FB6A5
100
AcDbVisualStyle
  2

 70
    27
 71
     2
 72
     2
 73
     1
 90
        2
 40
-0.6
 41
30.0
 62
     5
 63
     7
 74
     0
 91
        4
 64
     7
 65
   257
 75
     1
175
     1
 42
1.0
 92
        8
 66
   257
 43
1.0
 76
     1
 77
     6
 78
     2
 67
     8
 79
     3
170
     0
171
     0
290
     0
174
     0
 93
        5
 44
0.0
173
     0
291
     0
 45
0.0
1001
ACAD
1000
AcDbSavedByObjectVersion
1070
     0
  0
VISUALSTYLE
  5
FB6B9
102
{ACAD_XDICTIONARY
360
FBC8E
102
}
102
{ACAD_REACTORS
330
FB6A5
102
}
330
FB6A5
100
AcDbVisualStyle
  2

 70
    26
 71
     2
 72
     2
 73
     1
 90
        2
 40
-0.6
 41
30.0
 62
     5
 63
     7
 74
     1
 91
       10
 64
     7
 65
   257
 75
     2
175
     1
 42
1.0
 92
        8
 66
   257
 43
1.0
 76
     1
 77
     6
 78
     2
 67
     7
 79
     3
170
     0
171
     0
290
     0
174
     0
 93
        5
 44
0.0
173
     0
291
     0
 45
0.0
1001
ACAD
1000
AcDbSavedByObjectVersion
1070
     0
  0
VISUALSTYLE
  5
FB6B6
102
{ACAD_XDICTIONARY
360
FBC88
102
}
102
{ACAD_REACTORS
330
FB6A5
102
}
330
FB6A5
100
AcDbVisualStyle
  2

 70
    23
 71
     2
 72
     2
 73
     3
 90
        0
 40
-0.6
 41
-30.0
 62
     5
 63
     7
 74
     2
 91
        2
 64
     7
 65
     7
 75
     1
175
     1
 42
40.0
 92
        8
 66
     7
 43
1.0
 76
     1
 77
     6
 78
     2
 67
     7
 79
     3
170
     0
171
     0
290
     0
174
     0
 93
        1
 44
0.0
173
     0
291
     0
 45
0.0
1001
ACAD
1000
AcDbSavedByObjectVersion
1070
     0
  0
VISUALSTYLE
  5
FB6B7
102
{ACAD_XDICTIONARY
360
FBC8A
102
}
102
{ACAD_REACTORS
330
FB6A5
102
}
330
FB6A5
100
AcDbVisualStyle
  2

 70
    24
 71
     1
 72
     2
 73
     2
 90
        0
 40
-0.6
 41
-30.0
 62
     5
 63
     7
 74
     2
 91
        2
 64
     7
 65
     7
 75
     1
175
     1
 42
40.0
 92
       11
 66
     7
 43
1.0
 76
     1
 77
     6
 78
     2
 67
     7
 79
     6
170
     0
171
     0
290
     0
174
     0
 93
        1
 44
0.0
173
     0
291
     0
 45
0.0
1001
ACAD
1000
AcDbSavedByObjectVersion
1070
     0
  0
VISUALSTYLE
  5
FB6B2
102
{ACAD_XDICTIONARY
360
FBC80
102
}
102
{ACAD_REACTORS
330
FB6A5
102
}
330
FB6A5
100
AcDbVisualStyle
  2

 70
    13
 71
     2
 72
     2
 73
     0
 90
        0
 40
-0.6
 41
-30.0
 62
     5
 63
     7
 74
     1
 91
        4
 64
     7
 65
   257
 75
     1
175
     1
 42
1.0
 92
       12
 66
     7
 43
1.0
 76
     1
 77
     6
 78
     2
 67
     7
 79
     5
170
     0
171
     0
290
     0
174
     0
 93
        1
 44
0.0
173
     0
291
     1
 45
0.0
1001
ACAD
1000
AcDbSavedByObjectVersion
1070
     0
  0
VISUALSTYLE
  5
FB6AC
102
{ACAD_XDICTIONARY
360
FBC74
102
}
102
{ACAD_REACTORS
330
FB6A5
102
}
330
FB6A5
100
AcDbVisualStyle
  2

 70
     5
 71
     0
 72
     2
 73
     0
 90
        0
 40
-0.6
 41
-30.0
 62
     5
 63
     7
 74
     1
 91
        4
 64
     7
 65
   257
 75
     1
175
     1
 42
1.0
 92
        0
 66
   257
 43
1.0
 76
     1
 77
     6
 78
     2
 67
     7
 79
     3
170
     0
171
     0
290
     0
174
     0
 93
        1
 44
0.0
173
     0
291
     0
 45
0.0
1001
ACAD
1000
AcDbSavedByObjectVersion
1070
     0
  0
VISUALSTYLE
  5
FB6B8
102
{ACAD_XDICTIONARY
360
FBC8C
102
}
102
{ACAD_REACTORS
330
FB6A5
102
}
330
FB6A5
100
AcDbVisualStyle
  2

 70
    25
 71
     2
 72
     2
 73
     1
 90
        1
 40
0.5
 41
-30.0
 62
     5
 63
     7
 74
     1
 91
        0
 64
     7
 65
   257
 75
     1
175
     1
 42
1.0
 92
        8
 66
     7
 43
1.0
 76
     1
 77
     6
 78
     2
 67
     7
 79
     3
170
     0
171
     0
290
     0
174
     0
 93
       13
 44
0.0
173
     0
291
     0
 45
0.0
1001
ACAD
1000
AcDbSavedByObjectVersion
1070
     0
  0
DICTIONARYVAR
  5
FB80A
102
{ACAD_REACTORS
330
6B9
102
}
330
6B9
100
DictionaryVariables
280
     0
  1
1:1
  0
DICTIONARYVAR
  5
FB807
102
{ACAD_REACTORS
330
6B9
102
}
330
6B9
100
DictionaryVariables
280
     0
  1
STANDARD
  0
DICTIONARYVAR
  5
FB806
102
{ACAD_REACTORS
330
6B9
102
}
330
6B9
100
DictionaryVariables
280
     0
  1
STANDARD
  0
DICTIONARYVAR
  5
FB808
102
{ACAD_REACTORS
330
6B9
102
}
330
6B9
100
DictionaryVariables
280
     0
  1
Metric50
  0
DICTIONARYVAR
  5
FB809
102
{ACAD_REACTORS
330
6B9
102
}
330
6B9
100
DictionaryVariables
280
     0
  1
Metric50
  0
DICTIONARYVAR
  5
F4248
102
{ACAD_REACTORS
330
6B9
102
}
330
6B9
100
DictionaryVariables
280
     0
  1
1
  0
DICTIONARYVAR
  5
F4247
102
{ACAD_REACTORS
330
6B9
102
}
330
6B9
100
DictionaryVariables
280
     0
  1
0
  0
DICTIONARYVAR
  5
F4249
102
{ACAD_REACTORS
330
6B9
102
}
330
6B9
100
DictionaryVariables
280
     0
  1

  0
DICTIONARYVAR
  5
6BA
102
{ACAD_REACTORS
330
6B9
102
}
330
6B9
100
DictionaryVariables
280
     0
  1
96
  0
DICTIONARYVAR
  5
FBC65
102
{ACAD_REACTORS
330
6B9
102
}
330
6B9
100
DictionaryVariables
280
     0
  1
2
  0
DICTIONARY
  5
16D3E
102
{ACAD_REACTORS
330
16D31
102
}
330
16D31
100
AcDbDictionary
281
     1
  0
XRECORD
  5
16DB5
102
{ACAD_REACTORS
330
16D31
102
}
330
16D31
100
AcDbXrecord
280
     1
 90
-1023410169
  0
XRECORD
  5
F4A77
102
{ACAD_REACTORS
330
F4A75
102
}
330
F4A75
100
AcDbXrecord
280
     1
330
0
330
0
330
0
330
0
330
0
330
0
330
0
330
0
330
0
  0
XRECORD
  5
F82D2
102
{ACAD_REACTORS
330
F82BE
102
}
330
F82BE
100
AcDbXrecord
280
     1
 91
      484
330
4C
 90
        8
 62
     2
370
    40
331
16
  1
色_2
330
30
 90
        8
 62
    30
370
     9
331
F3ACE
  1
色_30
330
3AE4
 90
        8
 62
   123
370
     9
331
3AE3
  1
色_123
330
F3AD3
 90
        8
 62
   233
370
     9
331
16CF6
  1
色_233
330
33
 90
        8
 62
     8
370
     9
331
16
  1
色_8
330
86CB
 90
        8
 62
     7
370
    20
331
16
  1
色_7
330
86C9
 90
        8
 62
     4
370
    15
331
16
  1
色_4
330
86C8
 90
        8
 62
   173
370
     9
331
16
  1
色_173
420
-1034792193
330
86CC
 90
        8
 62
     1
370
     5
331
16
  1
色_1
330
548
 90
        0
 62
     6
370
    -3
331
16
  1
色_6
330
86FE
 90
        8
 62
   241
370
     5
331
58DA
  1
色_241
330
54
 90
        0
 62
     7
370
    -3
331
16
  1
色_7
330
F61AE
 90
        0
 62
     1
370
    25
331
16
  1
色_1
330
10
 90
        8
 62
     7
370
    20
331
16
  1
色_7
  0
XRECORD
  5
F82BF
102
{ACAD_REACTORS
330
F82BE
102
}
330
F82BE
100
AcDbXrecord
280
     1
 91
      484
330
4C
 90
        8
 62
     2
370
    40
331
16
  1
色_2
330
30
 90
        8
 62
    30
370
     9
331
F3ACE
  1
色_30
330
3AE4
 90
        8
 62
   123
370
     9
331
3AE3
  1
色_123
330
F3AD3
 90
        8
 62
   233
370
     9
331
16CF6
  1
色_233
330
33
 90
        8
 62
     8
370
     9
331
16
  1
色_8
330
86C8
 90
        8
 62
   173
370
     5
331
16
  1
色_173
420
-1034792193
330
548
 90
        0
 62
     6
370
    -3
331
16
  1
色_6
330
86FE
 90
        8
 62
   241
370
     5
331
58DA
  1
色_241
330
86CC
 90
        8
 62
     1
370
     9
331
16
  1
色_1
330
86CB
 90
        8
 62
     5
370
    20
331
16
  1
色_5
330
86C9
 90
        8
 62
     4
370
    15
331
16
  1
色_4
330
54
 90
        0
 62
     7
370
    -3
331
16
  1
色_7
330
F61AE
 90
        0
 62
     1
370
    25
331
16
  1
色_1
330
10
 90
        8
 62
     7
370
    20
331
16
  1
色_7
  0
DICTIONARY
  5
FBC9D
330
FB6D7
100
AcDbDictionary
280
     1
281
     1
  3
ACAD_XREC_ROUNDTRIP
360
FBC9E
  0
DICTIONARY
  5
FB696
330
FB695
100
AcDbDictionary
280
     1
281
     1
  3
ACAD_XREC_ROUNDTRIP
360
FB821
  3
BUMPTILE
360
FB698
  3
DIFFUSETILE
360
FB697
  3
OPACITYTILE
360
FB69B
  3
REFLECTIONTILE
360
FB69A
  3
REFRACTIONTILE
360
FB69C
  3
SPECULARTILE
360
FB699
  0
DICTIONARY
  5
FB68E
330
FB68D
100
AcDbDictionary
280
     1
281
     1
  3
ACAD_XREC_ROUNDTRIP
360
FB820
  3
BUMPTILE
360
FB690
  3
DIFFUSETILE
360
FB68F
  3
OPACITYTILE
360
FB693
  3
REFLECTIONTILE
360
FB692
  3
REFRACTIONTILE
360
FB694
  3
SPECULARTILE
360
FB691
  0
DICTIONARY
  5
FB69E
330
FB69D
100
AcDbDictionary
280
     1
281
     1
  3
ACAD_XREC_ROUNDTRIP
360
FB822
  3
BUMPTILE
360
FB6A0
  3
DIFFUSETILE
360
FB69F
  3
OPACITYTILE
360
FB6A3
  3
REFLECTIONTILE
360
FB6A2
  3
REFRACTIONTILE
360
FB6A4
  3
SPECULARTILE
360
FB6A1
  0
DICTIONARY
  5
FBC99
330
FB6D3
100
AcDbDictionary
280
     1
281
     1
  3
ACAD_XREC_ROUNDTRIP
360
FBC9A
  0
DICTIONARY
  5
FBC9B
330
FB6D5
100
AcDbDictionary
280
     1
281
     1
  3
ACAD_XREC_ROUNDTRIP
360
FBC9C
  0
DICTIONARY
  5
FB80C
330
FB6BF
100
AcDbDictionary
280
     1
281
     1
  3
ACAD_ROUNDTRIP_2008_TABLESTYLE_CELLSTYLEMAP
360
FBC66
  3
ACAD_XREC_ROUNDTRIP
360
FBC98
  0
DICTIONARY
  5
FBC72
330
FB6AB
100
AcDbDictionary
280
     1
281
     1
  3
ACAD_XREC_ROUNDTRIP
360
FBC73
  0
DICTIONARY
  5
FBC70
330
FB6AA
100
AcDbDictionary
280
     1
281
     1
  3
ACAD_XREC_ROUNDTRIP
360
FBC71
  0
DICTIONARY
  5
FBC7E
330
FB6B1
100
AcDbDictionary
280
     1
281
     1
  3
ACAD_XREC_ROUNDTRIP
360
FBC7F
  0
DICTIONARY
  5
FBC86
330
FB6B5
100
AcDbDictionary
280
     1
281
     1
  3
ACAD_XREC_ROUNDTRIP
360
FBC87
  0
DICTIONARY
  5
FBC78
330
FB6AE
100
AcDbDictionary
280
     1
281
     1
  3
ACAD_XREC_ROUNDTRIP
360
FBC79
  0
DICTIONARY
  5
FBC7C
330
FB6B0
100
AcDbDictionary
280
     1
281
     1
  3
ACAD_XREC_ROUNDTRIP
360
FBC7D
  0
DICTIONARY
  5
FBC96
330
FB6BD
100
AcDbDictionary
280
     1
281
     1
  3
ACAD_XREC_ROUNDTRIP
360
FBC97
  0
DICTIONARY
  5
FBC84
330
FB6B4
100
AcDbDictionary
280
     1
281
     1
  3
ACAD_XREC_ROUNDTRIP
360
FBC85
  0
DICTIONARY
  5
FBC68
330
FB6A6
100
AcDbDictionary
280
     1
281
     1
  3
ACAD_XREC_ROUNDTRIP
360
FBC69
  0
DICTIONARY
  5
FBC6A
330
FB6A7
100
AcDbDictionary
280
     1
281
     1
  3
ACAD_XREC_ROUNDTRIP
360
FBC6B
  0
DICTIONARY
  5
FBC6C
330
FB6A8
100
AcDbDictionary
280
     1
281
     1
  3
ACAD_XREC_ROUNDTRIP
360
FBC6D
  0
DICTIONARY
  5
FBC6E
330
FB6A9
100
AcDbDictionary
280
     1
281
     1
  3
ACAD_XREC_ROUNDTRIP
360
FBC6F
  0
DICTIONARY
  5
FBC76
330
FB6AD
100
AcDbDictionary
280
     1
281
     1
  3
ACAD_XREC_ROUNDTRIP
360
FBC77
  0
DICTIONARY
  5
FBC92
330
FB6BB
100
AcDbDictionary
280
     1
281
     1
  3
ACAD_XREC_ROUNDTRIP
360
FBC93
  0
DICTIONARY
  5
FBC82
330
FB6B3
100
AcDbDictionary
280
     1
281
     1
  3
ACAD_XREC_ROUNDTRIP
360
FBC83
  0
DICTIONARY
  5
FBC94
330
FB6BC
100
AcDbDictionary
280
     1
281
     1
  3
ACAD_XREC_ROUNDTRIP
360
FBC95
  0
DICTIONARY
  5
FBC7A
330
FB6AF
100
AcDbDictionary
280
     1
281
     1
  3
ACAD_XREC_ROUNDTRIP
360
FBC7B
  0
DICTIONARY
  5
FBC90
330
FB6BA
100
AcDbDictionary
280
     1
281
     1
  3
ACAD_XREC_ROUNDTRIP
360
FBC91
  0
DICTIONARY
  5
FBC8E
330
FB6B9
100
AcDbDictionary
280
     1
281
     1
  3
ACAD_XREC_ROUNDTRIP
360
FBC8F
  0
DICTIONARY
  5
FBC88
330
FB6B6
100
AcDbDictionary
280
     1
281
     1
  3
ACAD_XREC_ROUNDTRIP
360
FBC89
  0
DICTIONARY
  5
FBC8A
330
FB6B7
100
AcDbDictionary
280
     1
281
     1
  3
ACAD_XREC_ROUNDTRIP
360
FBC8B
  0
DICTIONARY
  5
FBC80
330
FB6B2
100
AcDbDictionary
280
     1
281
     1
  3
ACAD_XREC_ROUNDTRIP
360
FBC81
  0
DICTIONARY
  5
FBC74
330
FB6AC
100
AcDbDictionary
280
     1
281
     1
  3
ACAD_XREC_ROUNDTRIP
360
FBC75
  0
DICTIONARY
  5
FBC8C
330
FB6B8
100
AcDbDictionary
280
     1
281
     1
  3
ACAD_XREC_ROUNDTRIP
360
FBC8D
  0
XRECORD
  5
FBC9E
102
{ACAD_REACTORS
330
FBC9D
102
}
330
FBC9D
100
AcDbXrecord
280
     1
102
DISPLAYNAME
  1
Metric50
102
FLAGS
 90
        0
  0
XRECORD
  5
FB821
102
{ACAD_REACTORS
330
FB696
102
}
330
FB696
100
AcDbXrecord
280
     1
102
MATERIAL
148
0.0
149
0.0
149
0.0
 93
        0
 94
      127
282
     0
 72
     0
 77
     0
171
     0
175
     0
179
     0
273
     0
  0
XRECORD
  5
FB698
102
{ACAD_REACTORS
330
FB696
102
}
330
FB696
100
AcDbXrecord
280
     1
270
     1
271
     1
  0
XRECORD
  5
FB697
102
{ACAD_REACTORS
330
FB696
102
}
330
FB696
100
AcDbXrecord
280
     1
270
     1
271
     1
  0
XRECORD
  5
FB69B
102
{ACAD_REACTORS
330
FB696
102
}
330
FB696
100
AcDbXrecord
280
     1
270
     1
271
     1
  0
XRECORD
  5
FB69A
102
{ACAD_REACTORS
330
FB696
102
}
330
FB696
100
AcDbXrecord
280
     1
270
     1
271
     1
  0
XRECORD
  5
FB69C
102
{ACAD_REACTORS
330
FB696
102
}
330
FB696
100
AcDbXrecord
280
     1
270
     1
271
     1
  0
XRECORD
  5
FB699
102
{ACAD_REACTORS
330
FB696
102
}
330
FB696
100
AcDbXrecord
280
     1
270
     1
271
     1
  0
XRECORD
  5
FB820
102
{ACAD_REACTORS
330
FB68E
102
}
330
FB68E
100
AcDbXrecord
280
     1
102
MATERIAL
148
0.0
149
0.0
149
0.0
 93
        0
 94
      127
282
     0
 72
     0
 77
     0
171
     0
175
     0
179
     0
273
     0
  0
XRECORD
  5
FB690
102
{ACAD_REACTORS
330
FB68E
102
}
330
FB68E
100
AcDbXrecord
280
     1
270
     1
271
     1
  0
XRECORD
  5
FB68F
102
{ACAD_REACTORS
330
FB68E
102
}
330
FB68E
100
AcDbXrecord
280
     1
270
     1
271
     1
  0
XRECORD
  5
FB693
102
{ACAD_REACTORS
330
FB68E
102
}
330
FB68E
100
AcDbXrecord
280
     1
270
     1
271
     1
  0
XRECORD
  5
FB692
102
{ACAD_REACTORS
330
FB68E
102
}
330
FB68E
100
AcDbXrecord
280
     1
270
     1
271
     1
  0
XRECORD
  5
FB694
102
{ACAD_REACTORS
330
FB68E
102
}
330
FB68E
100
AcDbXrecord
280
     1
270
     1
271
     1
  0
XRECORD
  5
FB691
102
{ACAD_REACTORS
330
FB68E
102
}
330
FB68E
100
AcDbXrecord
280
     1
270
     1
271
     1
  0
XRECORD
  5
FB822
102
{ACAD_REACTORS
330
FB69E
102
}
330
FB69E
100
AcDbXrecord
280
     1
102
MATERIAL
148
0.0
149
0.0
149
0.0
 93
        0
 94
      127
282
     0
 72
     0
 77
     0
171
     0
175
     0
179
     0
273
     0
  0
XRECORD
  5
FB6A0
102
{ACAD_REACTORS
330
FB69E
102
}
330
FB69E
100
AcDbXrecord
280
     1
270
     1
271
     1
  0
XRECORD
  5
FB69F
102
{ACAD_REACTORS
330
FB69E
102
}
330
FB69E
100
AcDbXrecord
280
     1
270
     1
271
     1
  0
XRECORD
  5
FB6A3
102
{ACAD_REACTORS
330
FB69E
102
}
330
FB69E
100
AcDbXrecord
280
     1
270
     1
271
     1
  0
XRECORD
  5
FB6A2
102
{ACAD_REACTORS
330
FB69E
102
}
330
FB69E
100
AcDbXrecord
280
     1
270
     1
271
     1
  0
XRECORD
  5
FB6A4
102
{ACAD_REACTORS
330
FB69E
102
}
330
FB69E
100
AcDbXrecord
280
     1
270
     1
271
     1
  0
XRECORD
  5
FB6A1
102
{ACAD_REACTORS
330
FB69E
102
}
330
FB69E
100
AcDbXrecord
280
     1
270
     1
271
     1
  0
XRECORD
  5
FBC9A
102
{ACAD_REACTORS
330
FBC99
102
}
330
FBC99
100
AcDbXrecord
280
     1
102
ACAD_ROUNDTRIP_2012_MLEADER_STYLE
298
     1
  0
XRECORD
  5
FBC9C
102
{ACAD_REACTORS
330
FBC9B
102
}
330
FBC9B
100
AcDbXrecord
280
     1
102
DISPLAYNAME
  1
Metric50
102
FLAGS
 90
        0
  0
CELLSTYLEMAP
  5
FBC66
102
{ACAD_REACTORS
330
FB80C
102
}
330
FB80C
100
AcDbCellStyleMap
 90
        3
300
CELLSTYLE
  1
TABLEFORMAT_BEGIN
 90
        5
170
     1
 91
        0
 92
    32768
 62
   257
 93
        1
300
CONTENTFORMAT
  1
CONTENTFORMAT_BEGIN
 90
        0
 91
        0
 92
      512
 93
        0
300

 40
0.0
140
1.0
 94
        5
 62
     0
340
11
144
6.0
309
CONTENTFORMAT_END
171
     1
301
MARGIN
  1
CELLMARGIN_BEGIN
 40
1.5
 40
1.5
 40
1.5
 40
1.5
 40
0.18
 40
0.18
309
CELLMARGIN_END
 94
        6
 95
        1
302
GRIDFORMAT
  1
GRIDFORMAT_BEGIN
 90
        0
 91
        1
 62
     0
 92
       -2
340
0
 93
        0
 40
1.125
309
GRIDFORMAT_END
 95
        2
302
GRIDFORMAT
  1
GRIDFORMAT_BEGIN
 90
        0
 91
        1
 62
     0
 92
       -2
340
0
 93
        0
 40
1.125
309
GRIDFORMAT_END
 95
        4
302
GRIDFORMAT
  1
GRIDFORMAT_BEGIN
 90
        0
 91
        1
 62
     0
 92
       -2
340
0
 93
        0
 40
1.125
309
GRIDFORMAT_END
 95
        8
302
GRIDFORMAT
  1
GRIDFORMAT_BEGIN
 90
        0
 91
        1
 62
     0
 92
       -2
340
0
 93
        0
 40
1.125
309
GRIDFORMAT_END
 95
       16
302
GRIDFORMAT
  1
GRIDFORMAT_BEGIN
 90
        0
 91
        1
 62
     0
 92
       -2
340
0
 93
        0
 40
1.125
309
GRIDFORMAT_END
 95
       32
302
GRIDFORMAT
  1
GRIDFORMAT_BEGIN
 90
        0
 91
        1
 62
     0
 92
       -2
340
0
 93
        0
 40
1.125
309
GRIDFORMAT_END
309
TABLEFORMAT_END
  1
CELLSTYLE_BEGIN
 90
        1
 91
        1
300
_TITLE
309
CELLSTYLE_END
300
CELLSTYLE
  1
TABLEFORMAT_BEGIN
 90
        5
170
     1
 91
        0
 92
        0
 62
   257
 93
        1
300
CONTENTFORMAT
  1
CONTENTFORMAT_BEGIN
 90
        0
 91
        0
 92
      512
 93
        0
300

 40
0.0
140
1.0
 94
        5
 62
     0
340
11
144
4.5
309
CONTENTFORMAT_END
171
     1
301
MARGIN
  1
CELLMARGIN_BEGIN
 40
1.5
 40
1.5
 40
1.5
 40
1.5
 40
0.18
 40
0.18
309
CELLMARGIN_END
 94
        6
 95
        1
302
GRIDFORMAT
  1
GRIDFORMAT_BEGIN
 90
        0
 91
        1
 62
     0
 92
       -2
340
0
 93
        0
 40
1.125
309
GRIDFORMAT_END
 95
        2
302
GRIDFORMAT
  1
GRIDFORMAT_BEGIN
 90
        0
 91
        1
 62
     0
 92
       -2
340
0
 93
        0
 40
1.125
309
GRIDFORMAT_END
 95
        4
302
GRIDFORMAT
  1
GRIDFORMAT_BEGIN
 90
        0
 91
        1
 62
     0
 92
       -2
340
0
 93
        0
 40
1.125
309
GRIDFORMAT_END
 95
        8
302
GRIDFORMAT
  1
GRIDFORMAT_BEGIN
 90
        0
 91
        1
 62
     0
 92
       -2
340
0
 93
        0
 40
1.125
309
GRIDFORMAT_END
 95
       16
302
GRIDFORMAT
  1
GRIDFORMAT_BEGIN
 90
        0
 91
        1
 62
     0
 92
       -2
340
0
 93
        0
 40
1.125
309
GRIDFORMAT_END
 95
       32
302
GRIDFORMAT
  1
GRIDFORMAT_BEGIN
 90
        0
 91
        1
 62
     0
 92
       -2
340
0
 93
        0
 40
1.125
309
GRIDFORMAT_END
309
TABLEFORMAT_END
  1
CELLSTYLE_BEGIN
 90
        2
 91
        1
300
_HEADER
309
CELLSTYLE_END
300
CELLSTYLE
  1
TABLEFORMAT_BEGIN
 90
        5
170
     1
 91
        0
 92
        0
 62
   257
 93
        1
300
CONTENTFORMAT
  1
CONTENTFORMAT_BEGIN
 90
        0
 91
        0
 92
      512
 93
        0
300

 40
0.0
140
1.0
 94
        2
 62
     0
340
11
144
4.5
309
CONTENTFORMAT_END
171
     1
301
MARGIN
  1
CELLMARGIN_BEGIN
 40
1.5
 40
1.5
 40
1.5
 40
1.5
 40
0.18
 40
0.18
309
CELLMARGIN_END
 94
        6
 95
        1
302
GRIDFORMAT
  1
GRIDFORMAT_BEGIN
 90
        0
 91
        1
 62
     0
 92
       -2
340
0
 93
        0
 40
1.125
309
GRIDFORMAT_END
 95
        2
302
GRIDFORMAT
  1
GRIDFORMAT_BEGIN
 90
        0
 91
        1
 62
     0
 92
       -2
340
0
 93
        0
 40
1.125
309
GRIDFORMAT_END
 95
        4
302
GRIDFORMAT
  1
GRIDFORMAT_BEGIN
 90
        0
 91
        1
 62
     0
 92
       -2
340
0
 93
        0
 40
1.125
309
GRIDFORMAT_END
 95
        8
302
GRIDFORMAT
  1
GRIDFORMAT_BEGIN
 90
        0
 91
        1
 62
     0
 92
       -2
340
0
 93
        0
 40
1.125
309
GRIDFORMAT_END
 95
       16
302
GRIDFORMAT
  1
GRIDFORMAT_BEGIN
 90
        0
 91
        1
 62
     0
 92
       -2
340
0
 93
        0
 40
1.125
309
GRIDFORMAT_END
 95
       32
302
GRIDFORMAT
  1
GRIDFORMAT_BEGIN
 90
        0
 91
        1
 62
     0
 92
       -2
340
0
 93
        0
 40
1.125
309
GRIDFORMAT_END
309
TABLEFORMAT_END
  1
CELLSTYLE_BEGIN
 90
        3
 91
        2
300
_DATA
309
CELLSTYLE_END
  0
XRECORD
  5
FBC98
102
{ACAD_REACTORS
330
FB80C
102
}
330
FB80C
100
AcDbXrecord
280
     1
102
ACAD_ROUNDTRIP_PRE2007_TABLESTYLE
 90
      512
 91
        0
  1

 92
      512
 93
        0
  2

 94
      512
 95
        0
  3

  0
XRECORD
  5
FBC73
102
{ACAD_REACTORS
330
FBC72
102
}
330
FBC72
100
AcDbXrecord
280
     1
102
RTVSPost2010Prop28
280
     1
102
RTVSPost2010PropOp28
 70
     1
102
RTVSPost2010Prop29
280
     1
102
RTVSPost2010PropOp29
 70
     1
102
RTVSPost2010Prop30
280
     0
102
RTVSPost2010PropOp30
 70
     1
102
RTVSPost2010Prop31
280
     0
102
RTVSPost2010PropOp31
 70
     1
102
RTVSPost2010Prop32
280
     0
102
RTVSPost2010PropOp32
 70
     1
102
RTVSPost2010Prop33
280
     0
102
RTVSPost2010PropOp33
 70
     1
102
RTVSPost2010Prop34
280
     0
102
RTVSPost2010PropOp34
 70
     1
102
RTVSPost2010Prop35
280
     0
102
RTVSPost2010PropOp35
 70
     1
102
RTVSPost2010Prop36
280
     0
102
RTVSPost2010PropOp36
 70
     1
102
RTVSPost2010Prop37
 90
       50
102
RTVSPost2010PropOp37
 70
     1
102
RTVSPost2010Prop38
140
0.0
102
RTVSPost2010PropOp38
 70
     1
102
RTVSPost2010Prop39
140
1.0
102
RTVSPost2010PropOp39
 70
     1
102
RTVSPost2010Prop40
 90
        0
102
RTVSPost2010PropOp40
 70
     1
102
RTVSPost2010Prop41ColorIndex
 90
       18
102
RTVSPost2010Prop41ColorRGB
 90
        0
102
RTVSPost2010PropOp41
 70
     1
102
RTVSPost2010Prop42
 90
       50
102
RTVSPost2010PropOp42
 70
     1
102
RTVSPost2010Prop43
 90
        3
102
RTVSPost2010PropOp43
 70
     1
102
RTVSPost2010Prop44ColorIndex
 90
        5
102
RTVSPost2010Prop44ColorRGB
 90
      255
102
RTVSPost2010PropOp44
 70
     1
102
RTVSPost2010Prop45
280
     0
102
RTVSPost2010PropOp45
 70
     1
102
RTVSPost2010Prop46
 90
       50
102
RTVSPost2010PropOp46
 70
     1
102
RTVSPost2010Prop47
 90
       50
102
RTVSPost2010PropOp47
 70
     1
102
RTVSPost2010Prop48
 90
       50
102
RTVSPost2010PropOp48
 70
     1
102
RTVSPost2010Prop49
280
     0
102
RTVSPost2010PropOp49
 70
     1
102
RTVSPost2010Prop50
 90
       50
102
RTVSPost2010PropOp50
 70
     1
102
RTVSPost2010Prop51ColorIndex
 90
      256
102
RTVSPost2010Prop51ColorRGB
 90
-16777216
102
RTVSPost2010PropOp51
 70
     0
102
RTVSPost2010Prop52
140
1.0
102
RTVSPost2010PropOp52
 70
     0
102
RTVSPost2010Prop53
 90
        2
102
RTVSPost2010PropOp53
 70
     1
102
RTVSPost2010Prop54
  1
strokes_ogs.tif
102
RTVSPost2010PropOp54
 70
     1
102
RTVSPost2010Prop55
280
     0
102
RTVSPost2010PropOp55
 70
     1
102
RTVSPost2010Prop56
140
1.0
102
RTVSPost2010PropOp56
 70
     1
102
RTVSPost2010Prop57
140
1.0
102
RTVSPost2010PropOp57
 70
     1
102
RTVSPropertyOp0
 70
     1
102
RTVSPropertyOp1
 70
     1
102
RTVSPropertyOp2
 70
     1
102
RTVSPropertyOp3
 70
     1
102
RTVSPropertyOp4
 70
     1
102
RTVSPropertyOp5
 70
     1
102
RTVSPropertyOp6
 70
     1
102
RTVSPropertyOp7
 70
     1
102
RTVSPropertyOp8
 70
     1
102
RTVSPropertyOp9
 70
     1
102
RTVSPropertyOp10
 70
     1
102
RTVSPropertyOp11
 70
     1
102
RTVSPropertyOp12
 70
     1
102
RTVSPropertyOp13
 70
     1
102
RTVSPropertyOp14
 70
     1
102
RTVSPropertyOp15
 70
     1
102
RTVSPropertyOp16
 70
     1
102
RTVSPropertyOp17
 70
     1
102
RTVSPropertyOp18
 70
     1
102
RTVSPropertyOp19
 70
     1
102
RTVSPropertyOp20
 70
     1
102
RTVSPropertyOp21
 70
     1
102
RTVSPropertyOp22
 70
     1
102
RTVSPropertyOp23
 70
     1
102
RTVSPropertyOp24
 70
     1
102
RTVSPropertyOp25
 70
     1
102
RTVSPropertyOp26
 70
     1
102
RTVSPropertyOp27
 70
     1
102
RTVSPropertyOp28
 70
     1
102
RTVSPropertyOp29
 70
     1
102
RTVSPropertyOp30
 70
     1
102
RTVSPropertyOp31
 70
     1
102
RTVSPropertyOp32
 70
     1
102
RTVSPropertyOp33
 70
     1
102
RTVSPropertyOp34
 70
     1
102
RTVSPropertyOp35
 70
     1
102
RTVSPropertyOp36
 70
     1
102
RTVSPropertyOp37
 70
     1
102
RTVSPropertyOp38
 70
     1
102
RTVSPropertyOp39
 70
     1
102
RTVSPropertyOp40
 70
     1
102
RTVSPropertyOp41
 70
     1
102
RTVSPropertyOp42
 70
     1
102
RTVSPropertyOp43
 70
     1
102
RTVSPropertyOp44
 70
     1
102
RTVSPropertyOp45
 70
     1
102
RTVSPropertyOp46
 70
     1
102
RTVSPropertyOp47
 70
     1
102
RTVSPropertyOp48
 70
     1
102
RTVSPropertyOp49
 70
     1
102
RTVSPropertyOp50
 70
     1
102
RTVSPropertyOp51
 70
     0
102
RTVSPropertyOp52
 70
     0
102
RTVSPropertyOp53
 70
     1
102
RTVSPropertyOp54
 70
     1
102
RTVSPropertyOp55
 70
     1
102
RTVSPropertyOp56
 70
     1
102
RTVSPropertyOp57
 70
     1
102
RTVSPropertyOp58
 70
     1
102
RTVSPropertyOp59
 70
     1
102
RTVSPropertyOp60
 70
     1
102
RTVSPropertyOp61
 70
     1
102
RTVSPropertyOp62
 70
     1
  0
XRECORD
  5
FBC71
102
{ACAD_REACTORS
330
FBC70
102
}
330
FBC70
100
AcDbXrecord
280
     1
102
RTVSPost2010Prop28
280
     0
102
RTVSPost2010PropOp28
 70
     1
102
RTVSPost2010Prop29
280
     1
102
RTVSPost2010PropOp29
 70
     1
102
RTVSPost2010Prop30
280
     1
102
RTVSPost2010PropOp30
 70
     1
102
RTVSPost2010Prop31
280
     0
102
RTVSPost2010PropOp31
 70
     1
102
RTVSPost2010Prop32
280
     0
102
RTVSPost2010PropOp32
 70
     1
102
RTVSPost2010Prop33
280
     0
102
RTVSPost2010PropOp33
 70
     1
102
RTVSPost2010Prop34
280
     0
102
RTVSPost2010PropOp34
 70
     1
102
RTVSPost2010Prop35
280
     0
102
RTVSPost2010PropOp35
 70
     1
102
RTVSPost2010Prop36
280
     0
102
RTVSPost2010PropOp36
 70
     1
102
RTVSPost2010Prop37
 90
       50
102
RTVSPost2010PropOp37
 70
     1
102
RTVSPost2010Prop38
140
0.0
102
RTVSPost2010PropOp38
 70
     1
102
RTVSPost2010Prop39
140
1.0
102
RTVSPost2010PropOp39
 70
     1
102
RTVSPost2010Prop40
 90
        0
102
RTVSPost2010PropOp40
 70
     1
102
RTVSPost2010Prop41ColorIndex
 90
       18
102
RTVSPost2010Prop41ColorRGB
 90
        0
102
RTVSPost2010PropOp41
 70
     1
102
RTVSPost2010Prop42
 90
       50
102
RTVSPost2010PropOp42
 70
     1
102
RTVSPost2010Prop43
 90
        3
102
RTVSPost2010PropOp43
 70
     1
102
RTVSPost2010Prop44ColorIndex
 90
        5
102
RTVSPost2010Prop44ColorRGB
 90
      255
102
RTVSPost2010PropOp44
 70
     1
102
RTVSPost2010Prop45
280
     0
102
RTVSPost2010PropOp45
 70
     1
102
RTVSPost2010Prop46
 90
       50
102
RTVSPost2010PropOp46
 70
     1
102
RTVSPost2010Prop47
 90
       50
102
RTVSPost2010PropOp47
 70
     1
102
RTVSPost2010Prop48
 90
       50
102
RTVSPost2010PropOp48
 70
     1
102
RTVSPost2010Prop49
280
     0
102
RTVSPost2010PropOp49
 70
     1
102
RTVSPost2010Prop50
 90
       50
102
RTVSPost2010PropOp50
 70
     1
102
RTVSPost2010Prop51ColorIndex
 90
      256
102
RTVSPost2010Prop51ColorRGB
 90
-16777216
102
RTVSPost2010PropOp51
 70
     0
102
RTVSPost2010Prop52
140
1.0
102
RTVSPost2010PropOp52
 70
     0
102
RTVSPost2010Prop53
 90
        2
102
RTVSPost2010PropOp53
 70
     1
102
RTVSPost2010Prop54
  1
strokes_ogs.tif
102
RTVSPost2010PropOp54
 70
     1
102
RTVSPost2010Prop55
280
     0
102
RTVSPost2010PropOp55
 70
     1
102
RTVSPost2010Prop56
140
1.0
102
RTVSPost2010PropOp56
 70
     1
102
RTVSPost2010Prop57
140
1.0
102
RTVSPost2010PropOp57
 70
     1
102
RTVSPropertyOp0
 70
     1
102
RTVSPropertyOp1
 70
     1
102
RTVSPropertyOp2
 70
     1
102
RTVSPropertyOp3
 70
     1
102
RTVSPropertyOp4
 70
     1
102
RTVSPropertyOp5
 70
     1
102
RTVSPropertyOp6
 70
     1
102
RTVSPropertyOp7
 70
     1
102
RTVSPropertyOp8
 70
     1
102
RTVSPropertyOp9
 70
     1
102
RTVSPropertyOp10
 70
     1
102
RTVSPropertyOp11
 70
     1
102
RTVSPropertyOp12
 70
     1
102
RTVSPropertyOp13
 70
     1
102
RTVSPropertyOp14
 70
     1
102
RTVSPropertyOp15
 70
     1
102
RTVSPropertyOp16
 70
     1
102
RTVSPropertyOp17
 70
     1
102
RTVSPropertyOp18
 70
     1
102
RTVSPropertyOp19
 70
     1
102
RTVSPropertyOp20
 70
     1
102
RTVSPropertyOp21
 70
     1
102
RTVSPropertyOp22
 70
     1
102
RTVSPropertyOp23
 70
     1
102
RTVSPropertyOp24
 70
     1
102
RTVSPropertyOp25
 70
     1
102
RTVSPropertyOp26
 70
     1
102
RTVSPropertyOp27
 70
     1
102
RTVSPropertyOp28
 70
     1
102
RTVSPropertyOp29
 70
     1
102
RTVSPropertyOp30
 70
     1
102
RTVSPropertyOp31
 70
     1
102
RTVSPropertyOp32
 70
     1
102
RTVSPropertyOp33
 70
     1
102
RTVSPropertyOp34
 70
     1
102
RTVSPropertyOp35
 70
     1
102
RTVSPropertyOp36
 70
     1
102
RTVSPropertyOp37
 70
     1
102
RTVSPropertyOp38
 70
     1
102
RTVSPropertyOp39
 70
     1
102
RTVSPropertyOp40
 70
     1
102
RTVSPropertyOp41
 70
     1
102
RTVSPropertyOp42
 70
     1
102
RTVSPropertyOp43
 70
     1
102
RTVSPropertyOp44
 70
     1
102
RTVSPropertyOp45
 70
     1
102
RTVSPropertyOp46
 70
     1
102
RTVSPropertyOp47
 70
     1
102
RTVSPropertyOp48
 70
     1
102
RTVSPropertyOp49
 70
     1
102
RTVSPropertyOp50
 70
     1
102
RTVSPropertyOp51
 70
     0
102
RTVSPropertyOp52
 70
     0
102
RTVSPropertyOp53
 70
     1
102
RTVSPropertyOp54
 70
     1
102
RTVSPropertyOp55
 70
     1
102
RTVSPropertyOp56
 70
     1
102
RTVSPropertyOp57
 70
     1
102
RTVSPropertyOp58
 70
     1
102
RTVSPropertyOp59
 70
     1
102
RTVSPropertyOp60
 70
     1
102
RTVSPropertyOp61
 70
     1
102
RTVSPropertyOp62
 70
     1
  0
XRECORD
  5
FBC7F
102
{ACAD_REACTORS
330
FBC7E
102
}
330
FBC7E
100
AcDbXrecord
280
     1
102
RTVSPost2010Prop28
280
     0
102
RTVSPost2010PropOp28
 70
     1
102
RTVSPost2010Prop29
280
     1
102
RTVSPost2010PropOp29
 70
     1
102
RTVSPost2010Prop30
280
     1
102
RTVSPost2010PropOp30
 70
     1
102
RTVSPost2010Prop31
280
     0
102
RTVSPost2010PropOp31
 70
     1
102
RTVSPost2010Prop32
280
     0
102
RTVSPost2010PropOp32
 70
     1
102
RTVSPost2010Prop33
280
     0
102
RTVSPost2010PropOp33
 70
     1
102
RTVSPost2010Prop34
280
     0
102
RTVSPost2010PropOp34
 70
     1
102
RTVSPost2010Prop35
280
     0
102
RTVSPost2010PropOp35
 70
     1
102
RTVSPost2010Prop36
280
     0
102
RTVSPost2010PropOp36
 70
     1
102
RTVSPost2010Prop37
 90
       50
102
RTVSPost2010PropOp37
 70
     1
102
RTVSPost2010Prop38
140
0.0
102
RTVSPost2010PropOp38
 70
     1
102
RTVSPost2010Prop39
140
1.0
102
RTVSPost2010PropOp39
 70
     1
102
RTVSPost2010Prop40
 90
        0
102
RTVSPost2010PropOp40
 70
     1
102
RTVSPost2010Prop41ColorIndex
 90
       18
102
RTVSPost2010Prop41ColorRGB
 90
        0
102
RTVSPost2010PropOp41
 70
     1
102
RTVSPost2010Prop42
 90
       50
102
RTVSPost2010PropOp42
 70
     1
102
RTVSPost2010Prop43
 90
        3
102
RTVSPost2010PropOp43
 70
     1
102
RTVSPost2010Prop44ColorIndex
 90
        5
102
RTVSPost2010Prop44ColorRGB
 90
      255
102
RTVSPost2010PropOp44
 70
     1
102
RTVSPost2010Prop45
280
     0
102
RTVSPost2010PropOp45
 70
     1
102
RTVSPost2010Prop46
 90
       50
102
RTVSPost2010PropOp46
 70
     1
102
RTVSPost2010Prop47
 90
       50
102
RTVSPost2010PropOp47
 70
     1
102
RTVSPost2010Prop48
 90
       50
102
RTVSPost2010PropOp48
 70
     1
102
RTVSPost2010Prop49
280
     0
102
RTVSPost2010PropOp49
 70
     1
102
RTVSPost2010Prop50
 90
       50
102
RTVSPost2010PropOp50
 70
     1
102
RTVSPost2010Prop51ColorIndex
 90
      256
102
RTVSPost2010Prop51ColorRGB
 90
-16777216
102
RTVSPost2010PropOp51
 70
     0
102
RTVSPost2010Prop52
140
1.0
102
RTVSPost2010PropOp52
 70
     0
102
RTVSPost2010Prop53
 90
        2
102
RTVSPost2010PropOp53
 70
     1
102
RTVSPost2010Prop54
  1
strokes_ogs.tif
102
RTVSPost2010PropOp54
 70
     1
102
RTVSPost2010Prop55
280
     0
102
RTVSPost2010PropOp55
 70
     1
102
RTVSPost2010Prop56
140
1.0
102
RTVSPost2010PropOp56
 70
     1
102
RTVSPost2010Prop57
140
1.0
102
RTVSPost2010PropOp57
 70
     1
102
RTVSPropertyOp0
 70
     1
102
RTVSPropertyOp1
 70
     1
102
RTVSPropertyOp2
 70
     1
102
RTVSPropertyOp3
 70
     1
102
RTVSPropertyOp4
 70
     1
102
RTVSPropertyOp5
 70
     1
102
RTVSPropertyOp6
 70
     1
102
RTVSPropertyOp7
 70
     1
102
RTVSPropertyOp8
 70
     1
102
RTVSPropertyOp9
 70
     1
102
RTVSPropertyOp10
 70
     1
102
RTVSPropertyOp11
 70
     1
102
RTVSPropertyOp12
 70
     1
102
RTVSPropertyOp13
 70
     1
102
RTVSPropertyOp14
 70
     1
102
RTVSPropertyOp15
 70
     1
102
RTVSPropertyOp16
 70
     1
102
RTVSPropertyOp17
 70
     1
102
RTVSPropertyOp18
 70
     1
102
RTVSPropertyOp19
 70
     1
102
RTVSPropertyOp20
 70
     1
102
RTVSPropertyOp21
 70
     1
102
RTVSPropertyOp22
 70
     1
102
RTVSPropertyOp23
 70
     1
102
RTVSPropertyOp24
 70
     1
102
RTVSPropertyOp25
 70
     1
102
RTVSPropertyOp26
 70
     1
102
RTVSPropertyOp27
 70
     1
102
RTVSPropertyOp28
 70
     1
102
RTVSPropertyOp29
 70
     1
102
RTVSPropertyOp30
 70
     1
102
RTVSPropertyOp31
 70
     1
102
RTVSPropertyOp32
 70
     1
102
RTVSPropertyOp33
 70
     1
102
RTVSPropertyOp34
 70
     1
102
RTVSPropertyOp35
 70
     1
102
RTVSPropertyOp36
 70
     1
102
RTVSPropertyOp37
 70
     1
102
RTVSPropertyOp38
 70
     1
102
RTVSPropertyOp39
 70
     1
102
RTVSPropertyOp40
 70
     1
102
RTVSPropertyOp41
 70
     1
102
RTVSPropertyOp42
 70
     1
102
RTVSPropertyOp43
 70
     1
102
RTVSPropertyOp44
 70
     1
102
RTVSPropertyOp45
 70
     1
102
RTVSPropertyOp46
 70
     1
102
RTVSPropertyOp47
 70
     1
102
RTVSPropertyOp48
 70
     1
102
RTVSPropertyOp49
 70
     1
102
RTVSPropertyOp50
 70
     1
102
RTVSPropertyOp51
 70
     0
102
RTVSPropertyOp52
 70
     0
102
RTVSPropertyOp53
 70
     1
102
RTVSPropertyOp54
 70
     1
102
RTVSPropertyOp55
 70
     1
102
RTVSPropertyOp56
 70
     1
102
RTVSPropertyOp57
 70
     1
102
RTVSPropertyOp58
 70
     1
102
RTVSPropertyOp59
 70
     1
102
RTVSPropertyOp60
 70
     1
102
RTVSPropertyOp61
 70
     1
102
RTVSPropertyOp62
 70
     1
  0
XRECORD
  5
FBC87
102
{ACAD_REACTORS
330
FBC86
102
}
330
FBC86
100
AcDbXrecord
280
     1
102
RTVSPost2010Prop28
280
     0
102
RTVSPost2010PropOp28
 70
     1
102
RTVSPost2010Prop29
280
     1
102
RTVSPost2010PropOp29
 70
     1
102
RTVSPost2010Prop30
280
     1
102
RTVSPost2010PropOp30
 70
     1
102
RTVSPost2010Prop31
280
     0
102
RTVSPost2010PropOp31
 70
     1
102
RTVSPost2010Prop32
280
     0
102
RTVSPost2010PropOp32
 70
     1
102
RTVSPost2010Prop33
280
     0
102
RTVSPost2010PropOp33
 70
     1
102
RTVSPost2010Prop34
280
     0
102
RTVSPost2010PropOp34
 70
     1
102
RTVSPost2010Prop35
280
     0
102
RTVSPost2010PropOp35
 70
     1
102
RTVSPost2010Prop36
280
     0
102
RTVSPost2010PropOp36
 70
     1
102
RTVSPost2010Prop37
 90
       50
102
RTVSPost2010PropOp37
 70
     1
102
RTVSPost2010Prop38
140
0.0
102
RTVSPost2010PropOp38
 70
     1
102
RTVSPost2010Prop39
140
1.0
102
RTVSPost2010PropOp39
 70
     1
102
RTVSPost2010Prop40
 90
        0
102
RTVSPost2010PropOp40
 70
     1
102
RTVSPost2010Prop41ColorIndex
 90
       18
102
RTVSPost2010Prop41ColorRGB
 90
        0
102
RTVSPost2010PropOp41
 70
     1
102
RTVSPost2010Prop42
 90
       50
102
RTVSPost2010PropOp42
 70
     1
102
RTVSPost2010Prop43
 90
        3
102
RTVSPost2010PropOp43
 70
     1
102
RTVSPost2010Prop44ColorIndex
 90
        5
102
RTVSPost2010Prop44ColorRGB
 90
      255
102
RTVSPost2010PropOp44
 70
     1
102
RTVSPost2010Prop45
280
     0
102
RTVSPost2010PropOp45
 70
     1
102
RTVSPost2010Prop46
 90
       50
102
RTVSPost2010PropOp46
 70
     1
102
RTVSPost2010Prop47
 90
       50
102
RTVSPost2010PropOp47
 70
     1
102
RTVSPost2010Prop48
 90
       50
102
RTVSPost2010PropOp48
 70
     1
102
RTVSPost2010Prop49
280
     0
102
RTVSPost2010PropOp49
 70
     1
102
RTVSPost2010Prop50
 90
       50
102
RTVSPost2010PropOp50
 70
     1
102
RTVSPost2010Prop51ColorIndex
 90
      256
102
RTVSPost2010Prop51ColorRGB
 90
-16777216
102
RTVSPost2010PropOp51
 70
     0
102
RTVSPost2010Prop52
140
1.0
102
RTVSPost2010PropOp52
 70
     0
102
RTVSPost2010Prop53
 90
        2
102
RTVSPost2010PropOp53
 70
     1
102
RTVSPost2010Prop54
  1
strokes_ogs.tif
102
RTVSPost2010PropOp54
 70
     1
102
RTVSPost2010Prop55
280
     0
102
RTVSPost2010PropOp55
 70
     1
102
RTVSPost2010Prop56
140
1.0
102
RTVSPost2010PropOp56
 70
     1
102
RTVSPost2010Prop57
140
1.0
102
RTVSPost2010PropOp57
 70
     1
102
RTVSPropertyOp0
 70
     1
102
RTVSPropertyOp1
 70
     1
102
RTVSPropertyOp2
 70
     1
102
RTVSPropertyOp3
 70
     1
102
RTVSPropertyOp4
 70
     1
102
RTVSPropertyOp5
 70
     1
102
RTVSPropertyOp6
 70
     1
102
RTVSPropertyOp7
 70
     1
102
RTVSPropertyOp8
 70
     1
102
RTVSPropertyOp9
 70
     1
102
RTVSPropertyOp10
 70
     1
102
RTVSPropertyOp11
 70
     1
102
RTVSPropertyOp12
 70
     1
102
RTVSPropertyOp13
 70
     1
102
RTVSPropertyOp14
 70
     1
102
RTVSPropertyOp15
 70
     1
102
RTVSPropertyOp16
 70
     1
102
RTVSPropertyOp17
 70
     1
102
RTVSPropertyOp18
 70
     1
102
RTVSPropertyOp19
 70
     1
102
RTVSPropertyOp20
 70
     1
102
RTVSPropertyOp21
 70
     1
102
RTVSPropertyOp22
 70
     1
102
RTVSPropertyOp23
 70
     1
102
RTVSPropertyOp24
 70
     1
102
RTVSPropertyOp25
 70
     1
102
RTVSPropertyOp26
 70
     1
102
RTVSPropertyOp27
 70
     1
102
RTVSPropertyOp28
 70
     1
102
RTVSPropertyOp29
 70
     1
102
RTVSPropertyOp30
 70
     1
102
RTVSPropertyOp31
 70
     1
102
RTVSPropertyOp32
 70
     1
102
RTVSPropertyOp33
 70
     1
102
RTVSPropertyOp34
 70
     1
102
RTVSPropertyOp35
 70
     1
102
RTVSPropertyOp36
 70
     1
102
RTVSPropertyOp37
 70
     1
102
RTVSPropertyOp38
 70
     1
102
RTVSPropertyOp39
 70
     1
102
RTVSPropertyOp40
 70
     1
102
RTVSPropertyOp41
 70
     1
102
RTVSPropertyOp42
 70
     1
102
RTVSPropertyOp43
 70
     1
102
RTVSPropertyOp44
 70
     1
102
RTVSPropertyOp45
 70
     1
102
RTVSPropertyOp46
 70
     1
102
RTVSPropertyOp47
 70
     1
102
RTVSPropertyOp48
 70
     1
102
RTVSPropertyOp49
 70
     1
102
RTVSPropertyOp50
 70
     1
102
RTVSPropertyOp51
 70
     0
102
RTVSPropertyOp52
 70
     0
102
RTVSPropertyOp53
 70
     1
102
RTVSPropertyOp54
 70
     1
102
RTVSPropertyOp55
 70
     1
102
RTVSPropertyOp56
 70
     1
102
RTVSPropertyOp57
 70
     1
102
RTVSPropertyOp58
 70
     1
102
RTVSPropertyOp59
 70
     1
102
RTVSPropertyOp60
 70
     1
102
RTVSPropertyOp61
 70
     1
102
RTVSPropertyOp62
 70
     1
  0
XRECORD
  5
FBC79
102
{ACAD_REACTORS
330
FBC78
102
}
330
FBC78
100
AcDbXrecord
280
     1
102
RTVSPost2010Prop28
280
     0
102
RTVSPost2010PropOp28
 70
     1
102
RTVSPost2010Prop29
280
     1
102
RTVSPost2010PropOp29
 70
     1
102
RTVSPost2010Prop30
280
     1
102
RTVSPost2010PropOp30
 70
     1
102
RTVSPost2010Prop31
280
     0
102
RTVSPost2010PropOp31
 70
     1
102
RTVSPost2010Prop32
280
     0
102
RTVSPost2010PropOp32
 70
     1
102
RTVSPost2010Prop33
280
     0
102
RTVSPost2010PropOp33
 70
     1
102
RTVSPost2010Prop34
280
     0
102
RTVSPost2010PropOp34
 70
     1
102
RTVSPost2010Prop35
280
     0
102
RTVSPost2010PropOp35
 70
     1
102
RTVSPost2010Prop36
280
     0
102
RTVSPost2010PropOp36
 70
     1
102
RTVSPost2010Prop37
 90
       50
102
RTVSPost2010PropOp37
 70
     1
102
RTVSPost2010Prop38
140
0.0
102
RTVSPost2010PropOp38
 70
     1
102
RTVSPost2010Prop39
140
1.0
102
RTVSPost2010PropOp39
 70
     1
102
RTVSPost2010Prop40
 90
        0
102
RTVSPost2010PropOp40
 70
     1
102
RTVSPost2010Prop41ColorIndex
 90
       18
102
RTVSPost2010Prop41ColorRGB
 90
        0
102
RTVSPost2010PropOp41
 70
     1
102
RTVSPost2010Prop42
 90
       50
102
RTVSPost2010PropOp42
 70
     1
102
RTVSPost2010Prop43
 90
        3
102
RTVSPost2010PropOp43
 70
     1
102
RTVSPost2010Prop44ColorIndex
 90
        5
102
RTVSPost2010Prop44ColorRGB
 90
      255
102
RTVSPost2010PropOp44
 70
     1
102
RTVSPost2010Prop45
280
     0
102
RTVSPost2010PropOp45
 70
     1
102
RTVSPost2010Prop46
 90
       50
102
RTVSPost2010PropOp46
 70
     1
102
RTVSPost2010Prop47
 90
       50
102
RTVSPost2010PropOp47
 70
     1
102
RTVSPost2010Prop48
 90
       50
102
RTVSPost2010PropOp48
 70
     1
102
RTVSPost2010Prop49
280
     0
102
RTVSPost2010PropOp49
 70
     1
102
RTVSPost2010Prop50
 90
       50
102
RTVSPost2010PropOp50
 70
     1
102
RTVSPost2010Prop51ColorIndex
 90
      256
102
RTVSPost2010Prop51ColorRGB
 90
-16777216
102
RTVSPost2010PropOp51
 70
     0
102
RTVSPost2010Prop52
140
1.0
102
RTVSPost2010PropOp52
 70
     0
102
RTVSPost2010Prop53
 90
        2
102
RTVSPost2010PropOp53
 70
     1
102
RTVSPost2010Prop54
  1
strokes_ogs.tif
102
RTVSPost2010PropOp54
 70
     1
102
RTVSPost2010Prop55
280
     0
102
RTVSPost2010PropOp55
 70
     1
102
RTVSPost2010Prop56
140
1.0
102
RTVSPost2010PropOp56
 70
     1
102
RTVSPost2010Prop57
140
1.0
102
RTVSPost2010PropOp57
 70
     1
102
RTVSPropertyOp0
 70
     1
102
RTVSPropertyOp1
 70
     1
102
RTVSPropertyOp2
 70
     1
102
RTVSPropertyOp3
 70
     1
102
RTVSPropertyOp4
 70
     1
102
RTVSPropertyOp5
 70
     1
102
RTVSPropertyOp6
 70
     1
102
RTVSPropertyOp7
 70
     1
102
RTVSPropertyOp8
 70
     1
102
RTVSPropertyOp9
 70
     1
102
RTVSPropertyOp10
 70
     1
102
RTVSPropertyOp11
 70
     1
102
RTVSPropertyOp12
 70
     1
102
RTVSPropertyOp13
 70
     1
102
RTVSPropertyOp14
 70
     1
102
RTVSPropertyOp15
 70
     1
102
RTVSPropertyOp16
 70
     1
102
RTVSPropertyOp17
 70
     1
102
RTVSPropertyOp18
 70
     1
102
RTVSPropertyOp19
 70
     1
102
RTVSPropertyOp20
 70
     1
102
RTVSPropertyOp21
 70
     1
102
RTVSPropertyOp22
 70
     1
102
RTVSPropertyOp23
 70
     1
102
RTVSPropertyOp24
 70
     1
102
RTVSPropertyOp25
 70
     1
102
RTVSPropertyOp26
 70
     1
102
RTVSPropertyOp27
 70
     1
102
RTVSPropertyOp28
 70
     1
102
RTVSPropertyOp29
 70
     1
102
RTVSPropertyOp30
 70
     1
102
RTVSPropertyOp31
 70
     1
102
RTVSPropertyOp32
 70
     1
102
RTVSPropertyOp33
 70
     1
102
RTVSPropertyOp34
 70
     1
102
RTVSPropertyOp35
 70
     1
102
RTVSPropertyOp36
 70
     1
102
RTVSPropertyOp37
 70
     1
102
RTVSPropertyOp38
 70
     1
102
RTVSPropertyOp39
 70
     1
102
RTVSPropertyOp40
 70
     1
102
RTVSPropertyOp41
 70
     1
102
RTVSPropertyOp42
 70
     1
102
RTVSPropertyOp43
 70
     1
102
RTVSPropertyOp44
 70
     1
102
RTVSPropertyOp45
 70
     1
102
RTVSPropertyOp46
 70
     1
102
RTVSPropertyOp47
 70
     1
102
RTVSPropertyOp48
 70
     1
102
RTVSPropertyOp49
 70
     1
102
RTVSPropertyOp50
 70
     1
102
RTVSPropertyOp51
 70
     0
102
RTVSPropertyOp52
 70
     0
102
RTVSPropertyOp53
 70
     1
102
RTVSPropertyOp54
 70
     1
102
RTVSPropertyOp55
 70
     1
102
RTVSPropertyOp56
 70
     1
102
RTVSPropertyOp57
 70
     1
102
RTVSPropertyOp58
 70
     1
102
RTVSPropertyOp59
 70
     1
102
RTVSPropertyOp60
 70
     1
102
RTVSPropertyOp61
 70
     1
102
RTVSPropertyOp62
 70
     1
  0
XRECORD
  5
FBC7D
102
{ACAD_REACTORS
330
FBC7C
102
}
330
FBC7C
100
AcDbXrecord
280
     1
102
RTVSPost2010Prop28
280
     0
102
RTVSPost2010PropOp28
 70
     1
102
RTVSPost2010Prop29
280
     1
102
RTVSPost2010PropOp29
 70
     1
102
RTVSPost2010Prop30
280
     1
102
RTVSPost2010PropOp30
 70
     1
102
RTVSPost2010Prop31
280
     0
102
RTVSPost2010PropOp31
 70
     1
102
RTVSPost2010Prop32
280
     0
102
RTVSPost2010PropOp32
 70
     1
102
RTVSPost2010Prop33
280
     0
102
RTVSPost2010PropOp33
 70
     1
102
RTVSPost2010Prop34
280
     0
102
RTVSPost2010PropOp34
 70
     1
102
RTVSPost2010Prop35
280
     0
102
RTVSPost2010PropOp35
 70
     1
102
RTVSPost2010Prop36
280
     0
102
RTVSPost2010PropOp36
 70
     1
102
RTVSPost2010Prop37
 90
       50
102
RTVSPost2010PropOp37
 70
     1
102
RTVSPost2010Prop38
140
0.0
102
RTVSPost2010PropOp38
 70
     1
102
RTVSPost2010Prop39
140
1.0
102
RTVSPost2010PropOp39
 70
     1
102
RTVSPost2010Prop40
 90
        0
102
RTVSPost2010PropOp40
 70
     1
102
RTVSPost2010Prop41ColorIndex
 90
       18
102
RTVSPost2010Prop41ColorRGB
 90
        0
102
RTVSPost2010PropOp41
 70
     1
102
RTVSPost2010Prop42
 90
       50
102
RTVSPost2010PropOp42
 70
     1
102
RTVSPost2010Prop43
 90
        3
102
RTVSPost2010PropOp43
 70
     1
102
RTVSPost2010Prop44ColorIndex
 90
        5
102
RTVSPost2010Prop44ColorRGB
 90
      255
102
RTVSPost2010PropOp44
 70
     1
102
RTVSPost2010Prop45
280
     0
102
RTVSPost2010PropOp45
 70
     1
102
RTVSPost2010Prop46
 90
       50
102
RTVSPost2010PropOp46
 70
     1
102
RTVSPost2010Prop47
 90
       50
102
RTVSPost2010PropOp47
 70
     1
102
RTVSPost2010Prop48
 90
       50
102
RTVSPost2010PropOp48
 70
     1
102
RTVSPost2010Prop49
280
     0
102
RTVSPost2010PropOp49
 70
     1
102
RTVSPost2010Prop50
 90
       50
102
RTVSPost2010PropOp50
 70
     1
102
RTVSPost2010Prop51ColorIndex
 90
      256
102
RTVSPost2010Prop51ColorRGB
 90
-16777216
102
RTVSPost2010PropOp51
 70
     0
102
RTVSPost2010Prop52
140
1.0
102
RTVSPost2010PropOp52
 70
     0
102
RTVSPost2010Prop53
 90
        2
102
RTVSPost2010PropOp53
 70
     1
102
RTVSPost2010Prop54
  1
strokes_ogs.tif
102
RTVSPost2010PropOp54
 70
     1
102
RTVSPost2010Prop55
280
     0
102
RTVSPost2010PropOp55
 70
     1
102
RTVSPost2010Prop56
140
1.0
102
RTVSPost2010PropOp56
 70
     1
102
RTVSPost2010Prop57
140
1.0
102
RTVSPost2010PropOp57
 70
     1
102
RTVSPropertyOp0
 70
     1
102
RTVSPropertyOp1
 70
     1
102
RTVSPropertyOp2
 70
     1
102
RTVSPropertyOp3
 70
     1
102
RTVSPropertyOp4
 70
     1
102
RTVSPropertyOp5
 70
     1
102
RTVSPropertyOp6
 70
     1
102
RTVSPropertyOp7
 70
     1
102
RTVSPropertyOp8
 70
     1
102
RTVSPropertyOp9
 70
     1
102
RTVSPropertyOp10
 70
     1
102
RTVSPropertyOp11
 70
     1
102
RTVSPropertyOp12
 70
     1
102
RTVSPropertyOp13
 70
     1
102
RTVSPropertyOp14
 70
     1
102
RTVSPropertyOp15
 70
     1
102
RTVSPropertyOp16
 70
     1
102
RTVSPropertyOp17
 70
     1
102
RTVSPropertyOp18
 70
     1
102
RTVSPropertyOp19
 70
     1
102
RTVSPropertyOp20
 70
     1
102
RTVSPropertyOp21
 70
     1
102
RTVSPropertyOp22
 70
     1
102
RTVSPropertyOp23
 70
     1
102
RTVSPropertyOp24
 70
     1
102
RTVSPropertyOp25
 70
     1
102
RTVSPropertyOp26
 70
     1
102
RTVSPropertyOp27
 70
     1
102
RTVSPropertyOp28
 70
     1
102
RTVSPropertyOp29
 70
     1
102
RTVSPropertyOp30
 70
     1
102
RTVSPropertyOp31
 70
     1
102
RTVSPropertyOp32
 70
     1
102
RTVSPropertyOp33
 70
     1
102
RTVSPropertyOp34
 70
     1
102
RTVSPropertyOp35
 70
     1
102
RTVSPropertyOp36
 70
     1
102
RTVSPropertyOp37
 70
     1
102
RTVSPropertyOp38
 70
     1
102
RTVSPropertyOp39
 70
     1
102
RTVSPropertyOp40
 70
     1
102
RTVSPropertyOp41
 70
     1
102
RTVSPropertyOp42
 70
     1
102
RTVSPropertyOp43
 70
     1
102
RTVSPropertyOp44
 70
     1
102
RTVSPropertyOp45
 70
     1
102
RTVSPropertyOp46
 70
     1
102
RTVSPropertyOp47
 70
     1
102
RTVSPropertyOp48
 70
     1
102
RTVSPropertyOp49
 70
     1
102
RTVSPropertyOp50
 70
     1
102
RTVSPropertyOp51
 70
     0
102
RTVSPropertyOp52
 70
     0
102
RTVSPropertyOp53
 70
     1
102
RTVSPropertyOp54
 70
     1
102
RTVSPropertyOp55
 70
     1
102
RTVSPropertyOp56
 70
     1
102
RTVSPropertyOp57
 70
     1
102
RTVSPropertyOp58
 70
     1
102
RTVSPropertyOp59
 70
     1
102
RTVSPropertyOp60
 70
     1
102
RTVSPropertyOp61
 70
     1
102
RTVSPropertyOp62
 70
     1
  0
XRECORD
  5
FBC97
102
{ACAD_REACTORS
330
FBC96
102
}
330
FBC96
100
AcDbXrecord
280
     1
102
RTVSPost2010Prop28
280
     0
102
RTVSPost2010PropOp28
 70
     0
102
RTVSPost2010Prop29
280
     1
102
RTVSPost2010PropOp29
 70
     0
102
RTVSPost2010Prop30
280
     1
102
RTVSPost2010PropOp30
 70
     0
102
RTVSPost2010Prop31
280
     0
102
RTVSPost2010PropOp31
 70
     0
102
RTVSPost2010Prop32
280
     0
102
RTVSPost2010PropOp32
 70
     0
102
RTVSPost2010Prop33
280
     0
102
RTVSPost2010PropOp33
 70
     0
102
RTVSPost2010Prop34
280
     0
102
RTVSPost2010PropOp34
 70
     0
102
RTVSPost2010Prop35
280
     0
102
RTVSPost2010PropOp35
 70
     0
102
RTVSPost2010Prop36
280
     0
102
RTVSPost2010PropOp36
 70
     0
102
RTVSPost2010Prop37
 90
       50
102
RTVSPost2010PropOp37
 70
     0
102
RTVSPost2010Prop38
140
0.0
102
RTVSPost2010PropOp38
 70
     0
102
RTVSPost2010Prop39
140
1.0
102
RTVSPost2010PropOp39
 70
     0
102
RTVSPost2010Prop40
 90
        0
102
RTVSPost2010PropOp40
 70
     0
102
RTVSPost2010Prop41ColorIndex
 90
       18
102
RTVSPost2010Prop41ColorRGB
 90
        0
102
RTVSPost2010PropOp41
 70
     0
102
RTVSPost2010Prop42
 90
       50
102
RTVSPost2010PropOp42
 70
     0
102
RTVSPost2010Prop43
 90
        3
102
RTVSPost2010PropOp43
 70
     0
102
RTVSPost2010Prop44ColorIndex
 90
        5
102
RTVSPost2010Prop44ColorRGB
 90
      255
102
RTVSPost2010PropOp44
 70
     0
102
RTVSPost2010Prop45
280
     0
102
RTVSPost2010PropOp45
 70
     0
102
RTVSPost2010Prop46
 90
       50
102
RTVSPost2010PropOp46
 70
     0
102
RTVSPost2010Prop47
 90
       50
102
RTVSPost2010PropOp47
 70
     0
102
RTVSPost2010Prop48
 90
       50
102
RTVSPost2010PropOp48
 70
     0
102
RTVSPost2010Prop49
280
     0
102
RTVSPost2010PropOp49
 70
     0
102
RTVSPost2010Prop50
 90
       50
102
RTVSPost2010PropOp50
 70
     0
102
RTVSPost2010Prop51ColorIndex
 90
      256
102
RTVSPost2010Prop51ColorRGB
 90
-16777216
102
RTVSPost2010PropOp51
 70
     0
102
RTVSPost2010Prop52
140
1.0
102
RTVSPost2010PropOp52
 70
     0
102
RTVSPost2010Prop53
 90
        2
102
RTVSPost2010PropOp53
 70
     0
102
RTVSPost2010Prop54
  1
strokes_ogs.tif
102
RTVSPost2010PropOp54
 70
     0
102
RTVSPost2010Prop55
280
     0
102
RTVSPost2010PropOp55
 70
     0
102
RTVSPost2010Prop56
140
1.0
102
RTVSPost2010PropOp56
 70
     0
102
RTVSPost2010Prop57
140
1.0
102
RTVSPost2010PropOp57
 70
     0
102
RTVSPropertyOp0
 70
     0
102
RTVSPropertyOp1
 70
     0
102
RTVSPropertyOp2
 70
     0
102
RTVSPropertyOp3
 70
     0
102
RTVSPropertyOp4
 70
     0
102
RTVSPropertyOp5
 70
     0
102
RTVSPropertyOp6
 70
     0
102
RTVSPropertyOp7
 70
     0
102
RTVSPropertyOp8
 70
     0
102
RTVSPropertyOp9
 70
     0
102
RTVSPropertyOp10
 70
     0
102
RTVSPropertyOp11
 70
     0
102
RTVSPropertyOp12
 70
     0
102
RTVSPropertyOp13
 70
     0
102
RTVSPropertyOp14
 70
     2
102
RTVSPropertyOp15
 70
     0
102
RTVSPropertyOp16
 70
     0
102
RTVSPropertyOp17
 70
     0
102
RTVSPropertyOp18
 70
     0
102
RTVSPropertyOp19
 70
     0
102
RTVSPropertyOp20
 70
     0
102
RTVSPropertyOp21
 70
     0
102
RTVSPropertyOp22
 70
     0
102
RTVSPropertyOp23
 70
     0
102
RTVSPropertyOp24
 70
     0
102
RTVSPropertyOp25
 70
     0
102
RTVSPropertyOp26
 70
     0
102
RTVSPropertyOp27
 70
     0
102
RTVSPropertyOp28
 70
     0
102
RTVSPropertyOp29
 70
     0
102
RTVSPropertyOp30
 70
     0
102
RTVSPropertyOp31
 70
     0
102
RTVSPropertyOp32
 70
     0
102
RTVSPropertyOp33
 70
     0
102
RTVSPropertyOp34
 70
     0
102
RTVSPropertyOp35
 70
     0
102
RTVSPropertyOp36
 70
     0
102
RTVSPropertyOp37
 70
     0
102
RTVSPropertyOp38
 70
     0
102
RTVSPropertyOp39
 70
     0
102
RTVSPropertyOp40
 70
     0
102
RTVSPropertyOp41
 70
     0
102
RTVSPropertyOp42
 70
     0
102
RTVSPropertyOp43
 70
     0
102
RTVSPropertyOp44
 70
     0
102
RTVSPropertyOp45
 70
     0
102
RTVSPropertyOp46
 70
     0
102
RTVSPropertyOp47
 70
     0
102
RTVSPropertyOp48
 70
     0
102
RTVSPropertyOp49
 70
     0
102
RTVSPropertyOp50
 70
     0
102
RTVSPropertyOp51
 70
     0
102
RTVSPropertyOp52
 70
     0
102
RTVSPropertyOp53
 70
     0
102
RTVSPropertyOp54
 70
     0
102
RTVSPropertyOp55
 70
     0
102
RTVSPropertyOp56
 70
     0
102
RTVSPropertyOp57
 70
     0
102
RTVSPropertyOp58
 70
     0
102
RTVSPropertyOp59
 70
     0
102
RTVSPropertyOp60
 70
     0
102
RTVSPropertyOp61
 70
     0
102
RTVSPropertyOp62
 70
     0
  0
XRECORD
  5
FBC85
102
{ACAD_REACTORS
330
FBC84
102
}
330
FBC84
100
AcDbXrecord
280
     1
102
RTVSPost2010Prop28
280
     0
102
RTVSPost2010PropOp28
 70
     1
102
RTVSPost2010Prop29
280
     1
102
RTVSPost2010PropOp29
 70
     1
102
RTVSPost2010Prop30
280
     1
102
RTVSPost2010PropOp30
 70
     1
102
RTVSPost2010Prop31
280
     0
102
RTVSPost2010PropOp31
 70
     1
102
RTVSPost2010Prop32
280
     0
102
RTVSPost2010PropOp32
 70
     1
102
RTVSPost2010Prop33
280
     0
102
RTVSPost2010PropOp33
 70
     1
102
RTVSPost2010Prop34
280
     0
102
RTVSPost2010PropOp34
 70
     1
102
RTVSPost2010Prop35
280
     0
102
RTVSPost2010PropOp35
 70
     1
102
RTVSPost2010Prop36
280
     0
102
RTVSPost2010PropOp36
 70
     1
102
RTVSPost2010Prop37
 90
       50
102
RTVSPost2010PropOp37
 70
     1
102
RTVSPost2010Prop38
140
0.0
102
RTVSPost2010PropOp38
 70
     1
102
RTVSPost2010Prop39
140
1.0
102
RTVSPost2010PropOp39
 70
     1
102
RTVSPost2010Prop40
 90
        0
102
RTVSPost2010PropOp40
 70
     1
102
RTVSPost2010Prop41ColorIndex
 90
       18
102
RTVSPost2010Prop41ColorRGB
 90
        0
102
RTVSPost2010PropOp41
 70
     1
102
RTVSPost2010Prop42
 90
       50
102
RTVSPost2010PropOp42
 70
     1
102
RTVSPost2010Prop43
 90
        3
102
RTVSPost2010PropOp43
 70
     1
102
RTVSPost2010Prop44ColorIndex
 90
        5
102
RTVSPost2010Prop44ColorRGB
 90
      255
102
RTVSPost2010PropOp44
 70
     1
102
RTVSPost2010Prop45
280
     0
102
RTVSPost2010PropOp45
 70
     1
102
RTVSPost2010Prop46
 90
       50
102
RTVSPost2010PropOp46
 70
     1
102
RTVSPost2010Prop47
 90
       50
102
RTVSPost2010PropOp47
 70
     1
102
RTVSPost2010Prop48
 90
       50
102
RTVSPost2010PropOp48
 70
     1
102
RTVSPost2010Prop49
280
     0
102
RTVSPost2010PropOp49
 70
     1
102
RTVSPost2010Prop50
 90
       50
102
RTVSPost2010PropOp50
 70
     1
102
RTVSPost2010Prop51ColorIndex
 90
      256
102
RTVSPost2010Prop51ColorRGB
 90
-16777216
102
RTVSPost2010PropOp51
 70
     0
102
RTVSPost2010Prop52
140
1.0
102
RTVSPost2010PropOp52
 70
     0
102
RTVSPost2010Prop53
 90
        2
102
RTVSPost2010PropOp53
 70
     1
102
RTVSPost2010Prop54
  1
strokes_ogs.tif
102
RTVSPost2010PropOp54
 70
     1
102
RTVSPost2010Prop55
280
     0
102
RTVSPost2010PropOp55
 70
     1
102
RTVSPost2010Prop56
140
1.0
102
RTVSPost2010PropOp56
 70
     1
102
RTVSPost2010Prop57
140
1.0
102
RTVSPost2010PropOp57
 70
     1
102
RTVSPropertyOp0
 70
     1
102
RTVSPropertyOp1
 70
     1
102
RTVSPropertyOp2
 70
     1
102
RTVSPropertyOp3
 70
     1
102
RTVSPropertyOp4
 70
     1
102
RTVSPropertyOp5
 70
     1
102
RTVSPropertyOp6
 70
     1
102
RTVSPropertyOp7
 70
     1
102
RTVSPropertyOp8
 70
     1
102
RTVSPropertyOp9
 70
     1
102
RTVSPropertyOp10
 70
     1
102
RTVSPropertyOp11
 70
     1
102
RTVSPropertyOp12
 70
     1
102
RTVSPropertyOp13
 70
     1
102
RTVSPropertyOp14
 70
     1
102
RTVSPropertyOp15
 70
     1
102
RTVSPropertyOp16
 70
     1
102
RTVSPropertyOp17
 70
     1
102
RTVSPropertyOp18
 70
     1
102
RTVSPropertyOp19
 70
     1
102
RTVSPropertyOp20
 70
     1
102
RTVSPropertyOp21
 70
     1
102
RTVSPropertyOp22
 70
     1
102
RTVSPropertyOp23
 70
     1
102
RTVSPropertyOp24
 70
     1
102
RTVSPropertyOp25
 70
     1
102
RTVSPropertyOp26
 70
     1
102
RTVSPropertyOp27
 70
     1
102
RTVSPropertyOp28
 70
     1
102
RTVSPropertyOp29
 70
     1
102
RTVSPropertyOp30
 70
     1
102
RTVSPropertyOp31
 70
     1
102
RTVSPropertyOp32
 70
     1
102
RTVSPropertyOp33
 70
     1
102
RTVSPropertyOp34
 70
     1
102
RTVSPropertyOp35
 70
     1
102
RTVSPropertyOp36
 70
     1
102
RTVSPropertyOp37
 70
     1
102
RTVSPropertyOp38
 70
     1
102
RTVSPropertyOp39
 70
     1
102
RTVSPropertyOp40
 70
     1
102
RTVSPropertyOp41
 70
     1
102
RTVSPropertyOp42
 70
     1
102
RTVSPropertyOp43
 70
     1
102
RTVSPropertyOp44
 70
     1
102
RTVSPropertyOp45
 70
     1
102
RTVSPropertyOp46
 70
     1
102
RTVSPropertyOp47
 70
     1
102
RTVSPropertyOp48
 70
     1
102
RTVSPropertyOp49
 70
     1
102
RTVSPropertyOp50
 70
     1
102
RTVSPropertyOp51
 70
     0
102
RTVSPropertyOp52
 70
     0
102
RTVSPropertyOp53
 70
     1
102
RTVSPropertyOp54
 70
     1
102
RTVSPropertyOp55
 70
     1
102
RTVSPropertyOp56
 70
     1
102
RTVSPropertyOp57
 70
     1
102
RTVSPropertyOp58
 70
     1
102
RTVSPropertyOp59
 70
     1
102
RTVSPropertyOp60
 70
     1
102
RTVSPropertyOp61
 70
     1
102
RTVSPropertyOp62
 70
     1
  0
XRECORD
  5
FBC69
102
{ACAD_REACTORS
330
FBC68
102
}
330
FBC68
100
AcDbXrecord
280
     1
102
RTVSPost2010Prop28
280
     0
102
RTVSPost2010PropOp28
 70
     1
102
RTVSPost2010Prop29
280
     1
102
RTVSPost2010PropOp29
 70
     1
102
RTVSPost2010Prop30
280
     1
102
RTVSPost2010PropOp30
 70
     1
102
RTVSPost2010Prop31
280
     0
102
RTVSPost2010PropOp31
 70
     1
102
RTVSPost2010Prop32
280
     0
102
RTVSPost2010PropOp32
 70
     1
102
RTVSPost2010Prop33
280
     0
102
RTVSPost2010PropOp33
 70
     1
102
RTVSPost2010Prop34
280
     0
102
RTVSPost2010PropOp34
 70
     1
102
RTVSPost2010Prop35
280
     0
102
RTVSPost2010PropOp35
 70
     1
102
RTVSPost2010Prop36
280
     0
102
RTVSPost2010PropOp36
 70
     1
102
RTVSPost2010Prop37
 90
       50
102
RTVSPost2010PropOp37
 70
     1
102
RTVSPost2010Prop38
140
0.0
102
RTVSPost2010PropOp38
 70
     1
102
RTVSPost2010Prop39
140
1.0
102
RTVSPost2010PropOp39
 70
     1
102
RTVSPost2010Prop40
 90
        0
102
RTVSPost2010PropOp40
 70
     1
102
RTVSPost2010Prop41ColorIndex
 90
       18
102
RTVSPost2010Prop41ColorRGB
 90
        0
102
RTVSPost2010PropOp41
 70
     1
102
RTVSPost2010Prop42
 90
       50
102
RTVSPost2010PropOp42
 70
     1
102
RTVSPost2010Prop43
 90
        3
102
RTVSPost2010PropOp43
 70
     1
102
RTVSPost2010Prop44ColorIndex
 90
        5
102
RTVSPost2010Prop44ColorRGB
 90
      255
102
RTVSPost2010PropOp44
 70
     1
102
RTVSPost2010Prop45
280
     0
102
RTVSPost2010PropOp45
 70
     1
102
RTVSPost2010Prop46
 90
       50
102
RTVSPost2010PropOp46
 70
     1
102
RTVSPost2010Prop47
 90
       50
102
RTVSPost2010PropOp47
 70
     1
102
RTVSPost2010Prop48
 90
       50
102
RTVSPost2010PropOp48
 70
     1
102
RTVSPost2010Prop49
280
     0
102
RTVSPost2010PropOp49
 70
     1
102
RTVSPost2010Prop50
 90
       50
102
RTVSPost2010PropOp50
 70
     1
102
RTVSPost2010Prop51ColorIndex
 90
      256
102
RTVSPost2010Prop51ColorRGB
 90
-16777216
102
RTVSPost2010PropOp51
 70
     0
102
RTVSPost2010Prop52
140
1.0
102
RTVSPost2010PropOp52
 70
     0
102
RTVSPost2010Prop53
 90
        2
102
RTVSPost2010PropOp53
 70
     1
102
RTVSPost2010Prop54
  1
strokes_ogs.tif
102
RTVSPost2010PropOp54
 70
     1
102
RTVSPost2010Prop55
280
     0
102
RTVSPost2010PropOp55
 70
     1
102
RTVSPost2010Prop56
140
1.0
102
RTVSPost2010PropOp56
 70
     1
102
RTVSPost2010Prop57
140
1.0
102
RTVSPost2010PropOp57
 70
     1
102
RTVSPropertyOp0
 70
     1
102
RTVSPropertyOp1
 70
     1
102
RTVSPropertyOp2
 70
     1
102
RTVSPropertyOp3
 70
     1
102
RTVSPropertyOp4
 70
     1
102
RTVSPropertyOp5
 70
     1
102
RTVSPropertyOp6
 70
     1
102
RTVSPropertyOp7
 70
     1
102
RTVSPropertyOp8
 70
     1
102
RTVSPropertyOp9
 70
     1
102
RTVSPropertyOp10
 70
     1
102
RTVSPropertyOp11
 70
     1
102
RTVSPropertyOp12
 70
     1
102
RTVSPropertyOp13
 70
     1
102
RTVSPropertyOp14
 70
     1
102
RTVSPropertyOp15
 70
     1
102
RTVSPropertyOp16
 70
     1
102
RTVSPropertyOp17
 70
     1
102
RTVSPropertyOp18
 70
     1
102
RTVSPropertyOp19
 70
     1
102
RTVSPropertyOp20
 70
     1
102
RTVSPropertyOp21
 70
     1
102
RTVSPropertyOp22
 70
     1
102
RTVSPropertyOp23
 70
     1
102
RTVSPropertyOp24
 70
     1
102
RTVSPropertyOp25
 70
     1
102
RTVSPropertyOp26
 70
     1
102
RTVSPropertyOp27
 70
     1
102
RTVSPropertyOp28
 70
     1
102
RTVSPropertyOp29
 70
     1
102
RTVSPropertyOp30
 70
     1
102
RTVSPropertyOp31
 70
     1
102
RTVSPropertyOp32
 70
     1
102
RTVSPropertyOp33
 70
     1
102
RTVSPropertyOp34
 70
     1
102
RTVSPropertyOp35
 70
     1
102
RTVSPropertyOp36
 70
     1
102
RTVSPropertyOp37
 70
     1
102
RTVSPropertyOp38
 70
     1
102
RTVSPropertyOp39
 70
     1
102
RTVSPropertyOp40
 70
     1
102
RTVSPropertyOp41
 70
     1
102
RTVSPropertyOp42
 70
     1
102
RTVSPropertyOp43
 70
     1
102
RTVSPropertyOp44
 70
     1
102
RTVSPropertyOp45
 70
     1
102
RTVSPropertyOp46
 70
     1
102
RTVSPropertyOp47
 70
     1
102
RTVSPropertyOp48
 70
     1
102
RTVSPropertyOp49
 70
     1
102
RTVSPropertyOp50
 70
     1
102
RTVSPropertyOp51
 70
     0
102
RTVSPropertyOp52
 70
     0
102
RTVSPropertyOp53
 70
     1
102
RTVSPropertyOp54
 70
     1
102
RTVSPropertyOp55
 70
     1
102
RTVSPropertyOp56
 70
     1
102
RTVSPropertyOp57
 70
     1
102
RTVSPropertyOp58
 70
     1
102
RTVSPropertyOp59
 70
     1
102
RTVSPropertyOp60
 70
     1
102
RTVSPropertyOp61
 70
     1
102
RTVSPropertyOp62
 70
     1
  0
XRECORD
  5
FBC6B
102
{ACAD_REACTORS
330
FBC6A
102
}
330
FBC6A
100
AcDbXrecord
280
     1
102
RTVSPost2010Prop28
280
     0
102
RTVSPost2010PropOp28
 70
     1
102
RTVSPost2010Prop29
280
     1
102
RTVSPost2010PropOp29
 70
     1
102
RTVSPost2010Prop30
280
     1
102
RTVSPost2010PropOp30
 70
     1
102
RTVSPost2010Prop31
280
     0
102
RTVSPost2010PropOp31
 70
     1
102
RTVSPost2010Prop32
280
     0
102
RTVSPost2010PropOp32
 70
     1
102
RTVSPost2010Prop33
280
     0
102
RTVSPost2010PropOp33
 70
     1
102
RTVSPost2010Prop34
280
     0
102
RTVSPost2010PropOp34
 70
     1
102
RTVSPost2010Prop35
280
     0
102
RTVSPost2010PropOp35
 70
     1
102
RTVSPost2010Prop36
280
     0
102
RTVSPost2010PropOp36
 70
     1
102
RTVSPost2010Prop37
 90
       50
102
RTVSPost2010PropOp37
 70
     1
102
RTVSPost2010Prop38
140
0.0
102
RTVSPost2010PropOp38
 70
     1
102
RTVSPost2010Prop39
140
1.0
102
RTVSPost2010PropOp39
 70
     1
102
RTVSPost2010Prop40
 90
        0
102
RTVSPost2010PropOp40
 70
     1
102
RTVSPost2010Prop41ColorIndex
 90
       18
102
RTVSPost2010Prop41ColorRGB
 90
        0
102
RTVSPost2010PropOp41
 70
     1
102
RTVSPost2010Prop42
 90
       50
102
RTVSPost2010PropOp42
 70
     1
102
RTVSPost2010Prop43
 90
        3
102
RTVSPost2010PropOp43
 70
     1
102
RTVSPost2010Prop44ColorIndex
 90
        5
102
RTVSPost2010Prop44ColorRGB
 90
      255
102
RTVSPost2010PropOp44
 70
     1
102
RTVSPost2010Prop45
280
     0
102
RTVSPost2010PropOp45
 70
     1
102
RTVSPost2010Prop46
 90
       50
102
RTVSPost2010PropOp46
 70
     1
102
RTVSPost2010Prop47
 90
       50
102
RTVSPost2010PropOp47
 70
     1
102
RTVSPost2010Prop48
 90
       50
102
RTVSPost2010PropOp48
 70
     1
102
RTVSPost2010Prop49
280
     0
102
RTVSPost2010PropOp49
 70
     1
102
RTVSPost2010Prop50
 90
       50
102
RTVSPost2010PropOp50
 70
     1
102
RTVSPost2010Prop51ColorIndex
 90
      256
102
RTVSPost2010Prop51ColorRGB
 90
-16777216
102
RTVSPost2010PropOp51
 70
     0
102
RTVSPost2010Prop52
140
1.0
102
RTVSPost2010PropOp52
 70
     0
102
RTVSPost2010Prop53
 90
        2
102
RTVSPost2010PropOp53
 70
     1
102
RTVSPost2010Prop54
  1
strokes_ogs.tif
102
RTVSPost2010PropOp54
 70
     1
102
RTVSPost2010Prop55
280
     0
102
RTVSPost2010PropOp55
 70
     1
102
RTVSPost2010Prop56
140
1.0
102
RTVSPost2010PropOp56
 70
     1
102
RTVSPost2010Prop57
140
1.0
102
RTVSPost2010PropOp57
 70
     1
102
RTVSPropertyOp0
 70
     1
102
RTVSPropertyOp1
 70
     1
102
RTVSPropertyOp2
 70
     1
102
RTVSPropertyOp3
 70
     1
102
RTVSPropertyOp4
 70
     1
102
RTVSPropertyOp5
 70
     1
102
RTVSPropertyOp6
 70
     1
102
RTVSPropertyOp7
 70
     1
102
RTVSPropertyOp8
 70
     1
102
RTVSPropertyOp9
 70
     1
102
RTVSPropertyOp10
 70
     1
102
RTVSPropertyOp11
 70
     1
102
RTVSPropertyOp12
 70
     1
102
RTVSPropertyOp13
 70
     1
102
RTVSPropertyOp14
 70
     1
102
RTVSPropertyOp15
 70
     1
102
RTVSPropertyOp16
 70
     1
102
RTVSPropertyOp17
 70
     1
102
RTVSPropertyOp18
 70
     1
102
RTVSPropertyOp19
 70
     1
102
RTVSPropertyOp20
 70
     1
102
RTVSPropertyOp21
 70
     1
102
RTVSPropertyOp22
 70
     1
102
RTVSPropertyOp23
 70
     1
102
RTVSPropertyOp24
 70
     1
102
RTVSPropertyOp25
 70
     1
102
RTVSPropertyOp26
 70
     1
102
RTVSPropertyOp27
 70
     1
102
RTVSPropertyOp28
 70
     1
102
RTVSPropertyOp29
 70
     1
102
RTVSPropertyOp30
 70
     1
102
RTVSPropertyOp31
 70
     1
102
RTVSPropertyOp32
 70
     1
102
RTVSPropertyOp33
 70
     1
102
RTVSPropertyOp34
 70
     1
102
RTVSPropertyOp35
 70
     1
102
RTVSPropertyOp36
 70
     1
102
RTVSPropertyOp37
 70
     1
102
RTVSPropertyOp38
 70
     1
102
RTVSPropertyOp39
 70
     1
102
RTVSPropertyOp40
 70
     1
102
RTVSPropertyOp41
 70
     1
102
RTVSPropertyOp42
 70
     1
102
RTVSPropertyOp43
 70
     1
102
RTVSPropertyOp44
 70
     1
102
RTVSPropertyOp45
 70
     1
102
RTVSPropertyOp46
 70
     1
102
RTVSPropertyOp47
 70
     1
102
RTVSPropertyOp48
 70
     1
102
RTVSPropertyOp49
 70
     1
102
RTVSPropertyOp50
 70
     1
102
RTVSPropertyOp51
 70
     0
102
RTVSPropertyOp52
 70
     0
102
RTVSPropertyOp53
 70
     1
102
RTVSPropertyOp54
 70
     1
102
RTVSPropertyOp55
 70
     1
102
RTVSPropertyOp56
 70
     1
102
RTVSPropertyOp57
 70
     1
102
RTVSPropertyOp58
 70
     1
102
RTVSPropertyOp59
 70
     1
102
RTVSPropertyOp60
 70
     1
102
RTVSPropertyOp61
 70
     1
102
RTVSPropertyOp62
 70
     1
  0
XRECORD
  5
FBC6D
102
{ACAD_REACTORS
330
FBC6C
102
}
330
FBC6C
100
AcDbXrecord
280
     1
102
RTVSPost2010Prop28
280
     0
102
RTVSPost2010PropOp28
 70
     1
102
RTVSPost2010Prop29
280
     1
102
RTVSPost2010PropOp29
 70
     1
102
RTVSPost2010Prop30
280
     1
102
RTVSPost2010PropOp30
 70
     1
102
RTVSPost2010Prop31
280
     0
102
RTVSPost2010PropOp31
 70
     1
102
RTVSPost2010Prop32
280
     0
102
RTVSPost2010PropOp32
 70
     1
102
RTVSPost2010Prop33
280
     0
102
RTVSPost2010PropOp33
 70
     1
102
RTVSPost2010Prop34
280
     0
102
RTVSPost2010PropOp34
 70
     1
102
RTVSPost2010Prop35
280
     0
102
RTVSPost2010PropOp35
 70
     1
102
RTVSPost2010Prop36
280
     0
102
RTVSPost2010PropOp36
 70
     1
102
RTVSPost2010Prop37
 90
       50
102
RTVSPost2010PropOp37
 70
     1
102
RTVSPost2010Prop38
140
0.0
102
RTVSPost2010PropOp38
 70
     1
102
RTVSPost2010Prop39
140
1.0
102
RTVSPost2010PropOp39
 70
     1
102
RTVSPost2010Prop40
 90
        0
102
RTVSPost2010PropOp40
 70
     1
102
RTVSPost2010Prop41ColorIndex
 90
       18
102
RTVSPost2010Prop41ColorRGB
 90
        0
102
RTVSPost2010PropOp41
 70
     1
102
RTVSPost2010Prop42
 90
       50
102
RTVSPost2010PropOp42
 70
     1
102
RTVSPost2010Prop43
 90
        3
102
RTVSPost2010PropOp43
 70
     1
102
RTVSPost2010Prop44ColorIndex
 90
        5
102
RTVSPost2010Prop44ColorRGB
 90
      255
102
RTVSPost2010PropOp44
 70
     1
102
RTVSPost2010Prop45
280
     0
102
RTVSPost2010PropOp45
 70
     1
102
RTVSPost2010Prop46
 90
       50
102
RTVSPost2010PropOp46
 70
     1
102
RTVSPost2010Prop47
 90
       50
102
RTVSPost2010PropOp47
 70
     1
102
RTVSPost2010Prop48
 90
       50
102
RTVSPost2010PropOp48
 70
     1
102
RTVSPost2010Prop49
280
     0
102
RTVSPost2010PropOp49
 70
     1
102
RTVSPost2010Prop50
 90
       50
102
RTVSPost2010PropOp50
 70
     1
102
RTVSPost2010Prop51ColorIndex
 90
      256
102
RTVSPost2010Prop51ColorRGB
 90
-16777216
102
RTVSPost2010PropOp51
 70
     0
102
RTVSPost2010Prop52
140
1.0
102
RTVSPost2010PropOp52
 70
     0
102
RTVSPost2010Prop53
 90
        2
102
RTVSPost2010PropOp53
 70
     1
102
RTVSPost2010Prop54
  1
strokes_ogs.tif
102
RTVSPost2010PropOp54
 70
     1
102
RTVSPost2010Prop55
280
     0
102
RTVSPost2010PropOp55
 70
     1
102
RTVSPost2010Prop56
140
1.0
102
RTVSPost2010PropOp56
 70
     1
102
RTVSPost2010Prop57
140
1.0
102
RTVSPost2010PropOp57
 70
     1
102
RTVSPropertyOp0
 70
     1
102
RTVSPropertyOp1
 70
     1
102
RTVSPropertyOp2
 70
     1
102
RTVSPropertyOp3
 70
     1
102
RTVSPropertyOp4
 70
     1
102
RTVSPropertyOp5
 70
     1
102
RTVSPropertyOp6
 70
     1
102
RTVSPropertyOp7
 70
     1
102
RTVSPropertyOp8
 70
     1
102
RTVSPropertyOp9
 70
     1
102
RTVSPropertyOp10
 70
     1
102
RTVSPropertyOp11
 70
     1
102
RTVSPropertyOp12
 70
     1
102
RTVSPropertyOp13
 70
     1
102
RTVSPropertyOp14
 70
     1
102
RTVSPropertyOp15
 70
     1
102
RTVSPropertyOp16
 70
     1
102
RTVSPropertyOp17
 70
     1
102
RTVSPropertyOp18
 70
     1
102
RTVSPropertyOp19
 70
     1
102
RTVSPropertyOp20
 70
     1
102
RTVSPropertyOp21
 70
     1
102
RTVSPropertyOp22
 70
     1
102
RTVSPropertyOp23
 70
     1
102
RTVSPropertyOp24
 70
     1
102
RTVSPropertyOp25
 70
     1
102
RTVSPropertyOp26
 70
     1
102
RTVSPropertyOp27
 70
     1
102
RTVSPropertyOp28
 70
     1
102
RTVSPropertyOp29
 70
     1
102
RTVSPropertyOp30
 70
     1
102
RTVSPropertyOp31
 70
     1
102
RTVSPropertyOp32
 70
     1
102
RTVSPropertyOp33
 70
     1
102
RTVSPropertyOp34
 70
     1
102
RTVSPropertyOp35
 70
     1
102
RTVSPropertyOp36
 70
     1
102
RTVSPropertyOp37
 70
     1
102
RTVSPropertyOp38
 70
     1
102
RTVSPropertyOp39
 70
     1
102
RTVSPropertyOp40
 70
     1
102
RTVSPropertyOp41
 70
     1
102
RTVSPropertyOp42
 70
     1
102
RTVSPropertyOp43
 70
     1
102
RTVSPropertyOp44
 70
     1
102
RTVSPropertyOp45
 70
     1
102
RTVSPropertyOp46
 70
     1
102
RTVSPropertyOp47
 70
     1
102
RTVSPropertyOp48
 70
     1
102
RTVSPropertyOp49
 70
     1
102
RTVSPropertyOp50
 70
     1
102
RTVSPropertyOp51
 70
     0
102
RTVSPropertyOp52
 70
     0
102
RTVSPropertyOp53
 70
     1
102
RTVSPropertyOp54
 70
     1
102
RTVSPropertyOp55
 70
     1
102
RTVSPropertyOp56
 70
     1
102
RTVSPropertyOp57
 70
     1
102
RTVSPropertyOp58
 70
     1
102
RTVSPropertyOp59
 70
     1
102
RTVSPropertyOp60
 70
     1
102
RTVSPropertyOp61
 70
     1
102
RTVSPropertyOp62
 70
     1
  0
XRECORD
  5
FBC6F
102
{ACAD_REACTORS
330
FBC6E
102
}
330
FBC6E
100
AcDbXrecord
280
     1
102
RTVSPost2010Prop28
280
     0
102
RTVSPost2010PropOp28
 70
     1
102
RTVSPost2010Prop29
280
     1
102
RTVSPost2010PropOp29
 70
     1
102
RTVSPost2010Prop30
280
     1
102
RTVSPost2010PropOp30
 70
     1
102
RTVSPost2010Prop31
280
     0
102
RTVSPost2010PropOp31
 70
     1
102
RTVSPost2010Prop32
280
     0
102
RTVSPost2010PropOp32
 70
     1
102
RTVSPost2010Prop33
280
     0
102
RTVSPost2010PropOp33
 70
     1
102
RTVSPost2010Prop34
280
     0
102
RTVSPost2010PropOp34
 70
     1
102
RTVSPost2010Prop35
280
     0
102
RTVSPost2010PropOp35
 70
     1
102
RTVSPost2010Prop36
280
     0
102
RTVSPost2010PropOp36
 70
     1
102
RTVSPost2010Prop37
 90
       50
102
RTVSPost2010PropOp37
 70
     1
102
RTVSPost2010Prop38
140
0.0
102
RTVSPost2010PropOp38
 70
     1
102
RTVSPost2010Prop39
140
1.0
102
RTVSPost2010PropOp39
 70
     1
102
RTVSPost2010Prop40
 90
        0
102
RTVSPost2010PropOp40
 70
     1
102
RTVSPost2010Prop41ColorIndex
 90
       18
102
RTVSPost2010Prop41ColorRGB
 90
        0
102
RTVSPost2010PropOp41
 70
     1
102
RTVSPost2010Prop42
 90
       50
102
RTVSPost2010PropOp42
 70
     1
102
RTVSPost2010Prop43
 90
        3
102
RTVSPost2010PropOp43
 70
     1
102
RTVSPost2010Prop44ColorIndex
 90
        5
102
RTVSPost2010Prop44ColorRGB
 90
      255
102
RTVSPost2010PropOp44
 70
     1
102
RTVSPost2010Prop45
280
     0
102
RTVSPost2010PropOp45
 70
     1
102
RTVSPost2010Prop46
 90
       50
102
RTVSPost2010PropOp46
 70
     1
102
RTVSPost2010Prop47
 90
       50
102
RTVSPost2010PropOp47
 70
     1
102
RTVSPost2010Prop48
 90
       50
102
RTVSPost2010PropOp48
 70
     1
102
RTVSPost2010Prop49
280
     0
102
RTVSPost2010PropOp49
 70
     1
102
RTVSPost2010Prop50
 90
       50
102
RTVSPost2010PropOp50
 70
     1
102
RTVSPost2010Prop51ColorIndex
 90
      256
102
RTVSPost2010Prop51ColorRGB
 90
-16777216
102
RTVSPost2010PropOp51
 70
     0
102
RTVSPost2010Prop52
140
1.0
102
RTVSPost2010PropOp52
 70
     0
102
RTVSPost2010Prop53
 90
        2
102
RTVSPost2010PropOp53
 70
     1
102
RTVSPost2010Prop54
  1
strokes_ogs.tif
102
RTVSPost2010PropOp54
 70
     1
102
RTVSPost2010Prop55
280
     0
102
RTVSPost2010PropOp55
 70
     1
102
RTVSPost2010Prop56
140
1.0
102
RTVSPost2010PropOp56
 70
     1
102
RTVSPost2010Prop57
140
1.0
102
RTVSPost2010PropOp57
 70
     1
102
RTVSPropertyOp0
 70
     1
102
RTVSPropertyOp1
 70
     1
102
RTVSPropertyOp2
 70
     1
102
RTVSPropertyOp3
 70
     1
102
RTVSPropertyOp4
 70
     1
102
RTVSPropertyOp5
 70
     1
102
RTVSPropertyOp6
 70
     1
102
RTVSPropertyOp7
 70
     1
102
RTVSPropertyOp8
 70
     1
102
RTVSPropertyOp9
 70
     1
102
RTVSPropertyOp10
 70
     1
102
RTVSPropertyOp11
 70
     1
102
RTVSPropertyOp12
 70
     1
102
RTVSPropertyOp13
 70
     1
102
RTVSPropertyOp14
 70
     1
102
RTVSPropertyOp15
 70
     1
102
RTVSPropertyOp16
 70
     1
102
RTVSPropertyOp17
 70
     1
102
RTVSPropertyOp18
 70
     1
102
RTVSPropertyOp19
 70
     1
102
RTVSPropertyOp20
 70
     1
102
RTVSPropertyOp21
 70
     1
102
RTVSPropertyOp22
 70
     1
102
RTVSPropertyOp23
 70
     1
102
RTVSPropertyOp24
 70
     1
102
RTVSPropertyOp25
 70
     1
102
RTVSPropertyOp26
 70
     1
102
RTVSPropertyOp27
 70
     1
102
RTVSPropertyOp28
 70
     1
102
RTVSPropertyOp29
 70
     1
102
RTVSPropertyOp30
 70
     1
102
RTVSPropertyOp31
 70
     1
102
RTVSPropertyOp32
 70
     1
102
RTVSPropertyOp33
 70
     1
102
RTVSPropertyOp34
 70
     1
102
RTVSPropertyOp35
 70
     1
102
RTVSPropertyOp36
 70
     1
102
RTVSPropertyOp37
 70
     1
102
RTVSPropertyOp38
 70
     1
102
RTVSPropertyOp39
 70
     1
102
RTVSPropertyOp40
 70
     1
102
RTVSPropertyOp41
 70
     1
102
RTVSPropertyOp42
 70
     1
102
RTVSPropertyOp43
 70
     1
102
RTVSPropertyOp44
 70
     1
102
RTVSPropertyOp45
 70
     1
102
RTVSPropertyOp46
 70
     1
102
RTVSPropertyOp47
 70
     1
102
RTVSPropertyOp48
 70
     1
102
RTVSPropertyOp49
 70
     1
102
RTVSPropertyOp50
 70
     1
102
RTVSPropertyOp51
 70
     0
102
RTVSPropertyOp52
 70
     0
102
RTVSPropertyOp53
 70
     1
102
RTVSPropertyOp54
 70
     1
102
RTVSPropertyOp55
 70
     1
102
RTVSPropertyOp56
 70
     1
102
RTVSPropertyOp57
 70
     1
102
RTVSPropertyOp58
 70
     1
102
RTVSPropertyOp59
 70
     1
102
RTVSPropertyOp60
 70
     1
102
RTVSPropertyOp61
 70
     1
102
RTVSPropertyOp62
 70
     1
  0
XRECORD
  5
FBC77
102
{ACAD_REACTORS
330
FBC76
102
}
330
FBC76
100
AcDbXrecord
280
     1
102
RTVSPost2010Prop28
280
     0
102
RTVSPost2010PropOp28
 70
     1
102
RTVSPost2010Prop29
280
     1
102
RTVSPost2010PropOp29
 70
     1
102
RTVSPost2010Prop30
280
     1
102
RTVSPost2010PropOp30
 70
     1
102
RTVSPost2010Prop31
280
     0
102
RTVSPost2010PropOp31
 70
     1
102
RTVSPost2010Prop32
280
     0
102
RTVSPost2010PropOp32
 70
     1
102
RTVSPost2010Prop33
280
     0
102
RTVSPost2010PropOp33
 70
     1
102
RTVSPost2010Prop34
280
     0
102
RTVSPost2010PropOp34
 70
     1
102
RTVSPost2010Prop35
280
     0
102
RTVSPost2010PropOp35
 70
     1
102
RTVSPost2010Prop36
280
     0
102
RTVSPost2010PropOp36
 70
     1
102
RTVSPost2010Prop37
 90
       50
102
RTVSPost2010PropOp37
 70
     1
102
RTVSPost2010Prop38
140
0.0
102
RTVSPost2010PropOp38
 70
     1
102
RTVSPost2010Prop39
140
1.0
102
RTVSPost2010PropOp39
 70
     1
102
RTVSPost2010Prop40
 90
        0
102
RTVSPost2010PropOp40
 70
     1
102
RTVSPost2010Prop41ColorIndex
 90
       18
102
RTVSPost2010Prop41ColorRGB
 90
        0
102
RTVSPost2010PropOp41
 70
     1
102
RTVSPost2010Prop42
 90
       50
102
RTVSPost2010PropOp42
 70
     1
102
RTVSPost2010Prop43
 90
        3
102
RTVSPost2010PropOp43
 70
     1
102
RTVSPost2010Prop44ColorIndex
 90
        5
102
RTVSPost2010Prop44ColorRGB
 90
      255
102
RTVSPost2010PropOp44
 70
     1
102
RTVSPost2010Prop45
280
     0
102
RTVSPost2010PropOp45
 70
     1
102
RTVSPost2010Prop46
 90
       50
102
RTVSPost2010PropOp46
 70
     1
102
RTVSPost2010Prop47
 90
       50
102
RTVSPost2010PropOp47
 70
     1
102
RTVSPost2010Prop48
 90
       50
102
RTVSPost2010PropOp48
 70
     1
102
RTVSPost2010Prop49
280
     0
102
RTVSPost2010PropOp49
 70
     1
102
RTVSPost2010Prop50
 90
       50
102
RTVSPost2010PropOp50
 70
     1
102
RTVSPost2010Prop51ColorIndex
 90
      256
102
RTVSPost2010Prop51ColorRGB
 90
-16777216
102
RTVSPost2010PropOp51
 70
     0
102
RTVSPost2010Prop52
140
1.0
102
RTVSPost2010PropOp52
 70
     0
102
RTVSPost2010Prop53
 90
        2
102
RTVSPost2010PropOp53
 70
     1
102
RTVSPost2010Prop54
  1
strokes_ogs.tif
102
RTVSPost2010PropOp54
 70
     1
102
RTVSPost2010Prop55
280
     0
102
RTVSPost2010PropOp55
 70
     1
102
RTVSPost2010Prop56
140
1.0
102
RTVSPost2010PropOp56
 70
     1
102
RTVSPost2010Prop57
140
1.0
102
RTVSPost2010PropOp57
 70
     1
102
RTVSPropertyOp0
 70
     1
102
RTVSPropertyOp1
 70
     1
102
RTVSPropertyOp2
 70
     1
102
RTVSPropertyOp3
 70
     1
102
RTVSPropertyOp4
 70
     1
102
RTVSPropertyOp5
 70
     1
102
RTVSPropertyOp6
 70
     1
102
RTVSPropertyOp7
 70
     1
102
RTVSPropertyOp8
 70
     1
102
RTVSPropertyOp9
 70
     1
102
RTVSPropertyOp10
 70
     1
102
RTVSPropertyOp11
 70
     1
102
RTVSPropertyOp12
 70
     1
102
RTVSPropertyOp13
 70
     1
102
RTVSPropertyOp14
 70
     1
102
RTVSPropertyOp15
 70
     1
102
RTVSPropertyOp16
 70
     1
102
RTVSPropertyOp17
 70
     1
102
RTVSPropertyOp18
 70
     1
102
RTVSPropertyOp19
 70
     1
102
RTVSPropertyOp20
 70
     1
102
RTVSPropertyOp21
 70
     1
102
RTVSPropertyOp22
 70
     1
102
RTVSPropertyOp23
 70
     1
102
RTVSPropertyOp24
 70
     1
102
RTVSPropertyOp25
 70
     1
102
RTVSPropertyOp26
 70
     1
102
RTVSPropertyOp27
 70
     1
102
RTVSPropertyOp28
 70
     1
102
RTVSPropertyOp29
 70
     1
102
RTVSPropertyOp30
 70
     1
102
RTVSPropertyOp31
 70
     1
102
RTVSPropertyOp32
 70
     1
102
RTVSPropertyOp33
 70
     1
102
RTVSPropertyOp34
 70
     1
102
RTVSPropertyOp35
 70
     1
102
RTVSPropertyOp36
 70
     1
102
RTVSPropertyOp37
 70
     1
102
RTVSPropertyOp38
 70
     1
102
RTVSPropertyOp39
 70
     1
102
RTVSPropertyOp40
 70
     1
102
RTVSPropertyOp41
 70
     1
102
RTVSPropertyOp42
 70
     1
102
RTVSPropertyOp43
 70
     1
102
RTVSPropertyOp44
 70
     1
102
RTVSPropertyOp45
 70
     1
102
RTVSPropertyOp46
 70
     1
102
RTVSPropertyOp47
 70
     1
102
RTVSPropertyOp48
 70
     1
102
RTVSPropertyOp49
 70
     1
102
RTVSPropertyOp50
 70
     1
102
RTVSPropertyOp51
 70
     0
102
RTVSPropertyOp52
 70
     0
102
RTVSPropertyOp53
 70
     1
102
RTVSPropertyOp54
 70
     1
102
RTVSPropertyOp55
 70
     1
102
RTVSPropertyOp56
 70
     1
102
RTVSPropertyOp57
 70
     1
102
RTVSPropertyOp58
 70
     1
102
RTVSPropertyOp59
 70
     1
102
RTVSPropertyOp60
 70
     1
102
RTVSPropertyOp61
 70
     1
102
RTVSPropertyOp62
 70
     1
  0
XRECORD
  5
FBC93
102
{ACAD_REACTORS
330
FBC92
102
}
330
FBC92
100
AcDbXrecord
280
     1
102
RTVSPost2010Prop28
280
     0
102
RTVSPost2010PropOp28
 70
     0
102
RTVSPost2010Prop29
280
     1
102
RTVSPost2010PropOp29
 70
     0
102
RTVSPost2010Prop30
280
     1
102
RTVSPost2010PropOp30
 70
     0
102
RTVSPost2010Prop31
280
     0
102
RTVSPost2010PropOp31
 70
     0
102
RTVSPost2010Prop32
280
     0
102
RTVSPost2010PropOp32
 70
     0
102
RTVSPost2010Prop33
280
     0
102
RTVSPost2010PropOp33
 70
     0
102
RTVSPost2010Prop34
280
     0
102
RTVSPost2010PropOp34
 70
     0
102
RTVSPost2010Prop35
280
     0
102
RTVSPost2010PropOp35
 70
     0
102
RTVSPost2010Prop36
280
     0
102
RTVSPost2010PropOp36
 70
     0
102
RTVSPost2010Prop37
 90
       50
102
RTVSPost2010PropOp37
 70
     0
102
RTVSPost2010Prop38
140
0.0
102
RTVSPost2010PropOp38
 70
     0
102
RTVSPost2010Prop39
140
1.0
102
RTVSPost2010PropOp39
 70
     0
102
RTVSPost2010Prop40
 90
        0
102
RTVSPost2010PropOp40
 70
     0
102
RTVSPost2010Prop41ColorIndex
 90
       18
102
RTVSPost2010Prop41ColorRGB
 90
        0
102
RTVSPost2010PropOp41
 70
     0
102
RTVSPost2010Prop42
 90
       50
102
RTVSPost2010PropOp42
 70
     0
102
RTVSPost2010Prop43
 90
        3
102
RTVSPost2010PropOp43
 70
     0
102
RTVSPost2010Prop44ColorIndex
 90
        5
102
RTVSPost2010Prop44ColorRGB
 90
      255
102
RTVSPost2010PropOp44
 70
     0
102
RTVSPost2010Prop45
280
     0
102
RTVSPost2010PropOp45
 70
     0
102
RTVSPost2010Prop46
 90
       50
102
RTVSPost2010PropOp46
 70
     0
102
RTVSPost2010Prop47
 90
       50
102
RTVSPost2010PropOp47
 70
     0
102
RTVSPost2010Prop48
 90
       50
102
RTVSPost2010PropOp48
 70
     0
102
RTVSPost2010Prop49
280
     0
102
RTVSPost2010PropOp49
 70
     0
102
RTVSPost2010Prop50
 90
       50
102
RTVSPost2010PropOp50
 70
     0
102
RTVSPost2010Prop51ColorIndex
 90
      256
102
RTVSPost2010Prop51ColorRGB
 90
-16777216
102
RTVSPost2010PropOp51
 70
     0
102
RTVSPost2010Prop52
140
1.0
102
RTVSPost2010PropOp52
 70
     0
102
RTVSPost2010Prop53
 90
        2
102
RTVSPost2010PropOp53
 70
     0
102
RTVSPost2010Prop54
  1
strokes_ogs.tif
102
RTVSPost2010PropOp54
 70
     0
102
RTVSPost2010Prop55
280
     0
102
RTVSPost2010PropOp55
 70
     0
102
RTVSPost2010Prop56
140
1.0
102
RTVSPost2010PropOp56
 70
     0
102
RTVSPost2010Prop57
140
1.0
102
RTVSPost2010PropOp57
 70
     0
102
RTVSPropertyOp0
 70
     0
102
RTVSPropertyOp1
 70
     0
102
RTVSPropertyOp2
 70
     0
102
RTVSPropertyOp3
 70
     0
102
RTVSPropertyOp4
 70
     0
102
RTVSPropertyOp5
 70
     0
102
RTVSPropertyOp6
 70
     0
102
RTVSPropertyOp7
 70
     0
102
RTVSPropertyOp8
 70
     0
102
RTVSPropertyOp9
 70
     0
102
RTVSPropertyOp10
 70
     0
102
RTVSPropertyOp11
 70
     0
102
RTVSPropertyOp12
 70
     0
102
RTVSPropertyOp13
 70
     0
102
RTVSPropertyOp14
 70
     2
102
RTVSPropertyOp15
 70
     0
102
RTVSPropertyOp16
 70
     0
102
RTVSPropertyOp17
 70
     0
102
RTVSPropertyOp18
 70
     0
102
RTVSPropertyOp19
 70
     0
102
RTVSPropertyOp20
 70
     0
102
RTVSPropertyOp21
 70
     0
102
RTVSPropertyOp22
 70
     0
102
RTVSPropertyOp23
 70
     0
102
RTVSPropertyOp24
 70
     0
102
RTVSPropertyOp25
 70
     0
102
RTVSPropertyOp26
 70
     0
102
RTVSPropertyOp27
 70
     0
102
RTVSPropertyOp28
 70
     0
102
RTVSPropertyOp29
 70
     0
102
RTVSPropertyOp30
 70
     0
102
RTVSPropertyOp31
 70
     0
102
RTVSPropertyOp32
 70
     0
102
RTVSPropertyOp33
 70
     0
102
RTVSPropertyOp34
 70
     0
102
RTVSPropertyOp35
 70
     0
102
RTVSPropertyOp36
 70
     0
102
RTVSPropertyOp37
 70
     0
102
RTVSPropertyOp38
 70
     0
102
RTVSPropertyOp39
 70
     0
102
RTVSPropertyOp40
 70
     0
102
RTVSPropertyOp41
 70
     0
102
RTVSPropertyOp42
 70
     0
102
RTVSPropertyOp43
 70
     0
102
RTVSPropertyOp44
 70
     0
102
RTVSPropertyOp45
 70
     0
102
RTVSPropertyOp46
 70
     0
102
RTVSPropertyOp47
 70
     0
102
RTVSPropertyOp48
 70
     0
102
RTVSPropertyOp49
 70
     0
102
RTVSPropertyOp50
 70
     0
102
RTVSPropertyOp51
 70
     0
102
RTVSPropertyOp52
 70
     0
102
RTVSPropertyOp53
 70
     0
102
RTVSPropertyOp54
 70
     0
102
RTVSPropertyOp55
 70
     0
102
RTVSPropertyOp56
 70
     0
102
RTVSPropertyOp57
 70
     0
102
RTVSPropertyOp58
 70
     0
102
RTVSPropertyOp59
 70
     0
102
RTVSPropertyOp60
 70
     0
102
RTVSPropertyOp61
 70
     0
102
RTVSPropertyOp62
 70
     0
  0
XRECORD
  5
FBC83
102
{ACAD_REACTORS
330
FBC82
102
}
330
FBC82
100
AcDbXrecord
280
     1
102
RTVSPost2010Prop28
280
     0
102
RTVSPost2010PropOp28
 70
     1
102
RTVSPost2010Prop29
280
     1
102
RTVSPost2010PropOp29
 70
     1
102
RTVSPost2010Prop30
280
     1
102
RTVSPost2010PropOp30
 70
     1
102
RTVSPost2010Prop31
280
     0
102
RTVSPost2010PropOp31
 70
     1
102
RTVSPost2010Prop32
280
     0
102
RTVSPost2010PropOp32
 70
     1
102
RTVSPost2010Prop33
280
     0
102
RTVSPost2010PropOp33
 70
     1
102
RTVSPost2010Prop34
280
     0
102
RTVSPost2010PropOp34
 70
     1
102
RTVSPost2010Prop35
280
     0
102
RTVSPost2010PropOp35
 70
     1
102
RTVSPost2010Prop36
280
     0
102
RTVSPost2010PropOp36
 70
     1
102
RTVSPost2010Prop37
 90
       50
102
RTVSPost2010PropOp37
 70
     1
102
RTVSPost2010Prop38
140
0.0
102
RTVSPost2010PropOp38
 70
     1
102
RTVSPost2010Prop39
140
1.0
102
RTVSPost2010PropOp39
 70
     1
102
RTVSPost2010Prop40
 90
        0
102
RTVSPost2010PropOp40
 70
     1
102
RTVSPost2010Prop41ColorIndex
 90
       18
102
RTVSPost2010Prop41ColorRGB
 90
        0
102
RTVSPost2010PropOp41
 70
     1
102
RTVSPost2010Prop42
 90
       50
102
RTVSPost2010PropOp42
 70
     1
102
RTVSPost2010Prop43
 90
        3
102
RTVSPost2010PropOp43
 70
     1
102
RTVSPost2010Prop44ColorIndex
 90
        5
102
RTVSPost2010Prop44ColorRGB
 90
      255
102
RTVSPost2010PropOp44
 70
     1
102
RTVSPost2010Prop45
280
     0
102
RTVSPost2010PropOp45
 70
     1
102
RTVSPost2010Prop46
 90
       50
102
RTVSPost2010PropOp46
 70
     1
102
RTVSPost2010Prop47
 90
       50
102
RTVSPost2010PropOp47
 70
     1
102
RTVSPost2010Prop48
 90
       50
102
RTVSPost2010PropOp48
 70
     1
102
RTVSPost2010Prop49
280
     0
102
RTVSPost2010PropOp49
 70
     1
102
RTVSPost2010Prop50
 90
       50
102
RTVSPost2010PropOp50
 70
     1
102
RTVSPost2010Prop51ColorIndex
 90
      256
102
RTVSPost2010Prop51ColorRGB
 90
-16777216
102
RTVSPost2010PropOp51
 70
     0
102
RTVSPost2010Prop52
140
1.0
102
RTVSPost2010PropOp52
 70
     0
102
RTVSPost2010Prop53
 90
        2
102
RTVSPost2010PropOp53
 70
     1
102
RTVSPost2010Prop54
  1
strokes_ogs.tif
102
RTVSPost2010PropOp54
 70
     1
102
RTVSPost2010Prop55
280
     0
102
RTVSPost2010PropOp55
 70
     1
102
RTVSPost2010Prop56
140
1.0
102
RTVSPost2010PropOp56
 70
     1
102
RTVSPost2010Prop57
140
1.0
102
RTVSPost2010PropOp57
 70
     1
102
RTVSPropertyOp0
 70
     1
102
RTVSPropertyOp1
 70
     1
102
RTVSPropertyOp2
 70
     1
102
RTVSPropertyOp3
 70
     1
102
RTVSPropertyOp4
 70
     1
102
RTVSPropertyOp5
 70
     1
102
RTVSPropertyOp6
 70
     1
102
RTVSPropertyOp7
 70
     1
102
RTVSPropertyOp8
 70
     1
102
RTVSPropertyOp9
 70
     1
102
RTVSPropertyOp10
 70
     1
102
RTVSPropertyOp11
 70
     1
102
RTVSPropertyOp12
 70
     1
102
RTVSPropertyOp13
 70
     1
102
RTVSPropertyOp14
 70
     1
102
RTVSPropertyOp15
 70
     1
102
RTVSPropertyOp16
 70
     1
102
RTVSPropertyOp17
 70
     1
102
RTVSPropertyOp18
 70
     1
102
RTVSPropertyOp19
 70
     1
102
RTVSPropertyOp20
 70
     1
102
RTVSPropertyOp21
 70
     1
102
RTVSPropertyOp22
 70
     1
102
RTVSPropertyOp23
 70
     1
102
RTVSPropertyOp24
 70
     1
102
RTVSPropertyOp25
 70
     1
102
RTVSPropertyOp26
 70
     1
102
RTVSPropertyOp27
 70
     1
102
RTVSPropertyOp28
 70
     1
102
RTVSPropertyOp29
 70
     1
102
RTVSPropertyOp30
 70
     1
102
RTVSPropertyOp31
 70
     1
102
RTVSPropertyOp32
 70
     1
102
RTVSPropertyOp33
 70
     1
102
RTVSPropertyOp34
 70
     1
102
RTVSPropertyOp35
 70
     1
102
RTVSPropertyOp36
 70
     1
102
RTVSPropertyOp37
 70
     1
102
RTVSPropertyOp38
 70
     1
102
RTVSPropertyOp39
 70
     1
102
RTVSPropertyOp40
 70
     1
102
RTVSPropertyOp41
 70
     1
102
RTVSPropertyOp42
 70
     1
102
RTVSPropertyOp43
 70
     1
102
RTVSPropertyOp44
 70
     1
102
RTVSPropertyOp45
 70
     1
102
RTVSPropertyOp46
 70
     1
102
RTVSPropertyOp47
 70
     1
102
RTVSPropertyOp48
 70
     1
102
RTVSPropertyOp49
 70
     1
102
RTVSPropertyOp50
 70
     1
102
RTVSPropertyOp51
 70
     0
102
RTVSPropertyOp52
 70
     0
102
RTVSPropertyOp53
 70
     1
102
RTVSPropertyOp54
 70
     1
102
RTVSPropertyOp55
 70
     1
102
RTVSPropertyOp56
 70
     1
102
RTVSPropertyOp57
 70
     1
102
RTVSPropertyOp58
 70
     1
102
RTVSPropertyOp59
 70
     1
102
RTVSPropertyOp60
 70
     1
102
RTVSPropertyOp61
 70
     1
102
RTVSPropertyOp62
 70
     1
  0
XRECORD
  5
FBC95
102
{ACAD_REACTORS
330
FBC94
102
}
330
FBC94
100
AcDbXrecord
280
     1
102
RTVSPost2010Prop28
280
     0
102
RTVSPost2010PropOp28
 70
     0
102
RTVSPost2010Prop29
280
     1
102
RTVSPost2010PropOp29
 70
     0
102
RTVSPost2010Prop30
280
     1
102
RTVSPost2010PropOp30
 70
     0
102
RTVSPost2010Prop31
280
     0
102
RTVSPost2010PropOp31
 70
     0
102
RTVSPost2010Prop32
280
     0
102
RTVSPost2010PropOp32
 70
     0
102
RTVSPost2010Prop33
280
     0
102
RTVSPost2010PropOp33
 70
     0
102
RTVSPost2010Prop34
280
     0
102
RTVSPost2010PropOp34
 70
     0
102
RTVSPost2010Prop35
280
     0
102
RTVSPost2010PropOp35
 70
     0
102
RTVSPost2010Prop36
280
     0
102
RTVSPost2010PropOp36
 70
     0
102
RTVSPost2010Prop37
 90
       50
102
RTVSPost2010PropOp37
 70
     0
102
RTVSPost2010Prop38
140
0.0
102
RTVSPost2010PropOp38
 70
     0
102
RTVSPost2010Prop39
140
1.0
102
RTVSPost2010PropOp39
 70
     0
102
RTVSPost2010Prop40
 90
        0
102
RTVSPost2010PropOp40
 70
     0
102
RTVSPost2010Prop41ColorIndex
 90
       18
102
RTVSPost2010Prop41ColorRGB
 90
        0
102
RTVSPost2010PropOp41
 70
     0
102
RTVSPost2010Prop42
 90
       50
102
RTVSPost2010PropOp42
 70
     0
102
RTVSPost2010Prop43
 90
        3
102
RTVSPost2010PropOp43
 70
     0
102
RTVSPost2010Prop44ColorIndex
 90
        5
102
RTVSPost2010Prop44ColorRGB
 90
      255
102
RTVSPost2010PropOp44
 70
     0
102
RTVSPost2010Prop45
280
     0
102
RTVSPost2010PropOp45
 70
     0
102
RTVSPost2010Prop46
 90
       50
102
RTVSPost2010PropOp46
 70
     0
102
RTVSPost2010Prop47
 90
       50
102
RTVSPost2010PropOp47
 70
     0
102
RTVSPost2010Prop48
 90
       50
102
RTVSPost2010PropOp48
 70
     0
102
RTVSPost2010Prop49
280
     0
102
RTVSPost2010PropOp49
 70
     0
102
RTVSPost2010Prop50
 90
       50
102
RTVSPost2010PropOp50
 70
     0
102
RTVSPost2010Prop51ColorIndex
 90
      256
102
RTVSPost2010Prop51ColorRGB
 90
-16777216
102
RTVSPost2010PropOp51
 70
     0
102
RTVSPost2010Prop52
140
1.0
102
RTVSPost2010PropOp52
 70
     0
102
RTVSPost2010Prop53
 90
        2
102
RTVSPost2010PropOp53
 70
     0
102
RTVSPost2010Prop54
  1
strokes_ogs.tif
102
RTVSPost2010PropOp54
 70
     0
102
RTVSPost2010Prop55
280
     0
102
RTVSPost2010PropOp55
 70
     0
102
RTVSPost2010Prop56
140
1.0
102
RTVSPost2010PropOp56
 70
     0
102
RTVSPost2010Prop57
140
1.0
102
RTVSPost2010PropOp57
 70
     0
102
RTVSPropertyOp0
 70
     0
102
RTVSPropertyOp1
 70
     0
102
RTVSPropertyOp2
 70
     0
102
RTVSPropertyOp3
 70
     0
102
RTVSPropertyOp4
 70
     0
102
RTVSPropertyOp5
 70
     0
102
RTVSPropertyOp6
 70
     0
102
RTVSPropertyOp7
 70
     0
102
RTVSPropertyOp8
 70
     0
102
RTVSPropertyOp9
 70
     0
102
RTVSPropertyOp10
 70
     0
102
RTVSPropertyOp11
 70
     0
102
RTVSPropertyOp12
 70
     0
102
RTVSPropertyOp13
 70
     0
102
RTVSPropertyOp14
 70
     2
102
RTVSPropertyOp15
 70
     0
102
RTVSPropertyOp16
 70
     0
102
RTVSPropertyOp17
 70
     0
102
RTVSPropertyOp18
 70
     0
102
RTVSPropertyOp19
 70
     0
102
RTVSPropertyOp20
 70
     0
102
RTVSPropertyOp21
 70
     0
102
RTVSPropertyOp22
 70
     0
102
RTVSPropertyOp23
 70
     0
102
RTVSPropertyOp24
 70
     0
102
RTVSPropertyOp25
 70
     0
102
RTVSPropertyOp26
 70
     0
102
RTVSPropertyOp27
 70
     0
102
RTVSPropertyOp28
 70
     0
102
RTVSPropertyOp29
 70
     0
102
RTVSPropertyOp30
 70
     0
102
RTVSPropertyOp31
 70
     0
102
RTVSPropertyOp32
 70
     0
102
RTVSPropertyOp33
 70
     0
102
RTVSPropertyOp34
 70
     0
102
RTVSPropertyOp35
 70
     0
102
RTVSPropertyOp36
 70
     0
102
RTVSPropertyOp37
 70
     0
102
RTVSPropertyOp38
 70
     0
102
RTVSPropertyOp39
 70
     0
102
RTVSPropertyOp40
 70
     0
102
RTVSPropertyOp41
 70
     0
102
RTVSPropertyOp42
 70
     0
102
RTVSPropertyOp43
 70
     0
102
RTVSPropertyOp44
 70
     0
102
RTVSPropertyOp45
 70
     0
102
RTVSPropertyOp46
 70
     0
102
RTVSPropertyOp47
 70
     0
102
RTVSPropertyOp48
 70
     0
102
RTVSPropertyOp49
 70
     0
102
RTVSPropertyOp50
 70
     0
102
RTVSPropertyOp51
 70
     0
102
RTVSPropertyOp52
 70
     0
102
RTVSPropertyOp53
 70
     0
102
RTVSPropertyOp54
 70
     0
102
RTVSPropertyOp55
 70
     0
102
RTVSPropertyOp56
 70
     0
102
RTVSPropertyOp57
 70
     0
102
RTVSPropertyOp58
 70
     0
102
RTVSPropertyOp59
 70
     0
102
RTVSPropertyOp60
 70
     0
102
RTVSPropertyOp61
 70
     0
102
RTVSPropertyOp62
 70
     0
  0
XRECORD
  5
FBC7B
102
{ACAD_REACTORS
330
FBC7A
102
}
330
FBC7A
100
AcDbXrecord
280
     1
102
RTVSPost2010Prop28
280
     0
102
RTVSPost2010PropOp28
 70
     1
102
RTVSPost2010Prop29
280
     1
102
RTVSPost2010PropOp29
 70
     1
102
RTVSPost2010Prop30
280
     1
102
RTVSPost2010PropOp30
 70
     1
102
RTVSPost2010Prop31
280
     0
102
RTVSPost2010PropOp31
 70
     1
102
RTVSPost2010Prop32
280
     0
102
RTVSPost2010PropOp32
 70
     1
102
RTVSPost2010Prop33
280
     0
102
RTVSPost2010PropOp33
 70
     1
102
RTVSPost2010Prop34
280
     0
102
RTVSPost2010PropOp34
 70
     1
102
RTVSPost2010Prop35
280
     0
102
RTVSPost2010PropOp35
 70
     1
102
RTVSPost2010Prop36
280
     0
102
RTVSPost2010PropOp36
 70
     1
102
RTVSPost2010Prop37
 90
       50
102
RTVSPost2010PropOp37
 70
     1
102
RTVSPost2010Prop38
140
0.0
102
RTVSPost2010PropOp38
 70
     1
102
RTVSPost2010Prop39
140
1.0
102
RTVSPost2010PropOp39
 70
     1
102
RTVSPost2010Prop40
 90
        0
102
RTVSPost2010PropOp40
 70
     1
102
RTVSPost2010Prop41ColorIndex
 90
       18
102
RTVSPost2010Prop41ColorRGB
 90
        0
102
RTVSPost2010PropOp41
 70
     1
102
RTVSPost2010Prop42
 90
       50
102
RTVSPost2010PropOp42
 70
     1
102
RTVSPost2010Prop43
 90
        3
102
RTVSPost2010PropOp43
 70
     1
102
RTVSPost2010Prop44ColorIndex
 90
        5
102
RTVSPost2010Prop44ColorRGB
 90
      255
102
RTVSPost2010PropOp44
 70
     1
102
RTVSPost2010Prop45
280
     0
102
RTVSPost2010PropOp45
 70
     1
102
RTVSPost2010Prop46
 90
       50
102
RTVSPost2010PropOp46
 70
     1
102
RTVSPost2010Prop47
 90
       50
102
RTVSPost2010PropOp47
 70
     1
102
RTVSPost2010Prop48
 90
       50
102
RTVSPost2010PropOp48
 70
     1
102
RTVSPost2010Prop49
280
     0
102
RTVSPost2010PropOp49
 70
     1
102
RTVSPost2010Prop50
 90
       50
102
RTVSPost2010PropOp50
 70
     1
102
RTVSPost2010Prop51ColorIndex
 90
      256
102
RTVSPost2010Prop51ColorRGB
 90
-16777216
102
RTVSPost2010PropOp51
 70
     0
102
RTVSPost2010Prop52
140
1.0
102
RTVSPost2010PropOp52
 70
     0
102
RTVSPost2010Prop53
 90
        2
102
RTVSPost2010PropOp53
 70
     1
102
RTVSPost2010Prop54
  1
strokes_ogs.tif
102
RTVSPost2010PropOp54
 70
     1
102
RTVSPost2010Prop55
280
     0
102
RTVSPost2010PropOp55
 70
     1
102
RTVSPost2010Prop56
140
1.0
102
RTVSPost2010PropOp56
 70
     1
102
RTVSPost2010Prop57
140
1.0
102
RTVSPost2010PropOp57
 70
     1
102
RTVSPropertyOp0
 70
     1
102
RTVSPropertyOp1
 70
     1
102
RTVSPropertyOp2
 70
     1
102
RTVSPropertyOp3
 70
     1
102
RTVSPropertyOp4
 70
     1
102
RTVSPropertyOp5
 70
     1
102
RTVSPropertyOp6
 70
     1
102
RTVSPropertyOp7
 70
     1
102
RTVSPropertyOp8
 70
     1
102
RTVSPropertyOp9
 70
     1
102
RTVSPropertyOp10
 70
     1
102
RTVSPropertyOp11
 70
     1
102
RTVSPropertyOp12
 70
     1
102
RTVSPropertyOp13
 70
     1
102
RTVSPropertyOp14
 70
     1
102
RTVSPropertyOp15
 70
     1
102
RTVSPropertyOp16
 70
     1
102
RTVSPropertyOp17
 70
     1
102
RTVSPropertyOp18
 70
     1
102
RTVSPropertyOp19
 70
     1
102
RTVSPropertyOp20
 70
     1
102
RTVSPropertyOp21
 70
     1
102
RTVSPropertyOp22
 70
     1
102
RTVSPropertyOp23
 70
     1
102
RTVSPropertyOp24
 70
     1
102
RTVSPropertyOp25
 70
     1
102
RTVSPropertyOp26
 70
     1
102
RTVSPropertyOp27
 70
     1
102
RTVSPropertyOp28
 70
     1
102
RTVSPropertyOp29
 70
     1
102
RTVSPropertyOp30
 70
     1
102
RTVSPropertyOp31
 70
     1
102
RTVSPropertyOp32
 70
     1
102
RTVSPropertyOp33
 70
     1
102
RTVSPropertyOp34
 70
     1
102
RTVSPropertyOp35
 70
     1
102
RTVSPropertyOp36
 70
     1
102
RTVSPropertyOp37
 70
     1
102
RTVSPropertyOp38
 70
     1
102
RTVSPropertyOp39
 70
     1
102
RTVSPropertyOp40
 70
     1
102
RTVSPropertyOp41
 70
     1
102
RTVSPropertyOp42
 70
     1
102
RTVSPropertyOp43
 70
     1
102
RTVSPropertyOp44
 70
     1
102
RTVSPropertyOp45
 70
     1
102
RTVSPropertyOp46
 70
     1
102
RTVSPropertyOp47
 70
     1
102
RTVSPropertyOp48
 70
     1
102
RTVSPropertyOp49
 70
     1
102
RTVSPropertyOp50
 70
     1
102
RTVSPropertyOp51
 70
     0
102
RTVSPropertyOp52
 70
     0
102
RTVSPropertyOp53
 70
     1
102
RTVSPropertyOp54
 70
     1
102
RTVSPropertyOp55
 70
     1
102
RTVSPropertyOp56
 70
     1
102
RTVSPropertyOp57
 70
     1
102
RTVSPropertyOp58
 70
     1
102
RTVSPropertyOp59
 70
     1
102
RTVSPropertyOp60
 70
     1
102
RTVSPropertyOp61
 70
     1
102
RTVSPropertyOp62
 70
     1
  0
XRECORD
  5
FBC91
102
{ACAD_REACTORS
330
FBC90
102
}
330
FBC90
100
AcDbXrecord
280
     1
102
RTVSPost2010Prop28
280
     0
102
RTVSPost2010PropOp28
 70
     1
102
RTVSPost2010Prop29
280
     1
102
RTVSPost2010PropOp29
 70
     1
102
RTVSPost2010Prop30
280
     1
102
RTVSPost2010PropOp30
 70
     1
102
RTVSPost2010Prop31
280
     0
102
RTVSPost2010PropOp31
 70
     1
102
RTVSPost2010Prop32
280
     0
102
RTVSPost2010PropOp32
 70
     1
102
RTVSPost2010Prop33
280
     0
102
RTVSPost2010PropOp33
 70
     1
102
RTVSPost2010Prop34
280
     0
102
RTVSPost2010PropOp34
 70
     1
102
RTVSPost2010Prop35
280
     0
102
RTVSPost2010PropOp35
 70
     1
102
RTVSPost2010Prop36
280
     0
102
RTVSPost2010PropOp36
 70
     1
102
RTVSPost2010Prop37
 90
       50
102
RTVSPost2010PropOp37
 70
     1
102
RTVSPost2010Prop38
140
0.0
102
RTVSPost2010PropOp38
 70
     1
102
RTVSPost2010Prop39
140
1.0
102
RTVSPost2010PropOp39
 70
     1
102
RTVSPost2010Prop40
 90
        0
102
RTVSPost2010PropOp40
 70
     1
102
RTVSPost2010Prop41ColorIndex
 90
       18
102
RTVSPost2010Prop41ColorRGB
 90
        0
102
RTVSPost2010PropOp41
 70
     1
102
RTVSPost2010Prop42
 90
       50
102
RTVSPost2010PropOp42
 70
     1
102
RTVSPost2010Prop43
 90
        3
102
RTVSPost2010PropOp43
 70
     1
102
RTVSPost2010Prop44ColorIndex
 90
        5
102
RTVSPost2010Prop44ColorRGB
 90
      255
102
RTVSPost2010PropOp44
 70
     1
102
RTVSPost2010Prop45
280
     0
102
RTVSPost2010PropOp45
 70
     1
102
RTVSPost2010Prop46
 90
       50
102
RTVSPost2010PropOp46
 70
     1
102
RTVSPost2010Prop47
 90
       50
102
RTVSPost2010PropOp47
 70
     1
102
RTVSPost2010Prop48
 90
       50
102
RTVSPost2010PropOp48
 70
     1
102
RTVSPost2010Prop49
280
     0
102
RTVSPost2010PropOp49
 70
     1
102
RTVSPost2010Prop50
 90
       50
102
RTVSPost2010PropOp50
 70
     1
102
RTVSPost2010Prop51ColorIndex
 90
      256
102
RTVSPost2010Prop51ColorRGB
 90
-16777216
102
RTVSPost2010PropOp51
 70
     0
102
RTVSPost2010Prop52
140
1.0
102
RTVSPost2010PropOp52
 70
     0
102
RTVSPost2010Prop53
 90
        2
102
RTVSPost2010PropOp53
 70
     1
102
RTVSPost2010Prop54
  1
strokes_ogs.tif
102
RTVSPost2010PropOp54
 70
     1
102
RTVSPost2010Prop55
280
     0
102
RTVSPost2010PropOp55
 70
     1
102
RTVSPost2010Prop56
140
1.0
102
RTVSPost2010PropOp56
 70
     1
102
RTVSPost2010Prop57
140
1.0
102
RTVSPost2010PropOp57
 70
     1
102
RTVSPropertyOp0
 70
     1
102
RTVSPropertyOp1
 70
     1
102
RTVSPropertyOp2
 70
     1
102
RTVSPropertyOp3
 70
     1
102
RTVSPropertyOp4
 70
     1
102
RTVSPropertyOp5
 70
     1
102
RTVSPropertyOp6
 70
     1
102
RTVSPropertyOp7
 70
     1
102
RTVSPropertyOp8
 70
     1
102
RTVSPropertyOp9
 70
     1
102
RTVSPropertyOp10
 70
     1
102
RTVSPropertyOp11
 70
     1
102
RTVSPropertyOp12
 70
     1
102
RTVSPropertyOp13
 70
     1
102
RTVSPropertyOp14
 70
     1
102
RTVSPropertyOp15
 70
     1
102
RTVSPropertyOp16
 70
     1
102
RTVSPropertyOp17
 70
     1
102
RTVSPropertyOp18
 70
     1
102
RTVSPropertyOp19
 70
     1
102
RTVSPropertyOp20
 70
     1
102
RTVSPropertyOp21
 70
     1
102
RTVSPropertyOp22
 70
     1
102
RTVSPropertyOp23
 70
     1
102
RTVSPropertyOp24
 70
     1
102
RTVSPropertyOp25
 70
     1
102
RTVSPropertyOp26
 70
     1
102
RTVSPropertyOp27
 70
     1
102
RTVSPropertyOp28
 70
     1
102
RTVSPropertyOp29
 70
     1
102
RTVSPropertyOp30
 70
     1
102
RTVSPropertyOp31
 70
     1
102
RTVSPropertyOp32
 70
     1
102
RTVSPropertyOp33
 70
     1
102
RTVSPropertyOp34
 70
     1
102
RTVSPropertyOp35
 70
     1
102
RTVSPropertyOp36
 70
     1
102
RTVSPropertyOp37
 70
     1
102
RTVSPropertyOp38
 70
     1
102
RTVSPropertyOp39
 70
     1
102
RTVSPropertyOp40
 70
     1
102
RTVSPropertyOp41
 70
     1
102
RTVSPropertyOp42
 70
     1
102
RTVSPropertyOp43
 70
     1
102
RTVSPropertyOp44
 70
     1
102
RTVSPropertyOp45
 70
     1
102
RTVSPropertyOp46
 70
     1
102
RTVSPropertyOp47
 70
     1
102
RTVSPropertyOp48
 70
     1
102
RTVSPropertyOp49
 70
     1
102
RTVSPropertyOp50
 70
     1
102
RTVSPropertyOp51
 70
     0
102
RTVSPropertyOp52
 70
     0
102
RTVSPropertyOp53
 70
     1
102
RTVSPropertyOp54
 70
     1
102
RTVSPropertyOp55
 70
     1
102
RTVSPropertyOp56
 70
     1
102
RTVSPropertyOp57
 70
     1
102
RTVSPropertyOp58
 70
     1
102
RTVSPropertyOp59
 70
     1
102
RTVSPropertyOp60
 70
     1
102
RTVSPropertyOp61
 70
     1
102
RTVSPropertyOp62
 70
     1
  0
XRECORD
  5
FBC8F
102
{ACAD_REACTORS
330
FBC8E
102
}
330
FBC8E
100
AcDbXrecord
280
     1
102
RTVSPost2010Prop28
280
     0
102
RTVSPost2010PropOp28
 70
     1
102
RTVSPost2010Prop29
280
     1
102
RTVSPost2010PropOp29
 70
     1
102
RTVSPost2010Prop30
280
     1
102
RTVSPost2010PropOp30
 70
     1
102
RTVSPost2010Prop31
280
     0
102
RTVSPost2010PropOp31
 70
     1
102
RTVSPost2010Prop32
280
     0
102
RTVSPost2010PropOp32
 70
     1
102
RTVSPost2010Prop33
280
     0
102
RTVSPost2010PropOp33
 70
     1
102
RTVSPost2010Prop34
280
     0
102
RTVSPost2010PropOp34
 70
     1
102
RTVSPost2010Prop35
280
     0
102
RTVSPost2010PropOp35
 70
     1
102
RTVSPost2010Prop36
280
     0
102
RTVSPost2010PropOp36
 70
     1
102
RTVSPost2010Prop37
 90
       50
102
RTVSPost2010PropOp37
 70
     1
102
RTVSPost2010Prop38
140
0.0
102
RTVSPost2010PropOp38
 70
     1
102
RTVSPost2010Prop39
140
1.0
102
RTVSPost2010PropOp39
 70
     1
102
RTVSPost2010Prop40
 90
        0
102
RTVSPost2010PropOp40
 70
     1
102
RTVSPost2010Prop41ColorIndex
 90
       18
102
RTVSPost2010Prop41ColorRGB
 90
        0
102
RTVSPost2010PropOp41
 70
     1
102
RTVSPost2010Prop42
 90
       50
102
RTVSPost2010PropOp42
 70
     1
102
RTVSPost2010Prop43
 90
        3
102
RTVSPost2010PropOp43
 70
     1
102
RTVSPost2010Prop44ColorIndex
 90
        5
102
RTVSPost2010Prop44ColorRGB
 90
      255
102
RTVSPost2010PropOp44
 70
     1
102
RTVSPost2010Prop45
280
     0
102
RTVSPost2010PropOp45
 70
     1
102
RTVSPost2010Prop46
 90
       50
102
RTVSPost2010PropOp46
 70
     1
102
RTVSPost2010Prop47
 90
       50
102
RTVSPost2010PropOp47
 70
     1
102
RTVSPost2010Prop48
 90
       50
102
RTVSPost2010PropOp48
 70
     1
102
RTVSPost2010Prop49
280
     0
102
RTVSPost2010PropOp49
 70
     1
102
RTVSPost2010Prop50
 90
       50
102
RTVSPost2010PropOp50
 70
     1
102
RTVSPost2010Prop51ColorIndex
 90
      256
102
RTVSPost2010Prop51ColorRGB
 90
-16777216
102
RTVSPost2010PropOp51
 70
     0
102
RTVSPost2010Prop52
140
1.0
102
RTVSPost2010PropOp52
 70
     0
102
RTVSPost2010Prop53
 90
        2
102
RTVSPost2010PropOp53
 70
     1
102
RTVSPost2010Prop54
  1
strokes_ogs.tif
102
RTVSPost2010PropOp54
 70
     1
102
RTVSPost2010Prop55
280
     0
102
RTVSPost2010PropOp55
 70
     1
102
RTVSPost2010Prop56
140
1.0
102
RTVSPost2010PropOp56
 70
     1
102
RTVSPost2010Prop57
140
1.0
102
RTVSPost2010PropOp57
 70
     1
102
RTVSPropertyOp0
 70
     1
102
RTVSPropertyOp1
 70
     1
102
RTVSPropertyOp2
 70
     1
102
RTVSPropertyOp3
 70
     1
102
RTVSPropertyOp4
 70
     1
102
RTVSPropertyOp5
 70
     1
102
RTVSPropertyOp6
 70
     1
102
RTVSPropertyOp7
 70
     1
102
RTVSPropertyOp8
 70
     1
102
RTVSPropertyOp9
 70
     1
102
RTVSPropertyOp10
 70
     1
102
RTVSPropertyOp11
 70
     1
102
RTVSPropertyOp12
 70
     1
102
RTVSPropertyOp13
 70
     1
102
RTVSPropertyOp14
 70
     1
102
RTVSPropertyOp15
 70
     1
102
RTVSPropertyOp16
 70
     1
102
RTVSPropertyOp17
 70
     1
102
RTVSPropertyOp18
 70
     1
102
RTVSPropertyOp19
 70
     1
102
RTVSPropertyOp20
 70
     1
102
RTVSPropertyOp21
 70
     1
102
RTVSPropertyOp22
 70
     1
102
RTVSPropertyOp23
 70
     1
102
RTVSPropertyOp24
 70
     1
102
RTVSPropertyOp25
 70
     1
102
RTVSPropertyOp26
 70
     1
102
RTVSPropertyOp27
 70
     1
102
RTVSPropertyOp28
 70
     1
102
RTVSPropertyOp29
 70
     1
102
RTVSPropertyOp30
 70
     1
102
RTVSPropertyOp31
 70
     1
102
RTVSPropertyOp32
 70
     1
102
RTVSPropertyOp33
 70
     1
102
RTVSPropertyOp34
 70
     1
102
RTVSPropertyOp35
 70
     1
102
RTVSPropertyOp36
 70
     1
102
RTVSPropertyOp37
 70
     1
102
RTVSPropertyOp38
 70
     1
102
RTVSPropertyOp39
 70
     1
102
RTVSPropertyOp40
 70
     1
102
RTVSPropertyOp41
 70
     1
102
RTVSPropertyOp42
 70
     1
102
RTVSPropertyOp43
 70
     1
102
RTVSPropertyOp44
 70
     1
102
RTVSPropertyOp45
 70
     1
102
RTVSPropertyOp46
 70
     1
102
RTVSPropertyOp47
 70
     1
102
RTVSPropertyOp48
 70
     1
102
RTVSPropertyOp49
 70
     1
102
RTVSPropertyOp50
 70
     1
102
RTVSPropertyOp51
 70
     0
102
RTVSPropertyOp52
 70
     0
102
RTVSPropertyOp53
 70
     1
102
RTVSPropertyOp54
 70
     1
102
RTVSPropertyOp55
 70
     1
102
RTVSPropertyOp56
 70
     1
102
RTVSPropertyOp57
 70
     1
102
RTVSPropertyOp58
 70
     1
102
RTVSPropertyOp59
 70
     1
102
RTVSPropertyOp60
 70
     1
102
RTVSPropertyOp61
 70
     1
102
RTVSPropertyOp62
 70
     1
  0
XRECORD
  5
FBC89
102
{ACAD_REACTORS
330
FBC88
102
}
330
FBC88
100
AcDbXrecord
280
     1
102
RTVSPost2010Prop28
280
     0
102
RTVSPost2010PropOp28
 70
     1
102
RTVSPost2010Prop29
280
     1
102
RTVSPost2010PropOp29
 70
     1
102
RTVSPost2010Prop30
280
     1
102
RTVSPost2010PropOp30
 70
     1
102
RTVSPost2010Prop31
280
     0
102
RTVSPost2010PropOp31
 70
     1
102
RTVSPost2010Prop32
280
     0
102
RTVSPost2010PropOp32
 70
     1
102
RTVSPost2010Prop33
280
     0
102
RTVSPost2010PropOp33
 70
     1
102
RTVSPost2010Prop34
280
     0
102
RTVSPost2010PropOp34
 70
     1
102
RTVSPost2010Prop35
280
     0
102
RTVSPost2010PropOp35
 70
     1
102
RTVSPost2010Prop36
280
     0
102
RTVSPost2010PropOp36
 70
     1
102
RTVSPost2010Prop37
 90
       50
102
RTVSPost2010PropOp37
 70
     1
102
RTVSPost2010Prop38
140
0.0
102
RTVSPost2010PropOp38
 70
     1
102
RTVSPost2010Prop39
140
1.0
102
RTVSPost2010PropOp39
 70
     1
102
RTVSPost2010Prop40
 90
        0
102
RTVSPost2010PropOp40
 70
     1
102
RTVSPost2010Prop41ColorIndex
 90
       18
102
RTVSPost2010Prop41ColorRGB
 90
        0
102
RTVSPost2010PropOp41
 70
     1
102
RTVSPost2010Prop42
 90
       50
102
RTVSPost2010PropOp42
 70
     1
102
RTVSPost2010Prop43
 90
        3
102
RTVSPost2010PropOp43
 70
     1
102
RTVSPost2010Prop44ColorIndex
 90
        5
102
RTVSPost2010Prop44ColorRGB
 90
      255
102
RTVSPost2010PropOp44
 70
     1
102
RTVSPost2010Prop45
280
     0
102
RTVSPost2010PropOp45
 70
     1
102
RTVSPost2010Prop46
 90
       50
102
RTVSPost2010PropOp46
 70
     1
102
RTVSPost2010Prop47
 90
       50
102
RTVSPost2010PropOp47
 70
     1
102
RTVSPost2010Prop48
 90
       50
102
RTVSPost2010PropOp48
 70
     1
102
RTVSPost2010Prop49
280
     0
102
RTVSPost2010PropOp49
 70
     1
102
RTVSPost2010Prop50
 90
       50
102
RTVSPost2010PropOp50
 70
     1
102
RTVSPost2010Prop51ColorIndex
 90
      256
102
RTVSPost2010Prop51ColorRGB
 90
-16777216
102
RTVSPost2010PropOp51
 70
     0
102
RTVSPost2010Prop52
140
1.0
102
RTVSPost2010PropOp52
 70
     0
102
RTVSPost2010Prop53
 90
        2
102
RTVSPost2010PropOp53
 70
     1
102
RTVSPost2010Prop54
  1
strokes_ogs.tif
102
RTVSPost2010PropOp54
 70
     1
102
RTVSPost2010Prop55
280
     0
102
RTVSPost2010PropOp55
 70
     1
102
RTVSPost2010Prop56
140
1.0
102
RTVSPost2010PropOp56
 70
     1
102
RTVSPost2010Prop57
140
1.0
102
RTVSPost2010PropOp57
 70
     1
102
RTVSPropertyOp0
 70
     1
102
RTVSPropertyOp1
 70
     1
102
RTVSPropertyOp2
 70
     1
102
RTVSPropertyOp3
 70
     1
102
RTVSPropertyOp4
 70
     1
102
RTVSPropertyOp5
 70
     1
102
RTVSPropertyOp6
 70
     1
102
RTVSPropertyOp7
 70
     1
102
RTVSPropertyOp8
 70
     1
102
RTVSPropertyOp9
 70
     1
102
RTVSPropertyOp10
 70
     1
102
RTVSPropertyOp11
 70
     1
102
RTVSPropertyOp12
 70
     1
102
RTVSPropertyOp13
 70
     1
102
RTVSPropertyOp14
 70
     1
102
RTVSPropertyOp15
 70
     1
102
RTVSPropertyOp16
 70
     1
102
RTVSPropertyOp17
 70
     1
102
RTVSPropertyOp18
 70
     1
102
RTVSPropertyOp19
 70
     1
102
RTVSPropertyOp20
 70
     1
102
RTVSPropertyOp21
 70
     1
102
RTVSPropertyOp22
 70
     1
102
RTVSPropertyOp23
 70
     1
102
RTVSPropertyOp24
 70
     1
102
RTVSPropertyOp25
 70
     1
102
RTVSPropertyOp26
 70
     1
102
RTVSPropertyOp27
 70
     1
102
RTVSPropertyOp28
 70
     1
102
RTVSPropertyOp29
 70
     1
102
RTVSPropertyOp30
 70
     1
102
RTVSPropertyOp31
 70
     1
102
RTVSPropertyOp32
 70
     1
102
RTVSPropertyOp33
 70
     1
102
RTVSPropertyOp34
 70
     1
102
RTVSPropertyOp35
 70
     1
102
RTVSPropertyOp36
 70
     1
102
RTVSPropertyOp37
 70
     1
102
RTVSPropertyOp38
 70
     1
102
RTVSPropertyOp39
 70
     1
102
RTVSPropertyOp40
 70
     1
102
RTVSPropertyOp41
 70
     1
102
RTVSPropertyOp42
 70
     1
102
RTVSPropertyOp43
 70
     1
102
RTVSPropertyOp44
 70
     1
102
RTVSPropertyOp45
 70
     1
102
RTVSPropertyOp46
 70
     1
102
RTVSPropertyOp47
 70
     1
102
RTVSPropertyOp48
 70
     1
102
RTVSPropertyOp49
 70
     1
102
RTVSPropertyOp50
 70
     1
102
RTVSPropertyOp51
 70
     0
102
RTVSPropertyOp52
 70
     0
102
RTVSPropertyOp53
 70
     1
102
RTVSPropertyOp54
 70
     1
102
RTVSPropertyOp55
 70
     1
102
RTVSPropertyOp56
 70
     1
102
RTVSPropertyOp57
 70
     1
102
RTVSPropertyOp58
 70
     1
102
RTVSPropertyOp59
 70
     1
102
RTVSPropertyOp60
 70
     1
102
RTVSPropertyOp61
 70
     1
102
RTVSPropertyOp62
 70
     1
  0
XRECORD
  5
FBC8B
102
{ACAD_REACTORS
330
FBC8A
102
}
330
FBC8A
100
AcDbXrecord
280
     1
102
RTVSPost2010Prop28
280
     0
102
RTVSPost2010PropOp28
 70
     1
102
RTVSPost2010Prop29
280
     1
102
RTVSPost2010PropOp29
 70
     1
102
RTVSPost2010Prop30
280
     1
102
RTVSPost2010PropOp30
 70
     1
102
RTVSPost2010Prop31
280
     0
102
RTVSPost2010PropOp31
 70
     1
102
RTVSPost2010Prop32
280
     0
102
RTVSPost2010PropOp32
 70
     1
102
RTVSPost2010Prop33
280
     0
102
RTVSPost2010PropOp33
 70
     1
102
RTVSPost2010Prop34
280
     0
102
RTVSPost2010PropOp34
 70
     1
102
RTVSPost2010Prop35
280
     0
102
RTVSPost2010PropOp35
 70
     1
102
RTVSPost2010Prop36
280
     0
102
RTVSPost2010PropOp36
 70
     1
102
RTVSPost2010Prop37
 90
       50
102
RTVSPost2010PropOp37
 70
     1
102
RTVSPost2010Prop38
140
0.0
102
RTVSPost2010PropOp38
 70
     1
102
RTVSPost2010Prop39
140
1.0
102
RTVSPost2010PropOp39
 70
     1
102
RTVSPost2010Prop40
 90
        0
102
RTVSPost2010PropOp40
 70
     1
102
RTVSPost2010Prop41ColorIndex
 90
       18
102
RTVSPost2010Prop41ColorRGB
 90
        0
102
RTVSPost2010PropOp41
 70
     1
102
RTVSPost2010Prop42
 90
       50
102
RTVSPost2010PropOp42
 70
     1
102
RTVSPost2010Prop43
 90
        3
102
RTVSPost2010PropOp43
 70
     1
102
RTVSPost2010Prop44ColorIndex
 90
        5
102
RTVSPost2010Prop44ColorRGB
 90
      255
102
RTVSPost2010PropOp44
 70
     1
102
RTVSPost2010Prop45
280
     0
102
RTVSPost2010PropOp45
 70
     1
102
RTVSPost2010Prop46
 90
       50
102
RTVSPost2010PropOp46
 70
     1
102
RTVSPost2010Prop47
 90
       50
102
RTVSPost2010PropOp47
 70
     1
102
RTVSPost2010Prop48
 90
       50
102
RTVSPost2010PropOp48
 70
     1
102
RTVSPost2010Prop49
280
     0
102
RTVSPost2010PropOp49
 70
     1
102
RTVSPost2010Prop50
 90
       50
102
RTVSPost2010PropOp50
 70
     1
102
RTVSPost2010Prop51ColorIndex
 90
      256
102
RTVSPost2010Prop51ColorRGB
 90
-16777216
102
RTVSPost2010PropOp51
 70
     0
102
RTVSPost2010Prop52
140
1.0
102
RTVSPost2010PropOp52
 70
     0
102
RTVSPost2010Prop53
 90
        2
102
RTVSPost2010PropOp53
 70
     1
102
RTVSPost2010Prop54
  1
strokes_ogs.tif
102
RTVSPost2010PropOp54
 70
     1
102
RTVSPost2010Prop55
280
     0
102
RTVSPost2010PropOp55
 70
     1
102
RTVSPost2010Prop56
140
1.0
102
RTVSPost2010PropOp56
 70
     1
102
RTVSPost2010Prop57
140
1.0
102
RTVSPost2010PropOp57
 70
     1
102
RTVSPropertyOp0
 70
     1
102
RTVSPropertyOp1
 70
     1
102
RTVSPropertyOp2
 70
     1
102
RTVSPropertyOp3
 70
     1
102
RTVSPropertyOp4
 70
     1
102
RTVSPropertyOp5
 70
     1
102
RTVSPropertyOp6
 70
     1
102
RTVSPropertyOp7
 70
     1
102
RTVSPropertyOp8
 70
     1
102
RTVSPropertyOp9
 70
     1
102
RTVSPropertyOp10
 70
     1
102
RTVSPropertyOp11
 70
     1
102
RTVSPropertyOp12
 70
     1
102
RTVSPropertyOp13
 70
     1
102
RTVSPropertyOp14
 70
     1
102
RTVSPropertyOp15
 70
     1
102
RTVSPropertyOp16
 70
     1
102
RTVSPropertyOp17
 70
     1
102
RTVSPropertyOp18
 70
     1
102
RTVSPropertyOp19
 70
     1
102
RTVSPropertyOp20
 70
     1
102
RTVSPropertyOp21
 70
     1
102
RTVSPropertyOp22
 70
     1
102
RTVSPropertyOp23
 70
     1
102
RTVSPropertyOp24
 70
     1
102
RTVSPropertyOp25
 70
     1
102
RTVSPropertyOp26
 70
     1
102
RTVSPropertyOp27
 70
     1
102
RTVSPropertyOp28
 70
     1
102
RTVSPropertyOp29
 70
     1
102
RTVSPropertyOp30
 70
     1
102
RTVSPropertyOp31
 70
     1
102
RTVSPropertyOp32
 70
     1
102
RTVSPropertyOp33
 70
     1
102
RTVSPropertyOp34
 70
     1
102
RTVSPropertyOp35
 70
     1
102
RTVSPropertyOp36
 70
     1
102
RTVSPropertyOp37
 70
     1
102
RTVSPropertyOp38
 70
     1
102
RTVSPropertyOp39
 70
     1
102
RTVSPropertyOp40
 70
     1
102
RTVSPropertyOp41
 70
     1
102
RTVSPropertyOp42
 70
     1
102
RTVSPropertyOp43
 70
     1
102
RTVSPropertyOp44
 70
     1
102
RTVSPropertyOp45
 70
     1
102
RTVSPropertyOp46
 70
     1
102
RTVSPropertyOp47
 70
     1
102
RTVSPropertyOp48
 70
     1
102
RTVSPropertyOp49
 70
     1
102
RTVSPropertyOp50
 70
     1
102
RTVSPropertyOp51
 70
     0
102
RTVSPropertyOp52
 70
     0
102
RTVSPropertyOp53
 70
     1
102
RTVSPropertyOp54
 70
     1
102
RTVSPropertyOp55
 70
     1
102
RTVSPropertyOp56
 70
     1
102
RTVSPropertyOp57
 70
     1
102
RTVSPropertyOp58
 70
     1
102
RTVSPropertyOp59
 70
     1
102
RTVSPropertyOp60
 70
     1
102
RTVSPropertyOp61
 70
     1
102
RTVSPropertyOp62
 70
     1
  0
XRECORD
  5
FBC81
102
{ACAD_REACTORS
330
FBC80
102
}
330
FBC80
100
AcDbXrecord
280
     1
102
RTVSPost2010Prop28
280
     0
102
RTVSPost2010PropOp28
 70
     1
102
RTVSPost2010Prop29
280
     1
102
RTVSPost2010PropOp29
 70
     1
102
RTVSPost2010Prop30
280
     1
102
RTVSPost2010PropOp30
 70
     1
102
RTVSPost2010Prop31
280
     0
102
RTVSPost2010PropOp31
 70
     1
102
RTVSPost2010Prop32
280
     0
102
RTVSPost2010PropOp32
 70
     1
102
RTVSPost2010Prop33
280
     0
102
RTVSPost2010PropOp33
 70
     1
102
RTVSPost2010Prop34
280
     0
102
RTVSPost2010PropOp34
 70
     1
102
RTVSPost2010Prop35
280
     0
102
RTVSPost2010PropOp35
 70
     1
102
RTVSPost2010Prop36
280
     0
102
RTVSPost2010PropOp36
 70
     1
102
RTVSPost2010Prop37
 90
       50
102
RTVSPost2010PropOp37
 70
     1
102
RTVSPost2010Prop38
140
0.0
102
RTVSPost2010PropOp38
 70
     1
102
RTVSPost2010Prop39
140
1.0
102
RTVSPost2010PropOp39
 70
     1
102
RTVSPost2010Prop40
 90
        0
102
RTVSPost2010PropOp40
 70
     1
102
RTVSPost2010Prop41ColorIndex
 90
       18
102
RTVSPost2010Prop41ColorRGB
 90
        0
102
RTVSPost2010PropOp41
 70
     1
102
RTVSPost2010Prop42
 90
       50
102
RTVSPost2010PropOp42
 70
     1
102
RTVSPost2010Prop43
 90
        3
102
RTVSPost2010PropOp43
 70
     1
102
RTVSPost2010Prop44ColorIndex
 90
        5
102
RTVSPost2010Prop44ColorRGB
 90
      255
102
RTVSPost2010PropOp44
 70
     1
102
RTVSPost2010Prop45
280
     0
102
RTVSPost2010PropOp45
 70
     1
102
RTVSPost2010Prop46
 90
       50
102
RTVSPost2010PropOp46
 70
     1
102
RTVSPost2010Prop47
 90
       50
102
RTVSPost2010PropOp47
 70
     1
102
RTVSPost2010Prop48
 90
       50
102
RTVSPost2010PropOp48
 70
     1
102
RTVSPost2010Prop49
280
     0
102
RTVSPost2010PropOp49
 70
     1
102
RTVSPost2010Prop50
 90
       50
102
RTVSPost2010PropOp50
 70
     1
102
RTVSPost2010Prop51ColorIndex
 90
      256
102
RTVSPost2010Prop51ColorRGB
 90
-16777216
102
RTVSPost2010PropOp51
 70
     0
102
RTVSPost2010Prop52
140
1.0
102
RTVSPost2010PropOp52
 70
     0
102
RTVSPost2010Prop53
 90
        2
102
RTVSPost2010PropOp53
 70
     1
102
RTVSPost2010Prop54
  1
strokes_ogs.tif
102
RTVSPost2010PropOp54
 70
     1
102
RTVSPost2010Prop55
280
     0
102
RTVSPost2010PropOp55
 70
     1
102
RTVSPost2010Prop56
140
1.0
102
RTVSPost2010PropOp56
 70
     1
102
RTVSPost2010Prop57
140
1.0
102
RTVSPost2010PropOp57
 70
     1
102
RTVSPropertyOp0
 70
     1
102
RTVSPropertyOp1
 70
     1
102
RTVSPropertyOp2
 70
     1
102
RTVSPropertyOp3
 70
     1
102
RTVSPropertyOp4
 70
     1
102
RTVSPropertyOp5
 70
     1
102
RTVSPropertyOp6
 70
     1
102
RTVSPropertyOp7
 70
     1
102
RTVSPropertyOp8
 70
     1
102
RTVSPropertyOp9
 70
     1
102
RTVSPropertyOp10
 70
     1
102
RTVSPropertyOp11
 70
     1
102
RTVSPropertyOp12
 70
     1
102
RTVSPropertyOp13
 70
     1
102
RTVSPropertyOp14
 70
     1
102
RTVSPropertyOp15
 70
     1
102
RTVSPropertyOp16
 70
     1
102
RTVSPropertyOp17
 70
     1
102
RTVSPropertyOp18
 70
     1
102
RTVSPropertyOp19
 70
     1
102
RTVSPropertyOp20
 70
     1
102
RTVSPropertyOp21
 70
     1
102
RTVSPropertyOp22
 70
     1
102
RTVSPropertyOp23
 70
     1
102
RTVSPropertyOp24
 70
     1
102
RTVSPropertyOp25
 70
     1
102
RTVSPropertyOp26
 70
     1
102
RTVSPropertyOp27
 70
     1
102
RTVSPropertyOp28
 70
     1
102
RTVSPropertyOp29
 70
     1
102
RTVSPropertyOp30
 70
     1
102
RTVSPropertyOp31
 70
     1
102
RTVSPropertyOp32
 70
     1
102
RTVSPropertyOp33
 70
     1
102
RTVSPropertyOp34
 70
     1
102
RTVSPropertyOp35
 70
     1
102
RTVSPropertyOp36
 70
     1
102
RTVSPropertyOp37
 70
     1
102
RTVSPropertyOp38
 70
     1
102
RTVSPropertyOp39
 70
     1
102
RTVSPropertyOp40
 70
     1
102
RTVSPropertyOp41
 70
     1
102
RTVSPropertyOp42
 70
     1
102
RTVSPropertyOp43
 70
     1
102
RTVSPropertyOp44
 70
     1
102
RTVSPropertyOp45
 70
     1
102
RTVSPropertyOp46
 70
     1
102
RTVSPropertyOp47
 70
     1
102
RTVSPropertyOp48
 70
     1
102
RTVSPropertyOp49
 70
     1
102
RTVSPropertyOp50
 70
     1
102
RTVSPropertyOp51
 70
     0
102
RTVSPropertyOp52
 70
     0
102
RTVSPropertyOp53
 70
     1
102
RTVSPropertyOp54
 70
     1
102
RTVSPropertyOp55
 70
     1
102
RTVSPropertyOp56
 70
     1
102
RTVSPropertyOp57
 70
     1
102
RTVSPropertyOp58
 70
     1
102
RTVSPropertyOp59
 70
     1
102
RTVSPropertyOp60
 70
     1
102
RTVSPropertyOp61
 70
     1
102
RTVSPropertyOp62
 70
     1
  0
XRECORD
  5
FBC75
102
{ACAD_REACTORS
330
FBC74
102
}
330
FBC74
100
AcDbXrecord
280
     1
102
RTVSPost2010Prop28
280
     0
102
RTVSPost2010PropOp28
 70
     1
102
RTVSPost2010Prop29
280
     1
102
RTVSPost2010PropOp29
 70
     1
102
RTVSPost2010Prop30
280
     1
102
RTVSPost2010PropOp30
 70
     1
102
RTVSPost2010Prop31
280
     0
102
RTVSPost2010PropOp31
 70
     1
102
RTVSPost2010Prop32
280
     0
102
RTVSPost2010PropOp32
 70
     1
102
RTVSPost2010Prop33
280
     0
102
RTVSPost2010PropOp33
 70
     1
102
RTVSPost2010Prop34
280
     0
102
RTVSPost2010PropOp34
 70
     1
102
RTVSPost2010Prop35
280
     0
102
RTVSPost2010PropOp35
 70
     1
102
RTVSPost2010Prop36
280
     0
102
RTVSPost2010PropOp36
 70
     1
102
RTVSPost2010Prop37
 90
       50
102
RTVSPost2010PropOp37
 70
     1
102
RTVSPost2010Prop38
140
0.0
102
RTVSPost2010PropOp38
 70
     1
102
RTVSPost2010Prop39
140
1.0
102
RTVSPost2010PropOp39
 70
     1
102
RTVSPost2010Prop40
 90
        0
102
RTVSPost2010PropOp40
 70
     1
102
RTVSPost2010Prop41ColorIndex
 90
       18
102
RTVSPost2010Prop41ColorRGB
 90
        0
102
RTVSPost2010PropOp41
 70
     1
102
RTVSPost2010Prop42
 90
       50
102
RTVSPost2010PropOp42
 70
     1
102
RTVSPost2010Prop43
 90
        3
102
RTVSPost2010PropOp43
 70
     1
102
RTVSPost2010Prop44ColorIndex
 90
        5
102
RTVSPost2010Prop44ColorRGB
 90
      255
102
RTVSPost2010PropOp44
 70
     1
102
RTVSPost2010Prop45
280
     0
102
RTVSPost2010PropOp45
 70
     1
102
RTVSPost2010Prop46
 90
       50
102
RTVSPost2010PropOp46
 70
     1
102
RTVSPost2010Prop47
 90
       50
102
RTVSPost2010PropOp47
 70
     1
102
RTVSPost2010Prop48
 90
       50
102
RTVSPost2010PropOp48
 70
     1
102
RTVSPost2010Prop49
280
     0
102
RTVSPost2010PropOp49
 70
     1
102
RTVSPost2010Prop50
 90
       50
102
RTVSPost2010PropOp50
 70
     1
102
RTVSPost2010Prop51ColorIndex
 90
      256
102
RTVSPost2010Prop51ColorRGB
 90
-16777216
102
RTVSPost2010PropOp51
 70
     0
102
RTVSPost2010Prop52
140
1.0
102
RTVSPost2010PropOp52
 70
     0
102
RTVSPost2010Prop53
 90
        2
102
RTVSPost2010PropOp53
 70
     1
102
RTVSPost2010Prop54
  1
strokes_ogs.tif
102
RTVSPost2010PropOp54
 70
     1
102
RTVSPost2010Prop55
280
     0
102
RTVSPost2010PropOp55
 70
     1
102
RTVSPost2010Prop56
140
1.0
102
RTVSPost2010PropOp56
 70
     1
102
RTVSPost2010Prop57
140
1.0
102
RTVSPost2010PropOp57
 70
     1
102
RTVSPropertyOp0
 70
     1
102
RTVSPropertyOp1
 70
     1
102
RTVSPropertyOp2
 70
     1
102
RTVSPropertyOp3
 70
     1
102
RTVSPropertyOp4
 70
     1
102
RTVSPropertyOp5
 70
     1
102
RTVSPropertyOp6
 70
     1
102
RTVSPropertyOp7
 70
     1
102
RTVSPropertyOp8
 70
     1
102
RTVSPropertyOp9
 70
     1
102
RTVSPropertyOp10
 70
     1
102
RTVSPropertyOp11
 70
     1
102
RTVSPropertyOp12
 70
     1
102
RTVSPropertyOp13
 70
     1
102
RTVSPropertyOp14
 70
     1
102
RTVSPropertyOp15
 70
     1
102
RTVSPropertyOp16
 70
     1
102
RTVSPropertyOp17
 70
     1
102
RTVSPropertyOp18
 70
     1
102
RTVSPropertyOp19
 70
     1
102
RTVSPropertyOp20
 70
     1
102
RTVSPropertyOp21
 70
     1
102
RTVSPropertyOp22
 70
     1
102
RTVSPropertyOp23
 70
     1
102
RTVSPropertyOp24
 70
     1
102
RTVSPropertyOp25
 70
     1
102
RTVSPropertyOp26
 70
     1
102
RTVSPropertyOp27
 70
     1
102
RTVSPropertyOp28
 70
     1
102
RTVSPropertyOp29
 70
     1
102
RTVSPropertyOp30
 70
     1
102
RTVSPropertyOp31
 70
     1
102
RTVSPropertyOp32
 70
     1
102
RTVSPropertyOp33
 70
     1
102
RTVSPropertyOp34
 70
     1
102
RTVSPropertyOp35
 70
     1
102
RTVSPropertyOp36
 70
     1
102
RTVSPropertyOp37
 70
     1
102
RTVSPropertyOp38
 70
     1
102
RTVSPropertyOp39
 70
     1
102
RTVSPropertyOp40
 70
     1
102
RTVSPropertyOp41
 70
     1
102
RTVSPropertyOp42
 70
     1
102
RTVSPropertyOp43
 70
     1
102
RTVSPropertyOp44
 70
     1
102
RTVSPropertyOp45
 70
     1
102
RTVSPropertyOp46
 70
     1
102
RTVSPropertyOp47
 70
     1
102
RTVSPropertyOp48
 70
     1
102
RTVSPropertyOp49
 70
     1
102
RTVSPropertyOp50
 70
     1
102
RTVSPropertyOp51
 70
     0
102
RTVSPropertyOp52
 70
     0
102
RTVSPropertyOp53
 70
     1
102
RTVSPropertyOp54
 70
     1
102
RTVSPropertyOp55
 70
     1
102
RTVSPropertyOp56
 70
     1
102
RTVSPropertyOp57
 70
     1
102
RTVSPropertyOp58
 70
     1
102
RTVSPropertyOp59
 70
     1
102
RTVSPropertyOp60
 70
     1
102
RTVSPropertyOp61
 70
     1
102
RTVSPropertyOp62
 70
     1
  0
XRECORD
  5
FBC8D
102
{ACAD_REACTORS
330
FBC8C
102
}
330
FBC8C
100
AcDbXrecord
280
     1
102
RTVSPost2010Prop28
280
     0
102
RTVSPost2010PropOp28
 70
     1
102
RTVSPost2010Prop29
280
     1
102
RTVSPost2010PropOp29
 70
     1
102
RTVSPost2010Prop30
280
     1
102
RTVSPost2010PropOp30
 70
     1
102
RTVSPost2010Prop31
280
     0
102
RTVSPost2010PropOp31
 70
     1
102
RTVSPost2010Prop32
280
     0
102
RTVSPost2010PropOp32
 70
     1
102
RTVSPost2010Prop33
280
     0
102
RTVSPost2010PropOp33
 70
     1
102
RTVSPost2010Prop34
280
     0
102
RTVSPost2010PropOp34
 70
     1
102
RTVSPost2010Prop35
280
     0
102
RTVSPost2010PropOp35
 70
     1
102
RTVSPost2010Prop36
280
     0
102
RTVSPost2010PropOp36
 70
     1
102
RTVSPost2010Prop37
 90
       50
102
RTVSPost2010PropOp37
 70
     1
102
RTVSPost2010Prop38
140
0.0
102
RTVSPost2010PropOp38
 70
     1
102
RTVSPost2010Prop39
140
1.0
102
RTVSPost2010PropOp39
 70
     1
102
RTVSPost2010Prop40
 90
        0
102
RTVSPost2010PropOp40
 70
     1
102
RTVSPost2010Prop41ColorIndex
 90
       18
102
RTVSPost2010Prop41ColorRGB
 90
        0
102
RTVSPost2010PropOp41
 70
     1
102
RTVSPost2010Prop42
 90
       50
102
RTVSPost2010PropOp42
 70
     1
102
RTVSPost2010Prop43
 90
        3
102
RTVSPost2010PropOp43
 70
     1
102
RTVSPost2010Prop44ColorIndex
 90
        5
102
RTVSPost2010Prop44ColorRGB
 90
      255
102
RTVSPost2010PropOp44
 70
     1
102
RTVSPost2010Prop45
280
     0
102
RTVSPost2010PropOp45
 70
     1
102
RTVSPost2010Prop46
 90
       50
102
RTVSPost2010PropOp46
 70
     1
102
RTVSPost2010Prop47
 90
       50
102
RTVSPost2010PropOp47
 70
     1
102
RTVSPost2010Prop48
 90
       50
102
RTVSPost2010PropOp48
 70
     1
102
RTVSPost2010Prop49
280
     0
102
RTVSPost2010PropOp49
 70
     1
102
RTVSPost2010Prop50
 90
       50
102
RTVSPost2010PropOp50
 70
     1
102
RTVSPost2010Prop51ColorIndex
 90
      256
102
RTVSPost2010Prop51ColorRGB
 90
-16777216
102
RTVSPost2010PropOp51
 70
     0
102
RTVSPost2010Prop52
140
1.0
102
RTVSPost2010PropOp52
 70
     0
102
RTVSPost2010Prop53
 90
        2
102
RTVSPost2010PropOp53
 70
     1
102
RTVSPost2010Prop54
  1
strokes_ogs.tif
102
RTVSPost2010PropOp54
 70
     1
102
RTVSPost2010Prop55
280
     0
102
RTVSPost2010PropOp55
 70
     1
102
RTVSPost2010Prop56
140
1.0
102
RTVSPost2010PropOp56
 70
     1
102
RTVSPost2010Prop57
140
1.0
102
RTVSPost2010PropOp57
 70
     1
102
RTVSPropertyOp0
 70
     1
102
RTVSPropertyOp1
 70
     1
102
RTVSPropertyOp2
 70
     1
102
RTVSPropertyOp3
 70
     1
102
RTVSPropertyOp4
 70
     1
102
RTVSPropertyOp5
 70
     1
102
RTVSPropertyOp6
 70
     1
102
RTVSPropertyOp7
 70
     1
102
RTVSPropertyOp8
 70
     1
102
RTVSPropertyOp9
 70
     1
102
RTVSPropertyOp10
 70
     1
102
RTVSPropertyOp11
 70
     1
102
RTVSPropertyOp12
 70
     1
102
RTVSPropertyOp13
 70
     1
102
RTVSPropertyOp14
 70
     1
102
RTVSPropertyOp15
 70
     1
102
RTVSPropertyOp16
 70
     1
102
RTVSPropertyOp17
 70
     1
102
RTVSPropertyOp18
 70
     1
102
RTVSPropertyOp19
 70
     1
102
RTVSPropertyOp20
 70
     1
102
RTVSPropertyOp21
 70
     1
102
RTVSPropertyOp22
 70
     1
102
RTVSPropertyOp23
 70
     1
102
RTVSPropertyOp24
 70
     1
102
RTVSPropertyOp25
 70
     1
102
RTVSPropertyOp26
 70
     1
102
RTVSPropertyOp27
 70
     1
102
RTVSPropertyOp28
 70
     1
102
RTVSPropertyOp29
 70
     1
102
RTVSPropertyOp30
 70
     1
102
RTVSPropertyOp31
 70
     1
102
RTVSPropertyOp32
 70
     1
102
RTVSPropertyOp33
 70
     1
102
RTVSPropertyOp34
 70
     1
102
RTVSPropertyOp35
 70
     1
102
RTVSPropertyOp36
 70
     1
102
RTVSPropertyOp37
 70
     1
102
RTVSPropertyOp38
 70
     1
102
RTVSPropertyOp39
 70
     1
102
RTVSPropertyOp40
 70
     1
102
RTVSPropertyOp41
 70
     1
102
RTVSPropertyOp42
 70
     1
102
RTVSPropertyOp43
 70
     1
102
RTVSPropertyOp44
 70
     1
102
RTVSPropertyOp45
 70
     1
102
RTVSPropertyOp46
 70
     1
102
RTVSPropertyOp47
 70
     1
102
RTVSPropertyOp48
 70
     1
102
RTVSPropertyOp49
 70
     1
102
RTVSPropertyOp50
 70
     1
102
RTVSPropertyOp51
 70
     0
102
RTVSPropertyOp52
 70
     0
102
RTVSPropertyOp53
 70
     1
102
RTVSPropertyOp54
 70
     1
102
RTVSPropertyOp55
 70
     1
102
RTVSPropertyOp56
 70
     1
102
RTVSPropertyOp57
 70
     1
102
RTVSPropertyOp58
 70
     1
102
RTVSPropertyOp59
 70
     1
102
RTVSPropertyOp60
 70
     1
102
RTVSPropertyOp61
 70
     1
102
RTVSPropertyOp62
 70
     1
  0
ENDSEC
  0
EOF
