  0
SECTION
  2
HEADER
  9
$ACADVER
  1
AC1018
  9
$ACADMAINTVER
 70
   104
  9
$DWGCODEPAGE
  3
ANSI_932
  9
$LASTSAVEDBY
  1
開発
  9
$INSBASE
 10
0.0
 20
0.0
 30
0.0
  9
$EXTMIN
 10
83.80047599753494
 20
51.30320719908922
 30
-0.0000000000112498
  9
$EXTMAX
 10
547.3633525783814
 20
304.6122079043211
 30
0.0000000000002956
  9
$LIMMIN
 10
0.0
 20
0.0
  9
$LIMMAX
 10
420.0
 20
297.0
  9
$ORTHOMODE
 70
     0
  9
$REGENMODE
 70
     1
  9
$FILLMODE
 70
     1
  9
$QTEXTMODE
 70
     0
  9
$MIRRTEXT
 70
     0
  9
$LTSCALE
 40
0.25
  9
$ATTMODE
 70
     1
  9
$TEXTSIZE
 40
2.5
  9
$TRACEWID
 40
1.0
  9
$TEXTSTYLE
  7
2014++
  9
$CLAYER
  8
04_ele1_0.15
  9
$CELTYPE
  6
ByLayer
  9
$CECOLOR
 62
   256
  9
$CELTSCALE
 40
1.0
  9
$DISPSILH
 70
     0
  9
$DIMSCALE
 40
1.0
  9
$DIMASZ
 40
2.5
  9
$DIMEXO
 40
1.0
  9
$DIMDLI
 40
10.0
  9
$DIMRND
 40
0.0
  9
$DIMDLE
 40
0.0
  9
$DIMEXE
 40
1.0
  9
$DIMTP
 40
0.1
  9
$DIMTM
 40
0.1
  9
$DIMTXT
 40
3.5
  9
$DIMCEN
 40
0.0
  9
$DIMTSZ
 40
0.0
  9
$DIMTOL
 70
     0
  9
$DIMLIM
 70
     0
  9
$DIMTIH
 70
     0
  9
$DIMTOH
 70
     0
  9
$DIMSE1
 70
     0
  9
$DIMSE2
 70
     0
  9
$DIMTAD
 70
     1
  9
$DIMZIN
 70
     8
  9
$DIMBLK
  1

  9
$DIMASO
 70
     1
  9
$DIMSHO
 70
     1
  9
$DIMPOST
  1

  9
$DIMAPOST
  1
"
  9
$DIMALT
 70
     0
  9
$DIMALTD
 70
     2
  9
$DIMALTF
 40
0.0393701
  9
$DIMLFAC
 40
1.0
  9
$DIMTOFL
 70
     1
  9
$DIMTVP
 40
0.0
  9
$DIMTIX
 70
     0
  9
$DIMSOXD
 70
     0
  9
$DIMSAH
 70
     0
  9
$DIMBLK1
  1

  9
$DIMBLK2
  1

  9
$DIMSTYLE
  2
AM_ISO
  9
$DIMCLRD
 70
   256
  9
$DIMCLRE
 70
   256
  9
$DIMCLRT
 70
     2
  9
$DIMTFAC
 40
0.71
  9
$DIMGAP
 40
1.5
  9
$DIMJUST
 70
     0
  9
$DIMSD1
 70
     0
  9
$DIMSD2
 70
     0
  9
$DIMTOLJ
 70
     0
  9
$DIMTZIN
 70
     8
  9
$DIMALTZ
 70
     0
  9
$DIMALTTZ
 70
     0
  9
$DIMUPT
 70
     0
  9
$DIMDEC
 70
     2
  9
$DIMTDEC
 70
     3
  9
$DIMALTU
 70
     2
  9
$DIMALTTD
 70
     4
  9
$DIMTXSTY
  7
STANDARD
  9
$DIMAUNIT
 70
     0
  9
$DIMADEC
 70
     0
  9
$DIMALTRND
 40
0.0
  9
$DIMAZIN
 70
     2
  9
$DIMDSEP
 70
    46
  9
$DIMATFIT
 70
     3
  9
$DIMFRAC
 70
     0
  9
$DIMLDRBLK
  1

  9
$DIMLUNIT
 70
     2
  9
$DIMLWD
 70
    -1
  9
$DIMLWE
 70
    -1
  9
$DIMTMOVE
 70
     0
  9
$LUNITS
 70
     2
  9
$LUPREC
 70
     2
  9
$SKETCHINC
 40
1.0
  9
$FILLETRAD
 40
2.5
  9
$AUNITS
 70
     0
  9
$AUPREC
 70
     0
  9
$MENU
  1
.
  9
$ELEVATION
 40
0.0
  9
$PELEVATION
 40
0.0
  9
$THICKNESS
 40
0.0
  9
$LIMCHECK
 70
     0
  9
$CHAMFERA
 40
2.5
  9
$CHAMFERB
 40
2.5
  9
$CHAMFERC
 40
20.0
  9
$CHAMFERD
 40
0.0
  9
$SKPOLY
 70
     0
  9
$TDCREATE
 40
2457156.550104167
  9
$TDUCREATE
 40
2457156.175104167
  9
$TDUPDATE
 40
2458394.576855741
  9
$TDUUPDATE
 40
2458394.201855741
  9
$TDINDWG
 40
0.3463495139
  9
$TDUSRTIMER
 40
0.3463491204
  9
$USRTIMER
 70
     1
  9
$ANGBASE
 50
0.0
  9
$ANGDIR
 70
     0
  9
$PDMODE
 70
     0
  9
$PDSIZE
 40
0.0
  9
$PLINEWID
 40
0.0
  9
$SPLFRAME
 70
     0
  9
$SPLINETYPE
 70
     6
  9
$SPLINESEGS
 70
     8
  9
$HANDSEED
  5
FE87B
  9
$SURFTAB1
 70
     6
  9
$SURFTAB2
 70
     6
  9
$SURFTYPE
 70
     6
  9
$SURFU
 70
     6
  9
$SURFV
 70
     6
  9
$UCSBASE
  2

  9
$UCSNAME
  2

  9
$UCSORG
 10
0.0
 20
0.0
 30
0.0
  9
$UCSXDIR
 10
1.0
 20
0.0
 30
0.0
  9
$UCSYDIR
 10
0.0
 20
1.0
 30
0.0
  9
$UCSORTHOREF
  2

  9
$UCSORTHOVIEW
 70
     0
  9
$UCSORGTOP
 10
0.0
 20
0.0
 30
0.0
  9
$UCSORGBOTTOM
 10
0.0
 20
0.0
 30
0.0
  9
$UCSORGLEFT
 10
0.0
 20
0.0
 30
0.0
  9
$UCSORGRIGHT
 10
0.0
 20
0.0
 30
0.0
  9
$UCSORGFRONT
 10
0.0
 20
0.0
 30
0.0
  9
$UCSORGBACK
 10
0.0
 20
0.0
 30
0.0
  9
$PUCSBASE
  2

  9
$PUCSNAME
  2

  9
$PUCSORG
 10
0.0
 20
0.0
 30
0.0
  9
$PUCSXDIR
 10
1.0
 20
0.0
 30
0.0
  9
$PUCSYDIR
 10
0.0
 20
1.0
 30
0.0
  9
$PUCSORTHOREF
  2

  9
$PUCSORTHOVIEW
 70
     0
  9
$PUCSORGTOP
 10
0.0
 20
0.0
 30
0.0
  9
$PUCSORGBOTTOM
 10
0.0
 20
0.0
 30
0.0
  9
$PUCSORGLEFT
 10
0.0
 20
0.0
 30
0.0
  9
$PUCSORGRIGHT
 10
0.0
 20
0.0
 30
0.0
  9
$PUCSORGFRONT
 10
0.0
 20
0.0
 30
0.0
  9
$PUCSORGBACK
 10
0.0
 20
0.0
 30
0.0
  9
$USERI1
 70
     0
  9
$USERI2
 70
     0
  9
$USERI3
 70
     0
  9
$USERI4
 70
     0
  9
$USERI5
 70
     0
  9
$USERR1
 40
0.0
  9
$USERR2
 40
0.0
  9
$USERR3
 40
0.0
  9
$USERR4
 40
0.0
  9
$USERR5
 40
0.0
  9
$WORLDVIEW
 70
     1
  9
$SHADEDGE
 70
     3
  9
$SHADEDIF
 70
    70
  9
$TILEMODE
 70
     1
  9
$MAXACTVP
 70
    64
  9
$PINSBASE
 10
0.0
 20
0.0
 30
0.0
  9
$PLIMCHECK
 70
     0
  9
$PEXTMIN
 10
1.000000000000000E+20
 20
1.000000000000000E+20
 30
1.000000000000000E+20
  9
$PEXTMAX
 10
-1.000000000000000E+20
 20
-1.000000000000000E+20
 30
-1.000000000000000E+20
  9
$PLIMMIN
 10
-5.873748779296875
 20
-5.873749732971191
  9
$PLIMMAX
 10
291.05224609375
 20
204.0995779037475
  9
$UNITMODE
 70
     0
  9
$VISRETAIN
 70
     1
  9
$PLINEGEN
 70
     0
  9
$PSLTSCALE
 70
     1
  9
$TREEDEPTH
 70
  3020
  9
$CMLSTYLE
  2
Standard
  9
$CMLJUST
 70
     0
  9
$CMLSCALE
 40
20.0
  9
$PROXYGRAPHICS
 70
     1
  9
$MEASUREMENT
 70
     1
  9
$CELWEIGHT
370
    -1
  9
$ENDCAPS
280
     0
  9
$JOINSTYLE
280
     0
  9
$LWDISPLAY
290
     0
  9
$INSUNITS
 70
     4
  9
$HYPERLINKBASE
  1

  9
$STYLESHEET
  1
MONOCHROME.CTB
  9
$XEDIT
290
     1
  9
$CEPSNTYPE
380
     0
  9
$PSTYLEMODE
290
     1
  9
$FINGERPRINTGUID
  2
{50BE1C40-7876-4AFD-8770-B7778E71A178}
  9
$VERSIONGUID
  2
{9641035F-9960-499B-B4A1-9D00BD178859}
  9
$EXTNAMES
290
     1
  9
$PSVPSCALE
 40
0.0
  9
$OLESTARTUP
290
     0
  9
$SORTENTS
280
    96
  9
$INDEXCTL
280
     0
  9
$HIDETEXT
280
     0
  9
$XCLIPFRAME
290
     0
  9
$HALOGAP
280
     0
  9
$OBSCOLOR
 70
   257
  9
$OBSLTYPE
280
     0
  9
$INTERSECTIONDISPLAY
280
     0
  9
$INTERSECTIONCOLOR
 70
   257
  9
$DIMASSOC
280
     1
  9
$PROJECTNAME
  1

  0
ENDSEC
  0
SECTION
  2
CLASSES
  0
CLASS
  1
ACDBDICTIONARYWDFLT
  2
AcDbDictionaryWithDefault
  3
ObjectDBX Classes
 90
        0
 91
        1
280
     0
281
     0
  0
CLASS
  1
DICTIONARYVAR
  2
AcDbDictionaryVar
  3
ObjectDBX Classes
 90
        0
 91
       11
280
     0
281
     0
  0
CLASS
  1
ACME_DOCUMENT
  2
AcMeDbDoc
  3
AcMeServices
 90
     1024
 91
        1
280
     0
281
     0
  0
CLASS
  1
ACMESCOPE
  2
AcMeScope
  3
AcMeServices
 90
     1024
 91
        1
280
     0
281
     0
  0
CLASS
  1
ACMECOMMANDHISTORY
  2
AcMeCommandHistory
  3
AcMeServices
 90
     1024
 91
        1
280
     0
281
     0
  0
CLASS
  1
ACIMSYSVARMAN
  2
AcImSysVarManager
  3
AcMeServices
 90
     1024
 91
        3
280
     0
281
     0
  0
CLASS
  1
ACIMINTSYSVAR
  2
AcImIntSysVar
  3
AcMeServices
 90
     1024
 91
        2
280
     0
281
     0
  0
CLASS
  1
ACMEDRAWINGMAN
  2
AcMeDrawingMan
  3
AcMeServices
 90
     1024
 91
        0
280
     0
281
     0
  0
CLASS
  1
ACMEVIEW
  2
AcMeView
  3
AcMeServices
 90
     1024
 91
        0
280
     0
281
     0
  0
CLASS
  1
ACDBENTITYCACHE
  2
AcMeEntityCache
  3
AcMeServices
 90
     1024
 91
        1
280
     0
281
     0
  0
CLASS
  1
GSMANAGER
  2
AcMeGSManager
  3
AcMeServices
 90
        0
 91
        0
280
     0
281
     0
  0
CLASS
  1
AMDTINTERNALREACTOR
  2
AmdtInternalReactor
  3
AcMeServices
 90
     1024
 91
        0
280
     0
281
     0
  0
CLASS
  1
ACMESTATEMGR
  2
AcMeStateMgr
  3
AcMeServices
 90
     1024
 91
        1
280
     0
281
     0
  0
CLASS
  1
ACGREFMASTER
  2
AcGrefMaster
  3
AcAttribServices
 90
     1024
 91
        1
280
     0
281
     0
  0
CLASS
  1
AM_DRAWING_MGR
  2
AcDmDwgMgr
  3
AcMechDwgViewMgmt
 90
     1024
 91
        0
280
     0
281
     0
  0
CLASS
  1
AM_DWG_DOCUMENT
  2
AcDmDwgDocument
  3
AcMechDwgViewMgmt
 90
     1024
 91
        0
280
     0
281
     0
  0
CLASS
  1
AM_DWG_SHEET
  2
AcDmSheet
  3
AcMechDwgViewMgmt
 90
     1024
 91
        0
280
     0
281
     0
  0
CLASS
  1
AM_VIEWDIMPARMAP
  2
AcDmViewDimParMap
  3
AcMechDwgViewMgmt
 90
     1024
 91
        0
280
     0
281
     0
  0
CLASS
  1
ACIMREALSYSVAR
  2
AcImRealSysVar
  3
AcMeServices
 90
     1024
 91
        0
280
     0
281
     0
  0
CLASS
  1
AM_DWGMGR_NAME
  2
AcDmDwgMgrName
  3
AcMechDwgViewMgmt
 90
     1024
 91
        0
280
     0
281
     0
  0
CLASS
  1
ACME_DATABASE
  2
AcMeDbDatabase
  3
AcMeServices
 90
     1024
 91
        1
280
     0
281
     0
  0
CLASS
  1
ACRFINSADJUSTERMGR
  2
AcRfInsAdjusterMgr
  3
AcMeServices
 90
     1024
 91
        1
280
     0
281
     0
  0
CLASS
  1
ACGREFACADMASTER
  2
AcGrefacadMaster
  3
AcGrefServices
 90
     1024
 91
        1
280
     0
281
     0
  0
CLASS
  1
AMDTMENUSTATEMGR
  2
AmdtMenuStateMgr
  3
McadcomServices
 90
     1024
 91
        1
280
     0
281
     0
  0
CLASS
  1
AMDTMCOMMENUSTATE
  2
AmdtMcomMenuState
  3
McadcomServices
 90
     1024
 91
        1
280
     0
281
     0
  0
CLASS
  1
AMIMASTER
  2
AmiMaster
  3
AmiServices
 90
     1024
 91
        1
280
     0
281
     0
  0
CLASS
  1
AMGSETTINGSOBJ
  2
AmgSettingsObj
  3
"AcadM|Product Description: AutoCAD Mechanical|Company: Autodesk, Inc."
 90
     1024
 91
        2
280
     0
281
     0
  0
CLASS
  1
MAPIAMMOUDLE
  2
MApiAmModule
  3
MApiAmServices
 90
     1024
 91
        1
280
     0
281
     0
  0
CLASS
  1
AMDTADMENUSTATE
  2
AmdtAdMenuState
  3
DesignerServices
 90
        0
 91
        0
280
     0
281
     0
  0
CLASS
  1
ADAPPL
  2
AcAdAppl
  3
DesignerAssemblies
 90
     1024
 91
        0
280
     0
281
     0
  0
CLASS
  1
DEPMGR
  2
AcAdDepMgr
  3
DesignerAssemblies
 90
     1024
 91
        0
280
     0
281
     0
  0
CLASS
  1
PARAMMGR
  2
AcAdParamMgr
  3
DesignerAssemblies
 90
     1024
 91
        0
280
     0
281
     0
  0
CLASS
  1
PARAMSCOPE
  2
AcAdParamScope
  3
DesignerAssemblies
 90
     1024
 91
        0
280
     0
281
     0
  0
CLASS
  1
NAMEDAPPL
  2
AcAdNamedAppl
  3
DesignerAssemblies
 90
     1024
 91
        0
280
     0
281
     0
  0
CLASS
  1
AMDTDMMENUSTATE
  2
AmdtDmMenuState
  3
AcMechDwgViewMgmt
 90
        0
 91
        0
280
     0
281
     0
  0
CLASS
  1
AMDTAMMENUSTATE
  2
AmdtAmMenuState
  3
DesignerAssemblies
 90
     1024
 91
        1
280
     0
281
     0
  0
CLASS
  1
ACIMSTRSYSVAR
  2
AcImStrSysVar
  3
AcMeServices
 90
     1024
 91
        5
280
     0
281
     0
  0
CLASS
  1
ACAMPROJECT
  2
AcAmProject
  3
DesignerAssemblies
 90
     1024
 91
        1
280
     0
281
     0
  0
CLASS
  1
ACAMGRCOMPDEF
  2
AcAmGrCompDef
  3
DesignerAssemblies
 90
     1024
 91
        1
280
     0
281
     0
  0
CLASS
  1
ACCMCONTEXT
  2
AcCmContext
  3
DesignerAssemblies
 90
     1024
 91
        0
280
     0
281
     0
  0
CLASS
  1
ACAMCOMPDEF
  2
AcAmCompDef
  3
DesignerAssemblies
 90
     1024
 91
        1
280
     0
281
     0
  0
CLASS
  1
ACAMCOMPDEFMGR
  2
AcAmCompDefMgr
  3
DesignerAssemblies
 90
     1024
 91
        1
280
     0
281
     0
  0
CLASS
  1
AMCONTEXTMGR
  2
AcAmContextMgr
  3
DesignerAssemblies
 90
     1024
 91
        1
280
     0
281
     0
  0
CLASS
  1
ACAMCONTEXTMODELER
  2
AcAmContextModeler
  3
DesignerAssemblies
 90
     1024
 91
        1
280
     0
281
     0
  0
CLASS
  1
ACMDATADICTIONARY
  2
AcmDataDictionary
  3
"AcmSymBB|Product Description: AutoCAD Mechanical|Company: Autodesk, Inc."
 90
     1024
 91
        1
280
     0
281
     0
  0
CLASS
  1
CATALOGSTATE
  2
AcAmCatalogState
  3
DesignerAssemblies
 90
     1024
 91
        0
280
     0
281
     0
  0
CLASS
  1
ACAMGRCOMPDEFSET
  2
AcAmGrCompDefSet
  3
DesignerAssemblies
 90
     1024
 91
        1
280
     0
281
     0
  0
CLASS
  1
AMDTBROWSERDBTAB
  2
AmdtBrowserDbTab
  3
McadcomServices
 90
     1024
 91
        1
280
     0
281
     0
  0
CLASS
  1
CBROWSERAPPOBJECT
  2
CBrowserAppObject
  3
McadcomServices
 90
     1024
 91
        2
280
     0
281
     0
  0
CLASS
  1
DM_PLACEHOLDER
  2
AcDmSelsetPlaceholder
  3
McadcomServices
 90
     1024
 91
        1
280
     0
281
     0
  0
CLASS
  1
ACMSTANDARDISO
  2
AcmStandardISO
  3
"Amdt_StdImp|Product Description: AutoCAD Mechanical|Company: Autodesk, Inc."
 90
     1024
 91
        1
280
     0
281
     0
  0
CLASS
  1
AMGOBJPROPCFG
  2
AmgObjPropCfg
  3
"AmgLay|Product Description: AutoCAD Mechanical|Company: Autodesk, Inc."
 90
     1024
 91
        1
280
     0
281
     0
  0
CLASS
  1
AMDTEDGESTANDARDISO
  2
AmdtEdgeStdISO
  3
"Amdt_StdImp|Product Description: AutoCAD Mechanical|Company: Autodesk, Inc."
 90
     1024
 91
        0
280
     0
281
     0
  0
CLASS
  1
ACMSURFSTANDARDISO
  2
AcmSurfTextStdISO
  3
"Amdt_StdImp|Product Description: AutoCAD Mechanical|Company: Autodesk, Inc."
 90
     1024
 91
        0
280
     0
281
     0
  0
CLASS
  1
ACMFCFSTANDARDISO
  2
AcmFCFStdISO
  3
"Amdt_StdImp|Product Description: AutoCAD Mechanical|Company: Autodesk, Inc."
 90
     1024
 91
        0
280
     0
281
     0
  0
CLASS
  1
ACMWELDSTANDARDISO
  2
AcmWeldingStdISO
  3
"Amdt_StdImp|Product Description: AutoCAD Mechanical|Company: Autodesk, Inc."
 90
     1024
 91
        1
280
     0
281
     0
  0
CLASS
  1
ACMIDSTANDARDISO
  2
AcmIdStdISO
  3
"Amdt_StdImp|Product Description: AutoCAD Mechanical|Company: Autodesk, Inc."
 90
     1024
 91
        0
280
     0
281
     0
  0
CLASS
  1
ACMDATUMSTANDARDISO
  2
AcmDatumStdISO
  3
"Amdt_StdImp|Product Description: AutoCAD Mechanical|Company: Autodesk, Inc."
 90
     1024
 91
        0
280
     0
281
     0
  0
CLASS
  1
ACMBOMSTANDARDISO
  2
AcmBOMStdISO
  3
"Amdt_StdImp|Product Description: AutoCAD Mechanical|Company: Autodesk, Inc."
 90
     1024
 91
        1
280
     0
281
     0
  0
CLASS
  1
ACMDETAILSTANDARDISO
  2
AmdtDetailSymStdISO
  3
"Amdt_StdImp|Product Description: AutoCAD Mechanical|Company: Autodesk, Inc."
 90
     1024
 91
        1
280
     0
281
     0
  0
CLASS
  1
ACMSECTIONSTANDARDISO
  2
AmdtSectionSymStdISO
  3
"Amdt_StdImp|Product Description: AutoCAD Mechanical|Company: Autodesk, Inc."
 90
     1024
 91
        0
280
     0
281
     0
  0
CLASS
  1
ACMCENTERLINESTANDARDISO
  2
AmdtCenterLineStdISO
  3
"Amdt_StdImp|Product Description: AutoCAD Mechanical|Company: Autodesk, Inc."
 90
     1024
 91
        1
280
     0
281
     0
  0
CLASS
  1
ACMTHREADLINESTANDARDISO
  2
AmdtThreadLineStdISO
  3
"Amdt_StdImp|Product Description: AutoCAD Mechanical|Company: Autodesk, Inc."
 90
     1024
 91
        1
280
     0
281
     0
  0
CLASS
  1
ACMNOTESTANDARDISO
  2
AmdtNoteStdISO
  3
"Amdt_StdImp|Product Description: AutoCAD Mechanical|Company: Autodesk, Inc."
 90
     1024
 91
        1
280
     0
281
     0
  0
CLASS
  1
AMDTNOTETEMPLATEDB
  2
AmdtNoteTemplateDB
  3
AcmSymBB|Product Description: AutoCAD Mechanical|Company: Autodesk, Inc.
 90
     1024
 91
        7
280
     0
281
     0
  0
CLASS
  1
ACAMGLAYSTD
  2
AcAmgLayStd
  3
"AmgLay|Product Description: AutoCAD Mechanical|Company: Autodesk, Inc."
 90
     1024
 91
        1
280
     0
281
     0
  0
CLASS
  1
ACAMGDIMSTD
  2
AcAmgDimStd
  3
"AmgDim|Product Description: AutoCAD Mechanical|Company: Autodesk, Inc."
 90
     1024
 91
        1
280
     0
281
     0
  0
CLASS
  1
ACAMGHOLECHARTSTDISO
  2
AcAmgHoleChartStdISO
  3
AmgDim|Product Description: AutoCAD Mechanical|Company: Autodesk, Inc.
 90
     1024
 91
        1
280
     0
281
     0
  0
CLASS
  1
ACAMGTITLESTD
  2
AcAmgTitleStd
  3
"AmgTitle|Product Description: AutoCAD Mechanical|Company: Autodesk, Inc."
 90
     1024
 91
        1
280
     0
281
     0
  0
CLASS
  1
LAYER_INDEX
  2
AcDbLayerIndex
  3
ObjectDBX Classes
 90
        0
 91
        0
280
     0
281
     0
  0
CLASS
  1
IDBUFFER
  2
AcDbIdBuffer
  3
ObjectDBX Classes
 90
        0
 91
        0
280
     0
281
     0
  0
CLASS
  1
ACMSTANDARDANSI
  2
AcmStandardANSI
  3
"Amdt_StdImp|Product Description: AutoCAD Mechanical|Company: Autodesk, Inc."
 90
     1024
 91
        0
280
     0
281
     0
  0
CLASS
  1
ACMSURFSTANDARDANSI
  2
AcmSurfTextStdANSI
  3
"Amdt_StdImp|Product Description: AutoCAD Mechanical|Company: Autodesk, Inc."
 90
     1024
 91
        0
280
     0
281
     0
  0
CLASS
  1
ACMFCFSTANDARDANSI
  2
AcmFCFStdANSI
  3
"Amdt_StdImp|Product Description: AutoCAD Mechanical|Company: Autodesk, Inc."
 90
     1024
 91
        0
280
     0
281
     0
  0
CLASS
  1
ACMWELDSTANDARDANSI
  2
AcmWeldingStdANSI
  3
"Amdt_StdImp|Product Description: AutoCAD Mechanical|Company: Autodesk, Inc."
 90
     1024
 91
        0
280
     0
281
     0
  0
CLASS
  1
ACMIDSTANDARDANSI
  2
AcmIdStdANSI
  3
"Amdt_StdImp|Product Description: AutoCAD Mechanical|Company: Autodesk, Inc."
 90
     1024
 91
        0
280
     0
281
     0
  0
CLASS
  1
ACMDATUMSTANDARDANSI
  2
AcmDatumStdANSI
  3
"Amdt_StdImp|Product Description: AutoCAD Mechanical|Company: Autodesk, Inc."
 90
     1024
 91
        0
280
     0
281
     0
  0
CLASS
  1
ACMBOMSTANDARDANSI
  2
AcmBOMStdANSI
  3
"Amdt_StdImp|Product Description: AutoCAD Mechanical|Company: Autodesk, Inc."
 90
     1024
 91
        0
280
     0
281
     0
  0
CLASS
  1
ACMDETAILSTANDARDANSI
  2
AmdtDetailSymStdANSI
  3
"Amdt_StdImp|Product Description: AutoCAD Mechanical|Company: Autodesk, Inc."
 90
     1024
 91
        0
280
     0
281
     0
  0
CLASS
  1
ACMSECTIONSTANDARDANSI
  2
AmdtSectionSymStdANSI
  3
"Amdt_StdImp|Product Description: AutoCAD Mechanical|Company: Autodesk, Inc."
 90
     1024
 91
        0
280
     0
281
     0
  0
CLASS
  1
ACMCENTERLINESTANDARDANSI
  2
AmdtCenterLineStdANSI
  3
"Amdt_StdImp|Product Description: AutoCAD Mechanical|Company: Autodesk, Inc."
 90
     1024
 91
        0
280
     0
281
     0
  0
CLASS
  1
ACMTHREADLINESTANDARDANSI
  2
AmdtThreadLineStdANSI
  3
"Amdt_StdImp|Product Description: AutoCAD Mechanical|Company: Autodesk, Inc."
 90
     1024
 91
        0
280
     0
281
     0
  0
CLASS
  1
ACMNOTESTANDARDANSI
  2
AmdtNoteStdANSI
  3
"Amdt_StdImp|Product Description: AutoCAD Mechanical|Company: Autodesk, Inc."
 90
     1024
 91
        0
280
     0
281
     0
  0
CLASS
  1
ACAMGHOLECHARTSTDANSI
  2
AcAmgHoleChartStdANSI
  3
AmgDim|Product Description: AutoCAD Mechanical|Company: Autodesk, Inc.
 90
     1024
 91
        0
280
     0
281
     0
  0
CLASS
  1
ACAMGFILTERDAT
  2
AcAmgFilterDat
  3
"AcadM|Product Description: AutoCAD Mechanical|Company: Autodesk, Inc."
 90
     1024
 91
        0
280
     0
281
     0
  0
CLASS
  1
ACRFATTGENMGR
  2
AcRfAttGeneralMgr
  3
AcAttribServices
 90
     1024
 91
        0
280
     0
281
     0
  0
CLASS
  1
MATERIAL
  2
AcDbMaterial
  3
ObjectDBX Classes
 90
     1153
 91
        3
280
     0
281
     0
  0
CLASS
  1
VISUALSTYLE
  2
AcDbVisualStyle
  3
ObjectDBX Classes
 90
     4095
 91
       24
280
     0
281
     0
  0
CLASS
  1
TABLESTYLE
  2
AcDbTableStyle
  3
ObjectDBX Classes
 90
     4095
 91
        1
280
     0
281
     0
  0
CLASS
  1
SCALE
  2
AcDbScale
  3
ObjectDBX Classes
 90
     1153
 91
       17
280
     0
281
     0
  0
CLASS
  1
MLEADERSTYLE
  2
AcDbMLeaderStyle
  3
ACDB_MLEADERSTYLE_CLASS
 90
     4095
 91
        1
280
     0
281
     0
  0
CLASS
  1
ACDBSECTIONVIEWSTYLE
  2
AcDbSectionViewStyle
  3
ObjectDBX Classes
 90
     1025
 91
        2
280
     0
281
     0
  0
CLASS
  1
ACDBDETAILVIEWSTYLE
  2
AcDbDetailViewStyle
  3
ObjectDBX Classes
 90
     1025
 91
        2
280
     0
281
     0
  0
CLASS
  1
ACMTAPERSTANDARDANSI
  2
AcmTaperStdANSI
  3
"Amdt_StdImp|Product Description: AutoCAD Mechanical|Company: Autodesk, Inc."
 90
     1024
 91
        0
280
     0
281
     0
  0
CLASS
  1
ACMANOOTATIONVIEWSTANDARDANSI
  2
AmdtAnViewStdANSI
  3
"Amdt_StdImp|Product Description: AutoCAD Mechanical|Company: Autodesk, Inc."
 90
     1024
 91
        0
280
     0
281
     0
  0
CLASS
  1
ACMSECTIONSTANDARDCUSTOM
  2
AmdtSectionSymStdCustom
  3
"Amdt_StdImp|Product Description: AutoCAD Mechanical|Company: Autodesk, Inc."
 90
     1024
 91
        1
280
     0
281
     0
  0
CLASS
  1
ACMDETAILTANDARDCUSTOM
  2
AmdtDetailSymStdCustom
  3
"Amdt_StdImp|Product Description: AutoCAD Mechanical|Company: Autodesk, Inc."
 90
     1024
 91
        1
280
     0
281
     0
  0
CLASS
  1
ACMTAPERSTANDARDISO
  2
AcmTaperStdISO
  3
"Amdt_StdImp|Product Description: AutoCAD Mechanical|Company: Autodesk, Inc."
 90
     1024
 91
        1
280
     0
281
     0
  0
CLASS
  1
ACMANOOTATIONVIEWSTANDARDISO
  2
AmdtAnViewStdISO
  3
"Amdt_StdImp|Product Description: AutoCAD Mechanical|Company: Autodesk, Inc."
 90
     1024
 91
        1
280
     0
281
     0
  0
CLASS
  1
FIELD
  2
AcDbField
  3
ObjectDBX Classes
 90
     1152
 91
        3
280
     0
281
     0
  0
CLASS
  1
FIELDLIST
  2
AcDbFieldList
  3
ObjectDBX Classes
 90
     1152
 91
        1
280
     0
281
     0
  0
CLASS
  1
CELLSTYLEMAP
  2
AcDbCellStyleMap
  3
ObjectDBX Classes
 90
     1152
 91
        2
280
     0
281
     0
  0
CLASS
  1
AMDTEDGESTANDARDISO13715
  2
AmdtEdgeStdISO13715
  3
"Amdt_StdImp|Product Description: AutoCAD Mechanical|Company: Autodesk, Inc."
 90
     1024
 91
        1
280
     0
281
     0
  0
CLASS
  1
ACMSURFSTANDARDISO2002
  2
AcmSurfTextStdISO2002
  3
"Amdt_StdImp|Product Description: AutoCAD Mechanical|Company: Autodesk, Inc."
 90
     1024
 91
        1
280
     0
281
     0
  0
CLASS
  1
ACMFCFSTANDARDISO2012
  2
AcmFCFStdISO2012
  3
"Amdt_StdImp|Product Description: AutoCAD Mechanical|Company: Autodesk, Inc."
 90
     1024
 91
        1
280
     0
281
     0
  0
CLASS
  1
ACMIDSTANDARDISO2012
  2
AcmIdStdISO2012
  3
"Amdt_StdImp|Product Description: AutoCAD Mechanical|Company: Autodesk, Inc."
 90
     1024
 91
        1
280
     0
281
     0
  0
CLASS
  1
ACMDATUMSTANDARDISO2012
  2
AcmDatumStdISO2012
  3
"Amdt_StdImp|Product Description: AutoCAD Mechanical|Company: Autodesk, Inc."
 90
     1024
 91
        1
280
     0
281
     0
  0
CLASS
  1
ACMSECTIONSTANDARDISO2001
  2
AmdtSectionSymStdISO2001
  3
"Amdt_StdImp|Product Description: AutoCAD Mechanical|Company: Autodesk, Inc."
 90
     1024
 91
        1
280
     0
281
     0
  0
CLASS
  1
CAMSSTRUCTBTNSTATE
  2
StructBtnState
  3
DesignerAssemblies
 90
     1024
 91
        0
280
     0
281
     0
  0
CLASS
  1
SORTENTSTABLE
  2
AcDbSortentsTable
  3
ObjectDBX Classes
 90
        0
 91
        1
280
     0
281
     0
  0
ENDSEC
  0
SECTION
  2
TABLES
  0
TABLE
  2
VPORT
  5
8
330
0
100
AcDbSymbolTable
 70
     1
  0
VPORT
  5
FD014
330
8
100
AcDbSymbolTableRecord
100
AcDbViewportTableRecord
  2
*Active
 70
     0
 10
0.0
 20
0.0
 11
1.0
 21
1.0
 12
315.5819142879582
 22
177.9577075517052
 13
0.0
 23
0.0
 14
2.5
 24
2.5
 15
10.0
 25
10.0
 16
0.0
 26
0.0
 36
1.0
 17
0.0
 27
0.0
 37
0.0
 40
259.6140661361659
 41
1.79243119266055
 42
50.0
 43
0.0
 44
0.0
 50
0.0
 51
0.0
 71
     0
 72
   100
 73
     1
 74
     3
 75
     0
 76
     0
 77
     0
 78
     0
281
     0
 65
     0
110
0.0
120
0.0
130
0.0
111
1.0
121
0.0
131
0.0
112
0.0
122
1.0
132
0.0
 79
     0
146
0.0
1001
ACAD_NAV_VCDISPLAY
1070
     3
  0
ENDTAB
  0
TABLE
  2
LTYPE
  5
5
330
0
100
AcDbSymbolTable
 70
    14
  0
LTYPE
  5
14
330
5
100
AcDbSymbolTableRecord
100
AcDbLinetypeTableRecord
  2
ByBlock
 70
     0
  3

 72
    65
 73
     0
 40
0.0
  0
LTYPE
  5
15
330
5
100
AcDbSymbolTableRecord
100
AcDbLinetypeTableRecord
  2
ByLayer
 70
     0
  3

 72
    65
 73
     0
 40
0.0
  0
LTYPE
  5
16
330
5
100
AcDbSymbolTableRecord
100
AcDbLinetypeTableRecord
  2
Continuous
 70
     0
  3
Solid line
 72
    65
 73
     0
 40
0.0
  0
LTYPE
  5
16D41
330
5
100
AcDbSymbolTableRecord
100
AcDbLinetypeTableRecord
  2
AM_ISO02W050
 70
     0
  3
__ __ __ __ __ __ __ __ __ __ __ __ __ __ __
 72
    65
 73
     2
 40
7.5
 49
6.0
 74
     0
 49
-1.5
 74
     0
  0
LTYPE
  5
16D42
330
5
100
AcDbSymbolTableRecord
100
AcDbLinetypeTableRecord
  2
AM_ISO08W050
 70
     0
  3
____ . ____ . ____ . ____ . ____ . ____ . ____
 72
    65
 73
     4
 40
18.0
 49
12.0
 74
     0
 49
-1.5
 74
     0
 49
3.0
 74
     0
 49
-1.5
 74
     0
  0
LTYPE
  5
16D43
330
5
100
AcDbSymbolTableRecord
100
AcDbLinetypeTableRecord
  2
AM_ISO09W050
 70
     0
  3
_____ . . _____ . . _____ . . ____ .. ____
 72
    65
 73
     6
 40
22.5
 49
12.0
 74
     0
 49
-1.5
 74
     0
 49
3.0
 74
     0
 49
-1.5
 74
     0
 49
3.0
 74
     0
 49
-1.5
 74
     0
  0
LTYPE
  5
16D44
330
5
100
AcDbSymbolTableRecord
100
AcDbLinetypeTableRecord
  2
Amconstr
 70
     0
  3
_______________________
 72
    65
 73
     2
 40
9999.0
 49
9999.0
 74
     0
 49
0.0
 74
     0
  0
LTYPE
  5
16D45
330
5
100
AcDbSymbolTableRecord
100
AcDbLinetypeTableRecord
  2
AM_ISO08W050x2
 70
     0
  3
__ . __ . __ . __ . __ . __
 72
    65
 73
     4
 40
9.0
 49
6.0
 74
     0
 49
-0.75
 74
     0
 49
1.5
 74
     0
 49
-0.75
 74
     0
  0
LTYPE
  5
16D46
330
5
100
AcDbSymbolTableRecord
100
AcDbLinetypeTableRecord
  2
AM_ISO02W050x2
 70
     0
  3
 _ _ _ _ _ _ _ _ _ _ _ _
 72
    65
 73
     2
 40
3.75
 49
3.0
 74
     0
 49
-0.75
 74
     0
  0
LTYPE
  5
16D47
330
5
100
AcDbSymbolTableRecord
100
AcDbLinetypeTableRecord
  2
Amzigzag
 70
     0
  3
/\/-/\/-/\/-/\/-/\/-/\/
 72
    65
 73
     2
 40
11.0001
 49
0.0001
 74
     4
 75
   135
340
3AE2
 46
0.04
 50
0.0
 44
0.0
 45
0.0
 49
-11.0
 74
     0
  0
LTYPE
  5
16D56
330
5
100
AcDbSymbolTableRecord
100
AcDbLinetypeTableRecord
  2
ACISOWELD
 70
     0
  3
_ _ _ _ _
 72
    65
 73
     2
 40
2.0
 49
2.0
 74
     0
 49
-1.0
 74
     0
  0
LTYPE
  5
16D57
330
5
100
AcDbSymbolTableRecord
100
AcDbLinetypeTableRecord
  2
ACISOTGB
 70
     0
  3
__ . . __ . .
 72
    65
 73
     6
 40
9.0
 49
4.0
 74
     0
 49
-1.0
 74
     0
 49
1.0
 74
     0
 49
-1.0
 74
     0
 49
1.0
 74
     0
 49
-1.0
 74
     0
  0
LTYPE
  5
16D58
330
5
100
AcDbSymbolTableRecord
100
AcDbLinetypeTableRecord
  2
ACISOTGL
 70
     0
  3
_ _ _ _ _
 72
    65
 73
     2
 40
3.0
 49
2.0
 74
     0
 49
-1.0
 74
     0
  0
LTYPE
  5
FE625
330
5
100
AcDbSymbolTableRecord
100
AcDbLinetypeTableRecord
  2
HIDDEN
 70
     0
  3
Hidden __ __ __ __ __ __ __ __ __ __ __ __ __ _
 72
    65
 73
     2
 40
9.524999999999996
 49
6.349999999999997
 74
     0
 49
-3.174999999999998
 74
     0
  0
LTYPE
  5
FE626
330
5
100
AcDbSymbolTableRecord
100
AcDbLinetypeTableRecord
  2
PHANTOM2
 70
     0
  3
Phantom (.5x) ___ _ _ ___ _ _ ___ _ _ ___ _ _
 72
    65
 73
     6
 40
31.75
 49
15.875
 74
     0
 49
-3.174999999999998
 74
     0
 49
3.174999999999998
 74
     0
 49
-3.174999999999998
 74
     0
 49
3.174999999999998
 74
     0
 49
-3.174999999999998
 74
     0
  0
LTYPE
  5
FE627
330
5
100
AcDbSymbolTableRecord
100
AcDbLinetypeTableRecord
  2
CENTER
 70
     0
  3
Center ____ _ ____ _ ____ _ ____ _ ____ _ ____
 72
    65
 73
     4
 40
50.8
 49
31.75
 74
     0
 49
-6.349999999999997
 74
     0
 49
6.349999999999997
 74
     0
 49
-6.349999999999997
 74
     0
  0
ENDTAB
  0
TABLE
  2
LAYER
  5
2
102
{ACAD_XDICTIONARY
360
F82BD
102
}
330
0
100
AcDbSymbolTable
 70
     4
  0
LAYER
  5
10
102
{ACAD_XDICTIONARY
360
FD162
102
}
330
2
100
AcDbSymbolTableRecord
100
AcDbLayerTableRecord
  2
0
 70
     0
 62
     7
  6
Continuous
370
    20
390
F
  0
LAYER
  5
54
330
2
100
AcDbSymbolTableRecord
100
AcDbLayerTableRecord
  2
Defpoints
 70
     0
 62
     7
  6
Continuous
290
     0
370
    -3
390
F
  0
LAYER
  5
86C9
102
{ACAD_XDICTIONARY
360
FD164
102
}
330
2
100
AcDbSymbolTableRecord
100
AcDbLayerTableRecord
  2
04_ele1_0.15
 70
     0
 62
     4
  6
Continuous
370
    15
390
F
  0
LAYER
  5
FD0E1
102
{ACAD_XDICTIONARY
360
FD166
102
}
330
2
100
AcDbSymbolTableRecord
100
AcDbLayerTableRecord
  2
AM_5
 70
     0
 62
     3
  6
Continuous
370
    25
390
F
1001
AcAecLayerStandard
1000

1000

  0
ENDTAB
  0
TABLE
  2
STYLE
  5
3
330
0
100
AcDbSymbolTable
 70
     6
  0
STYLE
  5
11
330
3
100
AcDbSymbolTableRecord
100
AcDbTextStyleTableRecord
  2
STANDARD
 70
     0
 40
0.0
 41
1.0
 50
0.0
 71
     0
 42
2.5
  3
ISOCP.SHX
  4
EXTFONT.SHX
  0
STYLE
  5
3A59
330
3
100
AcDbSymbolTableRecord
100
AcDbTextStyleTableRecord
  2
new cad
 70
     0
 40
0.0
 41
1.0
 50
0.0
 71
     0
 42
2.5
  3
HGPGothicM.ttf
  4

1001
ACAD
1000
HGPGothicM
1071
    32818
  0
STYLE
  5
3AE2
330
3
100
AcDbSymbolTableRecord
100
AcDbTextStyleTableRecord
  2

 70
     1
 40
0.0
 41
1.0
 50
0.0
 71
     0
 42
2.5
  3
ltypeshp.shx
  4

  0
STYLE
  5
16D55
330
3
100
AcDbSymbolTableRecord
100
AcDbTextStyleTableRecord
  2
ACISOGDT
 70
     0
 40
0.0
 41
1.0
 50
0.0
 71
     0
 42
2.5
  3
amgdt.shx
  4

  0
STYLE
  5
F61F9
330
3
100
AcDbSymbolTableRecord
100
AcDbTextStyleTableRecord
  2
2014++
 70
     0
 40
0.0
 41
0.8
 50
0.0
 71
     0
 42
2.5
  3
simplex.shx
  4
bigfont.shx
  0
STYLE
  5
FE65E
330
3
100
AcDbSymbolTableRecord
100
AcDbTextStyleTableRecord
  2
ACISOTS
 70
     0
 40
0.0
 41
1.0
 50
0.0
 71
     0
 42
2.5
  3
isocp.shx
  4
extfont.shx
  0
ENDTAB
  0
TABLE
  2
VIEW
  5
6
330
0
100
AcDbSymbolTable
 70
     0
  0
ENDTAB
  0
TABLE
  2
UCS
  5
7
330
0
100
AcDbSymbolTable
 70
     0
  0
ENDTAB
  0
TABLE
  2
APPID
  5
9
330
0
100
AcDbSymbolTable
 70
    22
  0
APPID
  5
12
330
9
100
AcDbSymbolTableRecord
100
AcDbRegAppTableRecord
  2
ACAD
 70
     0
  0
APPID
  5
16CD8
330
9
100
AcDbSymbolTableRecord
100
AcDbRegAppTableRecord
  2
MCAD_NO_VIS
 70
     0
  0
APPID
  5
16CD9
330
9
100
AcDbSymbolTableRecord
100
AcDbRegAppTableRecord
  2
ACAD_TEMP_GRAPHIC
 70
     0
  0
APPID
  5
16D0B
330
9
100
AcDbSymbolTableRecord
100
AcDbRegAppTableRecord
  2
AD_DRAW
 70
     0
  0
APPID
  5
16D0E
330
9
100
AcDbSymbolTableRecord
100
AcDbRegAppTableRecord
  2
ACATTRIBSERVICES
 70
     0
  0
APPID
  5
16D30
330
9
100
AcDbSymbolTableRecord
100
AcDbRegAppTableRecord
  2
DESIGNERASSEMBLIES
 70
     0
  0
APPID
  5
16D36
330
9
100
AcDbSymbolTableRecord
100
AcDbRegAppTableRecord
  2
ACADM_DIM_EDIT
 70
     0
  0
APPID
  5
16D37
330
9
100
AcDbSymbolTableRecord
100
AcDbRegAppTableRecord
  2
AMDT_DM_ADJ
 70
     0
  0
APPID
  5
16D6D
330
9
100
AcDbSymbolTableRecord
100
AcDbRegAppTableRecord
  2
GENIUS_GENSCREG_15
 70
     0
  0
APPID
  5
16D6E
330
9
100
AcDbSymbolTableRecord
100
AcDbRegAppTableRecord
  2
GENIUS_GENOBJ-N-SDF_13
 70
     0
  0
APPID
  5
16D6F
330
9
100
AcDbSymbolTableRecord
100
AcDbRegAppTableRecord
  2
GENIUS_GENODEF_13
 70
     0
  0
APPID
  5
ADC12
330
9
100
AcDbSymbolTableRecord
100
AcDbRegAppTableRecord
  2
GENIUS_GENDTOL_13
 70
     0
  0
APPID
  5
BA934
330
9
100
AcDbSymbolTableRecord
100
AcDbRegAppTableRecord
  2
GENIUS_GENOBJ-N-FIL_13
 70
     0
  0
APPID
  5
F4A76
330
9
100
AcDbSymbolTableRecord
100
AcDbRegAppTableRecord
  2
DCO15
 70
     0
  0
APPID
  5
FD0CC
330
9
100
AcDbSymbolTableRecord
100
AcDbRegAppTableRecord
  2
ACAD_NAV_VCDISPLAY
 70
     0
  0
APPID
  5
FD0D9
330
9
100
AcDbSymbolTableRecord
100
AcDbRegAppTableRecord
  2
ACAD_PSEXT
 70
     0
  0
APPID
  5
FD0E2
330
9
100
AcDbSymbolTableRecord
100
AcDbRegAppTableRecord
  2
AcAecLayerStandard
 70
     0
  0
APPID
  5
FD0E6
330
9
100
AcDbSymbolTableRecord
100
AcDbRegAppTableRecord
  2
ACAD_DSTYLE_DIMBREAK
 70
     0
  0
APPID
  5
FD0E7
330
9
100
AcDbSymbolTableRecord
100
AcDbRegAppTableRecord
  2
ACAD_DSTYLE_DIMJAG
 70
     0
  0
APPID
  5
FD104
330
9
100
AcDbSymbolTableRecord
100
AcDbRegAppTableRecord
  2
ACAD_DSTYLE_DIMINSPECT
 70
     0
  0
APPID
  5
FD1B8
330
9
100
AcDbSymbolTableRecord
100
AcDbRegAppTableRecord
  2
ACAD_MLEADERVER
 70
     0
  0
APPID
  5
FD3C0
330
9
100
AcDbSymbolTableRecord
100
AcDbRegAppTableRecord
  2
ACAD_EXEMPT_FROM_CAD_STANDARDS
 70
     0
  0
ENDTAB
  0
TABLE
  2
DIMSTYLE
  5
A
330
0
100
AcDbSymbolTable
 70
     8
100
AcDbDimStyleTable
 71
     3
340
16D60
340
16D6A
340
16D65
  0
DIMSTYLE
105
16D60
102
{ACAD_REACTORS
330
FE817
102
}
330
A
100
AcDbSymbolTableRecord
100
AcDbDimStyleTableRecord
  2
AM_ISO
 70
     0
  4
"
 41
2.5
 42
1.0
 43
10.0
 44
1.0
 47
0.1
 48
0.1
 73
     0
 74
     0
 77
     1
 78
     8
 79
     2
140
3.5
141
0.0
143
0.0393701
146
0.71
147
1.5
172
     1
176
   256
177
   256
178
     2
271
     2
272
     3
274
     4
283
     0
284
     8
340
11
371
    -1
372
    -1
  0
DIMSTYLE
105
16D61
102
{ACAD_REACTORS
330
FCF33
330
FD2C6
330
FD473
102
}
330
A
100
AcDbSymbolTableRecord
100
AcDbDimStyleTableRecord
  2
AM_ISO$3
 70
     0
  4
"
 41
2.5
 42
1.0
 43
10.0
 44
1.0
 47
0.1
 48
0.1
 73
     0
 77
     1
 78
     8
 79
     2
140
3.5
141
0.0
143
0.0393701
146
0.71
147
1.5
176
   256
177
   256
178
     2
271
     2
272
     3
274
     4
283
     0
284
     8
288
     1
289
     0
340
11
371
    -1
372
    -1
  0
DIMSTYLE
105
16D62
330
A
100
AcDbSymbolTableRecord
100
AcDbDimStyleTableRecord
  2
AM_ISO$4
 70
     0
  4
"
 41
2.5
 42
1.0
 43
10.0
 44
1.0
 47
0.1
 48
0.1
 73
     0
 77
     1
 78
     8
 79
     2
140
3.5
141
0.0
143
0.0393701
146
0.71
147
1.5
176
   256
177
   256
178
     2
271
     2
272
     3
274
     4
283
     0
284
     8
288
     1
289
     0
340
11
371
    -1
372
    -1
  0
DIMSTYLE
105
16D63
330
A
100
AcDbSymbolTableRecord
100
AcDbDimStyleTableRecord
  2
AM_ISO$6
 70
     0
  4
"
 41
2.5
 42
1.0
 43
10.0
 44
1.0
 47
0.1
 48
0.1
 73
     0
 74
     0
 78
     8
 79
     2
140
3.5
141
0.0
143
0.0393701
146
0.71
147
1.5
172
     1
176
   256
177
   256
178
     2
271
     2
272
     3
274
     4
283
     0
284
     8
340
11
371
    -1
372
    -1
  0
DIMSTYLE
105
16D64
102
{ACAD_REACTORS
330
FCF20
330
FCF23
102
}
330
A
100
AcDbSymbolTableRecord
100
AcDbDimStyleTableRecord
  2
AM_ISO$7
 70
     0
  4
"
 41
2.5
 42
1.0
 43
10.0
 44
1.0
 47
0.1
 48
0.1
 73
     0
 74
     0
 77
     1
 78
     8
 79
     2
140
5.0
141
0.0
143
0.0393701
146
0.71
147
1.5
172
     1
176
   256
177
   256
178
     2
271
     2
272
     3
274
     4
283
     0
284
     8
340
11
371
    -1
372
    -1
  0
DIMSTYLE
105
16D65
330
A
100
AcDbSymbolTableRecord
100
AcDbDimStyleTableRecord
  2
AM_ISO$SF
 70
     0
  4
"
 41
2.5
 42
1.0
 43
10.0
 44
1.0
 47
0.1
 48
0.1
 73
     0
 74
     0
 75
     1
 76
     1
 77
     1
 78
     8
 79
     2
140
3.5
141
0.0
143
0.0393701
146
0.71
147
1.5
172
     1
176
   256
177
   256
178
     2
271
     2
272
     3
274
     4
283
     0
284
     8
340
11
371
    -1
372
    -1
  0
DIMSTYLE
105
16D6A
330
A
100
AcDbSymbolTableRecord
100
AcDbDimStyleTableRecord
  2
AM_ISO$SH
 70
     0
  4
"
 41
2.5
 42
1.0
 43
10.0
 44
1.0
 47
0.1
 48
0.1
 73
     0
 74
     0
 75
     1
 76
     1
 77
     1
 78
     8
 79
     2
140
3.5
141
0.0
143
0.0393701
144
2.0
146
0.71
147
1.5
172
     1
173
     1
176
   256
177
   256
178
     2
271
     2
272
     3
274
     4
283
     0
284
     8
340
11
343
16D66
371
    -1
372
    -1
  0
DIMSTYLE
105
FD0E8
102
{ACAD_REACTORS
330
FCF07
330
FCF08
330
FCF14
330
FCF19
330
FCF2E
330
FCF30
330
FCF2F
330
FD2BD
330
FD46A
330
FD46D
330
FD2C2
330
FD2C3
330
FD2C4
330
FD46F
330
FD470
330
FD471
330
FD2C5
330
FD472
330
FDAF9
102
}
330
A
100
AcDbSymbolTableRecord
100
AcDbDimStyleTableRecord
  2
AM_ISO$0
 70
     0
  4
"
 41
2.5
 42
1.0
 43
10.0
 44
1.0
 47
0.1
 48
0.1
 73
     0
 74
     0
 77
     1
 78
     8
 79
     2
140
3.5
141
0.0
143
0.0393701
146
0.71
147
1.5
172
     1
176
   256
177
   256
178
     2
271
     2
272
     3
274
     4
283
     0
284
     8
340
11
371
    -1
372
    -1
1001
ACAD_DSTYLE_DIMBREAK
1070
   391
1040
3.75
1001
ACAD_DSTYLE_DIMJAG
1070
   388
1040
1.5
  0
ENDTAB
  0
TABLE
  2
BLOCK_RECORD
  5
1
330
0
100
AcDbSymbolTable
 70
    46
  0
BLOCK_RECORD
  5
1F
102
{ACAD_XDICTIONARY
360
16D78
102
}
330
1
100
AcDbSymbolTableRecord
100
AcDbBlockTableRecord
  2
*Model_Space
340
22
  0
BLOCK_RECORD
  5
FD0CD
330
1
100
AcDbSymbolTableRecord
100
AcDbBlockTableRecord
  2
*Paper_Space
340
FD0CE
  0
BLOCK_RECORD
  5
16D66
330
1
100
AcDbSymbolTableRecord
100
AcDbBlockTableRecord
  2
GENAXEH
340
0
  0
BLOCK_RECORD
  5
FCF3C
330
1
100
AcDbSymbolTableRecord
100
AcDbBlockTableRecord
  2
*D1
340
0
  0
BLOCK_RECORD
  5
FCF48
330
1
100
AcDbSymbolTableRecord
100
AcDbBlockTableRecord
  2
*D2
340
0
  0
BLOCK_RECORD
  5
FCF54
330
1
100
AcDbSymbolTableRecord
100
AcDbBlockTableRecord
  2
*D3
340
0
  0
BLOCK_RECORD
  5
FCF60
330
1
100
AcDbSymbolTableRecord
100
AcDbBlockTableRecord
  2
*D4
340
0
  0
BLOCK_RECORD
  5
FCF6C
330
1
100
AcDbSymbolTableRecord
100
AcDbBlockTableRecord
  2
*D5
340
0
  0
BLOCK_RECORD
  5
FCF78
330
1
100
AcDbSymbolTableRecord
100
AcDbBlockTableRecord
  2
*D6
340
0
  0
BLOCK_RECORD
  5
FCF84
330
1
100
AcDbSymbolTableRecord
100
AcDbBlockTableRecord
  2
*D7
340
0
  0
BLOCK_RECORD
  5
FCF90
330
1
100
AcDbSymbolTableRecord
100
AcDbBlockTableRecord
  2
*D8
340
0
  0
BLOCK_RECORD
  5
FD2CA
330
1
100
AcDbSymbolTableRecord
100
AcDbBlockTableRecord
  2
*D9
340
0
  0
BLOCK_RECORD
  5
FD2E2
330
1
100
AcDbSymbolTableRecord
100
AcDbBlockTableRecord
  2
*D10
340
0
  0
BLOCK_RECORD
  5
FD2EE
330
1
100
AcDbSymbolTableRecord
100
AcDbBlockTableRecord
  2
*D11
340
0
  0
BLOCK_RECORD
  5
FD2FA
330
1
100
AcDbSymbolTableRecord
100
AcDbBlockTableRecord
  2
*D12
340
0
  0
BLOCK_RECORD
  5
FD306
330
1
100
AcDbSymbolTableRecord
100
AcDbBlockTableRecord
  2
*D13
340
0
  0
BLOCK_RECORD
  5
FD312
330
1
100
AcDbSymbolTableRecord
100
AcDbBlockTableRecord
  2
*D14
340
0
  0
BLOCK_RECORD
  5
FD31E
330
1
100
AcDbSymbolTableRecord
100
AcDbBlockTableRecord
  2
*D15
340
0
  0
BLOCK_RECORD
  5
FD478
330
1
100
AcDbSymbolTableRecord
100
AcDbBlockTableRecord
  2
*D16
340
0
  0
BLOCK_RECORD
  5
FD490
330
1
100
AcDbSymbolTableRecord
100
AcDbBlockTableRecord
  2
*D17
340
0
  0
BLOCK_RECORD
  5
FD49C
330
1
100
AcDbSymbolTableRecord
100
AcDbBlockTableRecord
  2
*D18
340
0
  0
BLOCK_RECORD
  5
FD4A8
330
1
100
AcDbSymbolTableRecord
100
AcDbBlockTableRecord
  2
*D19
340
0
  0
BLOCK_RECORD
  5
FD4B4
330
1
100
AcDbSymbolTableRecord
100
AcDbBlockTableRecord
  2
*D20
340
0
  0
BLOCK_RECORD
  5
FD4C0
330
1
100
AcDbSymbolTableRecord
100
AcDbBlockTableRecord
  2
*D21
340
0
  0
BLOCK_RECORD
  5
FD4CC
330
1
100
AcDbSymbolTableRecord
100
AcDbBlockTableRecord
  2
*D22
340
0
  0
BLOCK_RECORD
  5
FDAFA
330
1
100
AcDbSymbolTableRecord
100
AcDbBlockTableRecord
  2
*D23
340
0
  0
BLOCK_RECORD
  5
FDDDB
330
1
100
AcDbSymbolTableRecord
100
AcDbBlockTableRecord
  2
*D24
340
0
  0
BLOCK_RECORD
  5
FDDE7
330
1
100
AcDbSymbolTableRecord
100
AcDbBlockTableRecord
  2
*D25
340
0
  0
BLOCK_RECORD
  5
FDDF3
330
1
100
AcDbSymbolTableRecord
100
AcDbBlockTableRecord
  2
*D26
340
0
  0
BLOCK_RECORD
  5
FDDFF
330
1
100
AcDbSymbolTableRecord
100
AcDbBlockTableRecord
  2
*D27
340
0
  0
BLOCK_RECORD
  5
FDE0B
330
1
100
AcDbSymbolTableRecord
100
AcDbBlockTableRecord
  2
*D28
340
0
  0
BLOCK_RECORD
  5
FDE17
330
1
100
AcDbSymbolTableRecord
100
AcDbBlockTableRecord
  2
*D29
340
0
  0
BLOCK_RECORD
  5
FDE23
330
1
100
AcDbSymbolTableRecord
100
AcDbBlockTableRecord
  2
*D30
340
0
  0
BLOCK_RECORD
  5
FDE2F
330
1
100
AcDbSymbolTableRecord
100
AcDbBlockTableRecord
  2
*D31
340
0
  0
BLOCK_RECORD
  5
FDE3A
330
1
100
AcDbSymbolTableRecord
100
AcDbBlockTableRecord
  2
*D32
340
0
  0
BLOCK_RECORD
  5
FDE5E
330
1
100
AcDbSymbolTableRecord
100
AcDbBlockTableRecord
  2
*D33
340
0
  0
BLOCK_RECORD
  5
FDE6A
330
1
100
AcDbSymbolTableRecord
100
AcDbBlockTableRecord
  2
*D34
340
0
  0
BLOCK_RECORD
  5
FDE76
330
1
100
AcDbSymbolTableRecord
100
AcDbBlockTableRecord
  2
*D35
340
0
  0
BLOCK_RECORD
  5
FDE82
330
1
100
AcDbSymbolTableRecord
100
AcDbBlockTableRecord
  2
*D36
340
0
  0
BLOCK_RECORD
  5
FDE8D
330
1
100
AcDbSymbolTableRecord
100
AcDbBlockTableRecord
  2
*D37
340
0
  0
BLOCK_RECORD
  5
FDEB1
330
1
100
AcDbSymbolTableRecord
100
AcDbBlockTableRecord
  2
*D38
340
0
  0
BLOCK_RECORD
  5
FDEBD
330
1
100
AcDbSymbolTableRecord
100
AcDbBlockTableRecord
  2
*D39
340
0
  0
BLOCK_RECORD
  5
FDEC9
330
1
100
AcDbSymbolTableRecord
100
AcDbBlockTableRecord
  2
*D40
340
0
  0
BLOCK_RECORD
  5
FDED5
330
1
100
AcDbSymbolTableRecord
100
AcDbBlockTableRecord
  2
*D41
340
0
  0
BLOCK_RECORD
  5
FDEE0
330
1
100
AcDbSymbolTableRecord
100
AcDbBlockTableRecord
  2
*D42
340
0
  0
BLOCK_RECORD
  5
FDFBA
330
1
100
AcDbSymbolTableRecord
100
AcDbBlockTableRecord
  2
*D43
340
0
  0
BLOCK_RECORD
  5
FE438
330
1
100
AcDbSymbolTableRecord
100
AcDbBlockTableRecord
  2
*D44
340
0
  0
ENDTAB
  0
ENDSEC
  0
SECTION
  2
BLOCKS
  0
BLOCK
  5
20
330
1F
100
AcDbEntity
  8
0
100
AcDbBlockBegin
  2
*Model_Space
 70
     0
 10
0.0
 20
0.0
 30
0.0
  3
*Model_Space
  1

  0
ENDBLK
  5
21
330
1F
100
AcDbEntity
  8
0
100
AcDbBlockEnd
  0
BLOCK
  5
FD0CF
330
FD0CD
100
AcDbEntity
 67
     1
  8
0
100
AcDbBlockBegin
  2
*Paper_Space
 70
     0
 10
0.0
 20
0.0
 30
0.0
  3
*Paper_Space
  1

  0
ENDBLK
  5
FD0D0
330
FD0CD
100
AcDbEntity
 67
     1
  8
0
100
AcDbBlockEnd
  0
BLOCK
  5
16D68
330
16D66
100
AcDbEntity
  8
0
100
AcDbBlockBegin
  2
GENAXEH
 70
     0
 10
0.0
 20
0.0
 30
0.0
  3
GENAXEH
  1

  0
LINE
  5
16D67
330
16D66
100
AcDbEntity
  8
0
100
AcDbLine
 10
-1.0
 20
0.0
 30
0.0
 11
1.0
 21
0.0
 31
0.0
  0
ENDBLK
  5
16D69
330
16D66
100
AcDbEntity
  8
0
100
AcDbBlockEnd
  0
BLOCK
  5
FCF46
330
FCF3C
100
AcDbEntity
  8
0
100
AcDbBlockBegin
  2
*D1
 70
     1
 10
0.0
 20
0.0
 30
0.0
  3
*D1
  1

  0
LINE
  5
FD11B
330
FCF3C
100
AcDbEntity
  8
AM_5
440
 16777216
100
AcDbLine
 10
200.6752198552522
 20
198.58935281313
 30
0.0
 11
217.2547608983387
 21
198.58935281313
 31
0.0
  0
LINE
  5
FD11C
330
FCF3C
100
AcDbEntity
  8
AM_5
440
 16777216
100
AcDbLine
 10
200.6752198552522
 20
110.58935281313
 30
0.0
 11
217.2547608983387
 21
110.58935281313
 31
0.0
  0
LINE
  5
FD11D
330
FCF3C
100
AcDbEntity
  8
AM_5
440
 16777216
100
AcDbLine
 10
216.2547608983387
 20
196.08935281313
 30
0.0
 11
216.2547608983386
 21
113.08935281313
 31
0.0
  0
SOLID
  5
FD11E
330
FCF3C
100
AcDbEntity
  8
AM_5
440
 16777216
100
AcDbTrace
 10
215.838094231672
 20
196.08935281313
 30
0.0
 11
216.6714275650053
 21
196.08935281313
 31
0.0
 12
216.2547608983387
 22
198.58935281313
 32
0.0
 13
216.2547608983387
 23
198.58935281313
 33
0.0
  0
SOLID
  5
FD11F
330
FCF3C
100
AcDbEntity
  8
AM_5
440
 16777216
100
AcDbTrace
 10
215.838094231672
 20
113.08935281313
 30
0.0
 11
216.6714275650053
 21
113.08935281313
 31
0.0
 12
216.2547608983386
 22
110.58935281313
 32
0.0
 13
216.2547608983386
 23
110.58935281313
 33
0.0
  0
MTEXT
  5
FD120
330
FCF3C
100
AcDbEntity
  8
AM_5
 62
     2
440
 16777216
100
AcDbMText
 10
213.0047608983386
 20
154.5893528131301
 30
0.0
 40
3.5
 41
0.0
 71
     5
 72
     1
  1
88
 11
0.0000000000000001
 21
1.0
 31
0.0
 73
     1
 44
1.0
1001
ACAD
1000
MTEXTBEGIN
1070
    73
1070
     1
1070
    44
1040
1.0
1070
    74
1070
     0
1000
MTEXTEND
  0
POINT
  5
FD121
330
FCF3C
100
AcDbEntity
  8
Defpoints
 62
     0
440
 16777216
100
AcDbPoint
 10
199.6752198552522
 20
198.58935281313
 30
0.0
  0
POINT
  5
FD122
330
FCF3C
100
AcDbEntity
  8
Defpoints
 62
     0
440
 16777216
100
AcDbPoint
 10
199.6752198552522
 20
110.58935281313
 30
0.0
  0
POINT
  5
FD123
330
FCF3C
100
AcDbEntity
  8
Defpoints
 62
     0
440
 16777216
100
AcDbPoint
 10
216.2547608983386
 20
110.58935281313
 30
0.0
  0
ENDBLK
  5
FCF47
330
FCF3C
100
AcDbEntity
  8
0
100
AcDbBlockEnd
  0
BLOCK
  5
FCF52
330
FCF48
100
AcDbEntity
  8
0
100
AcDbBlockBegin
  2
*D2
 70
     1
 10
0.0
 20
0.0
 30
0.0
  3
*D2
  1

  0
LINE
  5
FD12C
330
FCF48
100
AcDbEntity
  8
AM_5
440
 16777216
100
AcDbLine
 10
127.1752198552485
 20
154.58935281313
 30
0.0
 11
87.62858466697821
 21
154.58935281313
 31
0.0
  0
LINE
  5
FD12D
330
FCF48
100
AcDbEntity
  8
AM_5
440
 16777216
100
AcDbLine
 10
103.6752198552485
 20
110.58935281313
 30
0.0
 11
87.62858466697821
 21
110.58935281313
 31
0.0
  0
LINE
  5
FD12E
330
FCF48
100
AcDbEntity
  8
AM_5
440
 16777216
100
AcDbLine
 10
88.6285846669782
 20
152.08935281313
 30
0.0
 11
88.6285846669782
 21
113.0893528131301
 31
0.0
  0
SOLID
  5
FD12F
330
FCF48
100
AcDbEntity
  8
AM_5
440
 16777216
100
AcDbTrace
 10
88.21191800031154
 20
152.08935281313
 30
0.0
 11
89.04525133364487
 21
152.08935281313
 31
0.0
 12
88.6285846669782
 22
154.58935281313
 32
0.0
 13
88.6285846669782
 23
154.58935281313
 33
0.0
  0
SOLID
  5
FD130
330
FCF48
100
AcDbEntity
  8
AM_5
440
 16777216
100
AcDbTrace
 10
88.21191800031154
 20
113.0893528131301
 30
0.0
 11
89.04525133364487
 21
113.0893528131301
 31
0.0
 12
88.6285846669782
 22
110.58935281313
 32
0.0
 13
88.6285846669782
 23
110.58935281313
 33
0.0
  0
MTEXT
  5
FD131
330
FCF48
100
AcDbEntity
  8
AM_5
 62
     2
440
 16777216
100
AcDbMText
 10
85.37858466697818
 20
132.5893528131301
 30
0.0
 40
3.5
 41
0.0
 71
     5
 72
     1
  1
44
 11
0.0000000000000001
 21
1.0
 31
0.0
 73
     1
 44
1.0
1001
ACAD
1000
MTEXTBEGIN
1070
    73
1070
     1
1070
    44
1040
1.0
1070
    74
1070
     0
1000
MTEXTEND
  0
POINT
  5
FD132
330
FCF48
100
AcDbEntity
  8
Defpoints
 62
     0
440
 16777216
100
AcDbPoint
 10
128.1752198552485
 20
154.58935281313
 30
0.0
  0
POINT
  5
FD133
330
FCF48
100
AcDbEntity
  8
Defpoints
 62
     0
440
 16777216
100
AcDbPoint
 10
104.6752198552485
 20
110.58935281313
 30
0.0
  0
POINT
  5
FD134
330
FCF48
100
AcDbEntity
  8
Defpoints
 62
     0
440
 16777216
100
AcDbPoint
 10
88.6285846669782
 20
110.58935281313
 30
0.0
  0
ENDBLK
  5
FCF53
330
FCF48
100
AcDbEntity
  8
0
100
AcDbBlockEnd
  0
BLOCK
  5
FCF5E
330
FCF54
100
AcDbEntity
  8
0
100
AcDbBlockBegin
  2
*D3
 70
     1
 10
0.0
 20
0.0
 30
0.0
  3
*D3
  1

  0
LINE
  5
FD135
330
FCF54
100
AcDbEntity
  8
AM_5
440
 16777216
100
AcDbLine
 10
104.6752198552485
 20
109.6646216303341
 30
0.0
 11
104.6752198552485
 21
98.19315754362207
 31
0.0
  0
LINE
  5
FD136
330
FCF54
100
AcDbEntity
  8
AM_5
440
 16777216
100
AcDbLine
 10
199.6752198552485
 20
109.6646216303343
 30
0.0
 11
199.6752198552485
 21
98.19315754362207
 31
0.0
  0
LINE
  5
FD137
330
FCF54
100
AcDbEntity
  8
AM_5
440
 16777216
100
AcDbLine
 10
107.1752198552485
 20
99.19315754362209
 30
0.0
 11
197.1752198552485
 21
99.19315754362209
 31
0.0
  0
SOLID
  5
FD138
330
FCF54
100
AcDbEntity
  8
AM_5
440
 16777216
100
AcDbTrace
 10
107.1752198552485
 20
99.60982421028878
 30
0.0
 11
107.1752198552485
 21
98.77649087695541
 31
0.0
 12
104.6752198552485
 22
99.19315754362209
 32
0.0
 13
104.6752198552485
 23
99.19315754362209
 33
0.0
  0
SOLID
  5
FD139
330
FCF54
100
AcDbEntity
  8
AM_5
440
 16777216
100
AcDbTrace
 10
197.1752198552485
 20
99.60982421028878
 30
0.0
 11
197.1752198552485
 21
98.77649087695541
 31
0.0
 12
199.6752198552485
 22
99.19315754362209
 32
0.0
 13
199.6752198552485
 23
99.19315754362209
 33
0.0
  0
MTEXT
  5
FD13A
330
FCF54
100
AcDbEntity
  8
AM_5
 62
     2
440
 16777216
100
AcDbMText
 10
152.1752198552485
 20
102.443157543622
 30
0.0
 40
3.5
 41
0.0
 71
     5
 72
     1
  1
95
 73
     1
 44
1.0
1001
ACAD
1000
MTEXTBEGIN
1070
    73
1070
     1
1070
    44
1040
1.0
1070
    74
1070
     0
1000
MTEXTEND
  0
POINT
  5
FD13B
330
FCF54
100
AcDbEntity
  8
Defpoints
 62
     0
440
 16777216
100
AcDbPoint
 10
104.6752198552485
 20
110.6646216303341
 30
0.0
  0
POINT
  5
FD13C
330
FCF54
100
AcDbEntity
  8
Defpoints
 62
     0
440
 16777216
100
AcDbPoint
 10
199.6752198552485
 20
110.6646216303343
 30
0.0
  0
POINT
  5
FD13D
330
FCF54
100
AcDbEntity
  8
Defpoints
 62
     0
440
 16777216
100
AcDbPoint
 10
199.6752198552485
 20
99.19315754362209
 30
0.0
  0
ENDBLK
  5
FCF5F
330
FCF54
100
AcDbEntity
  8
0
100
AcDbBlockEnd
  0
BLOCK
  5
FCF6A
330
FCF60
100
AcDbEntity
  8
0
100
AcDbBlockBegin
  2
*D4
 70
     1
 10
0.0
 20
0.0
 30
0.0
  3
*D4
  1

  0
LINE
  5
FD13E
330
FCF60
100
AcDbEntity
  8
AM_5
440
 16777216
100
AcDbLine
 10
103.6752198552485
 20
60.43965756119995
 30
0.0
 11
87.62858466697823
 21
60.43965756119995
 31
0.0
  0
LINE
  5
FD13F
330
FCF60
100
AcDbEntity
  8
AM_5
440
 16777216
100
AcDbLine
 10
103.675219855234
 20
72.43965756119997
 30
0.0
 11
87.62858466697823
 21
72.43965756119997
 31
0.0
  0
LINE
  5
FD140
330
FCF60
100
AcDbEntity
  8
AM_5
440
 16777216
100
AcDbLine
 10
88.62858466697822
 20
62.93965756119995
 30
0.0
 11
88.62858466697822
 21
69.93965756119997
 31
0.0
  0
SOLID
  5
FD141
330
FCF60
100
AcDbEntity
  8
AM_5
440
 16777216
100
AcDbTrace
 10
88.21191800031156
 20
62.93965756119995
 30
0.0
 11
89.0452513336449
 21
62.93965756119995
 31
0.0
 12
88.62858466697822
 22
60.43965756119995
 32
0.0
 13
88.62858466697822
 23
60.43965756119995
 33
0.0
  0
SOLID
  5
FD142
330
FCF60
100
AcDbEntity
  8
AM_5
440
 16777216
100
AcDbTrace
 10
88.21191800031156
 20
69.93965756119997
 30
0.0
 11
89.0452513336449
 21
69.93965756119997
 31
0.0
 12
88.62858466697822
 22
72.43965756119997
 32
0.0
 13
88.62858466697822
 23
72.43965756119997
 33
0.0
  0
MTEXT
  5
FD143
330
FCF60
100
AcDbEntity
  8
AM_5
 62
     2
440
 16777216
100
AcDbMText
 10
85.37824017878923
 20
66.43965756120064
 30
0.0
 40
3.5
 41
0.0
 71
     5
 72
     1
  1
t12
 11
0.0000000000000001
 21
1.0
 31
0.0
 73
     1
 44
1.0
1001
ACAD
1000
MTEXTBEGIN
1070
    73
1070
     1
1070
    44
1040
1.0
1070
    74
1070
     0
1000
MTEXTEND
  0
POINT
  5
FD144
330
FCF60
100
AcDbEntity
  8
Defpoints
 62
     0
440
 16777216
100
AcDbPoint
 10
104.6752198552485
 20
60.43965756119995
 30
0.0
  0
POINT
  5
FD145
330
FCF60
100
AcDbEntity
  8
Defpoints
 62
     0
440
 16777216
100
AcDbPoint
 10
104.675219855234
 20
72.43965756119997
 30
0.0
  0
POINT
  5
FD146
330
FCF60
100
AcDbEntity
  8
Defpoints
 62
     0
440
 16777216
100
AcDbPoint
 10
88.62858466697822
 20
72.43965756119997
 30
0.0
  0
ENDBLK
  5
FCF6B
330
FCF60
100
AcDbEntity
  8
0
100
AcDbBlockEnd
  0
BLOCK
  5
FCF76
330
FCF6C
100
AcDbEntity
  8
0
100
AcDbBlockBegin
  2
*D5
 70
     1
 10
0.0
 20
0.0
 30
0.0
  3
*D5
  1

  0
LINE
  5
FD147
330
FCF6C
100
AcDbEntity
  8
AM_5
440
 16777216
100
AcDbLine
 10
139.6752198552485
 20
168.08935281313
 30
0.0
 11
139.6752198552485
 21
209.624445124314
 31
0.0
  0
LINE
  5
FD148
330
FCF6C
100
AcDbEntity
  8
AM_5
440
 16777216
100
AcDbLine
 10
199.6752198552485
 20
199.58935281313
 30
0.0
 11
199.6752198552485
 21
209.624445124314
 31
0.0
  0
LINE
  5
FD149
330
FCF6C
100
AcDbEntity
  8
AM_5
440
 16777216
100
AcDbLine
 10
142.1752198552485
 20
208.624445124314
 30
0.0
 11
197.1752198552485
 21
208.624445124314
 31
0.0
  0
SOLID
  5
FD14A
330
FCF6C
100
AcDbEntity
  8
AM_5
440
 16777216
100
AcDbTrace
 10
142.1752198552485
 20
209.0411117909806
 30
0.0
 11
142.1752198552485
 21
208.2077784576473
 31
0.0
 12
139.6752198552485
 22
208.624445124314
 32
0.0
 13
139.6752198552485
 23
208.624445124314
 33
0.0
  0
SOLID
  5
FD14B
330
FCF6C
100
AcDbEntity
  8
AM_5
440
 16777216
100
AcDbTrace
 10
197.1752198552485
 20
209.0411117909806
 30
0.0
 11
197.1752198552485
 21
208.2077784576473
 31
0.0
 12
199.6752198552485
 22
208.624445124314
 32
0.0
 13
199.6752198552485
 23
208.624445124314
 33
0.0
  0
MTEXT
  5
FD14C
330
FCF6C
100
AcDbEntity
  8
AM_5
 62
     2
440
 16777216
100
AcDbMText
 10
169.6752198552485
 20
211.874445124314
 30
0.0
 40
3.5
 41
0.0
 71
     5
 72
     1
  1
60
 73
     1
 44
1.0
1001
ACAD
1000
MTEXTBEGIN
1070
    73
1070
     1
1070
    44
1040
1.0
1070
    74
1070
     0
1000
MTEXTEND
  0
POINT
  5
FD14D
330
FCF6C
100
AcDbEntity
  8
Defpoints
 62
     0
440
 16777216
100
AcDbPoint
 10
139.6752198552485
 20
167.08935281313
 30
0.0
  0
POINT
  5
FD14E
330
FCF6C
100
AcDbEntity
  8
Defpoints
 62
     0
440
 16777216
100
AcDbPoint
 10
199.6752198552485
 20
198.58935281313
 30
0.0
  0
POINT
  5
FD14F
330
FCF6C
100
AcDbEntity
  8
Defpoints
 62
     0
440
 16777216
100
AcDbPoint
 10
199.6752198552485
 20
208.624445124314
 30
0.0
  0
ENDBLK
  5
FCF77
330
FCF6C
100
AcDbEntity
  8
0
100
AcDbBlockEnd
  0
BLOCK
  5
FCF82
330
FCF78
100
AcDbEntity
  8
0
100
AcDbBlockBegin
  2
*D6
 70
     1
 10
0.0
 20
0.0
 30
0.0
  3
*D6
  1

  0
LINE
  5
FD159
330
FCF78
100
AcDbEntity
  8
AM_5
440
 16777216
100
AcDbLine
 10
103.6752198552485
 20
198.58935281313
 30
0.0
 11
87.62858466697823
 21
198.58935281313
 31
0.0
  0
LINE
  5
FD15A
330
FCF78
100
AcDbEntity
  8
AM_5
440
 16777216
100
AcDbLine
 10
127.1752198552485
 20
154.58935281313
 30
0.0
 11
87.62858466697821
 21
154.58935281313
 31
0.0
  0
LINE
  5
FD15B
330
FCF78
100
AcDbEntity
  8
AM_5
440
 16777216
100
AcDbLine
 10
88.62858466697822
 20
196.08935281313
 30
0.0
 11
88.6285846669782
 21
157.08935281313
 31
0.0
  0
SOLID
  5
FD15C
330
FCF78
100
AcDbEntity
  8
AM_5
440
 16777216
100
AcDbTrace
 10
88.21191800031156
 20
196.08935281313
 30
0.0
 11
89.0452513336449
 21
196.08935281313
 31
0.0
 12
88.62858466697822
 22
198.58935281313
 32
0.0
 13
88.62858466697822
 23
198.58935281313
 33
0.0
  0
SOLID
  5
FD15D
330
FCF78
100
AcDbEntity
  8
AM_5
440
 16777216
100
AcDbTrace
 10
88.21191800031154
 20
157.08935281313
 30
0.0
 11
89.04525133364487
 21
157.08935281313
 31
0.0
 12
88.6285846669782
 22
154.58935281313
 32
0.0
 13
88.6285846669782
 23
154.58935281313
 33
0.0
  0
MTEXT
  5
FD15E
330
FCF78
100
AcDbEntity
  8
AM_5
 62
     2
440
 16777216
100
AcDbMText
 10
85.37858466697818
 20
176.5893528131301
 30
0.0
 40
3.5
 41
0.0
 71
     5
 72
     1
  1
44
 11
0.0000000000000001
 21
1.0
 31
0.0
 73
     1
 44
1.0
1001
ACAD
1000
MTEXTBEGIN
1070
    73
1070
     1
1070
    44
1040
1.0
1070
    74
1070
     0
1000
MTEXTEND
  0
POINT
  5
FD15F
330
FCF78
100
AcDbEntity
  8
Defpoints
 62
     0
440
 16777216
100
AcDbPoint
 10
104.6752198552485
 20
198.58935281313
 30
0.0
  0
POINT
  5
FD160
330
FCF78
100
AcDbEntity
  8
Defpoints
 62
     0
440
 16777216
100
AcDbPoint
 10
128.1752198552485
 20
154.58935281313
 30
0.0
  0
POINT
  5
FD161
330
FCF78
100
AcDbEntity
  8
Defpoints
 62
     0
440
 16777216
100
AcDbPoint
 10
88.6285846669782
 20
154.58935281313
 30
0.0
  0
ENDBLK
  5
FCF83
330
FCF78
100
AcDbEntity
  8
0
100
AcDbBlockEnd
  0
BLOCK
  5
FCF8E
330
FCF84
100
AcDbEntity
  8
0
100
AcDbBlockBegin
  2
*D7
 70
     1
 10
0.0
 20
0.0
 30
0.0
  3
*D7
  1

  0
LINE
  5
FD150
330
FCF84
100
AcDbEntity
  8
AM_5
440
 16777216
100
AcDbLine
 10
104.6752198552485
 20
199.58935281313
 30
0.0
 11
104.6752198552485
 21
209.624445124314
 31
0.0
  0
LINE
  5
FD151
330
FCF84
100
AcDbEntity
  8
AM_5
440
 16777216
100
AcDbLine
 10
139.6752198552485
 20
167.08935281313
 30
0.0
 11
139.6752198552485
 21
209.624445124314
 31
0.0
  0
LINE
  5
FD152
330
FCF84
100
AcDbEntity
  8
AM_5
440
 16777216
100
AcDbLine
 10
107.1752198552485
 20
208.624445124314
 30
0.0
 11
137.1752198552485
 21
208.624445124314
 31
0.0
  0
SOLID
  5
FD153
330
FCF84
100
AcDbEntity
  8
AM_5
440
 16777216
100
AcDbTrace
 10
107.1752198552485
 20
209.0411117909806
 30
0.0
 11
107.1752198552485
 21
208.2077784576473
 31
0.0
 12
104.6752198552485
 22
208.624445124314
 32
0.0
 13
104.6752198552485
 23
208.624445124314
 33
0.0
  0
SOLID
  5
FD154
330
FCF84
100
AcDbEntity
  8
AM_5
440
 16777216
100
AcDbTrace
 10
137.1752198552485
 20
209.0411117909806
 30
0.0
 11
137.1752198552485
 21
208.2077784576473
 31
0.0
 12
139.6752198552485
 22
208.624445124314
 32
0.0
 13
139.6752198552485
 23
208.624445124314
 33
0.0
  0
MTEXT
  5
FD155
330
FCF84
100
AcDbEntity
  8
AM_5
 62
     2
440
 16777216
100
AcDbMText
 10
122.1752198552485
 20
211.874445124314
 30
0.0
 40
3.5
 41
0.0
 71
     5
 72
     1
  1
35
 73
     1
 44
1.0
1001
ACAD
1000
MTEXTBEGIN
1070
    73
1070
     1
1070
    44
1040
1.0
1070
    74
1070
     0
1000
MTEXTEND
  0
POINT
  5
FD156
330
FCF84
100
AcDbEntity
  8
Defpoints
 62
     0
440
 16777216
100
AcDbPoint
 10
104.6752198552485
 20
198.58935281313
 30
0.0
  0
POINT
  5
FD157
330
FCF84
100
AcDbEntity
  8
Defpoints
 62
     0
440
 16777216
100
AcDbPoint
 10
139.6752198552485
 20
166.08935281313
 30
0.0
  0
POINT
  5
FD158
330
FCF84
100
AcDbEntity
  8
Defpoints
 62
     0
440
 16777216
100
AcDbPoint
 10
139.6752198552485
 20
208.624445124314
 30
0.0
  0
ENDBLK
  5
FCF8F
330
FCF84
100
AcDbEntity
  8
0
100
AcDbBlockEnd
  0
BLOCK
  5
FCF9A
330
FCF90
100
AcDbEntity
  8
0
100
AcDbBlockBegin
  2
*D8
 70
     1
 10
0.0
 20
0.0
 30
0.0
  3
*D8
  1

  0
LINE
  5
FD124
330
FCF90
100
AcDbEntity
  8
AM_5
440
 16777216
100
AcDbLine
 10
154.5603019204688
 20
171.8599732973853
 30
0.0
 11
146.8566190972319
 21
162.9216697134291
 31
0.0
  0
LINE
  5
FD125
330
FCF90
100
AcDbEntity
  8
AM_5
440
 16777216
100
AcDbLine
 10
132.4938206132351
 20
146.2570359128376
 30
0.0
 11
130.8616844218714
 21
144.3633275264062
 31
0.0
  0
MTEXT
  5
FD126
102
{ACAD_XDICTIONARY
360
FD1C2
102
}
330
FCF90
100
AcDbEntity
  8
AM_5
 62
     2
440
 16777216
100
AcDbMText
 10
149.0627077021714
 20
170.4594527473957
 30
0.0
 40
3.5
 41
0.0
 71
     5
 72
     1
  1
\U+220517
 11
0.6528544765455009
 21
0.7574833545725609
 31
0.0
 73
     1
 44
1.0
1001
ACAD
1000
MTEXTBEGIN
1070
    73
1070
     1
1070
    44
1040
1.0
1070
    74
1070
     0
1000
MTEXTEND
  0
LINE
  5
FD127
330
FCF90
100
AcDbEntity
  8
AM_5
440
 16777216
100
AcDbLine
 10
134.1259568045988
 20
148.150744299269
 30
0.0
 11
145.2244829058682
 21
161.0279613269977
 31
0.0
  0
SOLID
  5
FD128
330
FCF90
100
AcDbEntity
  8
AM_5
440
 16777216
100
AcDbTrace
 10
132.1782025488299
 20
146.5290586113981
 30
0.0
 11
132.8094386776403
 21
145.985013214277
 31
0.0
 12
134.1259568045988
 22
148.150744299269
 32
0.0
 13
134.1259568045988
 23
148.150744299269
 33
0.0
  0
SOLID
  5
FD129
330
FCF90
100
AcDbEntity
  8
AM_5
440
 16777216
100
AcDbTrace
 10
146.5410010328267
 20
163.1936924119897
 30
0.0
 11
147.1722371616371
 21
162.6496470148684
 31
0.0
 12
145.2244829058682
 22
161.0279613269977
 32
0.0
 13
145.2244829058682
 23
161.0279613269977
 33
0.0
  0
POINT
  5
FD12A
330
FCF90
100
AcDbEntity
  8
Defpoints
 62
     0
440
 16777216
100
AcDbPoint
 10
145.2244829058682
 20
161.0279613269977
 30
0.0
  0
POINT
  5
FD12B
330
FCF90
100
AcDbEntity
  8
Defpoints
 62
     0
440
 16777216
100
AcDbPoint
 10
134.1259568045988
 20
148.150744299269
 30
0.0
  0
ENDBLK
  5
FCF9B
330
FCF90
100
AcDbEntity
  8
0
100
AcDbBlockEnd
  0
BLOCK
  5
FD2CB
330
FD2CA
100
AcDbEntity
  8
0
100
AcDbBlockBegin
  2
*D9
 70
     1
 10
0.0
 20
0.0
 30
0.0
  3
*D9
  1

  0
LINE
  5
FD8A2
330
FD2CA
100
AcDbEntity
  8
AM_5
440
 16777216
100
AcDbLine
 10
411.0034577506168
 20
154.5893528131337
 30
0.0
 11
320.6531501285602
 21
154.5893528131337
 31
0.0
  0
LINE
  5
FD8A3
330
FD2CA
100
AcDbEntity
  8
AM_5
440
 16777216
100
AcDbLine
 10
347.5034577506169
 20
110.5893528131336
 30
0.0
 11
320.6531501285601
 21
110.5893528131336
 31
0.0
  0
LINE
  5
FD8A4
330
FD2CA
100
AcDbEntity
  8
AM_5
440
 16777216
100
AcDbLine
 10
321.6531501285602
 20
152.0893528131336
 30
0.0
 11
321.6531501285601
 21
113.0893528131337
 31
0.0
  0
SOLID
  5
FD8A5
330
FD2CA
100
AcDbEntity
  8
AM_5
440
 16777216
100
AcDbTrace
 10
321.2364834618935
 20
152.0893528131336
 30
0.0
 11
322.0698167952269
 21
152.0893528131336
 31
0.0
 12
321.6531501285602
 22
154.5893528131337
 32
0.0
 13
321.6531501285602
 23
154.5893528131337
 33
0.0
  0
SOLID
  5
FD8A6
330
FD2CA
100
AcDbEntity
  8
AM_5
440
 16777216
100
AcDbTrace
 10
321.2364834618934
 20
113.0893528131337
 30
0.0
 11
322.0698167952268
 21
113.0893528131337
 31
0.0
 12
321.6531501285601
 22
110.5893528131336
 32
0.0
 13
321.6531501285601
 23
110.5893528131336
 33
0.0
  0
MTEXT
  5
FD8A7
330
FD2CA
100
AcDbEntity
  8
AM_5
 62
     2
440
 16777216
100
AcDbMText
 10
318.4031501285601
 20
132.5893528131337
 30
0.0
 40
3.5
 41
0.0
 71
     5
 72
     1
  1
44
 11
0.0000000000000001
 21
1.0
 31
0.0
 73
     1
 44
1.0
  0
POINT
  5
FD8A8
330
FD2CA
100
AcDbEntity
  8
Defpoints
 62
     0
440
 16777216
100
AcDbPoint
 10
412.0034577506169
 20
154.5893528131337
 30
0.0
  0
POINT
  5
FD8A9
330
FD2CA
100
AcDbEntity
  8
Defpoints
 62
     0
440
 16777216
100
AcDbPoint
 10
348.5034577506169
 20
110.5893528131336
 30
0.0
  0
POINT
  5
FD8AA
330
FD2CA
100
AcDbEntity
  8
Defpoints
 62
     0
440
 16777216
100
AcDbPoint
 10
321.6531501285601
 20
110.5893528131336
 30
0.0
  0
ENDBLK
  5
FD2CC
330
FD2CA
100
AcDbEntity
  8
0
100
AcDbBlockEnd
  0
BLOCK
  5
FD2E3
330
FD2E2
100
AcDbEntity
  8
0
100
AcDbBlockBegin
  2
*D10
 70
     1
 10
0.0
 20
0.0
 30
0.0
  3
*D10
  1

  0
LINE
  5
FD931
330
FD2E2
100
AcDbEntity
  8
AM_5
440
 16777216
100
AcDbLine
 10
347.5034577506169
 20
72.43965756119632
 30
0.0
 11
320.6531501285601
 21
72.43965756119632
 31
0.0
  0
LINE
  5
FD932
330
FD2E2
100
AcDbEntity
  8
AM_5
440
 16777216
100
AcDbLine
 10
347.5034577506169
 20
56.4396575611963
 30
0.0
 11
320.6531501285601
 21
56.43965756119632
 31
0.0
  0
LINE
  5
FD933
330
FD2E2
100
AcDbEntity
  8
AM_5
440
 16777216
100
AcDbLine
 10
321.6531501285601
 20
69.93965756119632
 30
0.0
 11
321.6531501285601
 21
58.93965756119632
 31
0.0
  0
SOLID
  5
FD934
330
FD2E2
100
AcDbEntity
  8
AM_5
440
 16777216
100
AcDbTrace
 10
321.2364834618934
 20
69.93965756119632
 30
0.0
 11
322.0698167952268
 21
69.93965756119632
 31
0.0
 12
321.6531501285601
 22
72.43965756119632
 32
0.0
 13
321.6531501285601
 23
72.43965756119632
 33
0.0
  0
SOLID
  5
FD935
330
FD2E2
100
AcDbEntity
  8
AM_5
440
 16777216
100
AcDbTrace
 10
321.2364834618934
 20
58.93965756119632
 30
0.0
 11
322.0698167952268
 21
58.93965756119632
 31
0.0
 12
321.6531501285601
 22
56.43965756119632
 32
0.0
 13
321.6531501285601
 23
56.43965756119632
 33
0.0
  0
MTEXT
  5
FD936
330
FD2E2
100
AcDbEntity
  8
AM_5
 62
     2
440
 16777216
100
AcDbMText
 10
318.4031501285601
 20
64.43965756119637
 30
0.0
 40
3.5
 41
0.0
 71
     5
 72
     1
  1
16
 11
0.0000000000000001
 21
1.0
 31
0.0
 73
     1
 44
1.0
  0
POINT
  5
FD937
330
FD2E2
100
AcDbEntity
  8
Defpoints
 62
     0
440
 16777216
100
AcDbPoint
 10
348.5034577506169
 20
72.43965756119632
 30
0.0
  0
POINT
  5
FD938
330
FD2E2
100
AcDbEntity
  8
Defpoints
 62
     0
440
 16777216
100
AcDbPoint
 10
348.5034577506169
 20
56.4396575611963
 30
0.0
  0
POINT
  5
FD939
330
FD2E2
100
AcDbEntity
  8
Defpoints
 62
     0
440
 16777216
100
AcDbPoint
 10
321.6531501285601
 20
56.43965756119632
 30
0.0
  0
ENDBLK
  5
FD2E4
330
FD2E2
100
AcDbEntity
  8
0
100
AcDbBlockEnd
  0
BLOCK
  5
FD2EF
330
FD2EE
100
AcDbEntity
  8
0
100
AcDbBlockBegin
  2
*D11
 70
     1
 10
0.0
 20
0.0
 30
0.0
  3
*D11
  1

  0
LINE
  5
FD8BD
330
FD2EE
100
AcDbEntity
  8
AM_5
440
 16777216
100
AcDbLine
 10
498.5034577506168
 20
199.5893528131336
 30
0.0
 11
498.5034577506168
 21
244.9301849552774
 31
0.0
  0
LINE
  5
FD8BE
330
FD2EE
100
AcDbEntity
  8
AM_5
440
 16777216
100
AcDbLine
 10
348.5034577506169
 20
199.5893528131336
 30
0.0
 11
348.5034577506169
 21
244.9301849552774
 31
0.0
  0
LINE
  5
FD8BF
330
FD2EE
100
AcDbEntity
  8
AM_5
440
 16777216
100
AcDbLine
 10
496.0034577506169
 20
243.9301849552776
 30
0.0
 11
351.0034577506169
 21
243.9301849552776
 31
0.0
  0
SOLID
  5
FD8C0
330
FD2EE
100
AcDbEntity
  8
AM_5
440
 16777216
100
AcDbTrace
 10
496.0034577506169
 20
244.3468516219442
 30
0.0
 11
496.0034577506169
 21
243.5135182886109
 31
0.0
 12
498.5034577506168
 22
243.9301849552776
 32
0.0
 13
498.5034577506168
 23
243.9301849552776
 33
0.0
  0
SOLID
  5
FD8C1
330
FD2EE
100
AcDbEntity
  8
AM_5
440
 16777216
100
AcDbTrace
 10
351.0034577506169
 20
244.3468516219442
 30
0.0
 11
351.0034577506169
 21
243.5135182886109
 31
0.0
 12
348.5034577506169
 22
243.9301849552776
 32
0.0
 13
348.5034577506169
 23
243.9301849552776
 33
0.0
  0
MTEXT
  5
FD8C2
330
FD2EE
100
AcDbEntity
  8
AM_5
 62
     2
440
 16777216
100
AcDbMText
 10
423.5034577506168
 20
247.1801849552775
 30
0.0
 40
3.5
 41
0.0
 71
     5
 72
     1
  1
150
 73
     1
 44
1.0
  0
POINT
  5
FD8C3
330
FD2EE
100
AcDbEntity
  8
Defpoints
 62
     0
440
 16777216
100
AcDbPoint
 10
498.5034577506168
 20
198.5893528131336
 30
0.0
  0
POINT
  5
FD8C4
330
FD2EE
100
AcDbEntity
  8
Defpoints
 62
     0
440
 16777216
100
AcDbPoint
 10
348.5034577506169
 20
198.5893528131336
 30
0.0
  0
POINT
  5
FD8C5
330
FD2EE
100
AcDbEntity
  8
Defpoints
 62
     0
440
 16777216
100
AcDbPoint
 10
348.5034577506169
 20
243.9301849552776
 30
0.0
  0
ENDBLK
  5
FD2F0
330
FD2EE
100
AcDbEntity
  8
0
100
AcDbBlockEnd
  0
BLOCK
  5
FD2FB
330
FD2FA
100
AcDbEntity
  8
0
100
AcDbBlockBegin
  2
*D12
 70
     1
 10
0.0
 20
0.0
 30
0.0
  3
*D12
  1

  0
LINE
  5
FD8C6
330
FD2FA
100
AcDbEntity
  8
AM_5
440
 16777216
100
AcDbLine
 10
347.5034577506169
 20
198.5893528131336
 30
0.0
 11
320.6531501285601
 21
198.5893528131336
 31
0.0
  0
LINE
  5
FD8C7
330
FD2FA
100
AcDbEntity
  8
AM_5
440
 16777216
100
AcDbLine
 10
411.0034577506168
 20
154.5893528131337
 30
0.0
 11
320.6531501285601
 21
154.5893528131337
 31
0.0
  0
LINE
  5
FD8C8
330
FD2FA
100
AcDbEntity
  8
AM_5
440
 16777216
100
AcDbLine
 10
321.6531501285601
 20
196.0893528131336
 30
0.0
 11
321.6531501285601
 21
157.0893528131336
 31
0.0
  0
SOLID
  5
FD8C9
330
FD2FA
100
AcDbEntity
  8
AM_5
440
 16777216
100
AcDbTrace
 10
321.2364834618934
 20
196.0893528131336
 30
0.0
 11
322.0698167952268
 21
196.0893528131336
 31
0.0
 12
321.6531501285601
 22
198.5893528131336
 32
0.0
 13
321.6531501285601
 23
198.5893528131336
 33
0.0
  0
SOLID
  5
FD8CA
330
FD2FA
100
AcDbEntity
  8
AM_5
440
 16777216
100
AcDbTrace
 10
321.2364834618934
 20
157.0893528131336
 30
0.0
 11
322.0698167952268
 21
157.0893528131336
 31
0.0
 12
321.6531501285601
 22
154.5893528131337
 32
0.0
 13
321.6531501285601
 23
154.5893528131337
 33
0.0
  0
MTEXT
  5
FD8CB
330
FD2FA
100
AcDbEntity
  8
AM_5
 62
     2
440
 16777216
100
AcDbMText
 10
318.4031501285601
 20
176.5893528131337
 30
0.0
 40
3.5
 41
0.0
 71
     5
 72
     1
  1
44
 11
0.0000000000000001
 21
1.0
 31
0.0
 73
     1
 44
1.0
  0
POINT
  5
FD8CC
330
FD2FA
100
AcDbEntity
  8
Defpoints
 62
     0
440
 16777216
100
AcDbPoint
 10
348.5034577506169
 20
198.5893528131336
 30
0.0
  0
POINT
  5
FD8CD
330
FD2FA
100
AcDbEntity
  8
Defpoints
 62
     0
440
 16777216
100
AcDbPoint
 10
412.0034577506169
 20
154.5893528131337
 30
0.0
  0
POINT
  5
FD8CE
330
FD2FA
100
AcDbEntity
  8
Defpoints
 62
     0
440
 16777216
100
AcDbPoint
 10
321.6531501285601
 20
154.5893528131337
 30
0.0
  0
ENDBLK
  5
FD2FC
330
FD2FA
100
AcDbEntity
  8
0
100
AcDbBlockEnd
  0
BLOCK
  5
FD307
330
FD306
100
AcDbEntity
  8
0
100
AcDbBlockBegin
  2
*D13
 70
     1
 10
0.0
 20
0.0
 30
0.0
  3
*D13
  1

  0
LINE
  5
FD8CF
330
FD306
100
AcDbEntity
  8
AM_5
440
 16777216
100
AcDbLine
 10
348.5034577506169
 20
199.5893528131336
 30
0.0
 11
348.5034577506169
 21
226.4396604351905
 31
0.0
  0
LINE
  5
FD8D0
330
FD306
100
AcDbEntity
  8
AM_5
440
 16777216
100
AcDbLine
 10
423.5034577506168
 20
167.0893528131337
 30
0.0
 11
423.5034577506168
 21
226.4396604351905
 31
0.0
  0
LINE
  5
FD8D1
330
FD306
100
AcDbEntity
  8
AM_5
440
 16777216
100
AcDbLine
 10
351.0034577506169
 20
225.4396604351905
 30
0.0
 11
421.0034577506169
 21
225.4396604351905
 31
0.0
  0
SOLID
  5
FD8D2
330
FD306
100
AcDbEntity
  8
AM_5
440
 16777216
100
AcDbTrace
 10
351.0034577506169
 20
225.8563271018571
 30
0.0
 11
351.0034577506169
 21
225.0229937685238
 31
0.0
 12
348.5034577506169
 22
225.4396604351905
 32
0.0
 13
348.5034577506169
 23
225.4396604351905
 33
0.0
  0
SOLID
  5
FD8D3
330
FD306
100
AcDbEntity
  8
AM_5
440
 16777216
100
AcDbTrace
 10
421.0034577506169
 20
225.8563271018571
 30
0.0
 11
421.0034577506169
 21
225.0229937685238
 31
0.0
 12
423.5034577506168
 22
225.4396604351905
 32
0.0
 13
423.5034577506168
 23
225.4396604351905
 33
0.0
  0
MTEXT
  5
FD8D4
330
FD306
100
AcDbEntity
  8
AM_5
 62
     2
440
 16777216
100
AcDbMText
 10
386.0034577506169
 20
228.6896604351905
 30
0.0
 40
3.5
 41
0.0
 71
     5
 72
     1
  1
75
 73
     1
 44
1.0
  0
POINT
  5
FD8D5
330
FD306
100
AcDbEntity
  8
Defpoints
 62
     0
440
 16777216
100
AcDbPoint
 10
348.5034577506169
 20
198.5893528131336
 30
0.0
  0
POINT
  5
FD8D6
330
FD306
100
AcDbEntity
  8
Defpoints
 62
     0
440
 16777216
100
AcDbPoint
 10
423.5034577506168
 20
166.0893528131337
 30
0.0
  0
POINT
  5
FD8D7
330
FD306
100
AcDbEntity
  8
Defpoints
 62
     0
440
 16777216
100
AcDbPoint
 10
423.5034577506168
 20
225.4396604351905
 30
0.0
  0
ENDBLK
  5
FD308
330
FD306
100
AcDbEntity
  8
0
100
AcDbBlockEnd
  0
BLOCK
  5
FD313
330
FD312
100
AcDbEntity
  8
0
100
AcDbBlockBegin
  2
*D14
 70
     1
 10
0.0
 20
0.0
 30
0.0
  3
*D14
  1

  0
LINE
  5
FD8D8
330
FD312
100
AcDbEntity
  8
AM_5
440
 16777216
100
AcDbLine
 10
423.5034577506168
 20
167.0893528131337
 30
0.0
 11
423.5034577506168
 21
226.4396604351905
 31
0.0
  0
LINE
  5
FD8D9
330
FD312
100
AcDbEntity
  8
AM_5
440
 16777216
100
AcDbLine
 10
498.5034577506168
 20
199.5893528131336
 30
0.0
 11
498.5034577506168
 21
226.4396604351905
 31
0.0
  0
LINE
  5
FD8DA
330
FD312
100
AcDbEntity
  8
AM_5
440
 16777216
100
AcDbLine
 10
426.0034577506169
 20
225.4396604351905
 30
0.0
 11
496.0034577506169
 21
225.4396604351905
 31
0.0
  0
SOLID
  5
FD8DB
330
FD312
100
AcDbEntity
  8
AM_5
440
 16777216
100
AcDbTrace
 10
426.0034577506169
 20
225.8563271018571
 30
0.0
 11
426.0034577506169
 21
225.0229937685238
 31
0.0
 12
423.5034577506168
 22
225.4396604351905
 32
0.0
 13
423.5034577506168
 23
225.4396604351905
 33
0.0
  0
SOLID
  5
FD8DC
330
FD312
100
AcDbEntity
  8
AM_5
440
 16777216
100
AcDbTrace
 10
496.0034577506169
 20
225.8563271018571
 30
0.0
 11
496.0034577506169
 21
225.0229937685238
 31
0.0
 12
498.5034577506168
 22
225.4396604351905
 32
0.0
 13
498.5034577506168
 23
225.4396604351905
 33
0.0
  0
MTEXT
  5
FD8DD
330
FD312
100
AcDbEntity
  8
AM_5
 62
     2
440
 16777216
100
AcDbMText
 10
461.0034577506168
 20
228.6896604351905
 30
0.0
 40
3.5
 41
0.0
 71
     5
 72
     1
  1
75
 73
     1
 44
1.0
  0
POINT
  5
FD8DE
330
FD312
100
AcDbEntity
  8
Defpoints
 62
     0
440
 16777216
100
AcDbPoint
 10
423.5034577506168
 20
166.0893528131337
 30
0.0
  0
POINT
  5
FD8DF
330
FD312
100
AcDbEntity
  8
Defpoints
 62
     0
440
 16777216
100
AcDbPoint
 10
498.5034577506168
 20
198.5893528131336
 30
0.0
  0
POINT
  5
FD8E0
330
FD312
100
AcDbEntity
  8
Defpoints
 62
     0
440
 16777216
100
AcDbPoint
 10
498.5034577506168
 20
225.4396604351905
 30
0.0
  0
ENDBLK
  5
FD314
330
FD312
100
AcDbEntity
  8
0
100
AcDbBlockEnd
  0
BLOCK
  5
FD31F
330
FD31E
100
AcDbEntity
  8
0
100
AcDbBlockBegin
  2
*D15
 70
     1
 10
0.0
 20
0.0
 30
0.0
  3
*D15
  1

  0
LINE
  5
FD8E1
330
FD31E
100
AcDbEntity
  8
AM_5
440
 16777216
100
AcDbLine
 10
439.8321362590627
 20
170.5020602561779
 30
0.0
 11
431.3813289608339
 21
162.2665362286373
 31
0.0
  0
LINE
  5
FD8E2
330
FD31E
100
AcDbEntity
  8
AM_5
440
 16777216
100
AcDbLine
 10
415.6255865404061
 20
146.9121693976287
 30
0.0
 11
413.8351612653574
 21
145.1673549850141
 31
0.0
  0
MTEXT
  5
FD8E3
102
{ACAD_XDICTIONARY
360
FE604
102
}
330
FD31E
100
AcDbEntity
  8
AM_5
 62
     2
440
 16777216
100
AcDbMText
 10
434.2336865110738
 20
169.5842583062779
 30
0.0
 40
3.5
 41
0.0
 71
     5
 72
     1
  1
\U+220517
 11
0.7161701100194127
 21
0.6979257650458123
 31
0.0
 73
     1
 44
1.0
  0
LINE
  5
FD8E4
330
FD31E
100
AcDbEntity
  8
AM_5
440
 16777216
100
AcDbLine
 10
417.4160118154545
 20
148.6569838102432
 30
0.0
 11
429.5909036857852
 21
160.5217218160228
 31
0.0
  0
SOLID
  5
FD8E5
330
FD31E
100
AcDbEntity
  8
AM_5
440
 16777216
100
AcDbTrace
 10
415.3347841383036
 20
147.2105736101368
 30
0.0
 11
415.9163889425084
 21
146.6137651851206
 31
0.0
 12
417.4160118154545
 22
148.6569838102432
 32
0.0
 13
417.4160118154545
 23
148.6569838102432
 33
0.0
  0
SOLID
  5
FD8E6
330
FD31E
100
AcDbEntity
  8
AM_5
440
 16777216
100
AcDbTrace
 10
431.0905265587315
 20
162.5649404411454
 30
0.0
 11
431.6721313629364
 21
161.9681320161292
 31
0.0
 12
429.5909036857852
 22
160.5217218160228
 32
0.0
 13
429.5909036857852
 23
160.5217218160228
 33
0.0
  0
POINT
  5
FD8E7
330
FD31E
100
AcDbEntity
  8
Defpoints
 62
     0
440
 16777216
100
AcDbPoint
 10
429.5909036857852
 20
160.5217218160228
 30
0.0
  0
POINT
  5
FD8E8
330
FD31E
100
AcDbEntity
  8
Defpoints
 62
     0
440
 16777216
100
AcDbPoint
 10
417.4160118154545
 20
148.6569838102432
 30
0.0
  0
ENDBLK
  5
FD320
330
FD31E
100
AcDbEntity
  8
0
100
AcDbBlockEnd
  0
BLOCK
  5
FD479
330
FD478
100
AcDbEntity
  8
0
100
AcDbBlockBegin
  2
*D16
 70
     1
 10
0.0
 20
0.0
 30
0.0
  3
*D16
  1

  0
LINE
  5
FD8E9
330
FD478
100
AcDbEntity
  8
AM_5
440
 16777216
100
AcDbLine
 10
411.0034577506168
 20
154.5893528131337
 30
0.0
 11
320.6531501285602
 21
154.5893528131337
 31
0.0
  0
LINE
  5
FD8EA
330
FD478
100
AcDbEntity
  8
AM_5
440
 16777216
100
AcDbLine
 10
347.5034577506169
 20
110.5893528131336
 30
0.0
 11
320.6531501285601
 21
110.5893528131336
 31
0.0
  0
LINE
  5
FD8EB
330
FD478
100
AcDbEntity
  8
AM_5
440
 16777216
100
AcDbLine
 10
321.6531501285602
 20
152.0893528131336
 30
0.0
 11
321.6531501285601
 21
113.0893528131337
 31
0.0
  0
SOLID
  5
FD8EC
330
FD478
100
AcDbEntity
  8
AM_5
440
 16777216
100
AcDbTrace
 10
321.2364834618935
 20
152.0893528131336
 30
0.0
 11
322.0698167952269
 21
152.0893528131336
 31
0.0
 12
321.6531501285602
 22
154.5893528131337
 32
0.0
 13
321.6531501285602
 23
154.5893528131337
 33
0.0
  0
SOLID
  5
FD8ED
330
FD478
100
AcDbEntity
  8
AM_5
440
 16777216
100
AcDbTrace
 10
321.2364834618934
 20
113.0893528131337
 30
0.0
 11
322.0698167952268
 21
113.0893528131337
 31
0.0
 12
321.6531501285601
 22
110.5893528131336
 32
0.0
 13
321.6531501285601
 23
110.5893528131336
 33
0.0
  0
MTEXT
  5
FD8EE
330
FD478
100
AcDbEntity
  8
AM_5
 62
     2
440
 16777216
100
AcDbMText
 10
318.4031501285601
 20
132.5893528131337
 30
0.0
 40
3.5
 41
0.0
 71
     5
 72
     1
  1
44
 11
0.0000000000000001
 21
1.0
 31
0.0
 73
     1
 44
1.0
  0
POINT
  5
FD8EF
330
FD478
100
AcDbEntity
  8
Defpoints
 62
     0
440
 16777216
100
AcDbPoint
 10
412.0034577506169
 20
154.5893528131337
 30
0.0
  0
POINT
  5
FD8F0
330
FD478
100
AcDbEntity
  8
Defpoints
 62
     0
440
 16777216
100
AcDbPoint
 10
348.5034577506169
 20
110.5893528131336
 30
0.0
  0
POINT
  5
FD8F1
330
FD478
100
AcDbEntity
  8
Defpoints
 62
     0
440
 16777216
100
AcDbPoint
 10
321.6531501285601
 20
110.5893528131336
 30
0.0
  0
ENDBLK
  5
FD47A
330
FD478
100
AcDbEntity
  8
0
100
AcDbBlockEnd
  0
BLOCK
  5
FD491
330
FD490
100
AcDbEntity
  8
0
100
AcDbBlockBegin
  2
*D17
 70
     1
 10
0.0
 20
0.0
 30
0.0
  3
*D17
  1

  0
LINE
  5
FE797
330
FD490
100
AcDbEntity
  8
AM_5
440
 16777216
100
AcDbLine
 10
347.5034577506169
 20
72.43965756119632
 30
0.0
 11
320.6531501285601
 21
72.43965756119632
 31
0.0
  0
LINE
  5
FE798
330
FD490
100
AcDbEntity
  8
AM_5
440
 16777216
100
AcDbLine
 10
347.5034577506169
 20
56.4396575611963
 30
0.0
 11
320.6531501285601
 21
56.4396575611963
 31
0.0
  0
LINE
  5
FE799
330
FD490
100
AcDbEntity
  8
AM_5
440
 16777216
100
AcDbLine
 10
321.6531501285601
 20
69.93965756119632
 30
0.0
 11
321.6531501285601
 21
58.9396575611963
 31
0.0
  0
SOLID
  5
FE79A
330
FD490
100
AcDbEntity
  8
AM_5
440
 16777216
100
AcDbTrace
 10
321.2364834618934
 20
69.93965756119632
 30
0.0
 11
322.0698167952268
 21
69.93965756119632
 31
0.0
 12
321.6531501285601
 22
72.43965756119632
 32
0.0
 13
321.6531501285601
 23
72.43965756119632
 33
0.0
  0
SOLID
  5
FE79B
330
FD490
100
AcDbEntity
  8
AM_5
440
 16777216
100
AcDbTrace
 10
321.2364834618934
 20
58.9396575611963
 30
0.0
 11
322.0698167952268
 21
58.9396575611963
 31
0.0
 12
321.6531501285601
 22
56.4396575611963
 32
0.0
 13
321.6531501285601
 23
56.4396575611963
 33
0.0
  0
MTEXT
  5
FE79C
330
FD490
100
AcDbEntity
  8
AM_5
 62
     2
440
 16777216
100
AcDbMText
 10
318.4031501285601
 20
64.43965756119637
 30
0.0
 40
3.5
 41
0.0
 71
     5
 72
     1
  1
t16
 11
0.0000000000000001
 21
1.0
 31
0.0
 73
     1
 44
1.0
  0
POINT
  5
FE79D
330
FD490
100
AcDbEntity
  8
Defpoints
 62
     0
440
 16777216
100
AcDbPoint
 10
348.5034577506169
 20
72.43965756119632
 30
0.0
  0
POINT
  5
FE79E
330
FD490
100
AcDbEntity
  8
Defpoints
 62
     0
440
 16777216
100
AcDbPoint
 10
348.5034577506169
 20
56.4396575611963
 30
0.0
  0
POINT
  5
FE79F
330
FD490
100
AcDbEntity
  8
Defpoints
 62
     0
440
 16777216
100
AcDbPoint
 10
321.6531501285601
 20
56.4396575611963
 30
0.0
  0
ENDBLK
  5
FD492
330
FD490
100
AcDbEntity
  8
0
100
AcDbBlockEnd
  0
BLOCK
  5
FD49D
330
FD49C
100
AcDbEntity
  8
0
100
AcDbBlockBegin
  2
*D18
 70
     1
 10
0.0
 20
0.0
 30
0.0
  3
*D18
  1

  0
LINE
  5
FD904
330
FD49C
100
AcDbEntity
  8
AM_5
440
 16777216
100
AcDbLine
 10
498.5034577506168
 20
199.5893528131336
 30
0.0
 11
498.5034577506168
 21
244.9301849552774
 31
0.0
  0
LINE
  5
FD905
330
FD49C
100
AcDbEntity
  8
AM_5
440
 16777216
100
AcDbLine
 10
348.5034577506169
 20
199.5893528131336
 30
0.0
 11
348.5034577506169
 21
244.9301849552774
 31
0.0
  0
LINE
  5
FD906
330
FD49C
100
AcDbEntity
  8
AM_5
440
 16777216
100
AcDbLine
 10
496.0034577506169
 20
243.9301849552776
 30
0.0
 11
351.0034577506169
 21
243.9301849552776
 31
0.0
  0
SOLID
  5
FD907
330
FD49C
100
AcDbEntity
  8
AM_5
440
 16777216
100
AcDbTrace
 10
496.0034577506169
 20
244.3468516219442
 30
0.0
 11
496.0034577506169
 21
243.5135182886109
 31
0.0
 12
498.5034577506168
 22
243.9301849552776
 32
0.0
 13
498.5034577506168
 23
243.9301849552776
 33
0.0
  0
SOLID
  5
FD908
330
FD49C
100
AcDbEntity
  8
AM_5
440
 16777216
100
AcDbTrace
 10
351.0034577506169
 20
244.3468516219442
 30
0.0
 11
351.0034577506169
 21
243.5135182886109
 31
0.0
 12
348.5034577506169
 22
243.9301849552776
 32
0.0
 13
348.5034577506169
 23
243.9301849552776
 33
0.0
  0
MTEXT
  5
FD909
330
FD49C
100
AcDbEntity
  8
AM_5
 62
     2
440
 16777216
100
AcDbMText
 10
423.5034577506168
 20
247.1801849552775
 30
0.0
 40
3.5
 41
0.0
 71
     5
 72
     1
  1
150
 73
     1
 44
1.0
  0
POINT
  5
FD90A
330
FD49C
100
AcDbEntity
  8
Defpoints
 62
     0
440
 16777216
100
AcDbPoint
 10
498.5034577506168
 20
198.5893528131336
 30
0.0
  0
POINT
  5
FD90B
330
FD49C
100
AcDbEntity
  8
Defpoints
 62
     0
440
 16777216
100
AcDbPoint
 10
348.5034577506169
 20
198.5893528131336
 30
0.0
  0
POINT
  5
FD90C
330
FD49C
100
AcDbEntity
  8
Defpoints
 62
     0
440
 16777216
100
AcDbPoint
 10
348.5034577506169
 20
243.9301849552776
 30
0.0
  0
ENDBLK
  5
FD49E
330
FD49C
100
AcDbEntity
  8
0
100
AcDbBlockEnd
  0
BLOCK
  5
FD4A9
330
FD4A8
100
AcDbEntity
  8
0
100
AcDbBlockBegin
  2
*D19
 70
     1
 10
0.0
 20
0.0
 30
0.0
  3
*D19
  1

  0
LINE
  5
FD90D
330
FD4A8
100
AcDbEntity
  8
AM_5
440
 16777216
100
AcDbLine
 10
347.5034577506169
 20
198.5893528131336
 30
0.0
 11
320.6531501285601
 21
198.5893528131336
 31
0.0
  0
LINE
  5
FD90E
330
FD4A8
100
AcDbEntity
  8
AM_5
440
 16777216
100
AcDbLine
 10
411.0034577506168
 20
154.5893528131337
 30
0.0
 11
320.6531501285601
 21
154.5893528131337
 31
0.0
  0
LINE
  5
FD90F
330
FD4A8
100
AcDbEntity
  8
AM_5
440
 16777216
100
AcDbLine
 10
321.6531501285601
 20
196.0893528131336
 30
0.0
 11
321.6531501285601
 21
157.0893528131336
 31
0.0
  0
SOLID
  5
FD910
330
FD4A8
100
AcDbEntity
  8
AM_5
440
 16777216
100
AcDbTrace
 10
321.2364834618934
 20
196.0893528131336
 30
0.0
 11
322.0698167952268
 21
196.0893528131336
 31
0.0
 12
321.6531501285601
 22
198.5893528131336
 32
0.0
 13
321.6531501285601
 23
198.5893528131336
 33
0.0
  0
SOLID
  5
FD911
330
FD4A8
100
AcDbEntity
  8
AM_5
440
 16777216
100
AcDbTrace
 10
321.2364834618934
 20
157.0893528131336
 30
0.0
 11
322.0698167952268
 21
157.0893528131336
 31
0.0
 12
321.6531501285601
 22
154.5893528131337
 32
0.0
 13
321.6531501285601
 23
154.5893528131337
 33
0.0
  0
MTEXT
  5
FD912
330
FD4A8
100
AcDbEntity
  8
AM_5
 62
     2
440
 16777216
100
AcDbMText
 10
318.4031501285601
 20
176.5893528131337
 30
0.0
 40
3.5
 41
0.0
 71
     5
 72
     1
  1
44
 11
0.0000000000000001
 21
1.0
 31
0.0
 73
     1
 44
1.0
  0
POINT
  5
FD913
330
FD4A8
100
AcDbEntity
  8
Defpoints
 62
     0
440
 16777216
100
AcDbPoint
 10
348.5034577506169
 20
198.5893528131336
 30
0.0
  0
POINT
  5
FD914
330
FD4A8
100
AcDbEntity
  8
Defpoints
 62
     0
440
 16777216
100
AcDbPoint
 10
412.0034577506169
 20
154.5893528131337
 30
0.0
  0
POINT
  5
FD915
330
FD4A8
100
AcDbEntity
  8
Defpoints
 62
     0
440
 16777216
100
AcDbPoint
 10
321.6531501285601
 20
154.5893528131337
 30
0.0
  0
ENDBLK
  5
FD4AA
330
FD4A8
100
AcDbEntity
  8
0
100
AcDbBlockEnd
  0
BLOCK
  5
FD4B5
330
FD4B4
100
AcDbEntity
  8
0
100
AcDbBlockBegin
  2
*D20
 70
     1
 10
0.0
 20
0.0
 30
0.0
  3
*D20
  1

  0
LINE
  5
FD916
330
FD4B4
100
AcDbEntity
  8
AM_5
440
 16777216
100
AcDbLine
 10
348.5034577506169
 20
199.5893528131336
 30
0.0
 11
348.5034577506169
 21
226.4396604351905
 31
0.0
  0
LINE
  5
FD917
330
FD4B4
100
AcDbEntity
  8
AM_5
440
 16777216
100
AcDbLine
 10
423.5034577506168
 20
167.0893528131337
 30
0.0
 11
423.5034577506168
 21
226.4396604351905
 31
0.0
  0
LINE
  5
FD918
330
FD4B4
100
AcDbEntity
  8
AM_5
440
 16777216
100
AcDbLine
 10
351.0034577506169
 20
225.4396604351905
 30
0.0
 11
421.0034577506169
 21
225.4396604351905
 31
0.0
  0
SOLID
  5
FD919
330
FD4B4
100
AcDbEntity
  8
AM_5
440
 16777216
100
AcDbTrace
 10
351.0034577506169
 20
225.8563271018571
 30
0.0
 11
351.0034577506169
 21
225.0229937685238
 31
0.0
 12
348.5034577506169
 22
225.4396604351905
 32
0.0
 13
348.5034577506169
 23
225.4396604351905
 33
0.0
  0
SOLID
  5
FD91A
330
FD4B4
100
AcDbEntity
  8
AM_5
440
 16777216
100
AcDbTrace
 10
421.0034577506169
 20
225.8563271018571
 30
0.0
 11
421.0034577506169
 21
225.0229937685238
 31
0.0
 12
423.5034577506168
 22
225.4396604351905
 32
0.0
 13
423.5034577506168
 23
225.4396604351905
 33
0.0
  0
MTEXT
  5
FD91B
330
FD4B4
100
AcDbEntity
  8
AM_5
 62
     2
440
 16777216
100
AcDbMText
 10
386.0034577506169
 20
228.6896604351905
 30
0.0
 40
3.5
 41
0.0
 71
     5
 72
     1
  1
75
 73
     1
 44
1.0
  0
POINT
  5
FD91C
330
FD4B4
100
AcDbEntity
  8
Defpoints
 62
     0
440
 16777216
100
AcDbPoint
 10
348.5034577506169
 20
198.5893528131336
 30
0.0
  0
POINT
  5
FD91D
330
FD4B4
100
AcDbEntity
  8
Defpoints
 62
     0
440
 16777216
100
AcDbPoint
 10
423.5034577506168
 20
166.0893528131337
 30
0.0
  0
POINT
  5
FD91E
330
FD4B4
100
AcDbEntity
  8
Defpoints
 62
     0
440
 16777216
100
AcDbPoint
 10
423.5034577506168
 20
225.4396604351905
 30
0.0
  0
ENDBLK
  5
FD4B6
330
FD4B4
100
AcDbEntity
  8
0
100
AcDbBlockEnd
  0
BLOCK
  5
FD4C1
330
FD4C0
100
AcDbEntity
  8
0
100
AcDbBlockBegin
  2
*D21
 70
     1
 10
0.0
 20
0.0
 30
0.0
  3
*D21
  1

  0
LINE
  5
FD91F
330
FD4C0
100
AcDbEntity
  8
AM_5
440
 16777216
100
AcDbLine
 10
423.5034577506168
 20
167.0893528131337
 30
0.0
 11
423.5034577506168
 21
226.4396604351905
 31
0.0
  0
LINE
  5
FD920
330
FD4C0
100
AcDbEntity
  8
AM_5
440
 16777216
100
AcDbLine
 10
498.5034577506168
 20
199.5893528131336
 30
0.0
 11
498.5034577506168
 21
226.4396604351905
 31
0.0
  0
LINE
  5
FD921
330
FD4C0
100
AcDbEntity
  8
AM_5
440
 16777216
100
AcDbLine
 10
426.0034577506169
 20
225.4396604351905
 30
0.0
 11
496.0034577506169
 21
225.4396604351905
 31
0.0
  0
SOLID
  5
FD922
330
FD4C0
100
AcDbEntity
  8
AM_5
440
 16777216
100
AcDbTrace
 10
426.0034577506169
 20
225.8563271018571
 30
0.0
 11
426.0034577506169
 21
225.0229937685238
 31
0.0
 12
423.5034577506168
 22
225.4396604351905
 32
0.0
 13
423.5034577506168
 23
225.4396604351905
 33
0.0
  0
SOLID
  5
FD923
330
FD4C0
100
AcDbEntity
  8
AM_5
440
 16777216
100
AcDbTrace
 10
496.0034577506169
 20
225.8563271018571
 30
0.0
 11
496.0034577506169
 21
225.0229937685238
 31
0.0
 12
498.5034577506168
 22
225.4396604351905
 32
0.0
 13
498.5034577506168
 23
225.4396604351905
 33
0.0
  0
MTEXT
  5
FD924
330
FD4C0
100
AcDbEntity
  8
AM_5
 62
     2
440
 16777216
100
AcDbMText
 10
461.0034577506168
 20
228.6896604351905
 30
0.0
 40
3.5
 41
0.0
 71
     5
 72
     1
  1
75
 73
     1
 44
1.0
  0
POINT
  5
FD925
330
FD4C0
100
AcDbEntity
  8
Defpoints
 62
     0
440
 16777216
100
AcDbPoint
 10
423.5034577506168
 20
166.0893528131337
 30
0.0
  0
POINT
  5
FD926
330
FD4C0
100
AcDbEntity
  8
Defpoints
 62
     0
440
 16777216
100
AcDbPoint
 10
498.5034577506168
 20
198.5893528131336
 30
0.0
  0
POINT
  5
FD927
330
FD4C0
100
AcDbEntity
  8
Defpoints
 62
     0
440
 16777216
100
AcDbPoint
 10
498.5034577506168
 20
225.4396604351905
 30
0.0
  0
ENDBLK
  5
FD4C2
330
FD4C0
100
AcDbEntity
  8
0
100
AcDbBlockEnd
  0
BLOCK
  5
FD4CD
330
FD4CC
100
AcDbEntity
  8
0
100
AcDbBlockBegin
  2
*D22
 70
     1
 10
0.0
 20
0.0
 30
0.0
  3
*D22
  1

  0
LINE
  5
FD928
330
FD4CC
100
AcDbEntity
  8
AM_5
440
 16777216
100
AcDbLine
 10
439.8321362590627
 20
170.5020602561779
 30
0.0
 11
431.3813289608339
 21
162.2665362286373
 31
0.0
  0
LINE
  5
FD929
330
FD4CC
100
AcDbEntity
  8
AM_5
440
 16777216
100
AcDbLine
 10
415.6255865404061
 20
146.9121693976287
 30
0.0
 11
413.8351612653574
 21
145.1673549850141
 31
0.0
  0
MTEXT
  5
FD92A
102
{ACAD_XDICTIONARY
360
FE606
102
}
330
FD4CC
100
AcDbEntity
  8
AM_5
 62
     2
440
 16777216
100
AcDbMText
 10
434.2336865110738
 20
169.5842583062779
 30
0.0
 40
3.5
 41
0.0
 71
     5
 72
     1
  1
\U+220517
 11
0.7161701100194127
 21
0.6979257650458123
 31
0.0
 73
     1
 44
1.0
  0
LINE
  5
FD92B
330
FD4CC
100
AcDbEntity
  8
AM_5
440
 16777216
100
AcDbLine
 10
417.4160118154545
 20
148.6569838102432
 30
0.0
 11
429.5909036857852
 21
160.5217218160228
 31
0.0
  0
SOLID
  5
FD92C
330
FD4CC
100
AcDbEntity
  8
AM_5
440
 16777216
100
AcDbTrace
 10
415.3347841383036
 20
147.2105736101368
 30
0.0
 11
415.9163889425084
 21
146.6137651851206
 31
0.0
 12
417.4160118154545
 22
148.6569838102432
 32
0.0
 13
417.4160118154545
 23
148.6569838102432
 33
0.0
  0
SOLID
  5
FD92D
330
FD4CC
100
AcDbEntity
  8
AM_5
440
 16777216
100
AcDbTrace
 10
431.0905265587315
 20
162.5649404411454
 30
0.0
 11
431.6721313629364
 21
161.9681320161292
 31
0.0
 12
429.5909036857852
 22
160.5217218160228
 32
0.0
 13
429.5909036857852
 23
160.5217218160228
 33
0.0
  0
POINT
  5
FD92E
330
FD4CC
100
AcDbEntity
  8
Defpoints
 62
     0
440
 16777216
100
AcDbPoint
 10
429.5909036857852
 20
160.5217218160228
 30
0.0
  0
POINT
  5
FD92F
330
FD4CC
100
AcDbEntity
  8
Defpoints
 62
     0
440
 16777216
100
AcDbPoint
 10
417.4160118154545
 20
148.6569838102432
 30
0.0
  0
ENDBLK
  5
FD4CE
330
FD4CC
100
AcDbEntity
  8
0
100
AcDbBlockEnd
  0
BLOCK
  5
FDAFB
330
FDAFA
100
AcDbEntity
  8
0
100
AcDbBlockBegin
  2
*D23
 70
     1
 10
0.0
 20
0.0
 30
0.0
  3
*D23
  1

  0
LINE
  5
FDB18
330
FDAFA
100
AcDbEntity
  8
AM_5
440
 16777216
100
AcDbLine
 10
499.5034577506169
 20
198.5893528131336
 30
0.0
 11
518.399893778216
 21
198.5893528131336
 31
0.0
  0
LINE
  5
FDB19
330
FDAFA
100
AcDbEntity
  8
AM_5
440
 16777216
100
AcDbLine
 10
499.5034577506168
 20
110.5893528131337
 30
0.0
 11
518.399893778216
 21
110.5893528131337
 31
0.0
  0
LINE
  5
FDB1A
330
FDAFA
100
AcDbEntity
  8
AM_5
440
 16777216
100
AcDbLine
 10
517.3998937782157
 20
196.0893528131336
 30
0.0
 11
517.3998937782157
 21
113.0893528131337
 31
0.0
  0
SOLID
  5
FDB1B
330
FDAFA
100
AcDbEntity
  8
AM_5
440
 16777216
100
AcDbTrace
 10
516.9832271115494
 20
196.0893528131336
 30
0.0
 11
517.8165604448826
 21
196.0893528131336
 31
0.0
 12
517.3998937782157
 22
198.5893528131336
 32
0.0
 13
517.3998937782157
 23
198.5893528131336
 33
0.0
  0
SOLID
  5
FDB1C
330
FDAFA
100
AcDbEntity
  8
AM_5
440
 16777216
100
AcDbTrace
 10
516.9832271115494
 20
113.0893528131337
 30
0.0
 11
517.8165604448826
 21
113.0893528131337
 31
0.0
 12
517.3998937782157
 22
110.5893528131337
 32
0.0
 13
517.3998937782157
 23
110.5893528131337
 33
0.0
  0
MTEXT
  5
FDB1D
330
FDAFA
100
AcDbEntity
  8
AM_5
 62
     2
440
 16777216
100
AcDbMText
 10
514.1498937782158
 20
154.5893528131337
 30
0.0
 40
3.5
 41
0.0
 71
     5
 72
     1
  1
88
 11
0.0000000000000001
 21
1.0
 31
0.0
 73
     1
 44
1.0
  0
POINT
  5
FDB1E
330
FDAFA
100
AcDbEntity
  8
Defpoints
 62
     0
440
 16777216
100
AcDbPoint
 10
498.5034577506168
 20
198.5893528131336
 30
0.0
  0
POINT
  5
FDB1F
330
FDAFA
100
AcDbEntity
  8
Defpoints
 62
     0
440
 16777216
100
AcDbPoint
 10
498.5034577506168
 20
110.5893528131337
 30
0.0
  0
POINT
  5
FDB20
330
FDAFA
100
AcDbEntity
  8
Defpoints
 62
     0
440
 16777216
100
AcDbPoint
 10
517.3998937782157
 20
110.5893528131337
 30
0.0
  0
ENDBLK
  5
FDAFC
330
FDAFA
100
AcDbEntity
  8
0
100
AcDbBlockEnd
  0
BLOCK
  5
FDDDC
330
FDDDB
100
AcDbEntity
  8
0
100
AcDbBlockBegin
  2
*D24
 70
     1
 10
0.0
 20
0.0
 30
0.0
  3
*D24
  1

  0
LINE
  5
FE2BA
330
FDDDB
100
AcDbEntity
  8
AM_5
440
 16777216
100
AcDbLine
 10
1393.658486254534
 20
210.0120175382825
 30
0.0
 11
1410.23802729762
 21
210.0120175382825
 31
0.0
  0
LINE
  5
FE2BB
330
FDDDB
100
AcDbEntity
  8
AM_5
440
 16777216
100
AcDbLine
 10
1393.658486254534
 20
122.0120175382824
 30
0.0
 11
1410.23802729762
 21
122.0120175382824
 31
0.0
  0
LINE
  5
FE2BC
330
FDDDB
100
AcDbEntity
  8
AM_5
440
 16777216
100
AcDbLine
 10
1409.23802729762
 20
207.5120175382825
 30
0.0
 11
1409.23802729762
 21
124.5120175382824
 31
0.0
  0
SOLID
  5
FE2BD
330
FDDDB
100
AcDbEntity
  8
AM_5
440
 16777216
100
AcDbTrace
 10
1408.821360630954
 20
207.5120175382825
 30
0.0
 11
1409.654693964287
 21
207.5120175382825
 31
0.0
 12
1409.23802729762
 22
210.0120175382825
 32
0.0
 13
1409.23802729762
 23
210.0120175382825
 33
0.0
  0
SOLID
  5
FE2BE
330
FDDDB
100
AcDbEntity
  8
AM_5
440
 16777216
100
AcDbTrace
 10
1408.821360630954
 20
124.5120175382824
 30
0.0
 11
1409.654693964287
 21
124.5120175382824
 31
0.0
 12
1409.23802729762
 22
122.0120175382824
 32
0.0
 13
1409.23802729762
 23
122.0120175382824
 33
0.0
  0
MTEXT
  5
FE2BF
330
FDDDB
100
AcDbEntity
  8
AM_5
 62
     2
440
 16777216
100
AcDbMText
 10
1405.98802729762
 20
166.0120175382827
 30
0.0
 40
3.5
 41
0.0
 71
     5
 72
     1
  1
88
 11
0.0000000000000001
 21
1.0
 31
0.0
 73
     1
 44
1.0
  0
POINT
  5
FE2C0
330
FDDDB
100
AcDbEntity
  8
Defpoints
 62
     0
440
 16777216
100
AcDbPoint
 10
1392.658486254534
 20
210.0120175382825
 30
0.0
  0
POINT
  5
FE2C1
330
FDDDB
100
AcDbEntity
  8
Defpoints
 62
     0
440
 16777216
100
AcDbPoint
 10
1392.658486254534
 20
122.0120175382824
 30
0.0
  0
POINT
  5
FE2C2
330
FDDDB
100
AcDbEntity
  8
Defpoints
 62
     0
440
 16777216
100
AcDbPoint
 10
1409.23802729762
 20
122.0120175382824
 30
0.0
  0
ENDBLK
  5
FDDDD
330
FDDDB
100
AcDbEntity
  8
0
100
AcDbBlockEnd
  0
BLOCK
  5
FDDE8
330
FDDE7
100
AcDbEntity
  8
0
100
AcDbBlockBegin
  2
*D25
 70
     1
 10
0.0
 20
0.0
 30
0.0
  3
*D25
  1

  0
LINE
  5
FE2C3
330
FDDE7
100
AcDbEntity
  8
AM_5
440
 16777216
100
AcDbLine
 10
1320.15848625453
 20
166.0120175382824
 30
0.0
 11
1280.61185106626
 21
166.0120175382824
 31
0.0
  0
LINE
  5
FE2C4
330
FDDE7
100
AcDbEntity
  8
AM_5
440
 16777216
100
AcDbLine
 10
1296.65848625453
 20
122.0120175382824
 30
0.0
 11
1280.61185106626
 21
122.0120175382824
 31
0.0
  0
LINE
  5
FE2C5
330
FDDE7
100
AcDbEntity
  8
AM_5
440
 16777216
100
AcDbLine
 10
1281.61185106626
 20
163.5120175382824
 30
0.0
 11
1281.61185106626
 21
124.5120175382824
 31
0.0
  0
SOLID
  5
FE2C6
330
FDDE7
100
AcDbEntity
  8
AM_5
440
 16777216
100
AcDbTrace
 10
1281.195184399593
 20
163.5120175382824
 30
0.0
 11
1282.028517732927
 21
163.5120175382824
 31
0.0
 12
1281.61185106626
 22
166.0120175382824
 32
0.0
 13
1281.61185106626
 23
166.0120175382824
 33
0.0
  0
SOLID
  5
FE2C7
330
FDDE7
100
AcDbEntity
  8
AM_5
440
 16777216
100
AcDbTrace
 10
1281.195184399593
 20
124.5120175382824
 30
0.0
 11
1282.028517732927
 21
124.5120175382824
 31
0.0
 12
1281.61185106626
 22
122.0120175382824
 32
0.0
 13
1281.61185106626
 23
122.0120175382824
 33
0.0
  0
MTEXT
  5
FE2C8
330
FDDE7
100
AcDbEntity
  8
AM_5
 62
     2
440
 16777216
100
AcDbMText
 10
1278.36185106626
 20
144.0120175382826
 30
0.0
 40
3.5
 41
0.0
 71
     5
 72
     1
  1
44
 11
0.0000000000000001
 21
1.0
 31
0.0
 73
     1
 44
1.0
  0
POINT
  5
FE2C9
330
FDDE7
100
AcDbEntity
  8
Defpoints
 62
     0
440
 16777216
100
AcDbPoint
 10
1321.15848625453
 20
166.0120175382824
 30
0.0
  0
POINT
  5
FE2CA
330
FDDE7
100
AcDbEntity
  8
Defpoints
 62
     0
440
 16777216
100
AcDbPoint
 10
1297.65848625453
 20
122.0120175382824
 30
0.0
  0
POINT
  5
FE2CB
330
FDDE7
100
AcDbEntity
  8
Defpoints
 62
     0
440
 16777216
100
AcDbPoint
 10
1281.61185106626
 20
122.0120175382824
 30
0.0
  0
ENDBLK
  5
FDDE9
330
FDDE7
100
AcDbEntity
  8
0
100
AcDbBlockEnd
  0
BLOCK
  5
FDDF4
330
FDDF3
100
AcDbEntity
  8
0
100
AcDbBlockBegin
  2
*D26
 70
     1
 10
0.0
 20
0.0
 30
0.0
  3
*D26
  1

  0
LINE
  5
FE2FF
330
FDDF3
100
AcDbEntity
  8
AM_5
440
 16777216
100
AcDbLine
 10
1297.65848625453
 20
121.0872863554865
 30
0.0
 11
1297.65848625453
 21
109.6158222687745
 31
0.0
  0
LINE
  5
FE300
330
FDDF3
100
AcDbEntity
  8
AM_5
440
 16777216
100
AcDbLine
 10
1392.65848625453
 20
121.0872863554867
 30
0.0
 11
1392.65848625453
 21
109.6158222687745
 31
0.0
  0
LINE
  5
FE301
330
FDDF3
100
AcDbEntity
  8
AM_5
440
 16777216
100
AcDbLine
 10
1300.15848625453
 20
110.6158222687745
 30
0.0
 11
1390.15848625453
 21
110.6158222687745
 31
0.0
  0
SOLID
  5
FE302
330
FDDF3
100
AcDbEntity
  8
AM_5
440
 16777216
100
AcDbTrace
 10
1300.15848625453
 20
111.0324889354412
 30
0.0
 11
1300.15848625453
 21
110.1991556021078
 31
0.0
 12
1297.65848625453
 22
110.6158222687745
 32
0.0
 13
1297.65848625453
 23
110.6158222687745
 33
0.0
  0
SOLID
  5
FE303
330
FDDF3
100
AcDbEntity
  8
AM_5
440
 16777216
100
AcDbTrace
 10
1390.15848625453
 20
111.0324889354412
 30
0.0
 11
1390.15848625453
 21
110.1991556021078
 31
0.0
 12
1392.65848625453
 22
110.6158222687745
 32
0.0
 13
1392.65848625453
 23
110.6158222687745
 33
0.0
  0
MTEXT
  5
FE304
330
FDDF3
100
AcDbEntity
  8
AM_5
 62
     2
440
 16777216
100
AcDbMText
 10
1345.15848625453
 20
113.8658222687745
 30
0.0
 40
3.5
 41
0.0
 71
     5
 72
     1
  1
95
 73
     1
 44
1.0
  0
POINT
  5
FE305
330
FDDF3
100
AcDbEntity
  8
Defpoints
 62
     0
440
 16777216
100
AcDbPoint
 10
1297.65848625453
 20
122.0872863554865
 30
0.0
  0
POINT
  5
FE306
330
FDDF3
100
AcDbEntity
  8
Defpoints
 62
     0
440
 16777216
100
AcDbPoint
 10
1392.65848625453
 20
122.0872863554867
 30
0.0
  0
POINT
  5
FE307
330
FDDF3
100
AcDbEntity
  8
Defpoints
 62
     0
440
 16777216
100
AcDbPoint
 10
1392.65848625453
 20
110.6158222687745
 30
0.0
  0
ENDBLK
  5
FDDF5
330
FDDF3
100
AcDbEntity
  8
0
100
AcDbBlockEnd
  0
BLOCK
  5
FDE00
330
FDDFF
100
AcDbEntity
  8
0
100
AcDbBlockBegin
  2
*D27
 70
     1
 10
0.0
 20
0.0
 30
0.0
  3
*D27
  1

  0
LINE
  5
FE308
330
FDDFF
100
AcDbEntity
  8
AM_5
440
 16777216
100
AcDbLine
 10
1296.65848625453
 20
71.86232228635242
 30
0.0
 11
1280.61185106626
 21
71.86232228635242
 31
0.0
  0
LINE
  5
FE309
330
FDDFF
100
AcDbEntity
  8
AM_5
440
 16777216
100
AcDbLine
 10
1296.658486254516
 20
83.86232228635241
 30
0.0
 11
1280.61185106626
 21
83.86232228635241
 31
0.0
  0
LINE
  5
FE30A
330
FDDFF
100
AcDbEntity
  8
AM_5
440
 16777216
100
AcDbLine
 10
1281.61185106626
 20
74.36232228635242
 30
0.0
 11
1281.61185106626
 21
81.36232228635241
 31
0.0
  0
SOLID
  5
FE30B
330
FDDFF
100
AcDbEntity
  8
AM_5
440
 16777216
100
AcDbTrace
 10
1281.195184399593
 20
74.36232228635242
 30
0.0
 11
1282.028517732927
 21
74.36232228635242
 31
0.0
 12
1281.61185106626
 22
71.86232228635242
 32
0.0
 13
1281.61185106626
 23
71.86232228635242
 33
0.0
  0
SOLID
  5
FE30C
330
FDDFF
100
AcDbEntity
  8
AM_5
440
 16777216
100
AcDbTrace
 10
1281.195184399593
 20
81.36232228635241
 30
0.0
 11
1282.028517732927
 21
81.36232228635241
 31
0.0
 12
1281.61185106626
 22
83.86232228635241
 32
0.0
 13
1281.61185106626
 23
83.86232228635241
 33
0.0
  0
MTEXT
  5
FE30D
330
FDDFF
100
AcDbEntity
  8
AM_5
 62
     2
440
 16777216
100
AcDbMText
 10
1278.361506578071
 20
77.86232228635309
 30
0.0
 40
3.5
 41
0.0
 71
     5
 72
     1
  1
t=12
 11
0.0000000000000001
 21
1.0
 31
0.0
 73
     1
 44
1.0
  0
POINT
  5
FE30E
330
FDDFF
100
AcDbEntity
  8
Defpoints
 62
     0
440
 16777216
100
AcDbPoint
 10
1297.65848625453
 20
71.86232228635242
 30
0.0
  0
POINT
  5
FE30F
330
FDDFF
100
AcDbEntity
  8
Defpoints
 62
     0
440
 16777216
100
AcDbPoint
 10
1297.658486254516
 20
83.86232228635241
 30
0.0
  0
POINT
  5
FE310
330
FDDFF
100
AcDbEntity
  8
Defpoints
 62
     0
440
 16777216
100
AcDbPoint
 10
1281.61185106626
 20
83.86232228635241
 30
0.0
  0
ENDBLK
  5
FDE01
330
FDDFF
100
AcDbEntity
  8
0
100
AcDbBlockEnd
  0
BLOCK
  5
FDE0C
330
FDE0B
100
AcDbEntity
  8
0
100
AcDbBlockBegin
  2
*D28
 70
     1
 10
0.0
 20
0.0
 30
0.0
  3
*D28
  1

  0
LINE
  5
FE31A
330
FDE0B
100
AcDbEntity
  8
AM_5
440
 16777216
100
AcDbLine
 10
1332.65848625453
 20
179.5120175382824
 30
0.0
 11
1332.65848625453
 21
221.0471098494664
 31
0.0
  0
LINE
  5
FE31B
330
FDE0B
100
AcDbEntity
  8
AM_5
440
 16777216
100
AcDbLine
 10
1392.65848625453
 20
211.0120175382824
 30
0.0
 11
1392.65848625453
 21
221.0471098494664
 31
0.0
  0
LINE
  5
FE31C
330
FDE0B
100
AcDbEntity
  8
AM_5
440
 16777216
100
AcDbLine
 10
1335.15848625453
 20
220.0471098494665
 30
0.0
 11
1390.15848625453
 21
220.0471098494665
 31
0.0
  0
SOLID
  5
FE31D
330
FDE0B
100
AcDbEntity
  8
AM_5
440
 16777216
100
AcDbTrace
 10
1335.15848625453
 20
220.4637765161331
 30
0.0
 11
1335.15848625453
 21
219.6304431827998
 31
0.0
 12
1332.65848625453
 22
220.0471098494665
 32
0.0
 13
1332.65848625453
 23
220.0471098494665
 33
0.0
  0
SOLID
  5
FE31E
330
FDE0B
100
AcDbEntity
  8
AM_5
440
 16777216
100
AcDbTrace
 10
1390.15848625453
 20
220.4637765161331
 30
0.0
 11
1390.15848625453
 21
219.6304431827998
 31
0.0
 12
1392.65848625453
 22
220.0471098494665
 32
0.0
 13
1392.65848625453
 23
220.0471098494665
 33
0.0
  0
MTEXT
  5
FE31F
330
FDE0B
100
AcDbEntity
  8
AM_5
 62
     2
440
 16777216
100
AcDbMText
 10
1362.65848625453
 20
223.2971098494665
 30
0.0
 40
3.5
 41
0.0
 71
     5
 72
     1
  1
60
 73
     1
 44
1.0
  0
POINT
  5
FE320
330
FDE0B
100
AcDbEntity
  8
Defpoints
 62
     0
440
 16777216
100
AcDbPoint
 10
1332.65848625453
 20
178.5120175382824
 30
0.0
  0
POINT
  5
FE321
330
FDE0B
100
AcDbEntity
  8
Defpoints
 62
     0
440
 16777216
100
AcDbPoint
 10
1392.65848625453
 20
210.0120175382825
 30
0.0
  0
POINT
  5
FE322
330
FDE0B
100
AcDbEntity
  8
Defpoints
 62
     0
440
 16777216
100
AcDbPoint
 10
1392.65848625453
 20
220.0471098494665
 30
0.0
  0
ENDBLK
  5
FDE0D
330
FDE0B
100
AcDbEntity
  8
0
100
AcDbBlockEnd
  0
BLOCK
  5
FDE18
330
FDE17
100
AcDbEntity
  8
0
100
AcDbBlockBegin
  2
*D29
 70
     1
 10
0.0
 20
0.0
 30
0.0
  3
*D29
  1

  0
LINE
  5
FE323
330
FDE17
100
AcDbEntity
  8
AM_5
440
 16777216
100
AcDbLine
 10
1296.65848625453
 20
210.0120175382825
 30
0.0
 11
1280.61185106626
 21
210.0120175382825
 31
0.0
  0
LINE
  5
FE324
330
FDE17
100
AcDbEntity
  8
AM_5
440
 16777216
100
AcDbLine
 10
1320.15848625453
 20
166.0120175382824
 30
0.0
 11
1280.61185106626
 21
166.0120175382824
 31
0.0
  0
LINE
  5
FE325
330
FDE17
100
AcDbEntity
  8
AM_5
440
 16777216
100
AcDbLine
 10
1281.61185106626
 20
207.5120175382825
 30
0.0
 11
1281.61185106626
 21
168.5120175382824
 31
0.0
  0
SOLID
  5
FE326
330
FDE17
100
AcDbEntity
  8
AM_5
440
 16777216
100
AcDbTrace
 10
1281.195184399593
 20
207.5120175382825
 30
0.0
 11
1282.028517732927
 21
207.5120175382825
 31
0.0
 12
1281.61185106626
 22
210.0120175382825
 32
0.0
 13
1281.61185106626
 23
210.0120175382825
 33
0.0
  0
SOLID
  5
FE327
330
FDE17
100
AcDbEntity
  8
AM_5
440
 16777216
100
AcDbTrace
 10
1281.195184399593
 20
168.5120175382824
 30
0.0
 11
1282.028517732927
 21
168.5120175382824
 31
0.0
 12
1281.61185106626
 22
166.0120175382824
 32
0.0
 13
1281.61185106626
 23
166.0120175382824
 33
0.0
  0
MTEXT
  5
FE328
330
FDE17
100
AcDbEntity
  8
AM_5
 62
     2
440
 16777216
100
AcDbMText
 10
1278.36185106626
 20
188.0120175382826
 30
0.0
 40
3.5
 41
0.0
 71
     5
 72
     1
  1
44
 11
0.0000000000000001
 21
1.0
 31
0.0
 73
     1
 44
1.0
  0
POINT
  5
FE329
330
FDE17
100
AcDbEntity
  8
Defpoints
 62
     0
440
 16777216
100
AcDbPoint
 10
1297.65848625453
 20
210.0120175382825
 30
0.0
  0
POINT
  5
FE32A
330
FDE17
100
AcDbEntity
  8
Defpoints
 62
     0
440
 16777216
100
AcDbPoint
 10
1321.15848625453
 20
166.0120175382824
 30
0.0
  0
POINT
  5
FE32B
330
FDE17
100
AcDbEntity
  8
Defpoints
 62
     0
440
 16777216
100
AcDbPoint
 10
1281.61185106626
 20
166.0120175382824
 30
0.0
  0
ENDBLK
  5
FDE19
330
FDE17
100
AcDbEntity
  8
0
100
AcDbBlockEnd
  0
BLOCK
  5
FDE24
330
FDE23
100
AcDbEntity
  8
0
100
AcDbBlockBegin
  2
*D30
 70
     1
 10
0.0
 20
0.0
 30
0.0
  3
*D30
  1

  0
LINE
  5
FE32C
330
FDE23
100
AcDbEntity
  8
AM_5
440
 16777216
100
AcDbLine
 10
1297.65848625453
 20
211.0120175382824
 30
0.0
 11
1297.65848625453
 21
221.0471098494664
 31
0.0
  0
LINE
  5
FE32D
330
FDE23
100
AcDbEntity
  8
AM_5
440
 16777216
100
AcDbLine
 10
1332.65848625453
 20
178.5120175382824
 30
0.0
 11
1332.65848625453
 21
221.0471098494664
 31
0.0
  0
LINE
  5
FE32E
330
FDE23
100
AcDbEntity
  8
AM_5
440
 16777216
100
AcDbLine
 10
1300.15848625453
 20
220.0471098494665
 30
0.0
 11
1330.15848625453
 21
220.0471098494665
 31
0.0
  0
SOLID
  5
FE32F
330
FDE23
100
AcDbEntity
  8
AM_5
440
 16777216
100
AcDbTrace
 10
1300.15848625453
 20
220.4637765161331
 30
0.0
 11
1300.15848625453
 21
219.6304431827998
 31
0.0
 12
1297.65848625453
 22
220.0471098494665
 32
0.0
 13
1297.65848625453
 23
220.0471098494665
 33
0.0
  0
SOLID
  5
FE330
330
FDE23
100
AcDbEntity
  8
AM_5
440
 16777216
100
AcDbTrace
 10
1330.15848625453
 20
220.4637765161331
 30
0.0
 11
1330.15848625453
 21
219.6304431827998
 31
0.0
 12
1332.65848625453
 22
220.0471098494665
 32
0.0
 13
1332.65848625453
 23
220.0471098494665
 33
0.0
  0
MTEXT
  5
FE331
330
FDE23
100
AcDbEntity
  8
AM_5
 62
     2
440
 16777216
100
AcDbMText
 10
1315.15848625453
 20
223.2971098494665
 30
0.0
 40
3.5
 41
0.0
 71
     5
 72
     1
  1
35
 73
     1
 44
1.0
  0
POINT
  5
FE332
330
FDE23
100
AcDbEntity
  8
Defpoints
 62
     0
440
 16777216
100
AcDbPoint
 10
1297.65848625453
 20
210.0120175382825
 30
0.0
  0
POINT
  5
FE333
330
FDE23
100
AcDbEntity
  8
Defpoints
 62
     0
440
 16777216
100
AcDbPoint
 10
1332.65848625453
 20
177.5120175382824
 30
0.0
  0
POINT
  5
FE334
330
FDE23
100
AcDbEntity
  8
Defpoints
 62
     0
440
 16777216
100
AcDbPoint
 10
1332.65848625453
 20
220.0471098494665
 30
0.0
  0
ENDBLK
  5
FDE25
330
FDE23
100
AcDbEntity
  8
0
100
AcDbBlockEnd
  0
BLOCK
  5
FDE30
330
FDE2F
100
AcDbEntity
  8
0
100
AcDbBlockBegin
  2
*D31
 70
     1
 10
0.0
 20
0.0
 30
0.0
  3
*D31
  1

  0
LINE
  5
FE2CC
330
FDE2F
100
AcDbEntity
  8
AM_5
440
 16777216
100
AcDbLine
 10
1347.54356831975
 20
183.2826380225376
 30
0.0
 11
1339.839885496514
 21
174.3443344385815
 31
0.0
  0
LINE
  5
FE2CD
330
FDE2F
100
AcDbEntity
  8
AM_5
440
 16777216
100
AcDbLine
 10
1325.477087012516
 20
157.6797006379902
 30
0.0
 11
1323.844950821153
 21
155.7859922515588
 31
0.0
  0
MTEXT
  5
FE2CE
102
{ACAD_XDICTIONARY
360
FE608
102
}
330
FDE2F
100
AcDbEntity
  8
AM_5
 62
     2
440
 16777216
100
AcDbMText
 10
1342.045974101453
 20
181.8821174725478
 30
0.0
 40
3.5
 41
0.0
 71
     5
 72
     1
  1
\U+220517
 11
0.652854476545511
 21
0.7574833545725525
 31
0.0
 73
     1
 44
1.0
  0
LINE
  5
FE2CF
330
FDE2F
100
AcDbEntity
  8
AM_5
440
 16777216
100
AcDbLine
 10
1327.10922320388
 20
159.5734090244216
 30
0.0
 11
1338.20774930515
 21
172.4506260521501
 31
0.0
  0
SOLID
  5
FE2D0
330
FDE2F
100
AcDbEntity
  8
AM_5
440
 16777216
100
AcDbTrace
 10
1325.161468948111
 20
157.9517233365508
 30
0.0
 11
1325.792705076922
 21
157.4076779394296
 31
0.0
 12
1327.10922320388
 22
159.5734090244216
 32
0.0
 13
1327.10922320388
 23
159.5734090244216
 33
0.0
  0
SOLID
  5
FE2D1
330
FDE2F
100
AcDbEntity
  8
AM_5
440
 16777216
100
AcDbTrace
 10
1339.524267432109
 20
174.6163571371421
 30
0.0
 11
1340.155503560919
 21
174.0723117400209
 31
0.0
 12
1338.20774930515
 22
172.4506260521501
 32
0.0
 13
1338.20774930515
 23
172.4506260521501
 33
0.0
  0
POINT
  5
FE2D2
330
FDE2F
100
AcDbEntity
  8
Defpoints
 62
     0
440
 16777216
100
AcDbPoint
 10
1338.20774930515
 20
172.4506260521501
 30
0.0
  0
POINT
  5
FE2D3
330
FDE2F
100
AcDbEntity
  8
Defpoints
 62
     0
440
 16777216
100
AcDbPoint
 10
1327.10922320388
 20
159.5734090244216
 30
0.0
  0
ENDBLK
  5
FDE31
330
FDE2F
100
AcDbEntity
  8
0
100
AcDbBlockEnd
  0
BLOCK
  5
FDE3B
330
FDE3A
100
AcDbEntity
  8
0
100
AcDbBlockBegin
  2
*D32
 70
     1
 10
0.0
 20
0.0
 30
0.0
  3
*D32
  1

  0
LINE
  5
FE2D4
330
FDE3A
100
AcDbEntity
  8
AM_5
440
 16777216
100
AcDbLine
 10
1603.986724149899
 20
166.0120175382861
 30
0.0
 11
1513.636416527842
 21
166.0120175382861
 31
0.0
  0
LINE
  5
FE2D5
330
FDE3A
100
AcDbEntity
  8
AM_5
440
 16777216
100
AcDbLine
 10
1540.486724149898
 20
122.0120175382861
 30
0.0
 11
1513.636416527842
 21
122.0120175382861
 31
0.0
  0
LINE
  5
FE2D6
330
FDE3A
100
AcDbEntity
  8
AM_5
440
 16777216
100
AcDbLine
 10
1514.636416527842
 20
163.5120175382861
 30
0.0
 11
1514.636416527842
 21
124.5120175382861
 31
0.0
  0
SOLID
  5
FE2D7
330
FDE3A
100
AcDbEntity
  8
AM_5
440
 16777216
100
AcDbTrace
 10
1514.219749861175
 20
163.5120175382861
 30
0.0
 11
1515.053083194509
 21
163.5120175382861
 31
0.0
 12
1514.636416527842
 22
166.0120175382861
 32
0.0
 13
1514.636416527842
 23
166.0120175382861
 33
0.0
  0
SOLID
  5
FE2D8
330
FDE3A
100
AcDbEntity
  8
AM_5
440
 16777216
100
AcDbTrace
 10
1514.219749861175
 20
124.5120175382861
 30
0.0
 11
1515.053083194509
 21
124.5120175382861
 31
0.0
 12
1514.636416527842
 22
122.0120175382861
 32
0.0
 13
1514.636416527842
 23
122.0120175382861
 33
0.0
  0
MTEXT
  5
FE2D9
330
FDE3A
100
AcDbEntity
  8
AM_5
 62
     2
440
 16777216
100
AcDbMText
 10
1511.386416527842
 20
144.0120175382864
 30
0.0
 40
3.5
 41
0.0
 71
     5
 72
     1
  1
44
 11
0.0000000000000001
 21
1.0
 31
0.0
 73
     1
 44
1.0
  0
POINT
  5
FE2DA
330
FDE3A
100
AcDbEntity
  8
Defpoints
 62
     0
440
 16777216
100
AcDbPoint
 10
1604.986724149898
 20
166.0120175382861
 30
0.0
  0
POINT
  5
FE2DB
330
FDE3A
100
AcDbEntity
  8
Defpoints
 62
     0
440
 16777216
100
AcDbPoint
 10
1541.486724149899
 20
122.0120175382861
 30
0.0
  0
POINT
  5
FE2DC
330
FDE3A
100
AcDbEntity
  8
Defpoints
 62
     0
440
 16777216
100
AcDbPoint
 10
1514.636416527842
 20
122.0120175382861
 30
0.0
  0
ENDBLK
  5
FDE3C
330
FDE3A
100
AcDbEntity
  8
0
100
AcDbBlockEnd
  0
BLOCK
  5
FDE5F
330
FDE5E
100
AcDbEntity
  8
0
100
AcDbBlockBegin
  2
*D33
 70
     1
 10
0.0
 20
0.0
 30
0.0
  3
*D33
  1

  0
LINE
  5
FE359
330
FDE5E
100
AcDbEntity
  8
AM_5
440
 16777216
100
AcDbLine
 10
1540.486724149898
 20
210.0120175382861
 30
0.0
 11
1513.636416527842
 21
210.0120175382861
 31
0.0
  0
LINE
  5
FE35A
330
FDE5E
100
AcDbEntity
  8
AM_5
440
 16777216
100
AcDbLine
 10
1603.986724149899
 20
166.0120175382861
 30
0.0
 11
1513.636416527842
 21
166.0120175382861
 31
0.0
  0
LINE
  5
FE35B
330
FDE5E
100
AcDbEntity
  8
AM_5
440
 16777216
100
AcDbLine
 10
1514.636416527842
 20
207.5120175382861
 30
0.0
 11
1514.636416527842
 21
168.5120175382861
 31
0.0
  0
SOLID
  5
FE35C
330
FDE5E
100
AcDbEntity
  8
AM_5
440
 16777216
100
AcDbTrace
 10
1514.219749861175
 20
207.5120175382861
 30
0.0
 11
1515.053083194509
 21
207.5120175382861
 31
0.0
 12
1514.636416527842
 22
210.0120175382861
 32
0.0
 13
1514.636416527842
 23
210.0120175382861
 33
0.0
  0
SOLID
  5
FE35D
330
FDE5E
100
AcDbEntity
  8
AM_5
440
 16777216
100
AcDbTrace
 10
1514.219749861175
 20
168.5120175382861
 30
0.0
 11
1515.053083194509
 21
168.5120175382861
 31
0.0
 12
1514.636416527842
 22
166.0120175382861
 32
0.0
 13
1514.636416527842
 23
166.0120175382861
 33
0.0
  0
MTEXT
  5
FE35E
330
FDE5E
100
AcDbEntity
  8
AM_5
 62
     2
440
 16777216
100
AcDbMText
 10
1511.386416527842
 20
188.0120175382863
 30
0.0
 40
3.5
 41
0.0
 71
     5
 72
     1
  1
44
 11
0.0000000000000001
 21
1.0
 31
0.0
 73
     1
 44
1.0
  0
POINT
  5
FE35F
330
FDE5E
100
AcDbEntity
  8
Defpoints
 62
     0
440
 16777216
100
AcDbPoint
 10
1541.486724149899
 20
210.0120175382861
 30
0.0
  0
POINT
  5
FE360
330
FDE5E
100
AcDbEntity
  8
Defpoints
 62
     0
440
 16777216
100
AcDbPoint
 10
1604.986724149898
 20
166.0120175382861
 30
0.0
  0
POINT
  5
FE361
330
FDE5E
100
AcDbEntity
  8
Defpoints
 62
     0
440
 16777216
100
AcDbPoint
 10
1514.636416527842
 20
166.0120175382861
 30
0.0
  0
ENDBLK
  5
FDE60
330
FDE5E
100
AcDbEntity
  8
0
100
AcDbBlockEnd
  0
BLOCK
  5
FDE6B
330
FDE6A
100
AcDbEntity
  8
0
100
AcDbBlockBegin
  2
*D34
 70
     1
 10
0.0
 20
0.0
 30
0.0
  3
*D34
  1

  0
LINE
  5
FE362
330
FDE6A
100
AcDbEntity
  8
AM_5
440
 16777216
100
AcDbLine
 10
1541.486724149899
 20
211.0120175382861
 30
0.0
 11
1541.486724149899
 21
237.8623251603429
 31
0.0
  0
LINE
  5
FE363
330
FDE6A
100
AcDbEntity
  8
AM_5
440
 16777216
100
AcDbLine
 10
1616.486724149899
 20
178.5120175382861
 30
0.0
 11
1616.486724149899
 21
237.8623251603429
 31
0.0
  0
LINE
  5
FE364
330
FDE6A
100
AcDbEntity
  8
AM_5
440
 16777216
100
AcDbLine
 10
1543.986724149899
 20
236.8623251603429
 30
0.0
 11
1613.986724149899
 21
236.8623251603429
 31
0.0
  0
SOLID
  5
FE365
330
FDE6A
100
AcDbEntity
  8
AM_5
440
 16777216
100
AcDbTrace
 10
1543.986724149899
 20
237.2789918270096
 30
0.0
 11
1543.986724149899
 21
236.4456584936763
 31
0.0
 12
1541.486724149899
 22
236.8623251603429
 32
0.0
 13
1541.486724149899
 23
236.8623251603429
 33
0.0
  0
SOLID
  5
FE366
330
FDE6A
100
AcDbEntity
  8
AM_5
440
 16777216
100
AcDbTrace
 10
1613.986724149899
 20
237.2789918270096
 30
0.0
 11
1613.986724149899
 21
236.4456584936763
 31
0.0
 12
1616.486724149899
 22
236.8623251603429
 32
0.0
 13
1616.486724149899
 23
236.8623251603429
 33
0.0
  0
MTEXT
  5
FE367
330
FDE6A
100
AcDbEntity
  8
AM_5
 62
     2
440
 16777216
100
AcDbMText
 10
1578.986724149898
 20
240.1123251603429
 30
0.0
 40
3.5
 41
0.0
 71
     5
 72
     1
  1
75
 73
     1
 44
1.0
  0
POINT
  5
FE368
330
FDE6A
100
AcDbEntity
  8
Defpoints
 62
     0
440
 16777216
100
AcDbPoint
 10
1541.486724149899
 20
210.0120175382861
 30
0.0
  0
POINT
  5
FE369
330
FDE6A
100
AcDbEntity
  8
Defpoints
 62
     0
440
 16777216
100
AcDbPoint
 10
1616.486724149899
 20
177.5120175382861
 30
0.0
  0
POINT
  5
FE36A
330
FDE6A
100
AcDbEntity
  8
Defpoints
 62
     0
440
 16777216
100
AcDbPoint
 10
1616.486724149899
 20
236.8623251603429
 30
0.0
  0
ENDBLK
  5
FDE6C
330
FDE6A
100
AcDbEntity
  8
0
100
AcDbBlockEnd
  0
BLOCK
  5
FDE77
330
FDE76
100
AcDbEntity
  8
0
100
AcDbBlockBegin
  2
*D35
 70
     1
 10
0.0
 20
0.0
 30
0.0
  3
*D35
  1

  0
LINE
  5
FE347
330
FDE76
100
AcDbEntity
  8
AM_5
440
 16777216
100
AcDbLine
 10
1616.486724149899
 20
178.5120175382861
 30
0.0
 11
1616.486724149899
 21
237.8623251603429
 31
0.0
  0
LINE
  5
FE348
330
FDE76
100
AcDbEntity
  8
AM_5
440
 16777216
100
AcDbLine
 10
1691.486724149899
 20
211.0120175382861
 30
0.0
 11
1691.486724149899
 21
237.8623251603429
 31
0.0
  0
LINE
  5
FE349
330
FDE76
100
AcDbEntity
  8
AM_5
440
 16777216
100
AcDbLine
 10
1618.986724149898
 20
236.8623251603429
 30
0.0
 11
1688.986724149899
 21
236.8623251603429
 31
0.0
  0
SOLID
  5
FE34A
330
FDE76
100
AcDbEntity
  8
AM_5
440
 16777216
100
AcDbTrace
 10
1618.986724149898
 20
237.2789918270096
 30
0.0
 11
1618.986724149898
 21
236.4456584936763
 31
0.0
 12
1616.486724149899
 22
236.8623251603429
 32
0.0
 13
1616.486724149899
 23
236.8623251603429
 33
0.0
  0
SOLID
  5
FE34B
330
FDE76
100
AcDbEntity
  8
AM_5
440
 16777216
100
AcDbTrace
 10
1688.986724149899
 20
237.2789918270096
 30
0.0
 11
1688.986724149899
 21
236.4456584936763
 31
0.0
 12
1691.486724149899
 22
236.8623251603429
 32
0.0
 13
1691.486724149899
 23
236.8623251603429
 33
0.0
  0
MTEXT
  5
FE34C
330
FDE76
100
AcDbEntity
  8
AM_5
 62
     2
440
 16777216
100
AcDbMText
 10
1653.986724149899
 20
240.1123251603429
 30
0.0
 40
3.5
 41
0.0
 71
     5
 72
     1
  1
75
 73
     1
 44
1.0
  0
POINT
  5
FE34D
330
FDE76
100
AcDbEntity
  8
Defpoints
 62
     0
440
 16777216
100
AcDbPoint
 10
1616.486724149899
 20
177.5120175382861
 30
0.0
  0
POINT
  5
FE34E
330
FDE76
100
AcDbEntity
  8
Defpoints
 62
     0
440
 16777216
100
AcDbPoint
 10
1691.486724149899
 20
210.0120175382861
 30
0.0
  0
POINT
  5
FE34F
330
FDE76
100
AcDbEntity
  8
Defpoints
 62
     0
440
 16777216
100
AcDbPoint
 10
1691.486724149899
 20
236.8623251603429
 30
0.0
  0
ENDBLK
  5
FDE78
330
FDE76
100
AcDbEntity
  8
0
100
AcDbBlockEnd
  0
BLOCK
  5
FDE83
330
FDE82
100
AcDbEntity
  8
0
100
AcDbBlockBegin
  2
*D36
 70
     1
 10
0.0
 20
0.0
 30
0.0
  3
*D36
  1

  0
LINE
  5
FE2DD
330
FDE82
100
AcDbEntity
  8
AM_5
440
 16777216
100
AcDbLine
 10
1632.815402658345
 20
181.9247249813305
 30
0.0
 11
1624.364595360116
 21
173.6892009537898
 31
0.0
  0
LINE
  5
FE2DE
330
FDE82
100
AcDbEntity
  8
AM_5
440
 16777216
100
AcDbLine
 10
1608.608852939688
 20
158.3348341227812
 30
0.0
 11
1606.81842766464
 21
156.5900197101666
 31
0.0
  0
MTEXT
  5
FE2DF
102
{ACAD_XDICTIONARY
360
FE60A
102
}
330
FDE82
100
AcDbEntity
  8
AM_5
 62
     2
440
 16777216
100
AcDbMText
 10
1627.216952910355
 20
181.0069230314307
 30
0.0
 40
3.5
 41
0.0
 71
     5
 72
     1
  1
\U+220517
 11
0.7161701100194131
 21
0.697925765045812
 31
0.0
 73
     1
 44
1.0
  0
LINE
  5
FE2E0
330
FDE82
100
AcDbEntity
  8
AM_5
440
 16777216
100
AcDbLine
 10
1610.399278214737
 20
160.0796485353958
 30
0.0
 11
1622.574170085067
 21
171.9443865411752
 31
0.0
  0
SOLID
  5
FE2E1
330
FDE82
100
AcDbEntity
  8
AM_5
440
 16777216
100
AcDbTrace
 10
1608.318050537586
 20
158.6332383352893
 30
0.0
 11
1608.89965534179
 21
158.0364299102732
 31
0.0
 12
1610.399278214737
 22
160.0796485353958
 32
0.0
 13
1610.399278214737
 23
160.0796485353958
 33
0.0
  0
SOLID
  5
FE2E2
330
FDE82
100
AcDbEntity
  8
AM_5
440
 16777216
100
AcDbTrace
 10
1624.073792958014
 20
173.9876051662979
 30
0.0
 11
1624.655397762218
 21
173.3907967412817
 31
0.0
 12
1622.574170085067
 22
171.9443865411752
 32
0.0
 13
1622.574170085067
 23
171.9443865411752
 33
0.0
  0
POINT
  5
FE2E3
330
FDE82
100
AcDbEntity
  8
Defpoints
 62
     0
440
 16777216
100
AcDbPoint
 10
1622.574170085067
 20
171.9443865411752
 30
0.0
  0
POINT
  5
FE2E4
330
FDE82
100
AcDbEntity
  8
Defpoints
 62
     0
440
 16777216
100
AcDbPoint
 10
1610.399278214737
 20
160.0796485353958
 30
0.0
  0
ENDBLK
  5
FDE84
330
FDE82
100
AcDbEntity
  8
0
100
AcDbBlockEnd
  0
BLOCK
  5
FDE8E
330
FDE8D
100
AcDbEntity
  8
0
100
AcDbBlockBegin
  2
*D37
 70
     1
 10
0.0
 20
0.0
 30
0.0
  3
*D37
  1

  0
LINE
  5
FE2E5
330
FDE8D
100
AcDbEntity
  8
AM_5
440
 16777216
100
AcDbLine
 10
1603.986724149899
 20
166.0120175382861
 30
0.0
 11
1513.636416527842
 21
166.0120175382861
 31
0.0
  0
LINE
  5
FE2E6
330
FDE8D
100
AcDbEntity
  8
AM_5
440
 16777216
100
AcDbLine
 10
1540.486724149898
 20
122.0120175382861
 30
0.0
 11
1513.636416527842
 21
122.0120175382861
 31
0.0
  0
LINE
  5
FE2E7
330
FDE8D
100
AcDbEntity
  8
AM_5
440
 16777216
100
AcDbLine
 10
1514.636416527842
 20
163.5120175382861
 30
0.0
 11
1514.636416527842
 21
124.5120175382861
 31
0.0
  0
SOLID
  5
FE2E8
330
FDE8D
100
AcDbEntity
  8
AM_5
440
 16777216
100
AcDbTrace
 10
1514.219749861175
 20
163.5120175382861
 30
0.0
 11
1515.053083194509
 21
163.5120175382861
 31
0.0
 12
1514.636416527842
 22
166.0120175382861
 32
0.0
 13
1514.636416527842
 23
166.0120175382861
 33
0.0
  0
SOLID
  5
FE2E9
330
FDE8D
100
AcDbEntity
  8
AM_5
440
 16777216
100
AcDbTrace
 10
1514.219749861175
 20
124.5120175382861
 30
0.0
 11
1515.053083194509
 21
124.5120175382861
 31
0.0
 12
1514.636416527842
 22
122.0120175382861
 32
0.0
 13
1514.636416527842
 23
122.0120175382861
 33
0.0
  0
MTEXT
  5
FE2EA
330
FDE8D
100
AcDbEntity
  8
AM_5
 62
     2
440
 16777216
100
AcDbMText
 10
1511.386416527842
 20
144.0120175382864
 30
0.0
 40
3.5
 41
0.0
 71
     5
 72
     1
  1
44
 11
0.0000000000000001
 21
1.0
 31
0.0
 73
     1
 44
1.0
  0
POINT
  5
FE2EB
330
FDE8D
100
AcDbEntity
  8
Defpoints
 62
     0
440
 16777216
100
AcDbPoint
 10
1604.986724149898
 20
166.0120175382861
 30
0.0
  0
POINT
  5
FE2EC
330
FDE8D
100
AcDbEntity
  8
Defpoints
 62
     0
440
 16777216
100
AcDbPoint
 10
1541.486724149899
 20
122.0120175382861
 30
0.0
  0
POINT
  5
FE2ED
330
FDE8D
100
AcDbEntity
  8
Defpoints
 62
     0
440
 16777216
100
AcDbPoint
 10
1514.636416527842
 20
122.0120175382861
 30
0.0
  0
ENDBLK
  5
FDE8F
330
FDE8D
100
AcDbEntity
  8
0
100
AcDbBlockEnd
  0
BLOCK
  5
FDEB2
330
FDEB1
100
AcDbEntity
  8
0
100
AcDbBlockBegin
  2
*D38
 70
     1
 10
0.0
 20
0.0
 30
0.0
  3
*D38
  1

  0
LINE
  5
FE36B
330
FDEB1
100
AcDbEntity
  8
AM_5
440
 16777216
100
AcDbLine
 10
1540.486724149898
 20
210.0120175382861
 30
0.0
 11
1513.636416527842
 21
210.0120175382861
 31
0.0
  0
LINE
  5
FE36C
330
FDEB1
100
AcDbEntity
  8
AM_5
440
 16777216
100
AcDbLine
 10
1603.986724149899
 20
166.0120175382861
 30
0.0
 11
1513.636416527842
 21
166.0120175382861
 31
0.0
  0
LINE
  5
FE36D
330
FDEB1
100
AcDbEntity
  8
AM_5
440
 16777216
100
AcDbLine
 10
1514.636416527842
 20
207.5120175382861
 30
0.0
 11
1514.636416527842
 21
168.5120175382861
 31
0.0
  0
SOLID
  5
FE36E
330
FDEB1
100
AcDbEntity
  8
AM_5
440
 16777216
100
AcDbTrace
 10
1514.219749861175
 20
207.5120175382861
 30
0.0
 11
1515.053083194509
 21
207.5120175382861
 31
0.0
 12
1514.636416527842
 22
210.0120175382861
 32
0.0
 13
1514.636416527842
 23
210.0120175382861
 33
0.0
  0
SOLID
  5
FE36F
330
FDEB1
100
AcDbEntity
  8
AM_5
440
 16777216
100
AcDbTrace
 10
1514.219749861175
 20
168.5120175382861
 30
0.0
 11
1515.053083194509
 21
168.5120175382861
 31
0.0
 12
1514.636416527842
 22
166.0120175382861
 32
0.0
 13
1514.636416527842
 23
166.0120175382861
 33
0.0
  0
MTEXT
  5
FE370
330
FDEB1
100
AcDbEntity
  8
AM_5
 62
     2
440
 16777216
100
AcDbMText
 10
1511.386416527842
 20
188.0120175382863
 30
0.0
 40
3.5
 41
0.0
 71
     5
 72
     1
  1
44
 11
0.0000000000000001
 21
1.0
 31
0.0
 73
     1
 44
1.0
  0
POINT
  5
FE371
330
FDEB1
100
AcDbEntity
  8
Defpoints
 62
     0
440
 16777216
100
AcDbPoint
 10
1541.486724149899
 20
210.0120175382861
 30
0.0
  0
POINT
  5
FE372
330
FDEB1
100
AcDbEntity
  8
Defpoints
 62
     0
440
 16777216
100
AcDbPoint
 10
1604.986724149898
 20
166.0120175382861
 30
0.0
  0
POINT
  5
FE373
330
FDEB1
100
AcDbEntity
  8
Defpoints
 62
     0
440
 16777216
100
AcDbPoint
 10
1514.636416527842
 20
166.0120175382861
 30
0.0
  0
ENDBLK
  5
FDEB3
330
FDEB1
100
AcDbEntity
  8
0
100
AcDbBlockEnd
  0
BLOCK
  5
FDEBE
330
FDEBD
100
AcDbEntity
  8
0
100
AcDbBlockBegin
  2
*D39
 70
     1
 10
0.0
 20
0.0
 30
0.0
  3
*D39
  1

  0
LINE
  5
FE374
330
FDEBD
100
AcDbEntity
  8
AM_5
440
 16777216
100
AcDbLine
 10
1541.486724149899
 20
211.0120175382861
 30
0.0
 11
1541.486724149899
 21
237.8623251603429
 31
0.0
  0
LINE
  5
FE375
330
FDEBD
100
AcDbEntity
  8
AM_5
440
 16777216
100
AcDbLine
 10
1616.486724149899
 20
178.5120175382861
 30
0.0
 11
1616.486724149899
 21
237.8623251603429
 31
0.0
  0
LINE
  5
FE376
330
FDEBD
100
AcDbEntity
  8
AM_5
440
 16777216
100
AcDbLine
 10
1543.986724149899
 20
236.8623251603429
 30
0.0
 11
1613.986724149899
 21
236.8623251603429
 31
0.0
  0
SOLID
  5
FE377
330
FDEBD
100
AcDbEntity
  8
AM_5
440
 16777216
100
AcDbTrace
 10
1543.986724149899
 20
237.2789918270096
 30
0.0
 11
1543.986724149899
 21
236.4456584936763
 31
0.0
 12
1541.486724149899
 22
236.8623251603429
 32
0.0
 13
1541.486724149899
 23
236.8623251603429
 33
0.0
  0
SOLID
  5
FE378
330
FDEBD
100
AcDbEntity
  8
AM_5
440
 16777216
100
AcDbTrace
 10
1613.986724149899
 20
237.2789918270096
 30
0.0
 11
1613.986724149899
 21
236.4456584936763
 31
0.0
 12
1616.486724149899
 22
236.8623251603429
 32
0.0
 13
1616.486724149899
 23
236.8623251603429
 33
0.0
  0
MTEXT
  5
FE379
330
FDEBD
100
AcDbEntity
  8
AM_5
 62
     2
440
 16777216
100
AcDbMText
 10
1578.986724149898
 20
240.1123251603429
 30
0.0
 40
3.5
 41
0.0
 71
     5
 72
     1
  1
75
 73
     1
 44
1.0
  0
POINT
  5
FE37A
330
FDEBD
100
AcDbEntity
  8
Defpoints
 62
     0
440
 16777216
100
AcDbPoint
 10
1541.486724149899
 20
210.0120175382861
 30
0.0
  0
POINT
  5
FE37B
330
FDEBD
100
AcDbEntity
  8
Defpoints
 62
     0
440
 16777216
100
AcDbPoint
 10
1616.486724149899
 20
177.5120175382861
 30
0.0
  0
POINT
  5
FE37C
330
FDEBD
100
AcDbEntity
  8
Defpoints
 62
     0
440
 16777216
100
AcDbPoint
 10
1616.486724149899
 20
236.8623251603429
 30
0.0
  0
ENDBLK
  5
FDEBF
330
FDEBD
100
AcDbEntity
  8
0
100
AcDbBlockEnd
  0
BLOCK
  5
FDECA
330
FDEC9
100
AcDbEntity
  8
0
100
AcDbBlockBegin
  2
*D40
 70
     1
 10
0.0
 20
0.0
 30
0.0
  3
*D40
  1

  0
LINE
  5
FE350
330
FDEC9
100
AcDbEntity
  8
AM_5
440
 16777216
100
AcDbLine
 10
1616.486724149899
 20
178.5120175382861
 30
0.0
 11
1616.486724149899
 21
237.8623251603429
 31
0.0
  0
LINE
  5
FE351
330
FDEC9
100
AcDbEntity
  8
AM_5
440
 16777216
100
AcDbLine
 10
1691.486724149899
 20
211.0120175382861
 30
0.0
 11
1691.486724149899
 21
237.8623251603429
 31
0.0
  0
LINE
  5
FE352
330
FDEC9
100
AcDbEntity
  8
AM_5
440
 16777216
100
AcDbLine
 10
1618.986724149898
 20
236.8623251603429
 30
0.0
 11
1688.986724149899
 21
236.8623251603429
 31
0.0
  0
SOLID
  5
FE353
330
FDEC9
100
AcDbEntity
  8
AM_5
440
 16777216
100
AcDbTrace
 10
1618.986724149898
 20
237.2789918270096
 30
0.0
 11
1618.986724149898
 21
236.4456584936763
 31
0.0
 12
1616.486724149899
 22
236.8623251603429
 32
0.0
 13
1616.486724149899
 23
236.8623251603429
 33
0.0
  0
SOLID
  5
FE354
330
FDEC9
100
AcDbEntity
  8
AM_5
440
 16777216
100
AcDbTrace
 10
1688.986724149899
 20
237.2789918270096
 30
0.0
 11
1688.986724149899
 21
236.4456584936763
 31
0.0
 12
1691.486724149899
 22
236.8623251603429
 32
0.0
 13
1691.486724149899
 23
236.8623251603429
 33
0.0
  0
MTEXT
  5
FE355
330
FDEC9
100
AcDbEntity
  8
AM_5
 62
     2
440
 16777216
100
AcDbMText
 10
1653.986724149899
 20
240.1123251603429
 30
0.0
 40
3.5
 41
0.0
 71
     5
 72
     1
  1
75
 73
     1
 44
1.0
  0
POINT
  5
FE356
330
FDEC9
100
AcDbEntity
  8
Defpoints
 62
     0
440
 16777216
100
AcDbPoint
 10
1616.486724149899
 20
177.5120175382861
 30
0.0
  0
POINT
  5
FE357
330
FDEC9
100
AcDbEntity
  8
Defpoints
 62
     0
440
 16777216
100
AcDbPoint
 10
1691.486724149899
 20
210.0120175382861
 30
0.0
  0
POINT
  5
FE358
330
FDEC9
100
AcDbEntity
  8
Defpoints
 62
     0
440
 16777216
100
AcDbPoint
 10
1691.486724149899
 20
236.8623251603429
 30
0.0
  0
ENDBLK
  5
FDECB
330
FDEC9
100
AcDbEntity
  8
0
100
AcDbBlockEnd
  0
BLOCK
  5
FDED6
330
FDED5
100
AcDbEntity
  8
0
100
AcDbBlockBegin
  2
*D41
 70
     1
 10
0.0
 20
0.0
 30
0.0
  3
*D41
  1

  0
LINE
  5
FE2EE
330
FDED5
100
AcDbEntity
  8
AM_5
440
 16777216
100
AcDbLine
 10
1632.815402658345
 20
181.9247249813305
 30
0.0
 11
1624.364595360116
 21
173.6892009537898
 31
0.0
  0
LINE
  5
FE2EF
330
FDED5
100
AcDbEntity
  8
AM_5
440
 16777216
100
AcDbLine
 10
1608.608852939688
 20
158.3348341227812
 30
0.0
 11
1606.81842766464
 21
156.5900197101666
 31
0.0
  0
MTEXT
  5
FE2F0
102
{ACAD_XDICTIONARY
360
FE60C
102
}
330
FDED5
100
AcDbEntity
  8
AM_5
 62
     2
440
 16777216
100
AcDbMText
 10
1627.216952910355
 20
181.0069230314307
 30
0.0
 40
3.5
 41
0.0
 71
     5
 72
     1
  1
\U+220517
 11
0.7161701100194131
 21
0.697925765045812
 31
0.0
 73
     1
 44
1.0
  0
LINE
  5
FE2F1
330
FDED5
100
AcDbEntity
  8
AM_5
440
 16777216
100
AcDbLine
 10
1610.399278214737
 20
160.0796485353958
 30
0.0
 11
1622.574170085067
 21
171.9443865411752
 31
0.0
  0
SOLID
  5
FE2F2
330
FDED5
100
AcDbEntity
  8
AM_5
440
 16777216
100
AcDbTrace
 10
1608.318050537586
 20
158.6332383352893
 30
0.0
 11
1608.89965534179
 21
158.0364299102732
 31
0.0
 12
1610.399278214737
 22
160.0796485353958
 32
0.0
 13
1610.399278214737
 23
160.0796485353958
 33
0.0
  0
SOLID
  5
FE2F3
330
FDED5
100
AcDbEntity
  8
AM_5
440
 16777216
100
AcDbTrace
 10
1624.073792958014
 20
173.9876051662979
 30
0.0
 11
1624.655397762218
 21
173.3907967412817
 31
0.0
 12
1622.574170085067
 22
171.9443865411752
 32
0.0
 13
1622.574170085067
 23
171.9443865411752
 33
0.0
  0
POINT
  5
FE2F4
330
FDED5
100
AcDbEntity
  8
Defpoints
 62
     0
440
 16777216
100
AcDbPoint
 10
1622.574170085067
 20
171.9443865411752
 30
0.0
  0
POINT
  5
FE2F5
330
FDED5
100
AcDbEntity
  8
Defpoints
 62
     0
440
 16777216
100
AcDbPoint
 10
1610.399278214737
 20
160.0796485353958
 30
0.0
  0
ENDBLK
  5
FDED7
330
FDED5
100
AcDbEntity
  8
0
100
AcDbBlockEnd
  0
BLOCK
  5
FDEE1
330
FDEE0
100
AcDbEntity
  8
0
100
AcDbBlockBegin
  2
*D42
 70
     1
 10
0.0
 20
0.0
 30
0.0
  3
*D42
  1

  0
LINE
  5
FE2F6
330
FDEE0
100
AcDbEntity
  8
AM_5
440
 16777216
100
AcDbLine
 10
1692.486724149899
 20
210.0120175382861
 30
0.0
 11
1711.383160177498
 21
210.0120175382861
 31
0.0
  0
LINE
  5
FE2F7
330
FDEE0
100
AcDbEntity
  8
AM_5
440
 16777216
100
AcDbLine
 10
1692.486724149899
 20
122.0120175382861
 30
0.0
 11
1711.383160177498
 21
122.0120175382861
 31
0.0
  0
LINE
  5
FE2F8
330
FDEE0
100
AcDbEntity
  8
AM_5
440
 16777216
100
AcDbLine
 10
1710.383160177498
 20
207.5120175382861
 30
0.0
 11
1710.383160177498
 21
124.5120175382861
 31
0.0
  0
SOLID
  5
FE2F9
330
FDEE0
100
AcDbEntity
  8
AM_5
440
 16777216
100
AcDbTrace
 10
1709.966493510831
 20
207.5120175382861
 30
0.0
 11
1710.799826844164
 21
207.5120175382861
 31
0.0
 12
1710.383160177498
 22
210.0120175382861
 32
0.0
 13
1710.383160177498
 23
210.0120175382861
 33
0.0
  0
SOLID
  5
FE2FA
330
FDEE0
100
AcDbEntity
  8
AM_5
440
 16777216
100
AcDbTrace
 10
1709.966493510831
 20
124.5120175382861
 30
0.0
 11
1710.799826844164
 21
124.5120175382861
 31
0.0
 12
1710.383160177498
 22
122.0120175382861
 32
0.0
 13
1710.383160177498
 23
122.0120175382861
 33
0.0
  0
MTEXT
  5
FE2FB
330
FDEE0
100
AcDbEntity
  8
AM_5
 62
     2
440
 16777216
100
AcDbMText
 10
1707.133160177498
 20
166.0120175382864
 30
0.0
 40
3.5
 41
0.0
 71
     5
 72
     1
  1
88
 11
0.0000000000000001
 21
1.0
 31
0.0
 73
     1
 44
1.0
  0
POINT
  5
FE2FC
330
FDEE0
100
AcDbEntity
  8
Defpoints
 62
     0
440
 16777216
100
AcDbPoint
 10
1691.486724149899
 20
210.0120175382861
 30
0.0
  0
POINT
  5
FE2FD
330
FDEE0
100
AcDbEntity
  8
Defpoints
 62
     0
440
 16777216
100
AcDbPoint
 10
1691.486724149899
 20
122.0120175382861
 30
0.0
  0
POINT
  5
FE2FE
330
FDEE0
100
AcDbEntity
  8
Defpoints
 62
     0
440
 16777216
100
AcDbPoint
 10
1710.383160177498
 20
122.0120175382861
 30
0.0
  0
ENDBLK
  5
FDEE2
330
FDEE0
100
AcDbEntity
  8
0
100
AcDbBlockEnd
  0
BLOCK
  5
FDFBB
330
FDFBA
100
AcDbEntity
  8
0
100
AcDbBlockBegin
  2
*D43
 70
     1
 10
0.0
 20
0.0
 30
0.0
  3
*D43
  1

  0
LINE
  5
FE311
330
FDFBA
100
AcDbEntity
  8
AM_5
440
 16777216
100
AcDbLine
 10
1540.486724149898
 20
83.86232228634876
 30
0.0
 11
1513.636416527842
 21
83.86232228634876
 31
0.0
  0
LINE
  5
FE312
330
FDFBA
100
AcDbEntity
  8
AM_5
440
 16777216
100
AcDbLine
 10
1540.486724149898
 20
67.86232228634877
 30
0.0
 11
1513.636416527842
 21
67.86232228634877
 31
0.0
  0
LINE
  5
FE313
330
FDFBA
100
AcDbEntity
  8
AM_5
440
 16777216
100
AcDbLine
 10
1514.636416527842
 20
81.36232228634876
 30
0.0
 11
1514.636416527842
 21
70.36232228634877
 31
0.0
  0
SOLID
  5
FE314
330
FDFBA
100
AcDbEntity
  8
AM_5
440
 16777216
100
AcDbTrace
 10
1514.219749861175
 20
81.36232228634876
 30
0.0
 11
1515.053083194509
 21
81.36232228634876
 31
0.0
 12
1514.636416527842
 22
83.86232228634876
 32
0.0
 13
1514.636416527842
 23
83.86232228634876
 33
0.0
  0
SOLID
  5
FE315
330
FDFBA
100
AcDbEntity
  8
AM_5
440
 16777216
100
AcDbTrace
 10
1514.219749861175
 20
70.36232228634877
 30
0.0
 11
1515.053083194509
 21
70.36232228634877
 31
0.0
 12
1514.636416527842
 22
67.86232228634877
 32
0.0
 13
1514.636416527842
 23
67.86232228634877
 33
0.0
  0
MTEXT
  5
FE316
330
FDFBA
100
AcDbEntity
  8
AM_5
 62
     2
440
 16777216
100
AcDbMText
 10
1511.386416527842
 20
75.86232228634902
 30
0.0
 40
3.5
 41
0.0
 71
     5
 72
     1
  1
t=16
 11
0.0000000000000001
 21
1.0
 31
0.0
 73
     1
 44
1.0
  0
POINT
  5
FE317
330
FDFBA
100
AcDbEntity
  8
Defpoints
 62
     0
440
 16777216
100
AcDbPoint
 10
1541.486724149899
 20
83.86232228634876
 30
0.0
  0
POINT
  5
FE318
330
FDFBA
100
AcDbEntity
  8
Defpoints
 62
     0
440
 16777216
100
AcDbPoint
 10
1541.486724149899
 20
67.86232228634877
 30
0.0
  0
POINT
  5
FE319
330
FDFBA
100
AcDbEntity
  8
Defpoints
 62
     0
440
 16777216
100
AcDbPoint
 10
1514.636416527842
 20
67.86232228634877
 30
0.0
  0
ENDBLK
  5
FDFBC
330
FDFBA
100
AcDbEntity
  8
0
100
AcDbBlockEnd
  0
BLOCK
  5
FE439
330
FE438
100
AcDbEntity
  8
0
100
AcDbBlockBegin
  2
*D44
 70
     1
 10
0.0
 20
0.0
 30
0.0
  3
*D44
  1

  0
LINE
  5
FE456
330
FE438
100
AcDbEntity
  8
AM_5
440
 16777216
100
AcDbLine
 10
1541.486724149899
 20
121.0120175382861
 30
0.0
 11
1541.486724149899
 21
109.6158222687738
 31
0.0
  0
LINE
  5
FE457
330
FE438
100
AcDbEntity
  8
AM_5
440
 16777216
100
AcDbLine
 10
1691.486724149899
 20
121.0120175382861
 30
0.0
 11
1691.486724149899
 21
109.6158222687738
 31
0.0
  0
LINE
  5
FE458
330
FE438
100
AcDbEntity
  8
AM_5
440
 16777216
100
AcDbLine
 10
1543.986724149899
 20
110.6158222687738
 30
0.0
 11
1688.986724149899
 21
110.6158222687738
 31
0.0
  0
SOLID
  5
FE459
330
FE438
100
AcDbEntity
  8
AM_5
440
 16777216
100
AcDbTrace
 10
1543.986724149899
 20
111.0324889354405
 30
0.0
 11
1543.986724149899
 21
110.1991556021071
 31
0.0
 12
1541.486724149899
 22
110.6158222687738
 32
0.0
 13
1541.486724149899
 23
110.6158222687738
 33
0.0
  0
SOLID
  5
FE45A
330
FE438
100
AcDbEntity
  8
AM_5
440
 16777216
100
AcDbTrace
 10
1688.986724149899
 20
111.0324889354405
 30
0.0
 11
1688.986724149899
 21
110.1991556021071
 31
0.0
 12
1691.486724149899
 22
110.6158222687738
 32
0.0
 13
1691.486724149899
 23
110.6158222687738
 33
0.0
  0
MTEXT
  5
FE45B
330
FE438
100
AcDbEntity
  8
AM_5
 62
     2
440
 16777216
100
AcDbMText
 10
1616.486724149899
 20
113.8658222687738
 30
0.0
 40
3.5
 41
0.0
 71
     5
 72
     1
  1
150
 73
     1
 44
1.0
  0
POINT
  5
FE45C
330
FE438
100
AcDbEntity
  8
Defpoints
 62
     0
440
 16777216
100
AcDbPoint
 10
1541.486724149899
 20
122.0120175382861
 30
0.0
  0
POINT
  5
FE45D
330
FE438
100
AcDbEntity
  8
Defpoints
 62
     0
440
 16777216
100
AcDbPoint
 10
1691.486724149899
 20
122.0120175382861
 30
0.0
  0
POINT
  5
FE45E
330
FE438
100
AcDbEntity
  8
Defpoints
 62
     0
440
 16777216
100
AcDbPoint
 10
1691.486724149899
 20
110.6158222687738
 30
0.0
  0
ENDBLK
  5
FE43A
330
FE438
100
AcDbEntity
  8
0
100
AcDbBlockEnd
  0
ENDSEC
  0
SECTION
  2
ENTITIES
  0
DIMENSION
  5
FCF07
330
1F
100
AcDbEntity
  8
AM_5
100
AcDbDimension
  2
*D1
 10
216.2547608983386
 20
110.58935281313
 30
0.0
 11
213.0047608983386
 21
154.5893528131301
 31
0.0
 70
    32
  1
<>
 71
     5
 42
88.00000000000002
  3
AM_ISO$0
100
AcDbAlignedDimension
 13
199.6752198552522
 23
198.58935281313
 33
0.0
 14
199.6752198552522
 24
110.58935281313
 34
0.0
 50
90.0
100
AcDbRotatedDimension
1001
ACAD_DSTYLE_DIMINSPECT
1070
   396
1000
100%
1070
   395
1000

1070
   394
1070
    33
1070
   393
1070
     0
  0
DIMENSION
  5
FCF08
330
1F
100
AcDbEntity
  8
AM_5
100
AcDbDimension
  2
*D2
 10
88.6285846669782
 20
110.58935281313
 30
0.0
 11
85.37858466697818
 21
132.5893528131301
 31
0.0
 70
    32
 71
     5
 42
44.0
  3
AM_ISO$0
100
AcDbAlignedDimension
 13
128.1752198552485
 23
154.58935281313
 33
0.0
 14
104.6752198552485
 24
110.58935281313
 34
0.0
 50
90.0
100
AcDbRotatedDimension
1001
ACAD_DSTYLE_DIMINSPECT
1070
   396
1000
100%
1070
   395
1000

1070
   394
1070
    33
1070
   393
1070
     0
  0
LINE
  5
FCF09
330
1F
100
AcDbEntity
  8
AM_5
100
AcDbLine
 10
139.6752198552485
 20
143.08935281313
 30
0.0
 11
139.6752198552485
 21
166.08935281313
 31
0.0
  0
LINE
  5
FCF0A
330
1F
100
AcDbEntity
  8
AM_5
100
AcDbLine
 10
241.846146352942
 20
111.5893528131444
 30
0.0
 11
241.8461463529411
 21
197.5893528131346
 31
0.0
  0
LINE
  5
FCF0B
330
1F
100
AcDbEntity
  8
AM_5
100
AcDbLine
 10
229.8461463529411
 20
111.5893528131298
 30
0.0
 11
229.8461463529411
 21
197.5893528131294
 31
0.0
  0
LINE
  5
FCF0C
330
1F
100
AcDbEntity
  8
AM_5
100
AcDbLine
 10
199.6752198552485
 20
110.58935281313
 30
0.0
 11
199.6752198552485
 21
198.58935281313
 31
0.0
  0
LINE
  5
FCF0D
330
1F
100
AcDbEntity
  8
AM_5
100
AcDbLine
 10
104.6752198552485
 20
198.58935281313
 30
0.0
 11
104.6752198552485
 21
110.58935281313
 31
0.0
  0
LINE
  5
FCF0E
330
1F
100
AcDbEntity
  8
AM_5
100
AcDbLine
 10
105.6752198552476
 20
197.58935281313
 30
0.0
 11
105.6752198552494
 21
111.5893528131303
 31
0.0
  0
LINE
  5
FCF0F
330
1F
100
AcDbEntity
  8
AM_5
100
AcDbLine
 10
198.6752198552485
 20
111.58935281313
 30
0.0
 11
198.6752198552485
 21
197.5893528131303
 31
0.0
  0
LINE
  5
FCF10
330
1F
100
AcDbEntity
  8
AM_5
100
AcDbLine
 10
230.8461463529411
 20
110.58935281313
 30
0.0
 11
230.8461463529411
 21
198.5893528131303
 31
0.0
  0
LINE
  5
FCF11
330
1F
100
AcDbEntity
  8
AM_5
100
AcDbLine
 10
240.8461463529411
 20
198.58935281313
 30
0.0
 11
240.846146352942
 21
110.58935281313
 31
0.0
  0
LINE
  5
FCF12
330
1F
100
AcDbEntity
  8
AM_5
100
AcDbLine
 10
104.6752198552485
 20
110.58935281313
 30
0.0
 11
199.6752198552485
 21
110.58935281313
 31
0.0
  0
LINE
  5
FCF13
330
1F
100
AcDbEntity
  8
AM_5
100
AcDbLine
 10
105.6752198552494
 20
111.5893528131303
 30
0.0
 11
198.6752198552485
 21
111.58935281313
 31
0.0
  0
DIMENSION
  5
FCF14
330
1F
100
AcDbEntity
  8
AM_5
100
AcDbDimension
  2
*D3
 10
199.6752198552485
 20
99.19315754362209
 30
0.0
 11
152.1752198552485
 21
102.443157543622
 31
0.0
 70
    32
 71
     5
 42
95.0
  3
AM_ISO$0
100
AcDbAlignedDimension
 13
104.6752198552485
 23
110.6646216303341
 33
0.0
 14
199.6752198552485
 24
110.6646216303343
 34
0.0
100
AcDbRotatedDimension
1001
ACAD_DSTYLE_DIMINSPECT
1070
   396
1000
100%
1070
   395
1000

1070
   394
1070
    33
1070
   393
1070
     0
  0
LINE
  5
FCF15
330
1F
100
AcDbEntity
  8
AM_5
100
AcDbLine
 10
105.6752198552485
 20
72.43965756119985
 30
0.0
 11
198.6752198552485
 21
72.43965756119632
 31
0.0
  0
LINE
  5
FCF16
330
1F
100
AcDbEntity
  8
AM_5
100
AcDbLine
 10
105.6752198552494
 20
60.43965756119995
 30
0.0
 11
198.6752198552485
 21
60.43965756119995
 31
0.0
  0
LINE
  5
FCF17
330
1F
100
AcDbEntity
  8
AM_5
100
AcDbLine
 10
104.6752198552485
 20
71.43965756119995
 30
0.0
 11
199.6752198552485
 21
71.43965756120008
 31
0.0
  0
LINE
  5
FCF18
330
1F
100
AcDbEntity
  8
AM_5
100
AcDbLine
 10
199.6752198552485
 20
61.43965756119996
 30
0.0
 11
104.6752198552485
 21
61.4396575611996
 31
0.0
  0
DIMENSION
  5
FCF19
330
1F
100
AcDbEntity
  8
AM_5
100
AcDbDimension
  2
*D4
 10
88.62858466697822
 20
72.43965756119997
 30
0.0
 11
88.6285846669782
 21
66.43965756120064
 31
0.0
 70
   160
  1
t<>
 71
     5
 42
12.00000000000001
  3
AM_ISO$0
100
AcDbAlignedDimension
 13
104.6752198552485
 23
60.43965756119995
 33
0.0
 14
104.675219855234
 24
72.43965756119997
 34
0.0
 50
90.0
100
AcDbRotatedDimension
1001
ACAD_DSTYLE_DIMINSPECT
1070
   396
1000
100%
1070
   395
1000

1070
   394
1070
    33
1070
   393
1070
     0
  0
MTEXT
  5
FCF1A
330
1F
100
AcDbEntity
  8
AM_5
100
AcDbMText
 10
158.7557857125157
 20
83.17008917423299
 30
0.0
 40
2.0
 41
28.92168871002287
 71
     1
 72
     5
  1
{\fMS Gothic|b0|i0|c128|p49;\H1.25x;C1.0\fHGPM|b0|i0|c128|p50;\H0.8x;}
  7
new cad
 73
     1
 44
1.0
1001
ACAD
1000
MTEXTBEGIN
1070
    73
1070
     1
1070
    44
1040
1.0
1070
    74
1070
     0
1000
MTEXTEND
  0
LINE
  5
FCF1B
330
1F
100
AcDbEntity
  8
AM_5
100
AcDbLine
 10
131.175219855234
 20
72.43965756119997
 30
0.0
 11
131.175219855234
 21
60.43965756119995
 31
0.0
  0
LINE
  5
FCF1C
330
1F
100
AcDbEntity
  8
AM_5
100
AcDbLine
 10
104.6752198552485
 20
71.43965756119995
 30
0.0
 11
104.6752198552485
 21
61.4396575611996
 31
0.0
  0
LINE
  5
FCF1D
330
1F
100
AcDbEntity
  8
AM_5
100
AcDbLine
 10
104.6752198552485
 20
71.43965756119995
 30
0.0
 11
105.6752198552485
 21
72.43965756119997
 31
0.0
  0
LINE
  5
FCF1E
330
1F
100
AcDbEntity
  8
AM_5
100
AcDbLine
 10
104.6752198552485
 20
61.43965756119996
 30
0.0
 11
105.6752198552485
 21
60.43965756119995
 31
0.0
  0
MTEXT
  5
FCF1F
330
1F
100
AcDbEntity
  8
AM_5
100
AcDbMText
 10
176.7222721917078
 20
54.44352342547063
 30
0.0
 40
2.0
 41
28.92168871002287
 71
     1
 72
     5
  1
{\fMS Gothic|b0|i0|c128|p49;\H1.25x;C1.0\fHGPM|b0|i0|c128|p50;\H0.8x;}
  7
new cad
 73
     1
 44
1.0
1001
ACAD
1000
MTEXTBEGIN
1070
    73
1070
     1
1070
    44
1040
1.0
1070
    74
1070
     0
1000
MTEXTEND
  0
LEADER
  5
FCF20
330
1F
100
AcDbEntity
  8
AM_5
100
AcDbLeader
  3
AM_ISO$7
 76
     3
 10
171.8111559111475
 20
60.43965756119986
 30
0.0
 10
175.9080021322315
 20
51.31397810591898
 30
0.0
 10
182.252688716937
 20
51.31397810591898
 30
0.0
1001
ACAD
1000
DSTYLE
1002
{
1070
   140
1040
3.5
1002
}
  0
LINE
  5
FCF21
330
1F
100
AcDbEntity
  8
AM_5
100
AcDbLine
 10
148.175219855234
 20
72.43965756119997
 30
0.0
 11
148.175219855234
 21
60.43965756119995
 31
0.0
  0
LINE
  5
FCF22
330
1F
100
AcDbEntity
  8
AM_5
100
AcDbLine
 10
139.675219855234
 20
75.43965756119995
 30
0.0
 11
139.675219855234
 21
57.43965756119997
 31
0.0
  0
LEADER
  5
FCF23
330
1F
100
AcDbEntity
  8
AM_5
100
AcDbLeader
  3
AM_ISO$7
 76
     3
 10
152.1752198552485
 20
72.43965756119814
 30
0.0
 10
157.9415156530394
 20
80.04054385468135
 30
0.0
 10
164.2862022377449
 20
80.04054385468135
 30
0.0
1001
ACAD
1000
DSTYLE
1002
{
1070
   140
1040
3.5
1002
}
  0
LINE
  5
FCF24
330
1F
100
AcDbEntity
  8
AM_5
100
AcDbLine
 10
104.6752198552485
 20
110.6646216303338
 30
0.0
 11
105.6752198552494
 21
111.5893528131305
 31
0.0
  0
LINE
  5
FCF25
330
1F
100
AcDbEntity
  8
AM_5
100
AcDbLine
 10
199.6752198552485
 20
71.43965756119666
 30
0.0
 11
199.6752198552485
 21
61.43965756119975
 31
0.0
  0
LINE
  5
FCF26
330
1F
100
AcDbEntity
  8
AM_5
100
AcDbLine
 10
198.6752198552485
 20
72.43965756119632
 30
0.0
 11
199.6752198552485
 21
71.43965756119633
 31
0.0
  0
LINE
  5
FCF27
330
1F
100
AcDbEntity
  8
AM_5
100
AcDbLine
 10
199.6752198552485
 20
61.43965756119996
 30
0.0
 11
198.6752198552485
 21
60.43965756119995
 31
0.0
  0
LINE
  5
FCF28
330
1F
100
AcDbEntity
  8
AM_5
100
AcDbLine
 10
230.8461463529411
 20
110.58935281313
 30
0.0
 11
240.846146352942
 21
110.58935281313
 31
0.0
  0
LINE
  5
FCF29
330
1F
100
AcDbEntity
  8
AM_5
100
AcDbLine
 10
199.6752198552485
 20
110.6646216303343
 30
0.0
 11
198.6752198552485
 21
111.58935281313
 31
0.0
  0
LINE
  5
FCF2A
330
1F
100
AcDbEntity
  8
AM_5
100
AcDbLine
 10
229.8461463529411
 20
111.58935281313
 30
0.0
 11
230.8461463529411
 21
110.58935281313
 31
0.0
  0
LINE
  5
FCF2B
330
1F
100
AcDbEntity
  8
AM_5
100
AcDbLine
 10
240.8461463529411
 20
110.58935281313
 30
0.0
 11
241.8461463529265
 21
111.58935281313
 31
0.0
  0
LINE
  5
FCF2C
330
1F
100
AcDbEntity
  8
AM_5
100
AcDbLine
 10
199.6752198552485
 20
198.58935281313
 30
0.0
 11
104.6752198552485
 21
198.58935281313
 31
0.0
  0
LINE
  5
FCF2D
330
1F
100
AcDbEntity
  8
AM_5
100
AcDbLine
 10
198.6752198552485
 20
197.5893528131303
 30
0.0
 11
105.6752198552476
 21
197.58935281313
 31
0.0
  0
DIMENSION
  5
FCF2E
330
1F
100
AcDbEntity
  8
AM_5
100
AcDbDimension
  2
*D5
 10
199.6752198552485
 20
208.624445124314
 30
0.0
 11
169.6752198552485
 21
211.874445124314
 31
0.0
 70
    32
 71
     5
 42
60.0
  3
AM_ISO$0
100
AcDbAlignedDimension
 13
139.6752198552485
 23
167.08935281313
 33
0.0
 14
199.6752198552485
 24
198.58935281313
 34
0.0
100
AcDbRotatedDimension
1001
ACAD_DSTYLE_DIMINSPECT
1070
   396
1000
100%
1070
   395
1000

1070
   394
1070
    33
1070
   393
1070
     0
  0
DIMENSION
  5
FCF2F
330
1F
100
AcDbEntity
  8
AM_5
100
AcDbDimension
  2
*D6
 10
88.6285846669782
 20
154.58935281313
 30
0.0
 11
85.37858466697818
 21
176.5893528131301
 31
0.0
 70
    32
 71
     5
 42
44.0
  3
AM_ISO$0
100
AcDbAlignedDimension
 13
104.6752198552485
 23
198.58935281313
 33
0.0
 14
128.1752198552485
 24
154.58935281313
 34
0.0
 50
90.0
100
AcDbRotatedDimension
1001
ACAD_DSTYLE_DIMINSPECT
1070
   396
1000
100%
1070
   395
1000

1070
   394
1070
    33
1070
   393
1070
     0
  0
DIMENSION
  5
FCF30
330
1F
100
AcDbEntity
  8
AM_5
100
AcDbDimension
  2
*D7
 10
139.6752198552485
 20
208.624445124314
 30
0.0
 11
122.1752198552485
 21
211.874445124314
 31
0.0
 70
    32
 71
     5
 42
35.0
  3
AM_ISO$0
100
AcDbAlignedDimension
 13
104.6752198552485
 23
198.58935281313
 33
0.0
 14
139.6752198552485
 24
166.08935281313
 34
0.0
100
AcDbRotatedDimension
1001
ACAD_DSTYLE_DIMINSPECT
1070
   396
1000
100%
1070
   395
1000

1070
   394
1070
    33
1070
   393
1070
     0
  0
CIRCLE
  5
FCF31
330
1F
100
AcDbEntity
  8
AM_5
100
AcDbCircle
 10
139.6752198552485
 20
154.58935281313
 30
0.0
 40
8.5
  0
LINE
  5
FCF32
330
1F
100
AcDbEntity
  8
AM_5
100
AcDbLine
 10
151.1752198552485
 20
154.58935281313
 30
0.0
 11
128.1752198552485
 21
154.58935281313
 31
0.0
  0
DIMENSION
  5
FCF33
330
1F
100
AcDbEntity
  8
AM_5
100
AcDbDimension
  2
*D8
 10
134.1259568045988
 20
148.150744299269
 30
0.0
 11
149.0627077021714
 21
170.4594527473957
 31
0.0
 70
    35
 71
     5
 42
16.99999999999352
  3
AM_ISO$3
100
AcDbDiametricDimension
 15
145.2244829058682
 25
161.0279613269977
 35
0.0
 40
0.0
1001
ACAD
1000
DSTYLE
1002
{
1070
    74
1070
     0
1070
   172
1070
     1
1070
   288
1070
     0
1070
   289
1070
     3
1002
}
1001
ACAD_DSTYLE_DIMINSPECT
1070
   396
1000
100%
1070
   395
1000

1070
   394
1070
    33
1070
   393
1070
     0
  0
LINE
  5
FCF34
330
1F
100
AcDbEntity
  8
AM_5
100
AcDbLine
 10
105.6752198552467
 20
197.5893528131298
 30
0.0
 11
104.6752198552485
 21
198.5140839959249
 31
0.0
  0
LINE
  5
FCF35
330
1F
100
AcDbEntity
  8
AM_5
100
AcDbLine
 10
226.8461463529411
 20
154.58935281313
 30
0.0
 11
244.8461463529411
 21
154.58935281313
 31
0.0
  0
LINE
  5
FCF36
330
1F
100
AcDbEntity
  8
AM_5
100
AcDbLine
 10
229.8461463529411
 20
146.08935281313
 30
0.0
 11
241.8461463529411
 21
146.08935281313
 31
0.0
  0
LINE
  5
FCF37
330
1F
100
AcDbEntity
  8
AM_5
100
AcDbLine
 10
229.8461463529411
 20
163.08935281313
 30
0.0
 11
241.8461463529411
 21
163.08935281313
 31
0.0
  0
LINE
  5
FCF38
330
1F
100
AcDbEntity
  8
AM_5
100
AcDbLine
 10
230.8461463529411
 20
198.5893528131303
 30
0.0
 11
240.8461463529384
 21
198.5893528131335
 31
0.0
  0
LINE
  5
FCF39
330
1F
100
AcDbEntity
  8
AM_5
100
AcDbLine
 10
198.6752198552485
 20
197.5893528131303
 30
0.0
 11
199.6752198552485
 21
198.514083995926
 31
0.0
  0
LINE
  5
FCF3A
330
1F
100
AcDbEntity
  8
AM_5
100
AcDbLine
 10
229.846146352942
 20
197.58935281313
 30
0.0
 11
230.8461463529411
 21
198.5893528131303
 31
0.0
  0
LINE
  5
FCF3B
330
1F
100
AcDbEntity
  8
AM_5
100
AcDbLine
 10
240.8461463529411
 20
198.58935281313
 30
0.0
 11
241.8461463529411
 21
197.5893528131337
 31
0.0
  0
DIMENSION
  5
FD2BD
330
1F
100
AcDbEntity
  8
AM_5
100
AcDbDimension
  2
*D9
 10
321.6531501285601
 20
110.5893528131336
 30
0.0
 11
318.4031501285601
 21
132.5893528131337
 31
0.0
 70
    32
 71
     5
 42
44.00000000000001
  3
AM_ISO$0
100
AcDbAlignedDimension
 13
412.0034577506169
 23
154.5893528131337
 33
0.0
 14
348.5034577506169
 24
110.5893528131336
 34
0.0
 50
90.0
100
AcDbRotatedDimension
1001
ACAD_DSTYLE_DIMINSPECT
1070
   396
1000
100%
1070
   395
1000

1070
   394
1070
    33
1070
   393
1070
     0
  0
LWPOLYLINE
  5
FD2BF
330
1F
100
AcDbEntity
  8
AM_5
100
AcDbPolyline
 90
        4
 70
     1
 43
0.0
 10
348.5034577506169
 20
72.43965756119632
 10
498.5034577506168
 20
72.43965756119632
 10
498.5034577506168
 20
56.4396575611963
 10
348.5034577506169
 20
56.4396575611963
  0
LINE
  5
FD2C1
330
1F
100
AcDbEntity
  8
AM_5
100
AcDbLine
 10
423.5034577506168
 20
75.43965756119631
 30
0.0
 11
423.5034577506168
 21
53.43965756119629
 31
0.0
  0
DIMENSION
  5
FD2C2
330
1F
100
AcDbEntity
  8
AM_5
100
AcDbDimension
  2
*D11
 10
348.5034577506169
 20
243.9301849552776
 30
0.0
 11
423.5034577506168
 21
247.1801849552775
 31
0.0
 70
    32
 71
     5
 42
150.0
  3
AM_ISO$0
100
AcDbAlignedDimension
 13
498.5034577506168
 23
198.5893528131336
 33
0.0
 14
348.5034577506169
 24
198.5893528131336
 34
0.0
100
AcDbRotatedDimension
1001
ACAD_DSTYLE_DIMINSPECT
1070
   396
1000
100%
1070
   395
1000

1070
   394
1070
    33
1070
   393
1070
     0
  0
DIMENSION
  5
FD2C3
330
1F
100
AcDbEntity
  8
AM_5
100
AcDbDimension
  2
*D12
 10
321.6531501285601
 20
154.5893528131337
 30
0.0
 11
318.4031501285601
 21
176.5893528131337
 31
0.0
 70
    32
 71
     5
 42
44.0
  3
AM_ISO$0
100
AcDbAlignedDimension
 13
348.5034577506169
 23
198.5893528131336
 33
0.0
 14
412.0034577506169
 24
154.5893528131337
 34
0.0
 50
90.0
100
AcDbRotatedDimension
1001
ACAD_DSTYLE_DIMINSPECT
1070
   396
1000
100%
1070
   395
1000

1070
   394
1070
    33
1070
   393
1070
     0
  0
DIMENSION
  5
FD2C4
330
1F
100
AcDbEntity
  8
AM_5
100
AcDbDimension
  2
*D13
 10
423.5034577506168
 20
225.4396604351905
 30
0.0
 11
386.0034577506169
 21
228.6896604351905
 31
0.0
 70
    32
 71
     5
 42
75.0
  3
AM_ISO$0
100
AcDbAlignedDimension
 13
348.5034577506169
 23
198.5893528131336
 33
0.0
 14
423.5034577506168
 24
166.0893528131337
 34
0.0
100
AcDbRotatedDimension
1001
ACAD_DSTYLE_DIMINSPECT
1070
   396
1000
100%
1070
   395
1000

1070
   394
1070
    33
1070
   393
1070
     0
  0
DIMENSION
  5
FD2C5
330
1F
100
AcDbEntity
  8
AM_5
100
AcDbDimension
  2
*D14
 10
498.5034577506168
 20
225.4396604351905
 30
0.0
 11
461.0034577506168
 21
228.6896604351905
 31
0.0
 70
    32
 71
     5
 42
75.0
  3
AM_ISO$0
100
AcDbAlignedDimension
 13
423.5034577506168
 23
166.0893528131337
 33
0.0
 14
498.5034577506168
 24
198.5893528131336
 34
0.0
100
AcDbRotatedDimension
1001
ACAD_DSTYLE_DIMINSPECT
1070
   396
1000
100%
1070
   395
1000

1070
   394
1070
    33
1070
   393
1070
     0
  0
DIMENSION
  5
FD2C6
330
1F
100
AcDbEntity
  8
AM_5
100
AcDbDimension
  2
*D15
 10
417.4160118154545
 20
148.6569838102432
 30
0.0
 11
434.2336865110738
 21
169.5842583062779
 31
0.0
 70
    35
  1
<>
 71
     5
 42
17.00000000000114
  3
AM_ISO$3
100
AcDbDiametricDimension
 15
429.5909036857852
 25
160.5217218160228
 35
0.0
 40
0.0
1001
ACAD
1000
DSTYLE
1002
{
1070
    74
1070
     0
1070
   172
1070
     1
1070
   288
1070
     0
1070
   289
1070
     3
1002
}
1001
ACAD_DSTYLE_DIMINSPECT
1070
   396
1000
100%
1070
   395
1000

1070
   394
1070
    33
1070
   393
1070
     0
  0
LINE
  5
FD2C7
330
1F
100
AcDbEntity
  8
AM_5
100
AcDbLine
 10
423.5034577506168
 20
143.0893528131337
 30
0.0
 11
423.5034577506168
 21
166.0893528131337
 31
0.0
  0
CIRCLE
  5
FD2C8
330
1F
100
AcDbEntity
  8
AM_5
100
AcDbCircle
 10
423.5034577506168
 20
154.5893528131337
 30
0.0
 40
8.5
  0
LINE
  5
FD2C9
330
1F
100
AcDbEntity
  8
AM_5
100
AcDbLine
 10
435.0034577506169
 20
154.5893528131337
 30
0.0
 11
412.0034577506169
 21
154.5893528131337
 31
0.0
  0
MTEXT
  5
FD468
330
1F
100
AcDbEntity
  8
AM_5
100
AcDbMText
 10
348.5034577506169
 20
304.0018788728533
 30
0.0
 40
10.0
 41
252.3571533672017
 71
     1
 72
     5
  1
高耐力用角座金M16\U+00D788\U+00D7105
  7
2014++
 73
     1
 44
1.0
1001
ACAD
1000
ACAD_MTEXT_COLUMN_INFO_BEGIN
1070
    75
1070
     2
1070
    79
1070
     0
1070
    76
1070
     1
1070
    78
1070
     0
1070
    48
1040
252.3571533672017
1070
    49
1040
12.5
1070
    50
1070
     1
1040
0.0
1000
ACAD_MTEXT_COLUMN_INFO_END
  0
DIMENSION
  5
FD46A
330
1F
100
AcDbEntity
  8
AM_5
100
AcDbDimension
  2
*D16
 10
321.6531501285601
 20
110.5893528131336
 30
0.0
 11
318.4031501285601
 21
132.5893528131337
 31
0.0
 70
    32
 71
     5
 42
44.00000000000001
  3
AM_ISO$0
100
AcDbAlignedDimension
 13
412.0034577506169
 23
154.5893528131337
 33
0.0
 14
348.5034577506169
 24
110.5893528131336
 34
0.0
 50
90.0
100
AcDbRotatedDimension
1001
ACAD_DSTYLE_DIMINSPECT
1070
   396
1000
100%
1070
   395
1000

1070
   394
1070
    33
1070
   393
1070
     0
  0
LWPOLYLINE
  5
FD46C
330
1F
100
AcDbEntity
  8
AM_5
100
AcDbPolyline
 90
        4
 70
     1
 43
0.0
 10
348.5034577506169
 20
72.43965756119632
 10
498.5034577506168
 20
72.43965756119632
 10
498.5034577506168
 20
56.4396575611963
 10
348.5034577506169
 20
56.4396575611963
  0
DIMENSION
  5
FD46D
330
1F
100
AcDbEntity
  8
AM_5
100
AcDbDimension
  2
*D17
 10
321.6531501285601
 20
56.4396575611963
 30
0.0
 11
318.4031501285601
 21
64.43965756119637
 31
0.0
 70
    32
  1
t<>
 71
     5
 42
16.0
  3
AM_ISO$0
100
AcDbAlignedDimension
 13
348.5034577506169
 23
72.43965756119632
 33
0.0
 14
348.5034577506169
 24
56.4396575611963
 34
0.0
 50
90.0
100
AcDbRotatedDimension
1001
ACAD_DSTYLE_DIMINSPECT
1070
   396
1000
100%
1070
   395
1000

1070
   394
1070
    33
1070
   393
1070
     0
  0
LINE
  5
FD46E
330
1F
100
AcDbEntity
  8
AM_5
100
AcDbLine
 10
423.5034577506168
 20
75.43965756119631
 30
0.0
 11
423.5034577506168
 21
53.43965756119629
 31
0.0
  0
DIMENSION
  5
FD46F
330
1F
100
AcDbEntity
  8
AM_5
100
AcDbDimension
  2
*D18
 10
348.5034577506169
 20
243.9301849552776
 30
0.0
 11
423.5034577506168
 21
247.1801849552775
 31
0.0
 70
    32
 71
     5
 42
150.0
  3
AM_ISO$0
100
AcDbAlignedDimension
 13
498.5034577506168
 23
198.5893528131336
 33
0.0
 14
348.5034577506169
 24
198.5893528131336
 34
0.0
100
AcDbRotatedDimension
1001
ACAD_DSTYLE_DIMINSPECT
1070
   396
1000
100%
1070
   395
1000

1070
   394
1070
    33
1070
   393
1070
     0
  0
DIMENSION
  5
FD470
330
1F
100
AcDbEntity
  8
AM_5
100
AcDbDimension
  2
*D19
 10
321.6531501285601
 20
154.5893528131337
 30
0.0
 11
318.4031501285601
 21
176.5893528131337
 31
0.0
 70
    32
 71
     5
 42
44.0
  3
AM_ISO$0
100
AcDbAlignedDimension
 13
348.5034577506169
 23
198.5893528131336
 33
0.0
 14
412.0034577506169
 24
154.5893528131337
 34
0.0
 50
90.0
100
AcDbRotatedDimension
1001
ACAD_DSTYLE_DIMINSPECT
1070
   396
1000
100%
1070
   395
1000

1070
   394
1070
    33
1070
   393
1070
     0
  0
DIMENSION
  5
FD471
330
1F
100
AcDbEntity
  8
AM_5
100
AcDbDimension
  2
*D20
 10
423.5034577506168
 20
225.4396604351905
 30
0.0
 11
386.0034577506169
 21
228.6896604351905
 31
0.0
 70
    32
 71
     5
 42
75.0
  3
AM_ISO$0
100
AcDbAlignedDimension
 13
348.5034577506169
 23
198.5893528131336
 33
0.0
 14
423.5034577506168
 24
166.0893528131337
 34
0.0
100
AcDbRotatedDimension
1001
ACAD_DSTYLE_DIMINSPECT
1070
   396
1000
100%
1070
   395
1000

1070
   394
1070
    33
1070
   393
1070
     0
  0
DIMENSION
  5
FD472
330
1F
100
AcDbEntity
  8
AM_5
100
AcDbDimension
  2
*D21
 10
498.5034577506168
 20
225.4396604351905
 30
0.0
 11
461.0034577506168
 21
228.6896604351905
 31
0.0
 70
    32
 71
     5
 42
75.0
  3
AM_ISO$0
100
AcDbAlignedDimension
 13
423.5034577506168
 23
166.0893528131337
 33
0.0
 14
498.5034577506168
 24
198.5893528131336
 34
0.0
100
AcDbRotatedDimension
1001
ACAD_DSTYLE_DIMINSPECT
1070
   396
1000
100%
1070
   395
1000

1070
   394
1070
    33
1070
   393
1070
     0
  0
DIMENSION
  5
FD473
330
1F
100
AcDbEntity
  8
AM_5
100
AcDbDimension
  2
*D22
 10
417.4160118154545
 20
148.6569838102432
 30
0.0
 11
434.2336865110738
 21
169.5842583062779
 31
0.0
 70
    35
  1
<>
 71
     5
 42
17.00000000000114
  3
AM_ISO$3
100
AcDbDiametricDimension
 15
429.5909036857852
 25
160.5217218160228
 35
0.0
 40
0.0
1001
ACAD
1000
DSTYLE
1002
{
1070
    74
1070
     0
1070
   172
1070
     1
1070
   288
1070
     0
1070
   289
1070
     3
1002
}
1001
ACAD_DSTYLE_DIMINSPECT
1070
   396
1000
100%
1070
   395
1000

1070
   394
1070
    33
1070
   393
1070
     0
  0
LINE
  5
FD474
330
1F
100
AcDbEntity
  8
AM_5
100
AcDbLine
 10
423.5034577506168
 20
143.0893528131337
 30
0.0
 11
423.5034577506168
 21
166.0893528131337
 31
0.0
  0
CIRCLE
  5
FD475
330
1F
100
AcDbEntity
  8
AM_5
100
AcDbCircle
 10
423.5034577506168
 20
154.5893528131337
 30
0.0
 40
8.5
  0
LINE
  5
FD476
330
1F
100
AcDbEntity
  8
AM_5
100
AcDbLine
 10
435.0034577506169
 20
154.5893528131337
 30
0.0
 11
412.0034577506169
 21
154.5893528131337
 31
0.0
  0
MTEXT
  5
FD477
330
1F
100
AcDbEntity
  8
AM_5
100
AcDbMText
 10
348.5034577506169
 20
304.0018788728533
 30
0.0
 40
10.0
 41
252.3571533672017
 71
     1
 72
     5
  1
高耐力用角座金M16\U+00D788\U+00D7105
  7
2014++
 73
     1
 44
1.0
1001
ACAD
1000
ACAD_MTEXT_COLUMN_INFO_BEGIN
1070
    75
1070
     2
1070
    79
1070
     0
1070
    76
1070
     1
1070
    78
1070
     0
1070
    48
1040
252.3571533672017
1070
    49
1040
12.5
1070
    50
1070
     1
1040
0.0
1000
ACAD_MTEXT_COLUMN_INFO_END
  0
LINE
  5
FD6DE
330
1F
100
AcDbEntity
  8
AM_5
100
AcDbLine
 10
348.5034577506169
 20
198.5893528131336
 30
0.0
 11
498.5034577506168
 21
198.5893528131336
 31
0.0
  0
LINE
  5
FD6DF
330
1F
100
AcDbEntity
  8
AM_5
100
AcDbLine
 10
498.5034577506168
 20
198.5893528131336
 30
0.0
 11
498.5034577506168
 21
110.5893528131336
 31
0.0
  0
LINE
  5
FD6E0
330
1F
100
AcDbEntity
  8
AM_5
100
AcDbLine
 10
498.5034577506168
 20
110.5893528131336
 30
0.0
 11
348.5034577506169
 21
110.5893528131336
 31
0.0
  0
LINE
  5
FD6E1
330
1F
100
AcDbEntity
  8
AM_5
100
AcDbLine
 10
348.5034577506169
 20
110.5893528131336
 30
0.0
 11
348.5034577506169
 21
198.5893528131336
 31
0.0
  0
LINE
  5
FD6E2
330
1F
100
AcDbEntity
  8
AM_5
100
AcDbLine
 10
348.5034577506169
 20
198.5893528131336
 30
0.0
 11
498.5034577506168
 21
198.5893528131336
 31
0.0
  0
LINE
  5
FD6E3
330
1F
100
AcDbEntity
  8
AM_5
100
AcDbLine
 10
498.5034577506168
 20
198.5893528131336
 30
0.0
 11
498.5034577506168
 21
110.5893528131336
 31
0.0
  0
LINE
  5
FD6E4
330
1F
100
AcDbEntity
  8
AM_5
100
AcDbLine
 10
498.5034577506168
 20
110.5893528131336
 30
0.0
 11
348.5034577506169
 21
110.5893528131336
 31
0.0
  0
LINE
  5
FD6E5
330
1F
100
AcDbEntity
  8
AM_5
100
AcDbLine
 10
348.5034577506169
 20
110.5893528131336
 30
0.0
 11
348.5034577506169
 21
198.5893528131336
 31
0.0
  0
TEXT
  5
FD7FA
330
1F
100
AcDbEntity
  8
AM_5
100
AcDbText
 10
104.7405228587587
 20
294.58935281313
 30
0.0
 40
10.0
  1
高耐力用角座金M16\U+00D788\U+00D795
 41
0.8
  7
2014++
100
AcDbText
  0
LINE
  5
FD943
330
1F
100
AcDbEntity
  8
AM_5
100
AcDbLine
 10
432.0034577506169
 20
72.43965756119632
 30
0.0
 11
432.0034577506169
 21
56.4396575611963
 31
0.0
  0
LINE
  5
FD944
330
1F
100
AcDbEntity
  8
AM_5
100
AcDbLine
 10
415.0034577506168
 20
72.43965756119632
 30
0.0
 11
415.0034577506168
 21
56.4396575611963
 31
0.0
  0
LINE
  5
FDA8D
330
1F
100
AcDbEntity
  8
AM_5
100
AcDbLine
 10
544.3485466525968
 20
111.5893528131475
 30
0.0
 11
544.3485466525959
 21
197.5893528131376
 31
0.0
  0
LINE
  5
FDA8E
330
1F
100
AcDbEntity
  8
AM_5
100
AcDbLine
 10
532.3485466525958
 20
111.5893528131328
 30
0.0
 11
532.3485466525958
 21
197.5893528131325
 31
0.0
  0
LINE
  5
FDA8F
330
1F
100
AcDbEntity
  8
AM_5
100
AcDbLine
 10
533.3485466525959
 20
110.589352813133
 30
0.0
 11
533.3485466525959
 21
198.5893528131333
 31
0.0
  0
LINE
  5
FDA90
330
1F
100
AcDbEntity
  8
AM_5
100
AcDbLine
 10
543.3485466525959
 20
198.5893528131331
 30
0.0
 11
543.3485466525968
 21
110.589352813133
 31
0.0
  0
LINE
  5
FDA91
330
1F
100
AcDbEntity
  8
AM_5
100
AcDbLine
 10
533.3485466525959
 20
110.589352813133
 30
0.0
 11
543.3485466525968
 21
110.589352813133
 31
0.0
  0
LINE
  5
FDA92
330
1F
100
AcDbEntity
  8
AM_5
100
AcDbLine
 10
532.3485466525958
 20
111.589352813133
 30
0.0
 11
533.3485466525959
 21
110.589352813133
 31
0.0
  0
LINE
  5
FDA93
330
1F
100
AcDbEntity
  8
AM_5
100
AcDbLine
 10
543.3485466525959
 20
110.589352813133
 30
0.0
 11
544.3485466525815
 21
111.589352813133
 31
0.0
  0
LINE
  5
FDA94
330
1F
100
AcDbEntity
  8
AM_5
100
AcDbLine
 10
529.3485466525959
 20
154.5893528131331
 30
0.0
 11
547.3485466525959
 21
154.5893528131331
 31
0.0
  0
LINE
  5
FDA95
330
1F
100
AcDbEntity
  8
AM_5
100
AcDbLine
 10
532.3485466525958
 20
146.0893528131331
 30
0.0
 11
544.3485466525959
 21
146.0893528131331
 31
0.0
  0
LINE
  5
FDA96
330
1F
100
AcDbEntity
  8
AM_5
100
AcDbLine
 10
532.3485466525958
 20
163.0893528131331
 30
0.0
 11
544.3485466525959
 21
163.0893528131331
 31
0.0
  0
LINE
  5
FDA97
330
1F
100
AcDbEntity
  8
AM_5
100
AcDbLine
 10
533.3485466525959
 20
198.5893528131333
 30
0.0
 11
543.3485466525933
 21
198.5893528131365
 31
0.0
  0
LINE
  5
FDA98
330
1F
100
AcDbEntity
  8
AM_5
100
AcDbLine
 10
532.3485466525968
 20
197.589352813133
 30
0.0
 11
533.3485466525959
 21
198.5893528131333
 31
0.0
  0
LINE
  5
FDA99
330
1F
100
AcDbEntity
  8
AM_5
100
AcDbLine
 10
543.3485466525959
 20
198.5893528131331
 30
0.0
 11
544.3485466525959
 21
197.5893528131367
 31
0.0
  0
LINE
  5
FDA9A
330
1F
100
AcDbEntity
  8
AM_5
100
AcDbLine
 10
544.3485466525968
 20
111.58935281316
 30
0.0
 11
544.3485466525959
 21
197.5893528131502
 31
0.0
  0
LINE
  5
FDA9B
330
1F
100
AcDbEntity
  8
AM_5
100
AcDbLine
 10
532.3485466525958
 20
111.5893528131454
 30
0.0
 11
532.3485466525958
 21
197.5893528131449
 31
0.0
  0
LINE
  5
FDA9C
330
1F
100
AcDbEntity
  8
AM_5
100
AcDbLine
 10
533.3485466525959
 20
110.5893528131456
 30
0.0
 11
533.3485466525959
 21
198.5893528131459
 31
0.0
  0
LINE
  5
FDA9D
330
1F
100
AcDbEntity
  8
AM_5
100
AcDbLine
 10
543.3485466525959
 20
198.5893528131456
 30
0.0
 11
543.3485466525968
 21
110.5893528131456
 31
0.0
  0
LINE
  5
FDA9E
330
1F
100
AcDbEntity
  8
AM_5
100
AcDbLine
 10
533.3485466525959
 20
110.5893528131456
 30
0.0
 11
543.3485466525968
 21
110.5893528131456
 31
0.0
  0
LINE
  5
FDA9F
330
1F
100
AcDbEntity
  8
AM_5
100
AcDbLine
 10
532.3485466525958
 20
111.5893528131456
 30
0.0
 11
533.3485466525959
 21
110.5893528131456
 31
0.0
  0
LINE
  5
FDAA0
330
1F
100
AcDbEntity
  8
AM_5
100
AcDbLine
 10
543.3485466525959
 20
110.5893528131456
 30
0.0
 11
544.3485466525815
 21
111.5893528131456
 31
0.0
  0
LINE
  5
FDAA1
330
1F
100
AcDbEntity
  8
AM_5
100
AcDbLine
 10
529.3485466525959
 20
154.5893528131456
 30
0.0
 11
547.3485466525959
 21
154.5893528131456
 31
0.0
  0
LINE
  5
FDAA2
330
1F
100
AcDbEntity
  8
AM_5
100
AcDbLine
 10
532.3485466525958
 20
146.0893528131456
 30
0.0
 11
544.3485466525959
 21
146.0893528131456
 31
0.0
  0
LINE
  5
FDAA3
330
1F
100
AcDbEntity
  8
AM_5
100
AcDbLine
 10
532.3485466525958
 20
163.0893528131456
 30
0.0
 11
544.3485466525959
 21
163.0893528131456
 31
0.0
  0
LINE
  5
FDAA4
330
1F
100
AcDbEntity
  8
AM_5
100
AcDbLine
 10
533.3485466525959
 20
198.5893528131459
 30
0.0
 11
543.3485466525933
 21
198.5893528131491
 31
0.0
  0
LINE
  5
FDAA5
330
1F
100
AcDbEntity
  8
AM_5
100
AcDbLine
 10
532.3485466525968
 20
197.5893528131456
 30
0.0
 11
533.3485466525959
 21
198.5893528131459
 31
0.0
  0
LINE
  5
FDAA6
330
1F
100
AcDbEntity
  8
AM_5
100
AcDbLine
 10
543.3485466525959
 20
198.5893528131456
 30
0.0
 11
544.3485466525959
 21
197.5893528131493
 31
0.0
  0
DIMENSION
  5
FDAF9
330
1F
100
AcDbEntity
  8
AM_5
100
AcDbDimension
  2
*D23
 10
517.3998937782157
 20
110.5893528131337
 30
0.0
 11
514.1498937782158
 21
154.5893528131337
 31
0.0
 70
    32
 71
     5
 42
87.99999999999998
  3
AM_ISO$0
100
AcDbAlignedDimension
 13
498.5034577506168
 23
198.5893528131336
 33
0.0
 14
498.5034577506168
 24
110.5893528131337
 34
0.0
 50
90.00000000000005
100
AcDbRotatedDimension
1001
ACAD_DSTYLE_DIMINSPECT
1070
   396
1000
100%
1070
   395
1000

1070
   394
1070
    33
1070
   393
1070
     0
  0
VIEWPORT
  5
FD0D6
102
{ACAD_XDICTIONARY
360
FD0D7
102
}
330
FD0CD
100
AcDbEntity
 67
     1
  8
0
100
AcDbViewport
 10
144.5901659559454
 20
99.1129140853882
 30
0.0
 40
434.4738364722329
 41
222.1517806396485
 68
     1
 69
     1
 12
144.5901659559454
 22
99.1129140853882
 13
0.0
 23
0.0
 14
10.0
 24
10.0
 15
10.0
 25
10.0
 16
0.0
 26
0.0
 36
1.0
 17
0.0
 27
0.0
 37
0.0
 42
50.0
 43
0.0
 44
0.0
 45
222.1517806396485
 50
0.0
 51
0.0
 72
   100
 90
   819232
  1

281
     0
 71
     1
 74
     0
110
0.0
120
0.0
130
0.0
111
1.0
121
0.0
131
0.0
112
0.0
122
1.0
132
0.0
 79
     0
146
0.0
170
     0
1001
GENIUS_GENODEF_13
1002
{
1000
HIER
1070
     0
1002
}
1002
{
1000
MANEDIT
1070
     0
1002
}
1002
{
1000
NOSEL
1070
     0
1002
}
1002
{
1000
BEHIND
1070
     0
1002
}
1002
{
1000
OTHER
1070
     0
1002
}
1002
{
1000
REACTOR
1002
}
1001
GENIUS_GENOBJ-N-SDF_13
1002
{
1000
OWNER
1000
GEN
1002
}
1001
GENIUS_GENSCREG_15
1000
PF
1040
1.0
1000
DF
1040
1.0
1000
MIN
1011
-72.64675228017103
1021
-11.96297623443604
1031
0.0
1000
MAX
1011
361.8270841920619
1021
210.1888044052125
1031
0.0
1000
FLAGS
1070
     4
  0
ENDSEC
  0
SECTION
  2
OBJECTS
  0
DICTIONARY
  5
C
330
0
100
AcDbDictionary
281
     1
  3
ACAD_CIP_PREVIOUS_PRODUCT_INFO
350
FD078
  3
ACAD_COLOR
350
8712
  3
ACAD_DETAILVIEWSTYLE
350
FD05F
  3
ACAD_FIELDLIST
350
FD098
  3
ACAD_GROUP
350
D
  3
ACAD_LAYOUT
350
1A
  3
ACAD_MATERIAL
350
8711
  3
ACAD_MLEADERSTYLE
350
FD05B
  3
ACAD_MLINESTYLE
350
17
  3
ACAD_PLOTSETTINGS
350
19
  3
ACAD_PLOTSTYLENAME
350
E
  3
ACAD_SCALELIST
350
FD049
  3
ACAD_SECTIONVIEWSTYLE
350
FD05D
  3
ACAD_TABLESTYLE
350
FD047
  3
ACAD_VISUALSTYLE
350
FD02E
  3
AcadDim
350
CCA4E
  3
ACDB_RECOMPOSE_DATA
350
FE83D
  3
AcDbVariableDictionary
350
6B9
  3
AcmDictionary
350
16D31
  3
AMG
350
16D13
  3
AMGSNAPSETTINGS
350
17AE6
  3
ASE_INDEX_DICTIONARY
350
F4A75
  0
DICTIONARY
  5
F82BD
330
2
100
AcDbDictionary
280
     1
281
     1
  3
ACAD_LAYERFILTERS
360
F82C0
  3
ACAD_LAYERSTATES
360
F82BE
  0
DICTIONARY
  5
FD162
330
10
100
AcDbDictionary
280
     1
281
     1
  3
ADSK_XREC_LAYER_RECONCILED
360
FD163
  0
DICTIONARY
  5
FD164
330
86C9
100
AcDbDictionary
280
     1
281
     1
  3
ADSK_XREC_LAYER_RECONCILED
360
FD165
  0
DICTIONARY
  5
FD166
330
FD0E1
100
AcDbDictionary
280
     1
281
     1
  3
ADSK_XREC_LAYER_RECONCILED
360
FD167
  0
DICTIONARY
  5
16D78
330
1F
100
AcDbDictionary
280
     1
281
     1
  3
ACAD_SORTENTS
360
FD413
  0
DICTIONARY
  5
FD1C2
330
FD126
100
AcDbDictionary
280
     1
281
     1
  3
ACAD_MTEXT_2008_RT
360
FE875
  0
DICTIONARY
  5
FE604
330
FD8E3
100
AcDbDictionary
280
     1
281
     1
  3
ACAD_MTEXT_2008_RT
360
FE876
  0
DICTIONARY
  5
FE606
330
FD92A
100
AcDbDictionary
280
     1
281
     1
  3
ACAD_MTEXT_2008_RT
360
FE877
  0
DICTIONARY
  5
FE608
330
FE2CE
100
AcDbDictionary
280
     1
281
     1
  3
ACAD_MTEXT_2008_RT
360
FE878
  0
DICTIONARY
  5
FE60A
330
FE2DF
100
AcDbDictionary
280
     1
281
     1
  3
ACAD_MTEXT_2008_RT
360
FE879
  0
DICTIONARY
  5
FE60C
330
FE2F0
100
AcDbDictionary
280
     1
281
     1
  3
ACAD_MTEXT_2008_RT
360
FE87A
  0
DICTIONARY
  5
FD0D7
330
FD0D6
100
AcDbDictionary
280
     1
281
     1
  3
ASDK_XREC_ANNOTATION_SCALE_INFO
360
FD0D8
  0
XRECORD
  5
FD078
102
{ACAD_REACTORS
330
C
102
}
330
C
100
AcDbXrecord
280
     1
300
AMECH_PP
300
2016
300
AMECH_PP_F_S
  0
DICTIONARY
  5
8712
102
{ACAD_REACTORS
330
C
102
}
330
C
100
AcDbDictionary
281
     1
  0
DICTIONARY
  5
FD05F
102
{ACAD_REACTORS
330
C
102
}
330
C
100
AcDbDictionary
281
     1
  3
Metric50
350
FD060
  0
FIELDLIST
  5
FD098
102
{ACAD_REACTORS
330
C
102
}
330
C
100
AcDbIdSet
 90
        3
330
FE831
330
FE832
330
FE833
100
AcDbFieldList
  0
DICTIONARY
  5
D
102
{ACAD_REACTORS
330
C
102
}
330
C
100
AcDbDictionary
281
     1
  0
DICTIONARY
  5
1A
102
{ACAD_REACTORS
330
C
102
}
330
C
100
AcDbDictionary
281
     1
  3
Model
350
22
  3
レイアウト1
350
FD0CE
  0
DICTIONARY
  5
8711
102
{ACAD_REACTORS
330
C
102
}
330
C
100
AcDbDictionary
281
     1
  3
ByBlock
350
FD01E
  3
ByLayer
350
FD016
  3
Global
350
FD026
  0
DICTIONARY
  5
FD05B
102
{ACAD_REACTORS
330
C
102
}
330
C
100
AcDbDictionary
281
     1
  3
Standard
350
FD05C
  0
DICTIONARY
  5
17
102
{ACAD_REACTORS
330
C
102
}
330
C
100
AcDbDictionary
281
     1
  3
Standard
350
18
  0
DICTIONARY
  5
19
102
{ACAD_REACTORS
330
C
102
}
330
C
100
AcDbDictionary
281
     1
  0
ACDBDICTIONARYWDFLT
  5
E
102
{ACAD_REACTORS
330
C
102
}
330
C
100
AcDbDictionary
281
     1
  3
Normal
350
F
100
AcDbDictionaryWithDefault
340
F
  0
DICTIONARY
  5
FD049
102
{ACAD_REACTORS
330
C
102
}
330
C
100
AcDbDictionary
281
     1
  3
A0
350
FD04A
  3
A1
350
FD04B
  3
A2
350
FD04C
  3
A3
350
FD04D
  3
A4
350
FD04E
  3
A5
350
FD04F
  3
A6
350
FD050
  3
A7
350
FD051
  3
A8
350
FD052
  3
A9
350
FD053
  3
B0
350
FD054
  3
B1
350
FD055
  3
B2
350
FD056
  3
B3
350
FD057
  3
B4
350
FD058
  3
B5
350
FD059
  3
B6
350
FD05A
  0
DICTIONARY
  5
FD05D
102
{ACAD_REACTORS
330
C
102
}
330
C
100
AcDbDictionary
281
     1
  3
Metric50
350
FD05E
  0
DICTIONARY
  5
FD047
102
{ACAD_REACTORS
330
C
102
}
330
C
100
AcDbDictionary
281
     1
  3
Standard
350
FD048
  0
DICTIONARY
  5
FD02E
102
{ACAD_REACTORS
330
C
102
}
330
C
100
AcDbDictionary
281
     1
  3
2dWireframe
350
FD034
  3
Basic
350
FD033
  3
Brighten
350
FD03A
  3
ColorChange
350
FD03E
  3
Conceptual
350
FD037
  3
Dim
350
FD039
  3
EdgeColorOff
350
FD046
  3
Facepattern
350
FD03D
  3
Flat
350
FD02F
  3
FlatWithEdges
350
FD030
  3
Gouraud
350
FD031
  3
GouraudWithEdges
350
FD032
  3
Hidden
350
FD036
  3
JitterOff
350
FD044
  3
Linepattern
350
FD03C
  3
OverhangOff
350
FD045
  3
Realistic
350
FD038
  3
Shaded
350
FD043
  3
Shaded with edges
350
FD042
  3
Shades of Gray
350
FD03F
  3
Sketchy
350
FD040
  3
Thicken
350
FD03B
  3
Wireframe
350
FD035
  3
X-Ray
350
FD041
  0
XRECORD
  5
CCA4E
102
{ACAD_REACTORS
330
C
102
}
330
C
100
AcDbXrecord
280
     1
 90
   990106
  3

 60
     0
 61
     0
 62
     1
 63
     3
 64
     0
 65
     0
 66
     0
 67
     3
 68
     1
 69
     0
 70
     0
 71
     0
 72
     0
 40
17.73254125325911
170
     0
  0
XRECORD
  5
FE83D
102
{ACAD_REACTORS
330
C
102
}
330
C
100
AcDbXrecord
280
     1
 90
        1
330
FD048
330
FD468
330
FD477
  0
DICTIONARY
  5
6B9
102
{ACAD_REACTORS
330
C
102
}
330
C
100
AcDbDictionary
281
     1
  3
CANNOSCALE
350
FD16C
  3
CMLEADERSTYLE
350
FD169
  3
CTABLESTYLE
350
FD168
  3
CVIEWDETAILSTYLE
350
FD16A
  3
CVIEWSECTIONSTYLE
350
FD16B
  3
DIMASSOC
350
F4248
  3
INDEXCTL
350
F4247
  3
PROJECTNAME
350
F4249
  3
SORTENTS
350
6BA
  3
XCLIPFRAME
350
FE83B
  0
DICTIONARY
  5
16D31
102
{ACAD_REACTORS
330
C
102
}
330
C
100
AcDbDictionary
281
     1
  3
AcmStdDictionary
350
16D3E
  3
AMDTSECTSYM_ARROWCOLOR
350
16DB5
  0
DICTIONARY
  5
16D13
102
{ACAD_REACTORS
330
C
102
}
330
C
100
AcDbDictionary
281
     1
  0
DICTIONARY
  5
17AE6
102
{ACAD_REACTORS
330
C
102
}
330
C
100
AcDbDictionary
281
     1
  0
DICTIONARY
  5
F4A75
102
{ACAD_REACTORS
330
C
102
}
330
C
100
AcDbDictionary
281
     1
  3
ASEBlockHierarchyIndexRecord
350
F4A77
1001
DCO15
1040
1654516794.149
  0
DICTIONARY
  5
F82C0
102
{ACAD_REACTORS
330
F82BD
102
}
330
F82BD
100
AcDbDictionary
281
     1
  0
DICTIONARY
  5
F82BE
102
{ACAD_REACTORS
330
F82BD
102
}
330
F82BD
100
AcDbDictionary
281
     1
  3
2014++
350
F82D2
  3
2014+++
350
F82BF
  0
XRECORD
  5
FD163
102
{ACAD_REACTORS
330
FD162
102
}
330
FD162
100
AcDbXrecord
280
     1
290
     1
  0
XRECORD
  5
FD165
102
{ACAD_REACTORS
330
FD164
102
}
330
FD164
100
AcDbXrecord
280
     1
290
     1
  0
XRECORD
  5
FD167
102
{ACAD_REACTORS
330
FD166
102
}
330
FD166
100
AcDbXrecord
280
     1
290
     1
  0
SORTENTSTABLE
  5
FD413
102
{ACAD_REACTORS
330
16D78
102
}
330
16D78
100
AcDbSortentsTable
330
1F
331
FCF34
  5
FCF34
331
FDAF9
  5
FDAF9
331
FD474
  5
FD6E5
331
FD6E4
  5
FD473
331
FCF30
  5
FCF30
331
FCF39
  5
FCF39
331
FD470
  5
FD6E1
331
FCF16
  5
FCF16
331
FD944
  5
FD2C6
331
FD6E0
  5
FD2BF
331
FCF2E
  5
FCF2E
331
FDA94
  5
FDA94
331
FCF12
  5
FCF12
331
FCF26
  5
FCF26
331
FCF22
  5
FCF22
331
FD46E
  5
FD6DF
331
FDAA4
  5
FDAA4
331
FCF2A
  5
FCF2A
331
FDA90
  5
FDA90
331
FCF0E
  5
FCF0E
331
FCF1E
  5
FCF1E
331
FDAA0
  5
FDAA0
331
FCF0A
  5
FCF0A
331
FD46A
  5
FD475
331
FD2C5
  5
FD468
331
FDA9C
  5
FDA9C
331
FCF1A
  5
FCF1A
331
FD2C1
  5
FD2C5
331
FD2C8
  5
FD46C
331
FCF35
  5
FCF35
331
FDA98
  5
FDA98
331
FD475
  5
FD7FA
331
FCF07
  5
FCF07
331
FD6E5
  5
FD474
331
FCF31
  5
FCF31
331
FCF3A
  5
FCF3A
331
FD471
  5
FD6E2
331
FCF17
  5
FCF17
331
FD6E1
  5
FD2C0
331
FCF2F
  5
FCF2F
331
FDA95
  5
FDA95
331
FCF13
  5
FCF13
331
FCF27
  5
FCF27
331
FCF23
  5
FCF23
331
FD46F
  5
FD6E0
331
FDAA5
  5
FDAA5
331
FCF2B
  5
FCF2B
331
FDA91
  5
FDA91
331
FCF0F
  5
FCF0F
331
FDA8D
  5
FDA8D
331
FCF0B
  5
FCF0B
331
FCF1F
  5
FCF1F
331
FD2C6
  5
FD469
331
FDAA1
  5
FDAA1
331
FD2BF
  5
FD2C3
331
FDA9D
  5
FDA9D
331
FCF1B
  5
FCF1B
331
FD2C2
  5
FD2C8
331
FD2C9
  5
FD46E
331
FCF36
  5
FCF36
331
FDA99
  5
FDA99
331
FD476
  5
FD84D
331
FCF32
  5
FCF32
331
FCF3B
  5
FCF3B
331
FD472
  5
FD6E3
331
FD6E2
  5
FD471
331
FDA96
  5
FDA96
331
FCF14
  5
FCF14
331
FD6DE
  5
FD2BD
331
FCF24
  5
FCF24
331
FDAA6
  5
FDAA6
331
FCF2C
  5
FCF2C
331
FDA92
  5
FDA92
331
FCF10
  5
FCF10
331
FDA8E
  5
FDA8E
331
FCF0C
  5
FCF0C
331
FD7FA
  5
FD46F
331
FCF20
  5
FCF20
331
FD46C
  5
FD477
331
FD2C7
  5
FD46A
331
FDAA2
  5
FDAA2
331
FCF28
  5
FCF28
331
FDA9E
  5
FDA9E
331
FCF1C
  5
FCF1C
331
FCF08
  5
FCF08
331
FD2C3
  5
FD2C9
331
FD468
  5
FD470
331
FCF18
  5
FCF18
331
FCF37
  5
FCF37
331
FDA9A
  5
FDA9A
331
FD477
  5
FD8A0
331
FCF33
  5
FCF33
331
FD473
  5
FD6E4
331
FD6E3
  5
FD472
331
FCF38
  5
FCF38
331
FDA97
  5
FDA97
331
FCF15
  5
FCF15
331
FD943
  5
FD2C7
331
FD6DF
  5
FD2BE
331
FCF2D
  5
FCF2D
331
FDA93
  5
FDA93
331
FCF11
  5
FCF11
331
FCF25
  5
FCF25
331
FDA8F
  5
FDA8F
331
FCF0D
  5
FCF0D
331
FCF21
  5
FCF21
331
FD46D
  5
FD6DE
331
FDAA3
  5
FDAA3
331
FCF29
  5
FCF29
331
FDA9F
  5
FDA9F
331
FCF1D
  5
FCF1D
331
FCF09
  5
FCF09
331
FD2C4
  5
FD467
331
FD2BD
  5
FD2C1
331
FDA9B
  5
FDA9B
331
FCF19
  5
FCF19
  0
XRECORD
  5
FE875
102
{ACAD_REACTORS
330
FD1C2
102
}
330
FD1C2
100
AcDbXrecord
280
     1
 40
2387.0
  1
\U+220517
  0
XRECORD
  5
FE876
102
{ACAD_REACTORS
330
FE604
102
}
330
FE604
100
AcDbXrecord
280
     1
 40
2387.0
  1
\U+220517
  0
XRECORD
  5
FE877
102
{ACAD_REACTORS
330
FE606
102
}
330
FE606
100
AcDbXrecord
280
     1
 40
2387.0
  1
\U+220517
  0
XRECORD
  5
FE878
102
{ACAD_REACTORS
330
FE608
102
}
330
FE608
100
AcDbXrecord
280
     1
 40
2387.0
  1
\U+220517
  0
XRECORD
  5
FE879
102
{ACAD_REACTORS
330
FE60A
102
}
330
FE60A
100
AcDbXrecord
280
     1
 40
2387.0
  1
\U+220517
  0
XRECORD
  5
FE87A
102
{ACAD_REACTORS
330
FE60C
102
}
330
FE60C
100
AcDbXrecord
280
     1
 40
2387.0
  1
\U+220517
  0
XRECORD
  5
FD0D8
102
{ACAD_REACTORS
330
FD0D7
102
}
330
FD0D7
100
AcDbXrecord
280
     1
 90
        1
340
FD04A
  0
ACDBDETAILVIEWSTYLE
  5
FD060
102
{ACAD_XDICTIONARY
360
FE873
102
}
102
{ACAD_REACTORS
330
FD05F
330
FE82C
102
}
330
FD05F
100
AcDbModelDocViewStyle
 70
     0
  3
Metric50
290
     0
100
AcDbDetailViewStyle
 70
     0
 71
     0
 90
        3
 71
     1
340
11
 62
   256
 40
5.0
340
0
 62
   256
 40
5.0
300

 40
0.0
280
     1
 71
     2
340
16
 90
       25
 62
   256
 71
     3
340
11
 62
   256
 40
5.0
 90
        0
 40
15.0
 90
        1
300
%<\AcVar ViewDetailId>% (%<\AcVar ViewScale \f "%sn">%)
 71
     4
340
16
 90
       25
 62
   256
340
16
 90
       25
 62
   256
280
     0
  0
LAYOUT
  5
22
102
{ACAD_REACTORS
330
1A
102
}
330
1A
100
AcDbPlotSettings
  1

  2
FUJITSU FAX Print Driver
  4
User261
  6

 40
3.174999952316281
 41
3.174999952316281
 42
3.17498779296875
 43
3.17498779296875
 44
297.0244750976562
 45
419.8775329589842
 46
0.0
 47
0.0
 48
0.0
 49
0.0
140
0.0
141
0.0
142
1.0
143
1.197207273994177
 70
 11952
 72
     1
 73
     1
 74
     0
  7
monochrome.ctb
 75
     0
147
0.8352772504160906
 76
     0
 77
     2
 78
   300
148
-6.027674911478015
149
-7.671586470139232
100
AcDbLayout
  1
Model
 70
     1
 71
     0
 10
0.0
 20
0.0
 11
12.0
 21
9.0
 12
0.0
 22
0.0
 32
0.0
 14
0.0
 24
0.0
 34
0.0
 15
0.0
 25
0.0
 35
0.0
146
0.0
 13
0.0
 23
0.0
 33
0.0
 16
1.0
 26
0.0
 36
0.0
 17
0.0
 27
1.0
 37
0.0
 76
     0
330
1F
331
FD014
  0
LAYOUT
  5
FD0CE
102
{ACAD_REACTORS
330
1A
102
}
330
1A
100
AcDbPlotSettings
  1

  2
RICOH imagio MP C5001 RPCS
  4
A4
  6

 40
5.873749732971191
 41
5.873748779296875
 42
5.873733520507812
 43
5.873748779296875
 44
209.9733276367186
 45
296.9259948730469
 46
0.0
 47
0.0
 48
0.0
 49
0.0
140
0.0
141
0.0
142
1.0
143
1.0
 70
   688
 72
     1
 73
     1
 74
     5
  7

 75
    16
147
1.0
 76
     0
 77
     2
 78
   300
148
0.0
149
0.0
100
AcDbLayout
  1
レイアウト1
 70
     1
 71
     1
 10
-5.873748779296875
 20
-5.873749732971191
 11
291.05224609375
 21
204.0995779037475
 12
0.0
 22
0.0
 32
0.0
 14
1.000000000000000E+20
 24
1.000000000000000E+20
 34
1.000000000000000E+20
 15
-1.000000000000000E+20
 25
-1.000000000000000E+20
 35
-1.000000000000000E+20
146
0.0
 13
0.0
 23
0.0
 33
0.0
 16
1.0
 26
0.0
 36
0.0
 17
0.0
 27
1.0
 37
0.0
 76
     0
330
FD0CD
331
FD0D6
1001
ACAD_PSEXT
1000
RICOH imagio MP C5001 RPCS
1000
RICOH imagio MP C5001 RPCS
1000
IP_192.168.13.100
1000
RPCS Driver (For Windows)
1070
     0
  0
MATERIAL
  5
FD01E
102
{ACAD_XDICTIONARY
360
FD01F
102
}
102
{ACAD_REACTORS
330
8711
102
}
330
8711
100
AcDbMaterial
  1
ByBlock
 72
     0
 43
0.0008202099737533
 43
0.0
 43
0.0
 43
0.0
 43
0.0
 43
0.0008202099737533
 43
0.0
 43
0.0
 43
0.0
 43
0.0
 43
1.0
 43
0.0
 43
0.0
 43
0.0
 43
0.0
 43
1.0
 77
     0
 47
0.0008202099737533
 47
0.0
 47
0.0
 47
0.0
 47
0.0
 47
0.0008202099737533
 47
0.0
 47
0.0
 47
0.0
 47
0.0
 47
1.0
 47
0.0
 47
0.0
 47
0.0
 47
0.0
 47
1.0
171
     0
 49
0.0008202099737533
 49
0.0
 49
0.0
 49
0.0
 49
0.0
 49
0.0008202099737533
 49
0.0
 49
0.0
 49
0.0
 49
0.0
 49
1.0
 49
0.0
 49
0.0
 49
0.0
 49
0.0
 49
1.0
175
     0
142
0.0008202099737533
142
0.0
142
0.0
142
0.0
142
0.0
142
0.0008202099737533
142
0.0
142
0.0
142
0.0
142
0.0
142
1.0
142
0.0
142
0.0
142
0.0
142
0.0
142
1.0
179
     0
144
0.0008202099737533
144
0.0
144
0.0
144
0.0
144
0.0
144
0.0008202099737533
144
0.0
144
0.0
144
0.0
144
0.0
144
1.0
144
0.0
144
0.0
144
0.0
144
0.0
144
1.0
147
0.0008202099737533
147
0.0
147
0.0
147
0.0
147
0.0
147
0.0008202099737533
147
0.0
147
0.0
147
0.0
147
0.0
147
1.0
147
0.0
147
0.0
147
0.0
147
0.0
147
1.0
  0
MATERIAL
  5
FD016
102
{ACAD_XDICTIONARY
360
FD017
102
}
102
{ACAD_REACTORS
330
8711
102
}
330
8711
100
AcDbMaterial
  1
ByLayer
 72
     0
 43
0.0008202099737533
 43
0.0
 43
0.0
 43
0.0
 43
0.0
 43
0.0008202099737533
 43
0.0
 43
0.0
 43
0.0
 43
0.0
 43
1.0
 43
0.0
 43
0.0
 43
0.0
 43
0.0
 43
1.0
 77
     0
 47
0.0008202099737533
 47
0.0
 47
0.0
 47
0.0
 47
0.0
 47
0.0008202099737533
 47
0.0
 47
0.0
 47
0.0
 47
0.0
 47
1.0
 47
0.0
 47
0.0
 47
0.0
 47
0.0
 47
1.0
171
     0
 49
0.0008202099737533
 49
0.0
 49
0.0
 49
0.0
 49
0.0
 49
0.0008202099737533
 49
0.0
 49
0.0
 49
0.0
 49
0.0
 49
1.0
 49
0.0
 49
0.0
 49
0.0
 49
0.0
 49
1.0
175
     0
142
0.0008202099737533
142
0.0
142
0.0
142
0.0
142
0.0
142
0.0008202099737533
142
0.0
142
0.0
142
0.0
142
0.0
142
1.0
142
0.0
142
0.0
142
0.0
142
0.0
142
1.0
179
     0
144
0.0008202099737533
144
0.0
144
0.0
144
0.0
144
0.0
144
0.0008202099737533
144
0.0
144
0.0
144
0.0
144
0.0
144
1.0
144
0.0
144
0.0
144
0.0
144
0.0
144
1.0
147
0.0008202099737533
147
0.0
147
0.0
147
0.0
147
0.0
147
0.0008202099737533
147
0.0
147
0.0
147
0.0
147
0.0
147
1.0
147
0.0
147
0.0
147
0.0
147
0.0
147
1.0
  0
MATERIAL
  5
FD026
102
{ACAD_XDICTIONARY
360
FD027
102
}
102
{ACAD_REACTORS
330
8711
102
}
330
8711
100
AcDbMaterial
  1
Global
 72
     0
 43
0.0008202099737533
 43
0.0
 43
0.0
 43
0.0
 43
0.0
 43
0.0008202099737533
 43
0.0
 43
0.0
 43
0.0
 43
0.0
 43
1.0
 43
0.0
 43
0.0
 43
0.0
 43
0.0
 43
1.0
 77
     0
 47
0.0008202099737533
 47
0.0
 47
0.0
 47
0.0
 47
0.0
 47
0.0008202099737533
 47
0.0
 47
0.0
 47
0.0
 47
0.0
 47
1.0
 47
0.0
 47
0.0
 47
0.0
 47
0.0
 47
1.0
171
     0
 49
0.0008202099737533
 49
0.0
 49
0.0
 49
0.0
 49
0.0
 49
0.0008202099737533
 49
0.0
 49
0.0
 49
0.0
 49
0.0
 49
1.0
 49
0.0
 49
0.0
 49
0.0
 49
0.0
 49
1.0
175
     0
142
0.0008202099737533
142
0.0
142
0.0
142
0.0
142
0.0
142
0.0008202099737533
142
0.0
142
0.0
142
0.0
142
0.0
142
1.0
142
0.0
142
0.0
142
0.0
142
0.0
142
1.0
179
     0
144
0.0008202099737533
144
0.0
144
0.0
144
0.0
144
0.0
144
0.0008202099737533
144
0.0
144
0.0
144
0.0
144
0.0
144
1.0
144
0.0
144
0.0
144
0.0
144
0.0
144
1.0
147
0.0008202099737533
147
0.0
147
0.0
147
0.0
147
0.0
147
0.0008202099737533
147
0.0
147
0.0
147
0.0
147
0.0
147
1.0
147
0.0
147
0.0
147
0.0
147
0.0
147
1.0
  0
MLEADERSTYLE
  5
FD05C
102
{ACAD_XDICTIONARY
360
FE86F
102
}
102
{ACAD_REACTORS
330
FD05B
102
}
330
FD05B
100
AcDbMLeaderStyle
170
     2
171
     1
172
     0
 90
        2
 40
0.0
 41
0.0
173
     1
 91
-1056964608
340
14
 92
       -2
290
     1
 42
2.0
291
     1
 43
0.36
  3
Standard
 44
4.0
300

342
11
174
     1
178
     6
175
     1
176
     0
 93
-1056964608
 45
4.0
292
     0
297
     0
 46
4.0
 94
-1056964608
 47
1.0
 49
1.0
140
1.0
293
     1
141
0.0
294
     1
177
     0
142
1.0
295
     0
296
     0
143
0.125
1001
ACAD_MLEADERVER
1070
     2
  0
MLINESTYLE
  5
18
102
{ACAD_REACTORS
330
17
102
}
330
17
100
AcDbMlineStyle
  2
STANDARD
 70
     0
  3

 62
   256
 51
90.0
 52
90.0
 71
     2
 49
0.5
 62
   256
  6
BYLAYER
 49
-0.5
 62
   256
  6
BYLAYER
  0
ACDBPLACEHOLDER
  5
F
102
{ACAD_REACTORS
330
E
102
}
330
E
  0
SCALE
  5
FD04A
102
{ACAD_REACTORS
330
FD049
102
}
330
FD049
100
AcDbScale
 70
     0
300
1:1
140
1.0
141
1.0
290
     1
  0
SCALE
  5
FD04B
102
{ACAD_REACTORS
330
FD049
102
}
330
FD049
100
AcDbScale
 70
     0
300
1:2
140
1.0
141
2.0
290
     0
  0
SCALE
  5
FD04C
102
{ACAD_REACTORS
330
FD049
102
}
330
FD049
100
AcDbScale
 70
     0
300
1:4
140
1.0
141
4.0
290
     0
  0
SCALE
  5
FD04D
102
{ACAD_REACTORS
330
FD049
102
}
330
FD049
100
AcDbScale
 70
     0
300
1:5
140
1.0
141
5.0
290
     0
  0
SCALE
  5
FD04E
102
{ACAD_REACTORS
330
FD049
102
}
330
FD049
100
AcDbScale
 70
     0
300
1:8
140
1.0
141
8.0
290
     0
  0
SCALE
  5
FD04F
102
{ACAD_REACTORS
330
FD049
102
}
330
FD049
100
AcDbScale
 70
     0
300
1:10
140
1.0
141
10.0
290
     0
  0
SCALE
  5
FD050
102
{ACAD_REACTORS
330
FD049
102
}
330
FD049
100
AcDbScale
 70
     0
300
1:16
140
1.0
141
16.0
290
     0
  0
SCALE
  5
FD051
102
{ACAD_REACTORS
330
FD049
102
}
330
FD049
100
AcDbScale
 70
     0
300
1:20
140
1.0
141
20.0
290
     0
  0
SCALE
  5
FD052
102
{ACAD_REACTORS
330
FD049
102
}
330
FD049
100
AcDbScale
 70
     0
300
1:30
140
1.0
141
30.0
290
     0
  0
SCALE
  5
FD053
102
{ACAD_REACTORS
330
FD049
102
}
330
FD049
100
AcDbScale
 70
     0
300
1:40
140
1.0
141
40.0
290
     0
  0
SCALE
  5
FD054
102
{ACAD_REACTORS
330
FD049
102
}
330
FD049
100
AcDbScale
 70
     0
300
1:50
140
1.0
141
50.0
290
     0
  0
SCALE
  5
FD055
102
{ACAD_REACTORS
330
FD049
102
}
330
FD049
100
AcDbScale
 70
     0
300
1:100
140
1.0
141
100.0
290
     0
  0
SCALE
  5
FD056
102
{ACAD_REACTORS
330
FD049
102
}
330
FD049
100
AcDbScale
 70
     0
300
2:1
140
2.0
141
1.0
290
     0
  0
SCALE
  5
FD057
102
{ACAD_REACTORS
330
FD049
102
}
330
FD049
100
AcDbScale
 70
     0
300
4:1
140
4.0
141
1.0
290
     0
  0
SCALE
  5
FD058
102
{ACAD_REACTORS
330
FD049
102
}
330
FD049
100
AcDbScale
 70
     0
300
8:1
140
8.0
141
1.0
290
     0
  0
SCALE
  5
FD059
102
{ACAD_REACTORS
330
FD049
102
}
330
FD049
100
AcDbScale
 70
     0
300
10:1
140
10.0
141
1.0
290
     0
  0
SCALE
  5
FD05A
102
{ACAD_REACTORS
330
FD049
102
}
330
FD049
100
AcDbScale
 70
     0
300
100:1
140
100.0
141
1.0
290
     0
  0
ACDBSECTIONVIEWSTYLE
  5
FD05E
102
{ACAD_XDICTIONARY
360
FE871
102
}
102
{ACAD_REACTORS
330
FD05D
330
FE82B
102
}
330
FD05D
100
AcDbModelDocViewStyle
 70
     0
  3
Metric50
290
     0
100
AcDbSectionViewStyle
 70
     0
 71
     0
 90
      102
 71
     1
340
11
 62
   256
 40
5.0
340
0
340
0
 62
   256
 40
5.0
300
I, O, Q, S, X, Z
 40
10.0
 90
        0
 40
2.5
 90
        0
 71
     2
340
16
 90
       25
 62
   256
340
16
 90
       50
 62
   256
 40
5.0
 40
2.5
 40
5.0
 71
     3
340
11
 62
   256
 40
5.0
 90
        0
 40
15.0
 90
        1
300
%<\AcVar ViewSectionStartId>%-%<\AcVar ViewSectionEndId>% (%<\AcVar ViewScale \f "%sn">%)
 71
     4
 62
   256
 62
   257
300
ANSI31
 40
1.0
 90
        0
290
     0
290
     0
 90
        6
 40
0.0
 40
1.570796326794896
 40
0.2617993877991494
 40
1.308996938995747
 40
-0.2617993877991494
 40
1.832595714594044
  0
TABLESTYLE
  5
FD048
102
{ACAD_XDICTIONARY
360
FD16E
102
}
102
{ACAD_REACTORS
330
FD047
102
}
330
FD047
100
AcDbTableStyle
  3
Standard
 70
     0
 71
     0
 40
1.5
 41
1.5
280
     0
281
     0
  7
STANDARD
140
4.5
170
     2
 62
     0
 63
     7
283
     0
274
    -2
284
     1
 64
     0
275
    -2
285
     1
 65
     0
276
    -2
286
     1
 66
     0
277
    -2
287
     1
 67
     0
278
    -2
288
     1
 68
     0
279
    -2
289
     1
 69
     0
  7
STANDARD
140
6.0
170
     5
 62
     0
 63
     7
283
     0
274
    -2
284
     1
 64
     0
275
    -2
285
     1
 65
     0
276
    -2
286
     1
 66
     0
277
    -2
287
     1
 67
     0
278
    -2
288
     1
 68
     0
279
    -2
289
     1
 69
     0
  7
STANDARD
140
4.5
170
     5
 62
     0
 63
     7
283
     0
274
    -2
284
     1
 64
     0
275
    -2
285
     1
 65
     0
276
    -2
286
     1
 66
     0
277
    -2
287
     1
 67
     0
278
    -2
288
     1
 68
     0
279
    -2
289
     1
 69
     0
  0
VISUALSTYLE
  5
FD034
102
{ACAD_XDICTIONARY
360
FE848
102
}
102
{ACAD_REACTORS
330
FD02E
102
}
330
FD02E
100
AcDbVisualStyle
  2

 70
     4
 71
     0
 72
     2
 73
     0
 90
        0
 40
-0.6
 41
-30.0
 62
     5
 63
     7
 74
     1
 91
        4
 64
     7
 65
   257
 75
     1
175
     1
 42
1.0
 92
        0
 66
   257
 43
1.0
 76
     1
 77
     6
 78
     2
 67
     7
 79
     5
170
     0
171
     0
290
     0
174
     0
 93
        1
 44
0.0
173
     0
291
     0
 45
0.0
1001
ACAD
1000
AcDbSavedByObjectVersion
1070
     0
  0
VISUALSTYLE
  5
FD033
102
{ACAD_XDICTIONARY
360
FE846
102
}
102
{ACAD_REACTORS
330
FD02E
102
}
330
FD02E
100
AcDbVisualStyle
  2

 70
     7
 71
     1
 72
     0
 73
     1
 90
        0
 40
-0.6
 41
-30.0
 62
     5
 63
     7
 74
     0
 91
        4
 64
     7
 65
   257
 75
     1
175
     1
 42
1.0
 92
        8
 66
     7
 43
1.0
 76
     1
 77
     6
 78
     2
 67
     7
 79
     5
170
     0
171
     0
290
     0
174
     0
 93
        1
 44
0.0
173
     0
291
     1
 45
0.0
1001
ACAD
1000
AcDbSavedByObjectVersion
1070
     0
  0
VISUALSTYLE
  5
FD03A
102
{ACAD_XDICTIONARY
360
FE854
102
}
102
{ACAD_REACTORS
330
FD02E
102
}
330
FD02E
100
AcDbVisualStyle
  2

 70
    12
 71
     2
 72
     2
 73
     0
 90
        0
 40
-0.6
 41
-30.0
 62
     5
 63
     7
 74
     1
 91
        4
 64
     7
 65
   257
 75
     1
175
     1
 42
1.0
 92
        8
 66
     7
 43
1.0
 76
     1
 77
     6
 78
     2
 67
     7
 79
     5
170
     0
171
     0
290
     0
174
     0
 93
        1
 44
50.0
173
     0
291
     1
 45
0.0
1001
ACAD
1000
AcDbSavedByObjectVersion
1070
     0
  0
VISUALSTYLE
  5
FD03E
102
{ACAD_XDICTIONARY
360
FE85C
102
}
102
{ACAD_REACTORS
330
FD02E
102
}
330
FD02E
100
AcDbVisualStyle
  2

 70
    16
 71
     2
 72
     2
 73
     3
 90
        0
 40
-0.6
 41
-30.0
 62
     5
 63
     8
 74
     1
 91
        4
 64
     7
 65
   257
 75
     1
175
     1
 42
1.0
 92
        8
 66
     8
 43
1.0
 76
     1
 77
     6
 78
     2
 67
     7
 79
     5
170
     0
171
     0
290
     0
174
     0
 93
        1
 44
0.0
173
     0
291
     1
 45
0.0
1001
ACAD
1000
AcDbSavedByObjectVersion
1070
     0
  0
VISUALSTYLE
  5
FD037
102
{ACAD_XDICTIONARY
360
FE84E
102
}
102
{ACAD_REACTORS
330
FD02E
102
}
330
FD02E
100
AcDbVisualStyle
  2

 70
     9
 71
     3
 72
     2
 73
     0
 90
        0
 40
-0.6
 41
-30.0
 62
     5
 63
     7
 74
     2
 91
        2
 64
     7
 65
   257
 75
     1
175
     1
 42
179.0
 92
        8
 66
     7
 43
1.0
 76
     1
 77
     6
 78
     2
 67
     7
 79
     3
170
     0
171
     0
290
     0
174
     0
 93
        1
 44
0.0
173
     0
291
     0
 45
0.0
1001
ACAD
1000
AcDbSavedByObjectVersion
1070
     0
  0
VISUALSTYLE
  5
FD039
102
{ACAD_XDICTIONARY
360
FE852
102
}
102
{ACAD_REACTORS
330
FD02E
102
}
330
FD02E
100
AcDbVisualStyle
  2

 70
    11
 71
     2
 72
     2
 73
     0
 90
        0
 40
-0.6
 41
-30.0
 62
     5
 63
     7
 74
     1
 91
        4
 64
     7
 65
   257
 75
     1
175
     1
 42
1.0
 92
        8
 66
     7
 43
1.0
 76
     1
 77
     6
 78
     2
 67
     7
 79
     5
170
     0
171
     0
290
     0
174
     0
 93
        1
 44
-50.0
173
     0
291
     1
 45
0.0
1001
ACAD
1000
AcDbSavedByObjectVersion
1070
     0
  0
VISUALSTYLE
  5
FD046
102
{ACAD_XDICTIONARY
360
FE86C
102
}
102
{ACAD_REACTORS
330
FD02E
102
}
330
FD02E
100
AcDbVisualStyle
  2

 70
    22
 71
     2
 72
     2
 73
     0
 90
        0
 40
-0.6
 41
-30.0
 62
     5
 63
     7
 74
     1
 91
        4
 64
     7
 65
   257
 75
     1
175
     1
 42
1.0
 92
        8
 66
     7
 43
1.0
 76
     1
 77
     6
 78
     2
 67
     7
 79
     5
170
     0
171
     0
290
     0
174
     0
 93
        1
 44
0.0
173
     0
291
     1
 45
0.0
1001
ACAD
1000
AcDbSavedByObjectVersion
1070
     0
  0
VISUALSTYLE
  5
FD03D
102
{ACAD_XDICTIONARY
360
FE85A
102
}
102
{ACAD_REACTORS
330
FD02E
102
}
330
FD02E
100
AcDbVisualStyle
  2

 70
    15
 71
     2
 72
     2
 73
     0
 90
        0
 40
-0.6
 41
-30.0
 62
     5
 63
     7
 74
     1
 91
        4
 64
     7
 65
   257
 75
     1
175
     1
 42
1.0
 92
        8
 66
     7
 43
1.0
 76
     1
 77
     6
 78
     2
 67
     7
 79
     5
170
     0
171
     0
290
     0
174
     0
 93
        1
 44
0.0
173
     0
291
     1
 45
0.0
1001
ACAD
1000
AcDbSavedByObjectVersion
1070
     0
  0
VISUALSTYLE
  5
FD02F
102
{ACAD_XDICTIONARY
360
FE83E
102
}
102
{ACAD_REACTORS
330
FD02E
102
}
330
FD02E
100
AcDbVisualStyle
  2

 70
     0
 71
     2
 72
     1
 73
     1
 90
        2
 40
-0.6
 41
30.0
 62
     5
 63
     7
 74
     0
 91
        0
 64
     7
 65
   257
 75
     1
175
     1
 42
1.0
 92
        8
 66
     7
 43
1.0
 76
     1
 77
     6
 78
     2
 67
     7
 79
     5
170
     0
171
     0
290
     0
174
     0
 93
       13
 44
0.0
173
     0
291
     1
 45
0.0
1001
ACAD
1000
AcDbSavedByObjectVersion
1070
     0
  0
VISUALSTYLE
  5
FD030
102
{ACAD_XDICTIONARY
360
FE840
102
}
102
{ACAD_REACTORS
330
FD02E
102
}
330
FD02E
100
AcDbVisualStyle
  2

 70
     1
 71
     2
 72
     1
 73
     1
 90
        2
 40
-0.6
 41
30.0
 62
     5
 63
     7
 74
     1
 91
        0
 64
     7
 65
   257
 75
     1
175
     1
 42
1.0
 92
        0
 66
   257
 43
1.0
 76
     1
 77
     6
 78
     2
 67
     7
 79
     5
170
     0
171
     0
290
     0
174
     0
 93
       13
 44
0.0
173
     0
291
     1
 45
0.0
1001
ACAD
1000
AcDbSavedByObjectVersion
1070
     0
  0
VISUALSTYLE
  5
FD031
102
{ACAD_XDICTIONARY
360
FE842
102
}
102
{ACAD_REACTORS
330
FD02E
102
}
330
FD02E
100
AcDbVisualStyle
  2

 70
     2
 71
     2
 72
     2
 73
     1
 90
        2
 40
-0.6
 41
30.0
 62
     5
 63
     7
 74
     0
 91
        0
 64
     7
 65
   257
 75
     1
175
     1
 42
1.0
 92
        0
 66
     7
 43
1.0
 76
     1
 77
     6
 78
     2
 67
     7
 79
     5
170
     0
171
     0
290
     0
174
     0
 93
       13
 44
0.0
173
     0
291
     1
 45
0.0
1001
ACAD
1000
AcDbSavedByObjectVersion
1070
     0
  0
VISUALSTYLE
  5
FD032
102
{ACAD_XDICTIONARY
360
FE844
102
}
102
{ACAD_REACTORS
330
FD02E
102
}
330
FD02E
100
AcDbVisualStyle
  2

 70
     3
 71
     2
 72
     2
 73
     1
 90
        2
 40
-0.6
 41
30.0
 62
     5
 63
     7
 74
     1
 91
        0
 64
     7
 65
   257
 75
     1
175
     1
 42
1.0
 92
        0
 66
   257
 43
1.0
 76
     1
 77
     6
 78
     2
 67
     7
 79
     5
170
     0
171
     0
290
     0
174
     0
 93
       13
 44
0.0
173
     0
291
     1
 45
0.0
1001
ACAD
1000
AcDbSavedByObjectVersion
1070
     0
  0
VISUALSTYLE
  5
FD036
102
{ACAD_XDICTIONARY
360
FE84C
102
}
102
{ACAD_REACTORS
330
FD02E
102
}
330
FD02E
100
AcDbVisualStyle
  2

 70
     6
 71
     1
 72
     2
 73
     2
 90
        0
 40
-0.6
 41
-30.0
 62
     5
 63
     7
 74
     2
 91
        2
 64
     7
 65
   257
 75
     2
175
     1
 42
40.0
 92
        0
 66
   257
 43
1.0
 76
     1
 77
     6
 78
     2
 67
     7
 79
     3
170
     0
171
     0
290
     0
174
     0
 93
        1
 44
0.0
173
     0
291
     0
 45
0.0
1001
ACAD
1000
AcDbSavedByObjectVersion
1070
     0
  0
VISUALSTYLE
  5
FD044
102
{ACAD_XDICTIONARY
360
FE868
102
}
102
{ACAD_REACTORS
330
FD02E
102
}
330
FD02E
100
AcDbVisualStyle
  2

 70
    20
 71
     2
 72
     2
 73
     0
 90
        0
 40
-0.6
 41
-30.0
 62
     5
 63
     7
 74
     1
 91
        4
 64
     7
 65
   257
 75
     1
175
     1
 42
1.0
 92
       10
 66
     7
 43
1.0
 76
     1
 77
     6
 78
     2
 67
     7
 79
     5
170
     0
171
     0
290
     0
174
     0
 93
        1
 44
0.0
173
     0
291
     1
 45
0.0
1001
ACAD
1000
AcDbSavedByObjectVersion
1070
     0
  0
VISUALSTYLE
  5
FD03C
102
{ACAD_XDICTIONARY
360
FE858
102
}
102
{ACAD_REACTORS
330
FD02E
102
}
330
FD02E
100
AcDbVisualStyle
  2

 70
    14
 71
     2
 72
     2
 73
     0
 90
        0
 40
-0.6
 41
-30.0
 62
     5
 63
     7
 74
     1
 91
        4
 64
     7
 65
   257
 75
     7
175
     7
 42
1.0
 92
        8
 66
     7
 43
1.0
 76
     1
 77
     6
 78
     2
 67
     7
 79
     5
170
     0
171
     0
290
     0
174
     0
 93
        1
 44
0.0
173
     0
291
     1
 45
0.0
1001
ACAD
1000
AcDbSavedByObjectVersion
1070
     0
  0
VISUALSTYLE
  5
FD045
102
{ACAD_XDICTIONARY
360
FE86A
102
}
102
{ACAD_REACTORS
330
FD02E
102
}
330
FD02E
100
AcDbVisualStyle
  2

 70
    21
 71
     2
 72
     2
 73
     0
 90
        0
 40
-0.6
 41
-30.0
 62
     5
 63
     7
 74
     1
 91
        4
 64
     7
 65
   257
 75
     1
175
     1
 42
1.0
 92
        9
 66
     7
 43
1.0
 76
     1
 77
     6
 78
     2
 67
     7
 79
     5
170
     0
171
     0
290
     0
174
     0
 93
        1
 44
0.0
173
     0
291
     1
 45
0.0
1001
ACAD
1000
AcDbSavedByObjectVersion
1070
     0
  0
VISUALSTYLE
  5
FD038
102
{ACAD_XDICTIONARY
360
FE850
102
}
102
{ACAD_REACTORS
330
FD02E
102
}
330
FD02E
100
AcDbVisualStyle
  2

 70
     8
 71
     2
 72
     3
 73
     0
 90
        2
 40
-0.6
 41
30.0
 62
     5
 63
     7
 74
     0
 91
        0
 64
     7
 65
   257
 75
     1
175
     1
 42
1.0
 92
        8
 66
   257
 43
1.0
 76
     1
 77
     6
 78
     2
 67
     7
 79
     3
170
     0
171
     0
290
     0
174
     0
 93
       13
 44
0.0
173
     0
291
     0
 45
0.0
1001
ACAD
1000
AcDbSavedByObjectVersion
1070
     0
  0
VISUALSTYLE
  5
FD043
102
{ACAD_XDICTIONARY
360
FE866
102
}
102
{ACAD_REACTORS
330
FD02E
102
}
330
FD02E
100
AcDbVisualStyle
  2

 70
    27
 71
     2
 72
     2
 73
     1
 90
        2
 40
-0.6
 41
30.0
 62
     5
 63
     7
 74
     0
 91
        4
 64
     7
 65
   257
 75
     1
175
     1
 42
1.0
 92
        8
 66
   257
 43
1.0
 76
     1
 77
     6
 78
     2
 67
     8
 79
     3
170
     0
171
     0
290
     0
174
     0
 93
        5
 44
0.0
173
     0
291
     0
 45
0.0
1001
ACAD
1000
AcDbSavedByObjectVersion
1070
     0
  0
VISUALSTYLE
  5
FD042
102
{ACAD_XDICTIONARY
360
FE864
102
}
102
{ACAD_REACTORS
330
FD02E
102
}
330
FD02E
100
AcDbVisualStyle
  2

 70
    26
 71
     2
 72
     2
 73
     1
 90
        2
 40
-0.6
 41
30.0
 62
     5
 63
     7
 74
     1
 91
       10
 64
     7
 65
   257
 75
     2
175
     1
 42
1.0
 92
        8
 66
   257
 43
1.0
 76
     1
 77
     6
 78
     2
 67
     7
 79
     3
170
     0
171
     0
290
     0
174
     0
 93
        5
 44
0.0
173
     0
291
     0
 45
0.0
1001
ACAD
1000
AcDbSavedByObjectVersion
1070
     0
  0
VISUALSTYLE
  5
FD03F
102
{ACAD_XDICTIONARY
360
FE85E
102
}
102
{ACAD_REACTORS
330
FD02E
102
}
330
FD02E
100
AcDbVisualStyle
  2

 70
    23
 71
     2
 72
     2
 73
     3
 90
        0
 40
-0.6
 41
-30.0
 62
     5
 63
     7
 74
     2
 91
        2
 64
     7
 65
     7
 75
     1
175
     1
 42
40.0
 92
        8
 66
     7
 43
1.0
 76
     1
 77
     6
 78
     2
 67
     7
 79
     3
170
     0
171
     0
290
     0
174
     0
 93
        1
 44
0.0
173
     0
291
     0
 45
0.0
1001
ACAD
1000
AcDbSavedByObjectVersion
1070
     0
  0
VISUALSTYLE
  5
FD040
102
{ACAD_XDICTIONARY
360
FE860
102
}
102
{ACAD_REACTORS
330
FD02E
102
}
330
FD02E
100
AcDbVisualStyle
  2

 70
    24
 71
     1
 72
     2
 73
     2
 90
        0
 40
-0.6
 41
-30.0
 62
     5
 63
     7
 74
     2
 91
        2
 64
     7
 65
     7
 75
     1
175
     1
 42
40.0
 92
       11
 66
     7
 43
1.0
 76
     1
 77
     6
 78
     2
 67
     7
 79
     6
170
     0
171
     0
290
     0
174
     0
 93
        1
 44
0.0
173
     0
291
     0
 45
0.0
1001
ACAD
1000
AcDbSavedByObjectVersion
1070
     0
  0
VISUALSTYLE
  5
FD03B
102
{ACAD_XDICTIONARY
360
FE856
102
}
102
{ACAD_REACTORS
330
FD02E
102
}
330
FD02E
100
AcDbVisualStyle
  2

 70
    13
 71
     2
 72
     2
 73
     0
 90
        0
 40
-0.6
 41
-30.0
 62
     5
 63
     7
 74
     1
 91
        4
 64
     7
 65
   257
 75
     1
175
     1
 42
1.0
 92
       12
 66
     7
 43
1.0
 76
     1
 77
     6
 78
     2
 67
     7
 79
     5
170
     0
171
     0
290
     0
174
     0
 93
        1
 44
0.0
173
     0
291
     1
 45
0.0
1001
ACAD
1000
AcDbSavedByObjectVersion
1070
     0
  0
VISUALSTYLE
  5
FD035
102
{ACAD_XDICTIONARY
360
FE84A
102
}
102
{ACAD_REACTORS
330
FD02E
102
}
330
FD02E
100
AcDbVisualStyle
  2

 70
     5
 71
     0
 72
     2
 73
     0
 90
        0
 40
-0.6
 41
-30.0
 62
     5
 63
     7
 74
     1
 91
        4
 64
     7
 65
   257
 75
     1
175
     1
 42
1.0
 92
        0
 66
   257
 43
1.0
 76
     1
 77
     6
 78
     2
 67
     7
 79
     3
170
     0
171
     0
290
     0
174
     0
 93
        1
 44
0.0
173
     0
291
     0
 45
0.0
1001
ACAD
1000
AcDbSavedByObjectVersion
1070
     0
  0
VISUALSTYLE
  5
FD041
102
{ACAD_XDICTIONARY
360
FE862
102
}
102
{ACAD_REACTORS
330
FD02E
102
}
330
FD02E
100
AcDbVisualStyle
  2

 70
    25
 71
     2
 72
     2
 73
     1
 90
        1
 40
0.5
 41
-30.0
 62
     5
 63
     7
 74
     1
 91
        0
 64
     7
 65
   257
 75
     1
175
     1
 42
1.0
 92
        8
 66
     7
 43
1.0
 76
     1
 77
     6
 78
     2
 67
     7
 79
     3
170
     0
171
     0
290
     0
174
     0
 93
       13
 44
0.0
173
     0
291
     0
 45
0.0
1001
ACAD
1000
AcDbSavedByObjectVersion
1070
     0
  0
DICTIONARYVAR
  5
FD16C
102
{ACAD_REACTORS
330
6B9
102
}
330
6B9
100
DictionaryVariables
280
     0
  1
1:1
  0
DICTIONARYVAR
  5
FD169
102
{ACAD_REACTORS
330
6B9
102
}
330
6B9
100
DictionaryVariables
280
     0
  1
STANDARD
  0
DICTIONARYVAR
  5
FD168
102
{ACAD_REACTORS
330
6B9
102
}
330
6B9
100
DictionaryVariables
280
     0
  1
STANDARD
  0
DICTIONARYVAR
  5
FD16A
102
{ACAD_REACTORS
330
6B9
102
}
330
6B9
100
DictionaryVariables
280
     0
  1
Metric50
  0
DICTIONARYVAR
  5
FD16B
102
{ACAD_REACTORS
330
6B9
102
}
330
6B9
100
DictionaryVariables
280
     0
  1
Metric50
  0
DICTIONARYVAR
  5
F4248
102
{ACAD_REACTORS
330
6B9
102
}
330
6B9
100
DictionaryVariables
280
     0
  1
1
  0
DICTIONARYVAR
  5
F4247
102
{ACAD_REACTORS
330
6B9
102
}
330
6B9
100
DictionaryVariables
280
     0
  1
0
  0
DICTIONARYVAR
  5
F4249
102
{ACAD_REACTORS
330
6B9
102
}
330
6B9
100
DictionaryVariables
280
     0
  1

  0
DICTIONARYVAR
  5
6BA
102
{ACAD_REACTORS
330
6B9
102
}
330
6B9
100
DictionaryVariables
280
     0
  1
96
  0
DICTIONARYVAR
  5
FE83B
102
{ACAD_REACTORS
330
6B9
102
}
330
6B9
100
DictionaryVariables
280
     0
  1
2
  0
DICTIONARY
  5
16D3E
102
{ACAD_REACTORS
330
16D31
102
}
330
16D31
100
AcDbDictionary
281
     1
  0
XRECORD
  5
16DB5
102
{ACAD_REACTORS
330
16D31
102
}
330
16D31
100
AcDbXrecord
280
     1
 90
-1023410169
  0
XRECORD
  5
F4A77
102
{ACAD_REACTORS
330
F4A75
102
}
330
F4A75
100
AcDbXrecord
280
     1
330
0
330
0
330
0
330
0
330
0
330
0
330
0
330
0
330
0
  0
XRECORD
  5
F82D2
102
{ACAD_REACTORS
330
F82BE
102
}
330
F82BE
100
AcDbXrecord
280
     1
 91
      484
330
4C
 90
        8
 62
     2
370
    40
331
16
  1
色_2
330
30
 90
        8
 62
    30
370
     9
331
F3ACE
  1
色_30
330
3AE4
 90
        8
 62
   123
370
     9
331
3AE3
  1
色_123
330
F3AD3
 90
        8
 62
   233
370
     9
331
16CF6
  1
色_233
330
33
 90
        8
 62
     8
370
     9
331
16
  1
色_8
330
86CB
 90
        8
 62
     7
370
    20
331
16
  1
色_7
330
86C9
 90
        8
 62
     4
370
    15
331
16
  1
色_4
330
86C8
 90
        8
 62
   173
370
     9
331
16
  1
色_173
420
-1034792193
330
86CC
 90
        8
 62
     1
370
     5
331
16
  1
色_1
330
548
 90
        0
 62
     6
370
    -3
331
16
  1
色_6
330
86FE
 90
        8
 62
   241
370
     5
331
58DA
  1
色_241
330
54
 90
        0
 62
     7
370
    -3
331
16
  1
色_7
330
F61AE
 90
        0
 62
     1
370
    25
331
16
  1
色_1
330
10
 90
        8
 62
     7
370
    20
331
16
  1
色_7
  0
XRECORD
  5
F82BF
102
{ACAD_REACTORS
330
F82BE
102
}
330
F82BE
100
AcDbXrecord
280
     1
 91
      484
330
4C
 90
        8
 62
     2
370
    40
331
16
  1
色_2
330
30
 90
        8
 62
    30
370
     9
331
F3ACE
  1
色_30
330
3AE4
 90
        8
 62
   123
370
     9
331
3AE3
  1
色_123
330
F3AD3
 90
        8
 62
   233
370
     9
331
16CF6
  1
色_233
330
33
 90
        8
 62
     8
370
     9
331
16
  1
色_8
330
86C8
 90
        8
 62
   173
370
     5
331
16
  1
色_173
420
-1034792193
330
548
 90
        0
 62
     6
370
    -3
331
16
  1
色_6
330
86FE
 90
        8
 62
   241
370
     5
331
58DA
  1
色_241
330
86CC
 90
        8
 62
     1
370
     9
331
16
  1
色_1
330
86CB
 90
        8
 62
     5
370
    20
331
16
  1
色_5
330
86C9
 90
        8
 62
     4
370
    15
331
16
  1
色_4
330
54
 90
        0
 62
     7
370
    -3
331
16
  1
色_7
330
F61AE
 90
        0
 62
     1
370
    25
331
16
  1
色_1
330
10
 90
        8
 62
     7
370
    20
331
16
  1
色_7
  0
DICTIONARY
  5
FE873
330
FD060
100
AcDbDictionary
280
     1
281
     1
  3
ACAD_XREC_ROUNDTRIP
360
FE874
  0
DICTIONARY
  5
FD01F
330
FD01E
100
AcDbDictionary
280
     1
281
     1
  3
ACAD_XREC_ROUNDTRIP
360
FD185
  3
BUMPTILE
360
FD021
  3
DIFFUSETILE
360
FD020
  3
OPACITYTILE
360
FD024
  3
REFLECTIONTILE
360
FD023
  3
REFRACTIONTILE
360
FD025
  3
SPECULARTILE
360
FD022
  0
DICTIONARY
  5
FD017
330
FD016
100
AcDbDictionary
280
     1
281
     1
  3
ACAD_XREC_ROUNDTRIP
360
FD184
  3
BUMPTILE
360
FD019
  3
DIFFUSETILE
360
FD018
  3
OPACITYTILE
360
FD01C
  3
REFLECTIONTILE
360
FD01B
  3
REFRACTIONTILE
360
FD01D
  3
SPECULARTILE
360
FD01A
  0
DICTIONARY
  5
FD027
330
FD026
100
AcDbDictionary
280
     1
281
     1
  3
ACAD_XREC_ROUNDTRIP
360
FD186
  3
BUMPTILE
360
FD029
  3
DIFFUSETILE
360
FD028
  3
OPACITYTILE
360
FD02C
  3
REFLECTIONTILE
360
FD02B
  3
REFRACTIONTILE
360
FD02D
  3
SPECULARTILE
360
FD02A
  0
DICTIONARY
  5
FE86F
330
FD05C
100
AcDbDictionary
280
     1
281
     1
  3
ACAD_XREC_ROUNDTRIP
360
FE870
  0
DICTIONARY
  5
FE871
330
FD05E
100
AcDbDictionary
280
     1
281
     1
  3
ACAD_XREC_ROUNDTRIP
360
FE872
  0
DICTIONARY
  5
FD16E
330
FD048
100
AcDbDictionary
280
     1
281
     1
  3
ACAD_ROUNDTRIP_2008_TABLESTYLE_CELLSTYLEMAP
360
FE83C
  3
ACAD_XREC_ROUNDTRIP
360
FE86E
  0
DICTIONARY
  5
FE848
330
FD034
100
AcDbDictionary
280
     1
281
     1
  3
ACAD_XREC_ROUNDTRIP
360
FE849
  0
DICTIONARY
  5
FE846
330
FD033
100
AcDbDictionary
280
     1
281
     1
  3
ACAD_XREC_ROUNDTRIP
360
FE847
  0
DICTIONARY
  5
FE854
330
FD03A
100
AcDbDictionary
280
     1
281
     1
  3
ACAD_XREC_ROUNDTRIP
360
FE855
  0
DICTIONARY
  5
FE85C
330
FD03E
100
AcDbDictionary
280
     1
281
     1
  3
ACAD_XREC_ROUNDTRIP
360
FE85D
  0
DICTIONARY
  5
FE84E
330
FD037
100
AcDbDictionary
280
     1
281
     1
  3
ACAD_XREC_ROUNDTRIP
360
FE84F
  0
DICTIONARY
  5
FE852
330
FD039
100
AcDbDictionary
280
     1
281
     1
  3
ACAD_XREC_ROUNDTRIP
360
FE853
  0
DICTIONARY
  5
FE86C
330
FD046
100
AcDbDictionary
280
     1
281
     1
  3
ACAD_XREC_ROUNDTRIP
360
FE86D
  0
DICTIONARY
  5
FE85A
330
FD03D
100
AcDbDictionary
280
     1
281
     1
  3
ACAD_XREC_ROUNDTRIP
360
FE85B
  0
DICTIONARY
  5
FE83E
330
FD02F
100
AcDbDictionary
280
     1
281
     1
  3
ACAD_XREC_ROUNDTRIP
360
FE83F
  0
DICTIONARY
  5
FE840
330
FD030
100
AcDbDictionary
280
     1
281
     1
  3
ACAD_XREC_ROUNDTRIP
360
FE841
  0
DICTIONARY
  5
FE842
330
FD031
100
AcDbDictionary
280
     1
281
     1
  3
ACAD_XREC_ROUNDTRIP
360
FE843
  0
DICTIONARY
  5
FE844
330
FD032
100
AcDbDictionary
280
     1
281
     1
  3
ACAD_XREC_ROUNDTRIP
360
FE845
  0
DICTIONARY
  5
FE84C
330
FD036
100
AcDbDictionary
280
     1
281
     1
  3
ACAD_XREC_ROUNDTRIP
360
FE84D
  0
DICTIONARY
  5
FE868
330
FD044
100
AcDbDictionary
280
     1
281
     1
  3
ACAD_XREC_ROUNDTRIP
360
FE869
  0
DICTIONARY
  5
FE858
330
FD03C
100
AcDbDictionary
280
     1
281
     1
  3
ACAD_XREC_ROUNDTRIP
360
FE859
  0
DICTIONARY
  5
FE86A
330
FD045
100
AcDbDictionary
280
     1
281
     1
  3
ACAD_XREC_ROUNDTRIP
360
FE86B
  0
DICTIONARY
  5
FE850
330
FD038
100
AcDbDictionary
280
     1
281
     1
  3
ACAD_XREC_ROUNDTRIP
360
FE851
  0
DICTIONARY
  5
FE866
330
FD043
100
AcDbDictionary
280
     1
281
     1
  3
ACAD_XREC_ROUNDTRIP
360
FE867
  0
DICTIONARY
  5
FE864
330
FD042
100
AcDbDictionary
280
     1
281
     1
  3
ACAD_XREC_ROUNDTRIP
360
FE865
  0
DICTIONARY
  5
FE85E
330
FD03F
100
AcDbDictionary
280
     1
281
     1
  3
ACAD_XREC_ROUNDTRIP
360
FE85F
  0
DICTIONARY
  5
FE860
330
FD040
100
AcDbDictionary
280
     1
281
     1
  3
ACAD_XREC_ROUNDTRIP
360
FE861
  0
DICTIONARY
  5
FE856
330
FD03B
100
AcDbDictionary
280
     1
281
     1
  3
ACAD_XREC_ROUNDTRIP
360
FE857
  0
DICTIONARY
  5
FE84A
330
FD035
100
AcDbDictionary
280
     1
281
     1
  3
ACAD_XREC_ROUNDTRIP
360
FE84B
  0
DICTIONARY
  5
FE862
330
FD041
100
AcDbDictionary
280
     1
281
     1
  3
ACAD_XREC_ROUNDTRIP
360
FE863
  0
XRECORD
  5
FE874
102
{ACAD_REACTORS
330
FE873
102
}
330
FE873
100
AcDbXrecord
280
     1
102
DISPLAYNAME
  1
Metric50
102
FLAGS
 90
        0
  0
XRECORD
  5
FD185
102
{ACAD_REACTORS
330
FD01F
102
}
330
FD01F
100
AcDbXrecord
280
     1
102
MATERIAL
148
0.0
149
0.0
149
0.0
 93
        0
 94
      127
282
     0
 72
     0
 77
     0
171
     0
175
     0
179
     0
273
     0
  0
XRECORD
  5
FD021
102
{ACAD_REACTORS
330
FD01F
102
}
330
FD01F
100
AcDbXrecord
280
     1
270
     1
271
     1
  0
XRECORD
  5
FD020
102
{ACAD_REACTORS
330
FD01F
102
}
330
FD01F
100
AcDbXrecord
280
     1
270
     1
271
     1
  0
XRECORD
  5
FD024
102
{ACAD_REACTORS
330
FD01F
102
}
330
FD01F
100
AcDbXrecord
280
     1
270
     1
271
     1
  0
XRECORD
  5
FD023
102
{ACAD_REACTORS
330
FD01F
102
}
330
FD01F
100
AcDbXrecord
280
     1
270
     1
271
     1
  0
XRECORD
  5
FD025
102
{ACAD_REACTORS
330
FD01F
102
}
330
FD01F
100
AcDbXrecord
280
     1
270
     1
271
     1
  0
XRECORD
  5
FD022
102
{ACAD_REACTORS
330
FD01F
102
}
330
FD01F
100
AcDbXrecord
280
     1
270
     1
271
     1
  0
XRECORD
  5
FD184
102
{ACAD_REACTORS
330
FD017
102
}
330
FD017
100
AcDbXrecord
280
     1
102
MATERIAL
148
0.0
149
0.0
149
0.0
 93
        0
 94
      127
282
     0
 72
     0
 77
     0
171
     0
175
     0
179
     0
273
     0
  0
XRECORD
  5
FD019
102
{ACAD_REACTORS
330
FD017
102
}
330
FD017
100
AcDbXrecord
280
     1
270
     1
271
     1
  0
XRECORD
  5
FD018
102
{ACAD_REACTORS
330
FD017
102
}
330
FD017
100
AcDbXrecord
280
     1
270
     1
271
     1
  0
XRECORD
  5
FD01C
102
{ACAD_REACTORS
330
FD017
102
}
330
FD017
100
AcDbXrecord
280
     1
270
     1
271
     1
  0
XRECORD
  5
FD01B
102
{ACAD_REACTORS
330
FD017
102
}
330
FD017
100
AcDbXrecord
280
     1
270
     1
271
     1
  0
XRECORD
  5
FD01D
102
{ACAD_REACTORS
330
FD017
102
}
330
FD017
100
AcDbXrecord
280
     1
270
     1
271
     1
  0
XRECORD
  5
FD01A
102
{ACAD_REACTORS
330
FD017
102
}
330
FD017
100
AcDbXrecord
280
     1
270
     1
271
     1
  0
XRECORD
  5
FD186
102
{ACAD_REACTORS
330
FD027
102
}
330
FD027
100
AcDbXrecord
280
     1
102
MATERIAL
148
0.0
149
0.0
149
0.0
 93
        0
 94
      127
282
     0
 72
     0
 77
     0
171
     0
175
     0
179
     0
273
     0
  0
XRECORD
  5
FD029
102
{ACAD_REACTORS
330
FD027
102
}
330
FD027
100
AcDbXrecord
280
     1
270
     1
271
     1
  0
XRECORD
  5
FD028
102
{ACAD_REACTORS
330
FD027
102
}
330
FD027
100
AcDbXrecord
280
     1
270
     1
271
     1
  0
XRECORD
  5
FD02C
102
{ACAD_REACTORS
330
FD027
102
}
330
FD027
100
AcDbXrecord
280
     1
270
     1
271
     1
  0
XRECORD
  5
FD02B
102
{ACAD_REACTORS
330
FD027
102
}
330
FD027
100
AcDbXrecord
280
     1
270
     1
271
     1
  0
XRECORD
  5
FD02D
102
{ACAD_REACTORS
330
FD027
102
}
330
FD027
100
AcDbXrecord
280
     1
270
     1
271
     1
  0
XRECORD
  5
FD02A
102
{ACAD_REACTORS
330
FD027
102
}
330
FD027
100
AcDbXrecord
280
     1
270
     1
271
     1
  0
XRECORD
  5
FE870
102
{ACAD_REACTORS
330
FE86F
102
}
330
FE86F
100
AcDbXrecord
280
     1
102
ACAD_ROUNDTRIP_2012_MLEADER_STYLE
298
     1
  0
XRECORD
  5
FE872
102
{ACAD_REACTORS
330
FE871
102
}
330
FE871
100
AcDbXrecord
280
     1
102
DISPLAYNAME
  1
Metric50
102
FLAGS
 90
        0
  0
CELLSTYLEMAP
  5
FE83C
102
{ACAD_REACTORS
330
FD16E
102
}
330
FD16E
100
AcDbCellStyleMap
 90
        3
300
CELLSTYLE
  1
TABLEFORMAT_BEGIN
 90
        5
170
     1
 91
        0
 92
    32768
 62
   257
 93
        1
300
CONTENTFORMAT
  1
CONTENTFORMAT_BEGIN
 90
        0
 91
        0
 92
      512
 93
        0
300

 40
0.0
140
1.0
 94
        5
 62
     0
340
11
144
6.0
309
CONTENTFORMAT_END
171
     1
301
MARGIN
  1
CELLMARGIN_BEGIN
 40
1.5
 40
1.5
 40
1.5
 40
1.5
 40
0.18
 40
0.18
309
CELLMARGIN_END
 94
        6
 95
        1
302
GRIDFORMAT
  1
GRIDFORMAT_BEGIN
 90
        0
 91
        1
 62
     0
 92
       -2
340
0
 93
        0
 40
1.125
309
GRIDFORMAT_END
 95
        2
302
GRIDFORMAT
  1
GRIDFORMAT_BEGIN
 90
        0
 91
        1
 62
     0
 92
       -2
340
0
 93
        0
 40
1.125
309
GRIDFORMAT_END
 95
        4
302
GRIDFORMAT
  1
GRIDFORMAT_BEGIN
 90
        0
 91
        1
 62
     0
 92
       -2
340
0
 93
        0
 40
1.125
309
GRIDFORMAT_END
 95
        8
302
GRIDFORMAT
  1
GRIDFORMAT_BEGIN
 90
        0
 91
        1
 62
     0
 92
       -2
340
0
 93
        0
 40
1.125
309
GRIDFORMAT_END
 95
       16
302
GRIDFORMAT
  1
GRIDFORMAT_BEGIN
 90
        0
 91
        1
 62
     0
 92
       -2
340
0
 93
        0
 40
1.125
309
GRIDFORMAT_END
 95
       32
302
GRIDFORMAT
  1
GRIDFORMAT_BEGIN
 90
        0
 91
        1
 62
     0
 92
       -2
340
0
 93
        0
 40
1.125
309
GRIDFORMAT_END
309
TABLEFORMAT_END
  1
CELLSTYLE_BEGIN
 90
        1
 91
        1
300
_TITLE
309
CELLSTYLE_END
300
CELLSTYLE
  1
TABLEFORMAT_BEGIN
 90
        5
170
     1
 91
        0
 92
        0
 62
   257
 93
        1
300
CONTENTFORMAT
  1
CONTENTFORMAT_BEGIN
 90
        0
 91
        0
 92
      512
 93
        0
300

 40
0.0
140
1.0
 94
        5
 62
     0
340
11
144
4.5
309
CONTENTFORMAT_END
171
     1
301
MARGIN
  1
CELLMARGIN_BEGIN
 40
1.5
 40
1.5
 40
1.5
 40
1.5
 40
0.18
 40
0.18
309
CELLMARGIN_END
 94
        6
 95
        1
302
GRIDFORMAT
  1
GRIDFORMAT_BEGIN
 90
        0
 91
        1
 62
     0
 92
       -2
340
0
 93
        0
 40
1.125
309
GRIDFORMAT_END
 95
        2
302
GRIDFORMAT
  1
GRIDFORMAT_BEGIN
 90
        0
 91
        1
 62
     0
 92
       -2
340
0
 93
        0
 40
1.125
309
GRIDFORMAT_END
 95
        4
302
GRIDFORMAT
  1
GRIDFORMAT_BEGIN
 90
        0
 91
        1
 62
     0
 92
       -2
340
0
 93
        0
 40
1.125
309
GRIDFORMAT_END
 95
        8
302
GRIDFORMAT
  1
GRIDFORMAT_BEGIN
 90
        0
 91
        1
 62
     0
 92
       -2
340
0
 93
        0
 40
1.125
309
GRIDFORMAT_END
 95
       16
302
GRIDFORMAT
  1
GRIDFORMAT_BEGIN
 90
        0
 91
        1
 62
     0
 92
       -2
340
0
 93
        0
 40
1.125
309
GRIDFORMAT_END
 95
       32
302
GRIDFORMAT
  1
GRIDFORMAT_BEGIN
 90
        0
 91
        1
 62
     0
 92
       -2
340
0
 93
        0
 40
1.125
309
GRIDFORMAT_END
309
TABLEFORMAT_END
  1
CELLSTYLE_BEGIN
 90
        2
 91
        1
300
_HEADER
309
CELLSTYLE_END
300
CELLSTYLE
  1
TABLEFORMAT_BEGIN
 90
        5
170
     1
 91
        0
 92
        0
 62
   257
 93
        1
300
CONTENTFORMAT
  1
CONTENTFORMAT_BEGIN
 90
        0
 91
        0
 92
      512
 93
        0
300

 40
0.0
140
1.0
 94
        2
 62
     0
340
11
144
4.5
309
CONTENTFORMAT_END
171
     1
301
MARGIN
  1
CELLMARGIN_BEGIN
 40
1.5
 40
1.5
 40
1.5
 40
1.5
 40
0.18
 40
0.18
309
CELLMARGIN_END
 94
        6
 95
        1
302
GRIDFORMAT
  1
GRIDFORMAT_BEGIN
 90
        0
 91
        1
 62
     0
 92
       -2
340
0
 93
        0
 40
1.125
309
GRIDFORMAT_END
 95
        2
302
GRIDFORMAT
  1
GRIDFORMAT_BEGIN
 90
        0
 91
        1
 62
     0
 92
       -2
340
0
 93
        0
 40
1.125
309
GRIDFORMAT_END
 95
        4
302
GRIDFORMAT
  1
GRIDFORMAT_BEGIN
 90
        0
 91
        1
 62
     0
 92
       -2
340
0
 93
        0
 40
1.125
309
GRIDFORMAT_END
 95
        8
302
GRIDFORMAT
  1
GRIDFORMAT_BEGIN
 90
        0
 91
        1
 62
     0
 92
       -2
340
0
 93
        0
 40
1.125
309
GRIDFORMAT_END
 95
       16
302
GRIDFORMAT
  1
GRIDFORMAT_BEGIN
 90
        0
 91
        1
 62
     0
 92
       -2
340
0
 93
        0
 40
1.125
309
GRIDFORMAT_END
 95
       32
302
GRIDFORMAT
  1
GRIDFORMAT_BEGIN
 90
        0
 91
        1
 62
     0
 92
       -2
340
0
 93
        0
 40
1.125
309
GRIDFORMAT_END
309
TABLEFORMAT_END
  1
CELLSTYLE_BEGIN
 90
        3
 91
        2
300
_DATA
309
CELLSTYLE_END
  0
XRECORD
  5
FE86E
102
{ACAD_REACTORS
330
FD16E
102
}
330
FD16E
100
AcDbXrecord
280
     1
102
ACAD_ROUNDTRIP_PRE2007_TABLESTYLE
 90
      512
 91
        0
  1

 92
      512
 93
        0
  2

 94
      512
 95
        0
  3

  0
XRECORD
  5
FE849
102
{ACAD_REACTORS
330
FE848
102
}
330
FE848
100
AcDbXrecord
280
     1
102
RTVSPost2010Prop28
280
     1
102
RTVSPost2010PropOp28
 70
     1
102
RTVSPost2010Prop29
280
     1
102
RTVSPost2010PropOp29
 70
     1
102
RTVSPost2010Prop30
280
     0
102
RTVSPost2010PropOp30
 70
     1
102
RTVSPost2010Prop31
280
     0
102
RTVSPost2010PropOp31
 70
     1
102
RTVSPost2010Prop32
280
     0
102
RTVSPost2010PropOp32
 70
     1
102
RTVSPost2010Prop33
280
     0
102
RTVSPost2010PropOp33
 70
     1
102
RTVSPost2010Prop34
280
     0
102
RTVSPost2010PropOp34
 70
     1
102
RTVSPost2010Prop35
280
     0
102
RTVSPost2010PropOp35
 70
     1
102
RTVSPost2010Prop36
280
     0
102
RTVSPost2010PropOp36
 70
     1
102
RTVSPost2010Prop37
 90
       50
102
RTVSPost2010PropOp37
 70
     1
102
RTVSPost2010Prop38
140
0.0
102
RTVSPost2010PropOp38
 70
     1
102
RTVSPost2010Prop39
140
1.0
102
RTVSPost2010PropOp39
 70
     1
102
RTVSPost2010Prop40
 90
        0
102
RTVSPost2010PropOp40
 70
     1
102
RTVSPost2010Prop41ColorIndex
 90
       18
102
RTVSPost2010Prop41ColorRGB
 90
        0
102
RTVSPost2010PropOp41
 70
     1
102
RTVSPost2010Prop42
 90
       50
102
RTVSPost2010PropOp42
 70
     1
102
RTVSPost2010Prop43
 90
        3
102
RTVSPost2010PropOp43
 70
     1
102
RTVSPost2010Prop44ColorIndex
 90
        5
102
RTVSPost2010Prop44ColorRGB
 90
      255
102
RTVSPost2010PropOp44
 70
     1
102
RTVSPost2010Prop45
280
     0
102
RTVSPost2010PropOp45
 70
     1
102
RTVSPost2010Prop46
 90
       50
102
RTVSPost2010PropOp46
 70
     1
102
RTVSPost2010Prop47
 90
       50
102
RTVSPost2010PropOp47
 70
     1
102
RTVSPost2010Prop48
 90
       50
102
RTVSPost2010PropOp48
 70
     1
102
RTVSPost2010Prop49
280
     0
102
RTVSPost2010PropOp49
 70
     1
102
RTVSPost2010Prop50
 90
       50
102
RTVSPost2010PropOp50
 70
     1
102
RTVSPost2010Prop51ColorIndex
 90
      256
102
RTVSPost2010Prop51ColorRGB
 90
-16777216
102
RTVSPost2010PropOp51
 70
     0
102
RTVSPost2010Prop52
140
1.0
102
RTVSPost2010PropOp52
 70
     0
102
RTVSPost2010Prop53
 90
        2
102
RTVSPost2010PropOp53
 70
     1
102
RTVSPost2010Prop54
  1
strokes_ogs.tif
102
RTVSPost2010PropOp54
 70
     1
102
RTVSPost2010Prop55
280
     0
102
RTVSPost2010PropOp55
 70
     1
102
RTVSPost2010Prop56
140
1.0
102
RTVSPost2010PropOp56
 70
     1
102
RTVSPost2010Prop57
140
1.0
102
RTVSPost2010PropOp57
 70
     1
102
RTVSPropertyOp0
 70
     1
102
RTVSPropertyOp1
 70
     1
102
RTVSPropertyOp2
 70
     1
102
RTVSPropertyOp3
 70
     1
102
RTVSPropertyOp4
 70
     1
102
RTVSPropertyOp5
 70
     1
102
RTVSPropertyOp6
 70
     1
102
RTVSPropertyOp7
 70
     1
102
RTVSPropertyOp8
 70
     1
102
RTVSPropertyOp9
 70
     1
102
RTVSPropertyOp10
 70
     1
102
RTVSPropertyOp11
 70
     1
102
RTVSPropertyOp12
 70
     1
102
RTVSPropertyOp13
 70
     1
102
RTVSPropertyOp14
 70
     1
102
RTVSPropertyOp15
 70
     1
102
RTVSPropertyOp16
 70
     1
102
RTVSPropertyOp17
 70
     1
102
RTVSPropertyOp18
 70
     1
102
RTVSPropertyOp19
 70
     1
102
RTVSPropertyOp20
 70
     1
102
RTVSPropertyOp21
 70
     1
102
RTVSPropertyOp22
 70
     1
102
RTVSPropertyOp23
 70
     1
102
RTVSPropertyOp24
 70
     1
102
RTVSPropertyOp25
 70
     1
102
RTVSPropertyOp26
 70
     1
102
RTVSPropertyOp27
 70
     1
102
RTVSPropertyOp28
 70
     1
102
RTVSPropertyOp29
 70
     1
102
RTVSPropertyOp30
 70
     1
102
RTVSPropertyOp31
 70
     1
102
RTVSPropertyOp32
 70
     1
102
RTVSPropertyOp33
 70
     1
102
RTVSPropertyOp34
 70
     1
102
RTVSPropertyOp35
 70
     1
102
RTVSPropertyOp36
 70
     1
102
RTVSPropertyOp37
 70
     1
102
RTVSPropertyOp38
 70
     1
102
RTVSPropertyOp39
 70
     1
102
RTVSPropertyOp40
 70
     1
102
RTVSPropertyOp41
 70
     1
102
RTVSPropertyOp42
 70
     1
102
RTVSPropertyOp43
 70
     1
102
RTVSPropertyOp44
 70
     1
102
RTVSPropertyOp45
 70
     1
102
RTVSPropertyOp46
 70
     1
102
RTVSPropertyOp47
 70
     1
102
RTVSPropertyOp48
 70
     1
102
RTVSPropertyOp49
 70
     1
102
RTVSPropertyOp50
 70
     1
102
RTVSPropertyOp51
 70
     0
102
RTVSPropertyOp52
 70
     0
102
RTVSPropertyOp53
 70
     1
102
RTVSPropertyOp54
 70
     1
102
RTVSPropertyOp55
 70
     1
102
RTVSPropertyOp56
 70
     1
102
RTVSPropertyOp57
 70
     1
102
RTVSPropertyOp58
 70
     1
102
RTVSPropertyOp59
 70
     1
102
RTVSPropertyOp60
 70
     1
102
RTVSPropertyOp61
 70
     1
102
RTVSPropertyOp62
 70
     1
  0
XRECORD
  5
FE847
102
{ACAD_REACTORS
330
FE846
102
}
330
FE846
100
AcDbXrecord
280
     1
102
RTVSPost2010Prop28
280
     0
102
RTVSPost2010PropOp28
 70
     1
102
RTVSPost2010Prop29
280
     1
102
RTVSPost2010PropOp29
 70
     1
102
RTVSPost2010Prop30
280
     1
102
RTVSPost2010PropOp30
 70
     1
102
RTVSPost2010Prop31
280
     0
102
RTVSPost2010PropOp31
 70
     1
102
RTVSPost2010Prop32
280
     0
102
RTVSPost2010PropOp32
 70
     1
102
RTVSPost2010Prop33
280
     0
102
RTVSPost2010PropOp33
 70
     1
102
RTVSPost2010Prop34
280
     0
102
RTVSPost2010PropOp34
 70
     1
102
RTVSPost2010Prop35
280
     0
102
RTVSPost2010PropOp35
 70
     1
102
RTVSPost2010Prop36
280
     0
102
RTVSPost2010PropOp36
 70
     1
102
RTVSPost2010Prop37
 90
       50
102
RTVSPost2010PropOp37
 70
     1
102
RTVSPost2010Prop38
140
0.0
102
RTVSPost2010PropOp38
 70
     1
102
RTVSPost2010Prop39
140
1.0
102
RTVSPost2010PropOp39
 70
     1
102
RTVSPost2010Prop40
 90
        0
102
RTVSPost2010PropOp40
 70
     1
102
RTVSPost2010Prop41ColorIndex
 90
       18
102
RTVSPost2010Prop41ColorRGB
 90
        0
102
RTVSPost2010PropOp41
 70
     1
102
RTVSPost2010Prop42
 90
       50
102
RTVSPost2010PropOp42
 70
     1
102
RTVSPost2010Prop43
 90
        3
102
RTVSPost2010PropOp43
 70
     1
102
RTVSPost2010Prop44ColorIndex
 90
        5
102
RTVSPost2010Prop44ColorRGB
 90
      255
102
RTVSPost2010PropOp44
 70
     1
102
RTVSPost2010Prop45
280
     0
102
RTVSPost2010PropOp45
 70
     1
102
RTVSPost2010Prop46
 90
       50
102
RTVSPost2010PropOp46
 70
     1
102
RTVSPost2010Prop47
 90
       50
102
RTVSPost2010PropOp47
 70
     1
102
RTVSPost2010Prop48
 90
       50
102
RTVSPost2010PropOp48
 70
     1
102
RTVSPost2010Prop49
280
     0
102
RTVSPost2010PropOp49
 70
     1
102
RTVSPost2010Prop50
 90
       50
102
RTVSPost2010PropOp50
 70
     1
102
RTVSPost2010Prop51ColorIndex
 90
      256
102
RTVSPost2010Prop51ColorRGB
 90
-16777216
102
RTVSPost2010PropOp51
 70
     0
102
RTVSPost2010Prop52
140
1.0
102
RTVSPost2010PropOp52
 70
     0
102
RTVSPost2010Prop53
 90
        2
102
RTVSPost2010PropOp53
 70
     1
102
RTVSPost2010Prop54
  1
strokes_ogs.tif
102
RTVSPost2010PropOp54
 70
     1
102
RTVSPost2010Prop55
280
     0
102
RTVSPost2010PropOp55
 70
     1
102
RTVSPost2010Prop56
140
1.0
102
RTVSPost2010PropOp56
 70
     1
102
RTVSPost2010Prop57
140
1.0
102
RTVSPost2010PropOp57
 70
     1
102
RTVSPropertyOp0
 70
     1
102
RTVSPropertyOp1
 70
     1
102
RTVSPropertyOp2
 70
     1
102
RTVSPropertyOp3
 70
     1
102
RTVSPropertyOp4
 70
     1
102
RTVSPropertyOp5
 70
     1
102
RTVSPropertyOp6
 70
     1
102
RTVSPropertyOp7
 70
     1
102
RTVSPropertyOp8
 70
     1
102
RTVSPropertyOp9
 70
     1
102
RTVSPropertyOp10
 70
     1
102
RTVSPropertyOp11
 70
     1
102
RTVSPropertyOp12
 70
     1
102
RTVSPropertyOp13
 70
     1
102
RTVSPropertyOp14
 70
     1
102
RTVSPropertyOp15
 70
     1
102
RTVSPropertyOp16
 70
     1
102
RTVSPropertyOp17
 70
     1
102
RTVSPropertyOp18
 70
     1
102
RTVSPropertyOp19
 70
     1
102
RTVSPropertyOp20
 70
     1
102
RTVSPropertyOp21
 70
     1
102
RTVSPropertyOp22
 70
     1
102
RTVSPropertyOp23
 70
     1
102
RTVSPropertyOp24
 70
     1
102
RTVSPropertyOp25
 70
     1
102
RTVSPropertyOp26
 70
     1
102
RTVSPropertyOp27
 70
     1
102
RTVSPropertyOp28
 70
     1
102
RTVSPropertyOp29
 70
     1
102
RTVSPropertyOp30
 70
     1
102
RTVSPropertyOp31
 70
     1
102
RTVSPropertyOp32
 70
     1
102
RTVSPropertyOp33
 70
     1
102
RTVSPropertyOp34
 70
     1
102
RTVSPropertyOp35
 70
     1
102
RTVSPropertyOp36
 70
     1
102
RTVSPropertyOp37
 70
     1
102
RTVSPropertyOp38
 70
     1
102
RTVSPropertyOp39
 70
     1
102
RTVSPropertyOp40
 70
     1
102
RTVSPropertyOp41
 70
     1
102
RTVSPropertyOp42
 70
     1
102
RTVSPropertyOp43
 70
     1
102
RTVSPropertyOp44
 70
     1
102
RTVSPropertyOp45
 70
     1
102
RTVSPropertyOp46
 70
     1
102
RTVSPropertyOp47
 70
     1
102
RTVSPropertyOp48
 70
     1
102
RTVSPropertyOp49
 70
     1
102
RTVSPropertyOp50
 70
     1
102
RTVSPropertyOp51
 70
     0
102
RTVSPropertyOp52
 70
     0
102
RTVSPropertyOp53
 70
     1
102
RTVSPropertyOp54
 70
     1
102
RTVSPropertyOp55
 70
     1
102
RTVSPropertyOp56
 70
     1
102
RTVSPropertyOp57
 70
     1
102
RTVSPropertyOp58
 70
     1
102
RTVSPropertyOp59
 70
     1
102
RTVSPropertyOp60
 70
     1
102
RTVSPropertyOp61
 70
     1
102
RTVSPropertyOp62
 70
     1
  0
XRECORD
  5
FE855
102
{ACAD_REACTORS
330
FE854
102
}
330
FE854
100
AcDbXrecord
280
     1
102
RTVSPost2010Prop28
280
     0
102
RTVSPost2010PropOp28
 70
     1
102
RTVSPost2010Prop29
280
     1
102
RTVSPost2010PropOp29
 70
     1
102
RTVSPost2010Prop30
280
     1
102
RTVSPost2010PropOp30
 70
     1
102
RTVSPost2010Prop31
280
     0
102
RTVSPost2010PropOp31
 70
     1
102
RTVSPost2010Prop32
280
     0
102
RTVSPost2010PropOp32
 70
     1
102
RTVSPost2010Prop33
280
     0
102
RTVSPost2010PropOp33
 70
     1
102
RTVSPost2010Prop34
280
     0
102
RTVSPost2010PropOp34
 70
     1
102
RTVSPost2010Prop35
280
     0
102
RTVSPost2010PropOp35
 70
     1
102
RTVSPost2010Prop36
280
     0
102
RTVSPost2010PropOp36
 70
     1
102
RTVSPost2010Prop37
 90
       50
102
RTVSPost2010PropOp37
 70
     1
102
RTVSPost2010Prop38
140
0.0
102
RTVSPost2010PropOp38
 70
     1
102
RTVSPost2010Prop39
140
1.0
102
RTVSPost2010PropOp39
 70
     1
102
RTVSPost2010Prop40
 90
        0
102
RTVSPost2010PropOp40
 70
     1
102
RTVSPost2010Prop41ColorIndex
 90
       18
102
RTVSPost2010Prop41ColorRGB
 90
        0
102
RTVSPost2010PropOp41
 70
     1
102
RTVSPost2010Prop42
 90
       50
102
RTVSPost2010PropOp42
 70
     1
102
RTVSPost2010Prop43
 90
        3
102
RTVSPost2010PropOp43
 70
     1
102
RTVSPost2010Prop44ColorIndex
 90
        5
102
RTVSPost2010Prop44ColorRGB
 90
      255
102
RTVSPost2010PropOp44
 70
     1
102
RTVSPost2010Prop45
280
     0
102
RTVSPost2010PropOp45
 70
     1
102
RTVSPost2010Prop46
 90
       50
102
RTVSPost2010PropOp46
 70
     1
102
RTVSPost2010Prop47
 90
       50
102
RTVSPost2010PropOp47
 70
     1
102
RTVSPost2010Prop48
 90
       50
102
RTVSPost2010PropOp48
 70
     1
102
RTVSPost2010Prop49
280
     0
102
RTVSPost2010PropOp49
 70
     1
102
RTVSPost2010Prop50
 90
       50
102
RTVSPost2010PropOp50
 70
     1
102
RTVSPost2010Prop51ColorIndex
 90
      256
102
RTVSPost2010Prop51ColorRGB
 90
-16777216
102
RTVSPost2010PropOp51
 70
     0
102
RTVSPost2010Prop52
140
1.0
102
RTVSPost2010PropOp52
 70
     0
102
RTVSPost2010Prop53
 90
        2
102
RTVSPost2010PropOp53
 70
     1
102
RTVSPost2010Prop54
  1
strokes_ogs.tif
102
RTVSPost2010PropOp54
 70
     1
102
RTVSPost2010Prop55
280
     0
102
RTVSPost2010PropOp55
 70
     1
102
RTVSPost2010Prop56
140
1.0
102
RTVSPost2010PropOp56
 70
     1
102
RTVSPost2010Prop57
140
1.0
102
RTVSPost2010PropOp57
 70
     1
102
RTVSPropertyOp0
 70
     1
102
RTVSPropertyOp1
 70
     1
102
RTVSPropertyOp2
 70
     1
102
RTVSPropertyOp3
 70
     1
102
RTVSPropertyOp4
 70
     1
102
RTVSPropertyOp5
 70
     1
102
RTVSPropertyOp6
 70
     1
102
RTVSPropertyOp7
 70
     1
102
RTVSPropertyOp8
 70
     1
102
RTVSPropertyOp9
 70
     1
102
RTVSPropertyOp10
 70
     1
102
RTVSPropertyOp11
 70
     1
102
RTVSPropertyOp12
 70
     1
102
RTVSPropertyOp13
 70
     1
102
RTVSPropertyOp14
 70
     1
102
RTVSPropertyOp15
 70
     1
102
RTVSPropertyOp16
 70
     1
102
RTVSPropertyOp17
 70
     1
102
RTVSPropertyOp18
 70
     1
102
RTVSPropertyOp19
 70
     1
102
RTVSPropertyOp20
 70
     1
102
RTVSPropertyOp21
 70
     1
102
RTVSPropertyOp22
 70
     1
102
RTVSPropertyOp23
 70
     1
102
RTVSPropertyOp24
 70
     1
102
RTVSPropertyOp25
 70
     1
102
RTVSPropertyOp26
 70
     1
102
RTVSPropertyOp27
 70
     1
102
RTVSPropertyOp28
 70
     1
102
RTVSPropertyOp29
 70
     1
102
RTVSPropertyOp30
 70
     1
102
RTVSPropertyOp31
 70
     1
102
RTVSPropertyOp32
 70
     1
102
RTVSPropertyOp33
 70
     1
102
RTVSPropertyOp34
 70
     1
102
RTVSPropertyOp35
 70
     1
102
RTVSPropertyOp36
 70
     1
102
RTVSPropertyOp37
 70
     1
102
RTVSPropertyOp38
 70
     1
102
RTVSPropertyOp39
 70
     1
102
RTVSPropertyOp40
 70
     1
102
RTVSPropertyOp41
 70
     1
102
RTVSPropertyOp42
 70
     1
102
RTVSPropertyOp43
 70
     1
102
RTVSPropertyOp44
 70
     1
102
RTVSPropertyOp45
 70
     1
102
RTVSPropertyOp46
 70
     1
102
RTVSPropertyOp47
 70
     1
102
RTVSPropertyOp48
 70
     1
102
RTVSPropertyOp49
 70
     1
102
RTVSPropertyOp50
 70
     1
102
RTVSPropertyOp51
 70
     0
102
RTVSPropertyOp52
 70
     0
102
RTVSPropertyOp53
 70
     1
102
RTVSPropertyOp54
 70
     1
102
RTVSPropertyOp55
 70
     1
102
RTVSPropertyOp56
 70
     1
102
RTVSPropertyOp57
 70
     1
102
RTVSPropertyOp58
 70
     1
102
RTVSPropertyOp59
 70
     1
102
RTVSPropertyOp60
 70
     1
102
RTVSPropertyOp61
 70
     1
102
RTVSPropertyOp62
 70
     1
  0
XRECORD
  5
FE85D
102
{ACAD_REACTORS
330
FE85C
102
}
330
FE85C
100
AcDbXrecord
280
     1
102
RTVSPost2010Prop28
280
     0
102
RTVSPost2010PropOp28
 70
     1
102
RTVSPost2010Prop29
280
     1
102
RTVSPost2010PropOp29
 70
     1
102
RTVSPost2010Prop30
280
     1
102
RTVSPost2010PropOp30
 70
     1
102
RTVSPost2010Prop31
280
     0
102
RTVSPost2010PropOp31
 70
     1
102
RTVSPost2010Prop32
280
     0
102
RTVSPost2010PropOp32
 70
     1
102
RTVSPost2010Prop33
280
     0
102
RTVSPost2010PropOp33
 70
     1
102
RTVSPost2010Prop34
280
     0
102
RTVSPost2010PropOp34
 70
     1
102
RTVSPost2010Prop35
280
     0
102
RTVSPost2010PropOp35
 70
     1
102
RTVSPost2010Prop36
280
     0
102
RTVSPost2010PropOp36
 70
     1
102
RTVSPost2010Prop37
 90
       50
102
RTVSPost2010PropOp37
 70
     1
102
RTVSPost2010Prop38
140
0.0
102
RTVSPost2010PropOp38
 70
     1
102
RTVSPost2010Prop39
140
1.0
102
RTVSPost2010PropOp39
 70
     1
102
RTVSPost2010Prop40
 90
        0
102
RTVSPost2010PropOp40
 70
     1
102
RTVSPost2010Prop41ColorIndex
 90
       18
102
RTVSPost2010Prop41ColorRGB
 90
        0
102
RTVSPost2010PropOp41
 70
     1
102
RTVSPost2010Prop42
 90
       50
102
RTVSPost2010PropOp42
 70
     1
102
RTVSPost2010Prop43
 90
        3
102
RTVSPost2010PropOp43
 70
     1
102
RTVSPost2010Prop44ColorIndex
 90
        5
102
RTVSPost2010Prop44ColorRGB
 90
      255
102
RTVSPost2010PropOp44
 70
     1
102
RTVSPost2010Prop45
280
     0
102
RTVSPost2010PropOp45
 70
     1
102
RTVSPost2010Prop46
 90
       50
102
RTVSPost2010PropOp46
 70
     1
102
RTVSPost2010Prop47
 90
       50
102
RTVSPost2010PropOp47
 70
     1
102
RTVSPost2010Prop48
 90
       50
102
RTVSPost2010PropOp48
 70
     1
102
RTVSPost2010Prop49
280
     0
102
RTVSPost2010PropOp49
 70
     1
102
RTVSPost2010Prop50
 90
       50
102
RTVSPost2010PropOp50
 70
     1
102
RTVSPost2010Prop51ColorIndex
 90
      256
102
RTVSPost2010Prop51ColorRGB
 90
-16777216
102
RTVSPost2010PropOp51
 70
     0
102
RTVSPost2010Prop52
140
1.0
102
RTVSPost2010PropOp52
 70
     0
102
RTVSPost2010Prop53
 90
        2
102
RTVSPost2010PropOp53
 70
     1
102
RTVSPost2010Prop54
  1
strokes_ogs.tif
102
RTVSPost2010PropOp54
 70
     1
102
RTVSPost2010Prop55
280
     0
102
RTVSPost2010PropOp55
 70
     1
102
RTVSPost2010Prop56
140
1.0
102
RTVSPost2010PropOp56
 70
     1
102
RTVSPost2010Prop57
140
1.0
102
RTVSPost2010PropOp57
 70
     1
102
RTVSPropertyOp0
 70
     1
102
RTVSPropertyOp1
 70
     1
102
RTVSPropertyOp2
 70
     1
102
RTVSPropertyOp3
 70
     1
102
RTVSPropertyOp4
 70
     1
102
RTVSPropertyOp5
 70
     1
102
RTVSPropertyOp6
 70
     1
102
RTVSPropertyOp7
 70
     1
102
RTVSPropertyOp8
 70
     1
102
RTVSPropertyOp9
 70
     1
102
RTVSPropertyOp10
 70
     1
102
RTVSPropertyOp11
 70
     1
102
RTVSPropertyOp12
 70
     1
102
RTVSPropertyOp13
 70
     1
102
RTVSPropertyOp14
 70
     1
102
RTVSPropertyOp15
 70
     1
102
RTVSPropertyOp16
 70
     1
102
RTVSPropertyOp17
 70
     1
102
RTVSPropertyOp18
 70
     1
102
RTVSPropertyOp19
 70
     1
102
RTVSPropertyOp20
 70
     1
102
RTVSPropertyOp21
 70
     1
102
RTVSPropertyOp22
 70
     1
102
RTVSPropertyOp23
 70
     1
102
RTVSPropertyOp24
 70
     1
102
RTVSPropertyOp25
 70
     1
102
RTVSPropertyOp26
 70
     1
102
RTVSPropertyOp27
 70
     1
102
RTVSPropertyOp28
 70
     1
102
RTVSPropertyOp29
 70
     1
102
RTVSPropertyOp30
 70
     1
102
RTVSPropertyOp31
 70
     1
102
RTVSPropertyOp32
 70
     1
102
RTVSPropertyOp33
 70
     1
102
RTVSPropertyOp34
 70
     1
102
RTVSPropertyOp35
 70
     1
102
RTVSPropertyOp36
 70
     1
102
RTVSPropertyOp37
 70
     1
102
RTVSPropertyOp38
 70
     1
102
RTVSPropertyOp39
 70
     1
102
RTVSPropertyOp40
 70
     1
102
RTVSPropertyOp41
 70
     1
102
RTVSPropertyOp42
 70
     1
102
RTVSPropertyOp43
 70
     1
102
RTVSPropertyOp44
 70
     1
102
RTVSPropertyOp45
 70
     1
102
RTVSPropertyOp46
 70
     1
102
RTVSPropertyOp47
 70
     1
102
RTVSPropertyOp48
 70
     1
102
RTVSPropertyOp49
 70
     1
102
RTVSPropertyOp50
 70
     1
102
RTVSPropertyOp51
 70
     0
102
RTVSPropertyOp52
 70
     0
102
RTVSPropertyOp53
 70
     1
102
RTVSPropertyOp54
 70
     1
102
RTVSPropertyOp55
 70
     1
102
RTVSPropertyOp56
 70
     1
102
RTVSPropertyOp57
 70
     1
102
RTVSPropertyOp58
 70
     1
102
RTVSPropertyOp59
 70
     1
102
RTVSPropertyOp60
 70
     1
102
RTVSPropertyOp61
 70
     1
102
RTVSPropertyOp62
 70
     1
  0
XRECORD
  5
FE84F
102
{ACAD_REACTORS
330
FE84E
102
}
330
FE84E
100
AcDbXrecord
280
     1
102
RTVSPost2010Prop28
280
     0
102
RTVSPost2010PropOp28
 70
     1
102
RTVSPost2010Prop29
280
     1
102
RTVSPost2010PropOp29
 70
     1
102
RTVSPost2010Prop30
280
     1
102
RTVSPost2010PropOp30
 70
     1
102
RTVSPost2010Prop31
280
     0
102
RTVSPost2010PropOp31
 70
     1
102
RTVSPost2010Prop32
280
     0
102
RTVSPost2010PropOp32
 70
     1
102
RTVSPost2010Prop33
280
     0
102
RTVSPost2010PropOp33
 70
     1
102
RTVSPost2010Prop34
280
     0
102
RTVSPost2010PropOp34
 70
     1
102
RTVSPost2010Prop35
280
     0
102
RTVSPost2010PropOp35
 70
     1
102
RTVSPost2010Prop36
280
     0
102
RTVSPost2010PropOp36
 70
     1
102
RTVSPost2010Prop37
 90
       50
102
RTVSPost2010PropOp37
 70
     1
102
RTVSPost2010Prop38
140
0.0
102
RTVSPost2010PropOp38
 70
     1
102
RTVSPost2010Prop39
140
1.0
102
RTVSPost2010PropOp39
 70
     1
102
RTVSPost2010Prop40
 90
        0
102
RTVSPost2010PropOp40
 70
     1
102
RTVSPost2010Prop41ColorIndex
 90
       18
102
RTVSPost2010Prop41ColorRGB
 90
        0
102
RTVSPost2010PropOp41
 70
     1
102
RTVSPost2010Prop42
 90
       50
102
RTVSPost2010PropOp42
 70
     1
102
RTVSPost2010Prop43
 90
        3
102
RTVSPost2010PropOp43
 70
     1
102
RTVSPost2010Prop44ColorIndex
 90
        5
102
RTVSPost2010Prop44ColorRGB
 90
      255
102
RTVSPost2010PropOp44
 70
     1
102
RTVSPost2010Prop45
280
     0
102
RTVSPost2010PropOp45
 70
     1
102
RTVSPost2010Prop46
 90
       50
102
RTVSPost2010PropOp46
 70
     1
102
RTVSPost2010Prop47
 90
       50
102
RTVSPost2010PropOp47
 70
     1
102
RTVSPost2010Prop48
 90
       50
102
RTVSPost2010PropOp48
 70
     1
102
RTVSPost2010Prop49
280
     0
102
RTVSPost2010PropOp49
 70
     1
102
RTVSPost2010Prop50
 90
       50
102
RTVSPost2010PropOp50
 70
     1
102
RTVSPost2010Prop51ColorIndex
 90
      256
102
RTVSPost2010Prop51ColorRGB
 90
-16777216
102
RTVSPost2010PropOp51
 70
     0
102
RTVSPost2010Prop52
140
1.0
102
RTVSPost2010PropOp52
 70
     0
102
RTVSPost2010Prop53
 90
        2
102
RTVSPost2010PropOp53
 70
     1
102
RTVSPost2010Prop54
  1
strokes_ogs.tif
102
RTVSPost2010PropOp54
 70
     1
102
RTVSPost2010Prop55
280
     0
102
RTVSPost2010PropOp55
 70
     1
102
RTVSPost2010Prop56
140
1.0
102
RTVSPost2010PropOp56
 70
     1
102
RTVSPost2010Prop57
140
1.0
102
RTVSPost2010PropOp57
 70
     1
102
RTVSPropertyOp0
 70
     1
102
RTVSPropertyOp1
 70
     1
102
RTVSPropertyOp2
 70
     1
102
RTVSPropertyOp3
 70
     1
102
RTVSPropertyOp4
 70
     1
102
RTVSPropertyOp5
 70
     1
102
RTVSPropertyOp6
 70
     1
102
RTVSPropertyOp7
 70
     1
102
RTVSPropertyOp8
 70
     1
102
RTVSPropertyOp9
 70
     1
102
RTVSPropertyOp10
 70
     1
102
RTVSPropertyOp11
 70
     1
102
RTVSPropertyOp12
 70
     1
102
RTVSPropertyOp13
 70
     1
102
RTVSPropertyOp14
 70
     1
102
RTVSPropertyOp15
 70
     1
102
RTVSPropertyOp16
 70
     1
102
RTVSPropertyOp17
 70
     1
102
RTVSPropertyOp18
 70
     1
102
RTVSPropertyOp19
 70
     1
102
RTVSPropertyOp20
 70
     1
102
RTVSPropertyOp21
 70
     1
102
RTVSPropertyOp22
 70
     1
102
RTVSPropertyOp23
 70
     1
102
RTVSPropertyOp24
 70
     1
102
RTVSPropertyOp25
 70
     1
102
RTVSPropertyOp26
 70
     1
102
RTVSPropertyOp27
 70
     1
102
RTVSPropertyOp28
 70
     1
102
RTVSPropertyOp29
 70
     1
102
RTVSPropertyOp30
 70
     1
102
RTVSPropertyOp31
 70
     1
102
RTVSPropertyOp32
 70
     1
102
RTVSPropertyOp33
 70
     1
102
RTVSPropertyOp34
 70
     1
102
RTVSPropertyOp35
 70
     1
102
RTVSPropertyOp36
 70
     1
102
RTVSPropertyOp37
 70
     1
102
RTVSPropertyOp38
 70
     1
102
RTVSPropertyOp39
 70
     1
102
RTVSPropertyOp40
 70
     1
102
RTVSPropertyOp41
 70
     1
102
RTVSPropertyOp42
 70
     1
102
RTVSPropertyOp43
 70
     1
102
RTVSPropertyOp44
 70
     1
102
RTVSPropertyOp45
 70
     1
102
RTVSPropertyOp46
 70
     1
102
RTVSPropertyOp47
 70
     1
102
RTVSPropertyOp48
 70
     1
102
RTVSPropertyOp49
 70
     1
102
RTVSPropertyOp50
 70
     1
102
RTVSPropertyOp51
 70
     0
102
RTVSPropertyOp52
 70
     0
102
RTVSPropertyOp53
 70
     1
102
RTVSPropertyOp54
 70
     1
102
RTVSPropertyOp55
 70
     1
102
RTVSPropertyOp56
 70
     1
102
RTVSPropertyOp57
 70
     1
102
RTVSPropertyOp58
 70
     1
102
RTVSPropertyOp59
 70
     1
102
RTVSPropertyOp60
 70
     1
102
RTVSPropertyOp61
 70
     1
102
RTVSPropertyOp62
 70
     1
  0
XRECORD
  5
FE853
102
{ACAD_REACTORS
330
FE852
102
}
330
FE852
100
AcDbXrecord
280
     1
102
RTVSPost2010Prop28
280
     0
102
RTVSPost2010PropOp28
 70
     1
102
RTVSPost2010Prop29
280
     1
102
RTVSPost2010PropOp29
 70
     1
102
RTVSPost2010Prop30
280
     1
102
RTVSPost2010PropOp30
 70
     1
102
RTVSPost2010Prop31
280
     0
102
RTVSPost2010PropOp31
 70
     1
102
RTVSPost2010Prop32
280
     0
102
RTVSPost2010PropOp32
 70
     1
102
RTVSPost2010Prop33
280
     0
102
RTVSPost2010PropOp33
 70
     1
102
RTVSPost2010Prop34
280
     0
102
RTVSPost2010PropOp34
 70
     1
102
RTVSPost2010Prop35
280
     0
102
RTVSPost2010PropOp35
 70
     1
102
RTVSPost2010Prop36
280
     0
102
RTVSPost2010PropOp36
 70
     1
102
RTVSPost2010Prop37
 90
       50
102
RTVSPost2010PropOp37
 70
     1
102
RTVSPost2010Prop38
140
0.0
102
RTVSPost2010PropOp38
 70
     1
102
RTVSPost2010Prop39
140
1.0
102
RTVSPost2010PropOp39
 70
     1
102
RTVSPost2010Prop40
 90
        0
102
RTVSPost2010PropOp40
 70
     1
102
RTVSPost2010Prop41ColorIndex
 90
       18
102
RTVSPost2010Prop41ColorRGB
 90
        0
102
RTVSPost2010PropOp41
 70
     1
102
RTVSPost2010Prop42
 90
       50
102
RTVSPost2010PropOp42
 70
     1
102
RTVSPost2010Prop43
 90
        3
102
RTVSPost2010PropOp43
 70
     1
102
RTVSPost2010Prop44ColorIndex
 90
        5
102
RTVSPost2010Prop44ColorRGB
 90
      255
102
RTVSPost2010PropOp44
 70
     1
102
RTVSPost2010Prop45
280
     0
102
RTVSPost2010PropOp45
 70
     1
102
RTVSPost2010Prop46
 90
       50
102
RTVSPost2010PropOp46
 70
     1
102
RTVSPost2010Prop47
 90
       50
102
RTVSPost2010PropOp47
 70
     1
102
RTVSPost2010Prop48
 90
       50
102
RTVSPost2010PropOp48
 70
     1
102
RTVSPost2010Prop49
280
     0
102
RTVSPost2010PropOp49
 70
     1
102
RTVSPost2010Prop50
 90
       50
102
RTVSPost2010PropOp50
 70
     1
102
RTVSPost2010Prop51ColorIndex
 90
      256
102
RTVSPost2010Prop51ColorRGB
 90
-16777216
102
RTVSPost2010PropOp51
 70
     0
102
RTVSPost2010Prop52
140
1.0
102
RTVSPost2010PropOp52
 70
     0
102
RTVSPost2010Prop53
 90
        2
102
RTVSPost2010PropOp53
 70
     1
102
RTVSPost2010Prop54
  1
strokes_ogs.tif
102
RTVSPost2010PropOp54
 70
     1
102
RTVSPost2010Prop55
280
     0
102
RTVSPost2010PropOp55
 70
     1
102
RTVSPost2010Prop56
140
1.0
102
RTVSPost2010PropOp56
 70
     1
102
RTVSPost2010Prop57
140
1.0
102
RTVSPost2010PropOp57
 70
     1
102
RTVSPropertyOp0
 70
     1
102
RTVSPropertyOp1
 70
     1
102
RTVSPropertyOp2
 70
     1
102
RTVSPropertyOp3
 70
     1
102
RTVSPropertyOp4
 70
     1
102
RTVSPropertyOp5
 70
     1
102
RTVSPropertyOp6
 70
     1
102
RTVSPropertyOp7
 70
     1
102
RTVSPropertyOp8
 70
     1
102
RTVSPropertyOp9
 70
     1
102
RTVSPropertyOp10
 70
     1
102
RTVSPropertyOp11
 70
     1
102
RTVSPropertyOp12
 70
     1
102
RTVSPropertyOp13
 70
     1
102
RTVSPropertyOp14
 70
     1
102
RTVSPropertyOp15
 70
     1
102
RTVSPropertyOp16
 70
     1
102
RTVSPropertyOp17
 70
     1
102
RTVSPropertyOp18
 70
     1
102
RTVSPropertyOp19
 70
     1
102
RTVSPropertyOp20
 70
     1
102
RTVSPropertyOp21
 70
     1
102
RTVSPropertyOp22
 70
     1
102
RTVSPropertyOp23
 70
     1
102
RTVSPropertyOp24
 70
     1
102
RTVSPropertyOp25
 70
     1
102
RTVSPropertyOp26
 70
     1
102
RTVSPropertyOp27
 70
     1
102
RTVSPropertyOp28
 70
     1
102
RTVSPropertyOp29
 70
     1
102
RTVSPropertyOp30
 70
     1
102
RTVSPropertyOp31
 70
     1
102
RTVSPropertyOp32
 70
     1
102
RTVSPropertyOp33
 70
     1
102
RTVSPropertyOp34
 70
     1
102
RTVSPropertyOp35
 70
     1
102
RTVSPropertyOp36
 70
     1
102
RTVSPropertyOp37
 70
     1
102
RTVSPropertyOp38
 70
     1
102
RTVSPropertyOp39
 70
     1
102
RTVSPropertyOp40
 70
     1
102
RTVSPropertyOp41
 70
     1
102
RTVSPropertyOp42
 70
     1
102
RTVSPropertyOp43
 70
     1
102
RTVSPropertyOp44
 70
     1
102
RTVSPropertyOp45
 70
     1
102
RTVSPropertyOp46
 70
     1
102
RTVSPropertyOp47
 70
     1
102
RTVSPropertyOp48
 70
     1
102
RTVSPropertyOp49
 70
     1
102
RTVSPropertyOp50
 70
     1
102
RTVSPropertyOp51
 70
     0
102
RTVSPropertyOp52
 70
     0
102
RTVSPropertyOp53
 70
     1
102
RTVSPropertyOp54
 70
     1
102
RTVSPropertyOp55
 70
     1
102
RTVSPropertyOp56
 70
     1
102
RTVSPropertyOp57
 70
     1
102
RTVSPropertyOp58
 70
     1
102
RTVSPropertyOp59
 70
     1
102
RTVSPropertyOp60
 70
     1
102
RTVSPropertyOp61
 70
     1
102
RTVSPropertyOp62
 70
     1
  0
XRECORD
  5
FE86D
102
{ACAD_REACTORS
330
FE86C
102
}
330
FE86C
100
AcDbXrecord
280
     1
102
RTVSPost2010Prop28
280
     0
102
RTVSPost2010PropOp28
 70
     0
102
RTVSPost2010Prop29
280
     1
102
RTVSPost2010PropOp29
 70
     0
102
RTVSPost2010Prop30
280
     1
102
RTVSPost2010PropOp30
 70
     0
102
RTVSPost2010Prop31
280
     0
102
RTVSPost2010PropOp31
 70
     0
102
RTVSPost2010Prop32
280
     0
102
RTVSPost2010PropOp32
 70
     0
102
RTVSPost2010Prop33
280
     0
102
RTVSPost2010PropOp33
 70
     0
102
RTVSPost2010Prop34
280
     0
102
RTVSPost2010PropOp34
 70
     0
102
RTVSPost2010Prop35
280
     0
102
RTVSPost2010PropOp35
 70
     0
102
RTVSPost2010Prop36
280
     0
102
RTVSPost2010PropOp36
 70
     0
102
RTVSPost2010Prop37
 90
       50
102
RTVSPost2010PropOp37
 70
     0
102
RTVSPost2010Prop38
140
0.0
102
RTVSPost2010PropOp38
 70
     0
102
RTVSPost2010Prop39
140
1.0
102
RTVSPost2010PropOp39
 70
     0
102
RTVSPost2010Prop40
 90
        0
102
RTVSPost2010PropOp40
 70
     0
102
RTVSPost2010Prop41ColorIndex
 90
       18
102
RTVSPost2010Prop41ColorRGB
 90
        0
102
RTVSPost2010PropOp41
 70
     0
102
RTVSPost2010Prop42
 90
       50
102
RTVSPost2010PropOp42
 70
     0
102
RTVSPost2010Prop43
 90
        3
102
RTVSPost2010PropOp43
 70
     0
102
RTVSPost2010Prop44ColorIndex
 90
        5
102
RTVSPost2010Prop44ColorRGB
 90
      255
102
RTVSPost2010PropOp44
 70
     0
102
RTVSPost2010Prop45
280
     0
102
RTVSPost2010PropOp45
 70
     0
102
RTVSPost2010Prop46
 90
       50
102
RTVSPost2010PropOp46
 70
     0
102
RTVSPost2010Prop47
 90
       50
102
RTVSPost2010PropOp47
 70
     0
102
RTVSPost2010Prop48
 90
       50
102
RTVSPost2010PropOp48
 70
     0
102
RTVSPost2010Prop49
280
     0
102
RTVSPost2010PropOp49
 70
     0
102
RTVSPost2010Prop50
 90
       50
102
RTVSPost2010PropOp50
 70
     0
102
RTVSPost2010Prop51ColorIndex
 90
      256
102
RTVSPost2010Prop51ColorRGB
 90
-16777216
102
RTVSPost2010PropOp51
 70
     0
102
RTVSPost2010Prop52
140
1.0
102
RTVSPost2010PropOp52
 70
     0
102
RTVSPost2010Prop53
 90
        2
102
RTVSPost2010PropOp53
 70
     0
102
RTVSPost2010Prop54
  1
strokes_ogs.tif
102
RTVSPost2010PropOp54
 70
     0
102
RTVSPost2010Prop55
280
     0
102
RTVSPost2010PropOp55
 70
     0
102
RTVSPost2010Prop56
140
1.0
102
RTVSPost2010PropOp56
 70
     0
102
RTVSPost2010Prop57
140
1.0
102
RTVSPost2010PropOp57
 70
     0
102
RTVSPropertyOp0
 70
     0
102
RTVSPropertyOp1
 70
     0
102
RTVSPropertyOp2
 70
     0
102
RTVSPropertyOp3
 70
     0
102
RTVSPropertyOp4
 70
     0
102
RTVSPropertyOp5
 70
     0
102
RTVSPropertyOp6
 70
     0
102
RTVSPropertyOp7
 70
     0
102
RTVSPropertyOp8
 70
     0
102
RTVSPropertyOp9
 70
     0
102
RTVSPropertyOp10
 70
     0
102
RTVSPropertyOp11
 70
     0
102
RTVSPropertyOp12
 70
     0
102
RTVSPropertyOp13
 70
     0
102
RTVSPropertyOp14
 70
     2
102
RTVSPropertyOp15
 70
     0
102
RTVSPropertyOp16
 70
     0
102
RTVSPropertyOp17
 70
     0
102
RTVSPropertyOp18
 70
     0
102
RTVSPropertyOp19
 70
     0
102
RTVSPropertyOp20
 70
     0
102
RTVSPropertyOp21
 70
     0
102
RTVSPropertyOp22
 70
     0
102
RTVSPropertyOp23
 70
     0
102
RTVSPropertyOp24
 70
     0
102
RTVSPropertyOp25
 70
     0
102
RTVSPropertyOp26
 70
     0
102
RTVSPropertyOp27
 70
     0
102
RTVSPropertyOp28
 70
     0
102
RTVSPropertyOp29
 70
     0
102
RTVSPropertyOp30
 70
     0
102
RTVSPropertyOp31
 70
     0
102
RTVSPropertyOp32
 70
     0
102
RTVSPropertyOp33
 70
     0
102
RTVSPropertyOp34
 70
     0
102
RTVSPropertyOp35
 70
     0
102
RTVSPropertyOp36
 70
     0
102
RTVSPropertyOp37
 70
     0
102
RTVSPropertyOp38
 70
     0
102
RTVSPropertyOp39
 70
     0
102
RTVSPropertyOp40
 70
     0
102
RTVSPropertyOp41
 70
     0
102
RTVSPropertyOp42
 70
     0
102
RTVSPropertyOp43
 70
     0
102
RTVSPropertyOp44
 70
     0
102
RTVSPropertyOp45
 70
     0
102
RTVSPropertyOp46
 70
     0
102
RTVSPropertyOp47
 70
     0
102
RTVSPropertyOp48
 70
     0
102
RTVSPropertyOp49
 70
     0
102
RTVSPropertyOp50
 70
     0
102
RTVSPropertyOp51
 70
     0
102
RTVSPropertyOp52
 70
     0
102
RTVSPropertyOp53
 70
     0
102
RTVSPropertyOp54
 70
     0
102
RTVSPropertyOp55
 70
     0
102
RTVSPropertyOp56
 70
     0
102
RTVSPropertyOp57
 70
     0
102
RTVSPropertyOp58
 70
     0
102
RTVSPropertyOp59
 70
     0
102
RTVSPropertyOp60
 70
     0
102
RTVSPropertyOp61
 70
     0
102
RTVSPropertyOp62
 70
     0
  0
XRECORD
  5
FE85B
102
{ACAD_REACTORS
330
FE85A
102
}
330
FE85A
100
AcDbXrecord
280
     1
102
RTVSPost2010Prop28
280
     0
102
RTVSPost2010PropOp28
 70
     1
102
RTVSPost2010Prop29
280
     1
102
RTVSPost2010PropOp29
 70
     1
102
RTVSPost2010Prop30
280
     1
102
RTVSPost2010PropOp30
 70
     1
102
RTVSPost2010Prop31
280
     0
102
RTVSPost2010PropOp31
 70
     1
102
RTVSPost2010Prop32
280
     0
102
RTVSPost2010PropOp32
 70
     1
102
RTVSPost2010Prop33
280
     0
102
RTVSPost2010PropOp33
 70
     1
102
RTVSPost2010Prop34
280
     0
102
RTVSPost2010PropOp34
 70
     1
102
RTVSPost2010Prop35
280
     0
102
RTVSPost2010PropOp35
 70
     1
102
RTVSPost2010Prop36
280
     0
102
RTVSPost2010PropOp36
 70
     1
102
RTVSPost2010Prop37
 90
       50
102
RTVSPost2010PropOp37
 70
     1
102
RTVSPost2010Prop38
140
0.0
102
RTVSPost2010PropOp38
 70
     1
102
RTVSPost2010Prop39
140
1.0
102
RTVSPost2010PropOp39
 70
     1
102
RTVSPost2010Prop40
 90
        0
102
RTVSPost2010PropOp40
 70
     1
102
RTVSPost2010Prop41ColorIndex
 90
       18
102
RTVSPost2010Prop41ColorRGB
 90
        0
102
RTVSPost2010PropOp41
 70
     1
102
RTVSPost2010Prop42
 90
       50
102
RTVSPost2010PropOp42
 70
     1
102
RTVSPost2010Prop43
 90
        3
102
RTVSPost2010PropOp43
 70
     1
102
RTVSPost2010Prop44ColorIndex
 90
        5
102
RTVSPost2010Prop44ColorRGB
 90
      255
102
RTVSPost2010PropOp44
 70
     1
102
RTVSPost2010Prop45
280
     0
102
RTVSPost2010PropOp45
 70
     1
102
RTVSPost2010Prop46
 90
       50
102
RTVSPost2010PropOp46
 70
     1
102
RTVSPost2010Prop47
 90
       50
102
RTVSPost2010PropOp47
 70
     1
102
RTVSPost2010Prop48
 90
       50
102
RTVSPost2010PropOp48
 70
     1
102
RTVSPost2010Prop49
280
     0
102
RTVSPost2010PropOp49
 70
     1
102
RTVSPost2010Prop50
 90
       50
102
RTVSPost2010PropOp50
 70
     1
102
RTVSPost2010Prop51ColorIndex
 90
      256
102
RTVSPost2010Prop51ColorRGB
 90
-16777216
102
RTVSPost2010PropOp51
 70
     0
102
RTVSPost2010Prop52
140
1.0
102
RTVSPost2010PropOp52
 70
     0
102
RTVSPost2010Prop53
 90
        2
102
RTVSPost2010PropOp53
 70
     1
102
RTVSPost2010Prop54
  1
strokes_ogs.tif
102
RTVSPost2010PropOp54
 70
     1
102
RTVSPost2010Prop55
280
     0
102
RTVSPost2010PropOp55
 70
     1
102
RTVSPost2010Prop56
140
1.0
102
RTVSPost2010PropOp56
 70
     1
102
RTVSPost2010Prop57
140
1.0
102
RTVSPost2010PropOp57
 70
     1
102
RTVSPropertyOp0
 70
     1
102
RTVSPropertyOp1
 70
     1
102
RTVSPropertyOp2
 70
     1
102
RTVSPropertyOp3
 70
     1
102
RTVSPropertyOp4
 70
     1
102
RTVSPropertyOp5
 70
     1
102
RTVSPropertyOp6
 70
     1
102
RTVSPropertyOp7
 70
     1
102
RTVSPropertyOp8
 70
     1
102
RTVSPropertyOp9
 70
     1
102
RTVSPropertyOp10
 70
     1
102
RTVSPropertyOp11
 70
     1
102
RTVSPropertyOp12
 70
     1
102
RTVSPropertyOp13
 70
     1
102
RTVSPropertyOp14
 70
     1
102
RTVSPropertyOp15
 70
     1
102
RTVSPropertyOp16
 70
     1
102
RTVSPropertyOp17
 70
     1
102
RTVSPropertyOp18
 70
     1
102
RTVSPropertyOp19
 70
     1
102
RTVSPropertyOp20
 70
     1
102
RTVSPropertyOp21
 70
     1
102
RTVSPropertyOp22
 70
     1
102
RTVSPropertyOp23
 70
     1
102
RTVSPropertyOp24
 70
     1
102
RTVSPropertyOp25
 70
     1
102
RTVSPropertyOp26
 70
     1
102
RTVSPropertyOp27
 70
     1
102
RTVSPropertyOp28
 70
     1
102
RTVSPropertyOp29
 70
     1
102
RTVSPropertyOp30
 70
     1
102
RTVSPropertyOp31
 70
     1
102
RTVSPropertyOp32
 70
     1
102
RTVSPropertyOp33
 70
     1
102
RTVSPropertyOp34
 70
     1
102
RTVSPropertyOp35
 70
     1
102
RTVSPropertyOp36
 70
     1
102
RTVSPropertyOp37
 70
     1
102
RTVSPropertyOp38
 70
     1
102
RTVSPropertyOp39
 70
     1
102
RTVSPropertyOp40
 70
     1
102
RTVSPropertyOp41
 70
     1
102
RTVSPropertyOp42
 70
     1
102
RTVSPropertyOp43
 70
     1
102
RTVSPropertyOp44
 70
     1
102
RTVSPropertyOp45
 70
     1
102
RTVSPropertyOp46
 70
     1
102
RTVSPropertyOp47
 70
     1
102
RTVSPropertyOp48
 70
     1
102
RTVSPropertyOp49
 70
     1
102
RTVSPropertyOp50
 70
     1
102
RTVSPropertyOp51
 70
     0
102
RTVSPropertyOp52
 70
     0
102
RTVSPropertyOp53
 70
     1
102
RTVSPropertyOp54
 70
     1
102
RTVSPropertyOp55
 70
     1
102
RTVSPropertyOp56
 70
     1
102
RTVSPropertyOp57
 70
     1
102
RTVSPropertyOp58
 70
     1
102
RTVSPropertyOp59
 70
     1
102
RTVSPropertyOp60
 70
     1
102
RTVSPropertyOp61
 70
     1
102
RTVSPropertyOp62
 70
     1
  0
XRECORD
  5
FE83F
102
{ACAD_REACTORS
330
FE83E
102
}
330
FE83E
100
AcDbXrecord
280
     1
102
RTVSPost2010Prop28
280
     0
102
RTVSPost2010PropOp28
 70
     1
102
RTVSPost2010Prop29
280
     1
102
RTVSPost2010PropOp29
 70
     1
102
RTVSPost2010Prop30
280
     1
102
RTVSPost2010PropOp30
 70
     1
102
RTVSPost2010Prop31
280
     0
102
RTVSPost2010PropOp31
 70
     1
102
RTVSPost2010Prop32
280
     0
102
RTVSPost2010PropOp32
 70
     1
102
RTVSPost2010Prop33
280
     0
102
RTVSPost2010PropOp33
 70
     1
102
RTVSPost2010Prop34
280
     0
102
RTVSPost2010PropOp34
 70
     1
102
RTVSPost2010Prop35
280
     0
102
RTVSPost2010PropOp35
 70
     1
102
RTVSPost2010Prop36
280
     0
102
RTVSPost2010PropOp36
 70
     1
102
RTVSPost2010Prop37
 90
       50
102
RTVSPost2010PropOp37
 70
     1
102
RTVSPost2010Prop38
140
0.0
102
RTVSPost2010PropOp38
 70
     1
102
RTVSPost2010Prop39
140
1.0
102
RTVSPost2010PropOp39
 70
     1
102
RTVSPost2010Prop40
 90
        0
102
RTVSPost2010PropOp40
 70
     1
102
RTVSPost2010Prop41ColorIndex
 90
       18
102
RTVSPost2010Prop41ColorRGB
 90
        0
102
RTVSPost2010PropOp41
 70
     1
102
RTVSPost2010Prop42
 90
       50
102
RTVSPost2010PropOp42
 70
     1
102
RTVSPost2010Prop43
 90
        3
102
RTVSPost2010PropOp43
 70
     1
102
RTVSPost2010Prop44ColorIndex
 90
        5
102
RTVSPost2010Prop44ColorRGB
 90
      255
102
RTVSPost2010PropOp44
 70
     1
102
RTVSPost2010Prop45
280
     0
102
RTVSPost2010PropOp45
 70
     1
102
RTVSPost2010Prop46
 90
       50
102
RTVSPost2010PropOp46
 70
     1
102
RTVSPost2010Prop47
 90
       50
102
RTVSPost2010PropOp47
 70
     1
102
RTVSPost2010Prop48
 90
       50
102
RTVSPost2010PropOp48
 70
     1
102
RTVSPost2010Prop49
280
     0
102
RTVSPost2010PropOp49
 70
     1
102
RTVSPost2010Prop50
 90
       50
102
RTVSPost2010PropOp50
 70
     1
102
RTVSPost2010Prop51ColorIndex
 90
      256
102
RTVSPost2010Prop51ColorRGB
 90
-16777216
102
RTVSPost2010PropOp51
 70
     0
102
RTVSPost2010Prop52
140
1.0
102
RTVSPost2010PropOp52
 70
     0
102
RTVSPost2010Prop53
 90
        2
102
RTVSPost2010PropOp53
 70
     1
102
RTVSPost2010Prop54
  1
strokes_ogs.tif
102
RTVSPost2010PropOp54
 70
     1
102
RTVSPost2010Prop55
280
     0
102
RTVSPost2010PropOp55
 70
     1
102
RTVSPost2010Prop56
140
1.0
102
RTVSPost2010PropOp56
 70
     1
102
RTVSPost2010Prop57
140
1.0
102
RTVSPost2010PropOp57
 70
     1
102
RTVSPropertyOp0
 70
     1
102
RTVSPropertyOp1
 70
     1
102
RTVSPropertyOp2
 70
     1
102
RTVSPropertyOp3
 70
     1
102
RTVSPropertyOp4
 70
     1
102
RTVSPropertyOp5
 70
     1
102
RTVSPropertyOp6
 70
     1
102
RTVSPropertyOp7
 70
     1
102
RTVSPropertyOp8
 70
     1
102
RTVSPropertyOp9
 70
     1
102
RTVSPropertyOp10
 70
     1
102
RTVSPropertyOp11
 70
     1
102
RTVSPropertyOp12
 70
     1
102
RTVSPropertyOp13
 70
     1
102
RTVSPropertyOp14
 70
     1
102
RTVSPropertyOp15
 70
     1
102
RTVSPropertyOp16
 70
     1
102
RTVSPropertyOp17
 70
     1
102
RTVSPropertyOp18
 70
     1
102
RTVSPropertyOp19
 70
     1
102
RTVSPropertyOp20
 70
     1
102
RTVSPropertyOp21
 70
     1
102
RTVSPropertyOp22
 70
     1
102
RTVSPropertyOp23
 70
     1
102
RTVSPropertyOp24
 70
     1
102
RTVSPropertyOp25
 70
     1
102
RTVSPropertyOp26
 70
     1
102
RTVSPropertyOp27
 70
     1
102
RTVSPropertyOp28
 70
     1
102
RTVSPropertyOp29
 70
     1
102
RTVSPropertyOp30
 70
     1
102
RTVSPropertyOp31
 70
     1
102
RTVSPropertyOp32
 70
     1
102
RTVSPropertyOp33
 70
     1
102
RTVSPropertyOp34
 70
     1
102
RTVSPropertyOp35
 70
     1
102
RTVSPropertyOp36
 70
     1
102
RTVSPropertyOp37
 70
     1
102
RTVSPropertyOp38
 70
     1
102
RTVSPropertyOp39
 70
     1
102
RTVSPropertyOp40
 70
     1
102
RTVSPropertyOp41
 70
     1
102
RTVSPropertyOp42
 70
     1
102
RTVSPropertyOp43
 70
     1
102
RTVSPropertyOp44
 70
     1
102
RTVSPropertyOp45
 70
     1
102
RTVSPropertyOp46
 70
     1
102
RTVSPropertyOp47
 70
     1
102
RTVSPropertyOp48
 70
     1
102
RTVSPropertyOp49
 70
     1
102
RTVSPropertyOp50
 70
     1
102
RTVSPropertyOp51
 70
     0
102
RTVSPropertyOp52
 70
     0
102
RTVSPropertyOp53
 70
     1
102
RTVSPropertyOp54
 70
     1
102
RTVSPropertyOp55
 70
     1
102
RTVSPropertyOp56
 70
     1
102
RTVSPropertyOp57
 70
     1
102
RTVSPropertyOp58
 70
     1
102
RTVSPropertyOp59
 70
     1
102
RTVSPropertyOp60
 70
     1
102
RTVSPropertyOp61
 70
     1
102
RTVSPropertyOp62
 70
     1
  0
XRECORD
  5
FE841
102
{ACAD_REACTORS
330
FE840
102
}
330
FE840
100
AcDbXrecord
280
     1
102
RTVSPost2010Prop28
280
     0
102
RTVSPost2010PropOp28
 70
     1
102
RTVSPost2010Prop29
280
     1
102
RTVSPost2010PropOp29
 70
     1
102
RTVSPost2010Prop30
280
     1
102
RTVSPost2010PropOp30
 70
     1
102
RTVSPost2010Prop31
280
     0
102
RTVSPost2010PropOp31
 70
     1
102
RTVSPost2010Prop32
280
     0
102
RTVSPost2010PropOp32
 70
     1
102
RTVSPost2010Prop33
280
     0
102
RTVSPost2010PropOp33
 70
     1
102
RTVSPost2010Prop34
280
     0
102
RTVSPost2010PropOp34
 70
     1
102
RTVSPost2010Prop35
280
     0
102
RTVSPost2010PropOp35
 70
     1
102
RTVSPost2010Prop36
280
     0
102
RTVSPost2010PropOp36
 70
     1
102
RTVSPost2010Prop37
 90
       50
102
RTVSPost2010PropOp37
 70
     1
102
RTVSPost2010Prop38
140
0.0
102
RTVSPost2010PropOp38
 70
     1
102
RTVSPost2010Prop39
140
1.0
102
RTVSPost2010PropOp39
 70
     1
102
RTVSPost2010Prop40
 90
        0
102
RTVSPost2010PropOp40
 70
     1
102
RTVSPost2010Prop41ColorIndex
 90
       18
102
RTVSPost2010Prop41ColorRGB
 90
        0
102
RTVSPost2010PropOp41
 70
     1
102
RTVSPost2010Prop42
 90
       50
102
RTVSPost2010PropOp42
 70
     1
102
RTVSPost2010Prop43
 90
        3
102
RTVSPost2010PropOp43
 70
     1
102
RTVSPost2010Prop44ColorIndex
 90
        5
102
RTVSPost2010Prop44ColorRGB
 90
      255
102
RTVSPost2010PropOp44
 70
     1
102
RTVSPost2010Prop45
280
     0
102
RTVSPost2010PropOp45
 70
     1
102
RTVSPost2010Prop46
 90
       50
102
RTVSPost2010PropOp46
 70
     1
102
RTVSPost2010Prop47
 90
       50
102
RTVSPost2010PropOp47
 70
     1
102
RTVSPost2010Prop48
 90
       50
102
RTVSPost2010PropOp48
 70
     1
102
RTVSPost2010Prop49
280
     0
102
RTVSPost2010PropOp49
 70
     1
102
RTVSPost2010Prop50
 90
       50
102
RTVSPost2010PropOp50
 70
     1
102
RTVSPost2010Prop51ColorIndex
 90
      256
102
RTVSPost2010Prop51ColorRGB
 90
-16777216
102
RTVSPost2010PropOp51
 70
     0
102
RTVSPost2010Prop52
140
1.0
102
RTVSPost2010PropOp52
 70
     0
102
RTVSPost2010Prop53
 90
        2
102
RTVSPost2010PropOp53
 70
     1
102
RTVSPost2010Prop54
  1
strokes_ogs.tif
102
RTVSPost2010PropOp54
 70
     1
102
RTVSPost2010Prop55
280
     0
102
RTVSPost2010PropOp55
 70
     1
102
RTVSPost2010Prop56
140
1.0
102
RTVSPost2010PropOp56
 70
     1
102
RTVSPost2010Prop57
140
1.0
102
RTVSPost2010PropOp57
 70
     1
102
RTVSPropertyOp0
 70
     1
102
RTVSPropertyOp1
 70
     1
102
RTVSPropertyOp2
 70
     1
102
RTVSPropertyOp3
 70
     1
102
RTVSPropertyOp4
 70
     1
102
RTVSPropertyOp5
 70
     1
102
RTVSPropertyOp6
 70
     1
102
RTVSPropertyOp7
 70
     1
102
RTVSPropertyOp8
 70
     1
102
RTVSPropertyOp9
 70
     1
102
RTVSPropertyOp10
 70
     1
102
RTVSPropertyOp11
 70
     1
102
RTVSPropertyOp12
 70
     1
102
RTVSPropertyOp13
 70
     1
102
RTVSPropertyOp14
 70
     1
102
RTVSPropertyOp15
 70
     1
102
RTVSPropertyOp16
 70
     1
102
RTVSPropertyOp17
 70
     1
102
RTVSPropertyOp18
 70
     1
102
RTVSPropertyOp19
 70
     1
102
RTVSPropertyOp20
 70
     1
102
RTVSPropertyOp21
 70
     1
102
RTVSPropertyOp22
 70
     1
102
RTVSPropertyOp23
 70
     1
102
RTVSPropertyOp24
 70
     1
102
RTVSPropertyOp25
 70
     1
102
RTVSPropertyOp26
 70
     1
102
RTVSPropertyOp27
 70
     1
102
RTVSPropertyOp28
 70
     1
102
RTVSPropertyOp29
 70
     1
102
RTVSPropertyOp30
 70
     1
102
RTVSPropertyOp31
 70
     1
102
RTVSPropertyOp32
 70
     1
102
RTVSPropertyOp33
 70
     1
102
RTVSPropertyOp34
 70
     1
102
RTVSPropertyOp35
 70
     1
102
RTVSPropertyOp36
 70
     1
102
RTVSPropertyOp37
 70
     1
102
RTVSPropertyOp38
 70
     1
102
RTVSPropertyOp39
 70
     1
102
RTVSPropertyOp40
 70
     1
102
RTVSPropertyOp41
 70
     1
102
RTVSPropertyOp42
 70
     1
102
RTVSPropertyOp43
 70
     1
102
RTVSPropertyOp44
 70
     1
102
RTVSPropertyOp45
 70
     1
102
RTVSPropertyOp46
 70
     1
102
RTVSPropertyOp47
 70
     1
102
RTVSPropertyOp48
 70
     1
102
RTVSPropertyOp49
 70
     1
102
RTVSPropertyOp50
 70
     1
102
RTVSPropertyOp51
 70
     0
102
RTVSPropertyOp52
 70
     0
102
RTVSPropertyOp53
 70
     1
102
RTVSPropertyOp54
 70
     1
102
RTVSPropertyOp55
 70
     1
102
RTVSPropertyOp56
 70
     1
102
RTVSPropertyOp57
 70
     1
102
RTVSPropertyOp58
 70
     1
102
RTVSPropertyOp59
 70
     1
102
RTVSPropertyOp60
 70
     1
102
RTVSPropertyOp61
 70
     1
102
RTVSPropertyOp62
 70
     1
  0
XRECORD
  5
FE843
102
{ACAD_REACTORS
330
FE842
102
}
330
FE842
100
AcDbXrecord
280
     1
102
RTVSPost2010Prop28
280
     0
102
RTVSPost2010PropOp28
 70
     1
102
RTVSPost2010Prop29
280
     1
102
RTVSPost2010PropOp29
 70
     1
102
RTVSPost2010Prop30
280
     1
102
RTVSPost2010PropOp30
 70
     1
102
RTVSPost2010Prop31
280
     0
102
RTVSPost2010PropOp31
 70
     1
102
RTVSPost2010Prop32
280
     0
102
RTVSPost2010PropOp32
 70
     1
102
RTVSPost2010Prop33
280
     0
102
RTVSPost2010PropOp33
 70
     1
102
RTVSPost2010Prop34
280
     0
102
RTVSPost2010PropOp34
 70
     1
102
RTVSPost2010Prop35
280
     0
102
RTVSPost2010PropOp35
 70
     1
102
RTVSPost2010Prop36
280
     0
102
RTVSPost2010PropOp36
 70
     1
102
RTVSPost2010Prop37
 90
       50
102
RTVSPost2010PropOp37
 70
     1
102
RTVSPost2010Prop38
140
0.0
102
RTVSPost2010PropOp38
 70
     1
102
RTVSPost2010Prop39
140
1.0
102
RTVSPost2010PropOp39
 70
     1
102
RTVSPost2010Prop40
 90
        0
102
RTVSPost2010PropOp40
 70
     1
102
RTVSPost2010Prop41ColorIndex
 90
       18
102
RTVSPost2010Prop41ColorRGB
 90
        0
102
RTVSPost2010PropOp41
 70
     1
102
RTVSPost2010Prop42
 90
       50
102
RTVSPost2010PropOp42
 70
     1
102
RTVSPost2010Prop43
 90
        3
102
RTVSPost2010PropOp43
 70
     1
102
RTVSPost2010Prop44ColorIndex
 90
        5
102
RTVSPost2010Prop44ColorRGB
 90
      255
102
RTVSPost2010PropOp44
 70
     1
102
RTVSPost2010Prop45
280
     0
102
RTVSPost2010PropOp45
 70
     1
102
RTVSPost2010Prop46
 90
       50
102
RTVSPost2010PropOp46
 70
     1
102
RTVSPost2010Prop47
 90
       50
102
RTVSPost2010PropOp47
 70
     1
102
RTVSPost2010Prop48
 90
       50
102
RTVSPost2010PropOp48
 70
     1
102
RTVSPost2010Prop49
280
     0
102
RTVSPost2010PropOp49
 70
     1
102
RTVSPost2010Prop50
 90
       50
102
RTVSPost2010PropOp50
 70
     1
102
RTVSPost2010Prop51ColorIndex
 90
      256
102
RTVSPost2010Prop51ColorRGB
 90
-16777216
102
RTVSPost2010PropOp51
 70
     0
102
RTVSPost2010Prop52
140
1.0
102
RTVSPost2010PropOp52
 70
     0
102
RTVSPost2010Prop53
 90
        2
102
RTVSPost2010PropOp53
 70
     1
102
RTVSPost2010Prop54
  1
strokes_ogs.tif
102
RTVSPost2010PropOp54
 70
     1
102
RTVSPost2010Prop55
280
     0
102
RTVSPost2010PropOp55
 70
     1
102
RTVSPost2010Prop56
140
1.0
102
RTVSPost2010PropOp56
 70
     1
102
RTVSPost2010Prop57
140
1.0
102
RTVSPost2010PropOp57
 70
     1
102
RTVSPropertyOp0
 70
     1
102
RTVSPropertyOp1
 70
     1
102
RTVSPropertyOp2
 70
     1
102
RTVSPropertyOp3
 70
     1
102
RTVSPropertyOp4
 70
     1
102
RTVSPropertyOp5
 70
     1
102
RTVSPropertyOp6
 70
     1
102
RTVSPropertyOp7
 70
     1
102
RTVSPropertyOp8
 70
     1
102
RTVSPropertyOp9
 70
     1
102
RTVSPropertyOp10
 70
     1
102
RTVSPropertyOp11
 70
     1
102
RTVSPropertyOp12
 70
     1
102
RTVSPropertyOp13
 70
     1
102
RTVSPropertyOp14
 70
     1
102
RTVSPropertyOp15
 70
     1
102
RTVSPropertyOp16
 70
     1
102
RTVSPropertyOp17
 70
     1
102
RTVSPropertyOp18
 70
     1
102
RTVSPropertyOp19
 70
     1
102
RTVSPropertyOp20
 70
     1
102
RTVSPropertyOp21
 70
     1
102
RTVSPropertyOp22
 70
     1
102
RTVSPropertyOp23
 70
     1
102
RTVSPropertyOp24
 70
     1
102
RTVSPropertyOp25
 70
     1
102
RTVSPropertyOp26
 70
     1
102
RTVSPropertyOp27
 70
     1
102
RTVSPropertyOp28
 70
     1
102
RTVSPropertyOp29
 70
     1
102
RTVSPropertyOp30
 70
     1
102
RTVSPropertyOp31
 70
     1
102
RTVSPropertyOp32
 70
     1
102
RTVSPropertyOp33
 70
     1
102
RTVSPropertyOp34
 70
     1
102
RTVSPropertyOp35
 70
     1
102
RTVSPropertyOp36
 70
     1
102
RTVSPropertyOp37
 70
     1
102
RTVSPropertyOp38
 70
     1
102
RTVSPropertyOp39
 70
     1
102
RTVSPropertyOp40
 70
     1
102
RTVSPropertyOp41
 70
     1
102
RTVSPropertyOp42
 70
     1
102
RTVSPropertyOp43
 70
     1
102
RTVSPropertyOp44
 70
     1
102
RTVSPropertyOp45
 70
     1
102
RTVSPropertyOp46
 70
     1
102
RTVSPropertyOp47
 70
     1
102
RTVSPropertyOp48
 70
     1
102
RTVSPropertyOp49
 70
     1
102
RTVSPropertyOp50
 70
     1
102
RTVSPropertyOp51
 70
     0
102
RTVSPropertyOp52
 70
     0
102
RTVSPropertyOp53
 70
     1
102
RTVSPropertyOp54
 70
     1
102
RTVSPropertyOp55
 70
     1
102
RTVSPropertyOp56
 70
     1
102
RTVSPropertyOp57
 70
     1
102
RTVSPropertyOp58
 70
     1
102
RTVSPropertyOp59
 70
     1
102
RTVSPropertyOp60
 70
     1
102
RTVSPropertyOp61
 70
     1
102
RTVSPropertyOp62
 70
     1
  0
XRECORD
  5
FE845
102
{ACAD_REACTORS
330
FE844
102
}
330
FE844
100
AcDbXrecord
280
     1
102
RTVSPost2010Prop28
280
     0
102
RTVSPost2010PropOp28
 70
     1
102
RTVSPost2010Prop29
280
     1
102
RTVSPost2010PropOp29
 70
     1
102
RTVSPost2010Prop30
280
     1
102
RTVSPost2010PropOp30
 70
     1
102
RTVSPost2010Prop31
280
     0
102
RTVSPost2010PropOp31
 70
     1
102
RTVSPost2010Prop32
280
     0
102
RTVSPost2010PropOp32
 70
     1
102
RTVSPost2010Prop33
280
     0
102
RTVSPost2010PropOp33
 70
     1
102
RTVSPost2010Prop34
280
     0
102
RTVSPost2010PropOp34
 70
     1
102
RTVSPost2010Prop35
280
     0
102
RTVSPost2010PropOp35
 70
     1
102
RTVSPost2010Prop36
280
     0
102
RTVSPost2010PropOp36
 70
     1
102
RTVSPost2010Prop37
 90
       50
102
RTVSPost2010PropOp37
 70
     1
102
RTVSPost2010Prop38
140
0.0
102
RTVSPost2010PropOp38
 70
     1
102
RTVSPost2010Prop39
140
1.0
102
RTVSPost2010PropOp39
 70
     1
102
RTVSPost2010Prop40
 90
        0
102
RTVSPost2010PropOp40
 70
     1
102
RTVSPost2010Prop41ColorIndex
 90
       18
102
RTVSPost2010Prop41ColorRGB
 90
        0
102
RTVSPost2010PropOp41
 70
     1
102
RTVSPost2010Prop42
 90
       50
102
RTVSPost2010PropOp42
 70
     1
102
RTVSPost2010Prop43
 90
        3
102
RTVSPost2010PropOp43
 70
     1
102
RTVSPost2010Prop44ColorIndex
 90
        5
102
RTVSPost2010Prop44ColorRGB
 90
      255
102
RTVSPost2010PropOp44
 70
     1
102
RTVSPost2010Prop45
280
     0
102
RTVSPost2010PropOp45
 70
     1
102
RTVSPost2010Prop46
 90
       50
102
RTVSPost2010PropOp46
 70
     1
102
RTVSPost2010Prop47
 90
       50
102
RTVSPost2010PropOp47
 70
     1
102
RTVSPost2010Prop48
 90
       50
102
RTVSPost2010PropOp48
 70
     1
102
RTVSPost2010Prop49
280
     0
102
RTVSPost2010PropOp49
 70
     1
102
RTVSPost2010Prop50
 90
       50
102
RTVSPost2010PropOp50
 70
     1
102
RTVSPost2010Prop51ColorIndex
 90
      256
102
RTVSPost2010Prop51ColorRGB
 90
-16777216
102
RTVSPost2010PropOp51
 70
     0
102
RTVSPost2010Prop52
140
1.0
102
RTVSPost2010PropOp52
 70
     0
102
RTVSPost2010Prop53
 90
        2
102
RTVSPost2010PropOp53
 70
     1
102
RTVSPost2010Prop54
  1
strokes_ogs.tif
102
RTVSPost2010PropOp54
 70
     1
102
RTVSPost2010Prop55
280
     0
102
RTVSPost2010PropOp55
 70
     1
102
RTVSPost2010Prop56
140
1.0
102
RTVSPost2010PropOp56
 70
     1
102
RTVSPost2010Prop57
140
1.0
102
RTVSPost2010PropOp57
 70
     1
102
RTVSPropertyOp0
 70
     1
102
RTVSPropertyOp1
 70
     1
102
RTVSPropertyOp2
 70
     1
102
RTVSPropertyOp3
 70
     1
102
RTVSPropertyOp4
 70
     1
102
RTVSPropertyOp5
 70
     1
102
RTVSPropertyOp6
 70
     1
102
RTVSPropertyOp7
 70
     1
102
RTVSPropertyOp8
 70
     1
102
RTVSPropertyOp9
 70
     1
102
RTVSPropertyOp10
 70
     1
102
RTVSPropertyOp11
 70
     1
102
RTVSPropertyOp12
 70
     1
102
RTVSPropertyOp13
 70
     1
102
RTVSPropertyOp14
 70
     1
102
RTVSPropertyOp15
 70
     1
102
RTVSPropertyOp16
 70
     1
102
RTVSPropertyOp17
 70
     1
102
RTVSPropertyOp18
 70
     1
102
RTVSPropertyOp19
 70
     1
102
RTVSPropertyOp20
 70
     1
102
RTVSPropertyOp21
 70
     1
102
RTVSPropertyOp22
 70
     1
102
RTVSPropertyOp23
 70
     1
102
RTVSPropertyOp24
 70
     1
102
RTVSPropertyOp25
 70
     1
102
RTVSPropertyOp26
 70
     1
102
RTVSPropertyOp27
 70
     1
102
RTVSPropertyOp28
 70
     1
102
RTVSPropertyOp29
 70
     1
102
RTVSPropertyOp30
 70
     1
102
RTVSPropertyOp31
 70
     1
102
RTVSPropertyOp32
 70
     1
102
RTVSPropertyOp33
 70
     1
102
RTVSPropertyOp34
 70
     1
102
RTVSPropertyOp35
 70
     1
102
RTVSPropertyOp36
 70
     1
102
RTVSPropertyOp37
 70
     1
102
RTVSPropertyOp38
 70
     1
102
RTVSPropertyOp39
 70
     1
102
RTVSPropertyOp40
 70
     1
102
RTVSPropertyOp41
 70
     1
102
RTVSPropertyOp42
 70
     1
102
RTVSPropertyOp43
 70
     1
102
RTVSPropertyOp44
 70
     1
102
RTVSPropertyOp45
 70
     1
102
RTVSPropertyOp46
 70
     1
102
RTVSPropertyOp47
 70
     1
102
RTVSPropertyOp48
 70
     1
102
RTVSPropertyOp49
 70
     1
102
RTVSPropertyOp50
 70
     1
102
RTVSPropertyOp51
 70
     0
102
RTVSPropertyOp52
 70
     0
102
RTVSPropertyOp53
 70
     1
102
RTVSPropertyOp54
 70
     1
102
RTVSPropertyOp55
 70
     1
102
RTVSPropertyOp56
 70
     1
102
RTVSPropertyOp57
 70
     1
102
RTVSPropertyOp58
 70
     1
102
RTVSPropertyOp59
 70
     1
102
RTVSPropertyOp60
 70
     1
102
RTVSPropertyOp61
 70
     1
102
RTVSPropertyOp62
 70
     1
  0
XRECORD
  5
FE84D
102
{ACAD_REACTORS
330
FE84C
102
}
330
FE84C
100
AcDbXrecord
280
     1
102
RTVSPost2010Prop28
280
     0
102
RTVSPost2010PropOp28
 70
     1
102
RTVSPost2010Prop29
280
     1
102
RTVSPost2010PropOp29
 70
     1
102
RTVSPost2010Prop30
280
     1
102
RTVSPost2010PropOp30
 70
     1
102
RTVSPost2010Prop31
280
     0
102
RTVSPost2010PropOp31
 70
     1
102
RTVSPost2010Prop32
280
     0
102
RTVSPost2010PropOp32
 70
     1
102
RTVSPost2010Prop33
280
     0
102
RTVSPost2010PropOp33
 70
     1
102
RTVSPost2010Prop34
280
     0
102
RTVSPost2010PropOp34
 70
     1
102
RTVSPost2010Prop35
280
     0
102
RTVSPost2010PropOp35
 70
     1
102
RTVSPost2010Prop36
280
     0
102
RTVSPost2010PropOp36
 70
     1
102
RTVSPost2010Prop37
 90
       50
102
RTVSPost2010PropOp37
 70
     1
102
RTVSPost2010Prop38
140
0.0
102
RTVSPost2010PropOp38
 70
     1
102
RTVSPost2010Prop39
140
1.0
102
RTVSPost2010PropOp39
 70
     1
102
RTVSPost2010Prop40
 90
        0
102
RTVSPost2010PropOp40
 70
     1
102
RTVSPost2010Prop41ColorIndex
 90
       18
102
RTVSPost2010Prop41ColorRGB
 90
        0
102
RTVSPost2010PropOp41
 70
     1
102
RTVSPost2010Prop42
 90
       50
102
RTVSPost2010PropOp42
 70
     1
102
RTVSPost2010Prop43
 90
        3
102
RTVSPost2010PropOp43
 70
     1
102
RTVSPost2010Prop44ColorIndex
 90
        5
102
RTVSPost2010Prop44ColorRGB
 90
      255
102
RTVSPost2010PropOp44
 70
     1
102
RTVSPost2010Prop45
280
     0
102
RTVSPost2010PropOp45
 70
     1
102
RTVSPost2010Prop46
 90
       50
102
RTVSPost2010PropOp46
 70
     1
102
RTVSPost2010Prop47
 90
       50
102
RTVSPost2010PropOp47
 70
     1
102
RTVSPost2010Prop48
 90
       50
102
RTVSPost2010PropOp48
 70
     1
102
RTVSPost2010Prop49
280
     0
102
RTVSPost2010PropOp49
 70
     1
102
RTVSPost2010Prop50
 90
       50
102
RTVSPost2010PropOp50
 70
     1
102
RTVSPost2010Prop51ColorIndex
 90
      256
102
RTVSPost2010Prop51ColorRGB
 90
-16777216
102
RTVSPost2010PropOp51
 70
     0
102
RTVSPost2010Prop52
140
1.0
102
RTVSPost2010PropOp52
 70
     0
102
RTVSPost2010Prop53
 90
        2
102
RTVSPost2010PropOp53
 70
     1
102
RTVSPost2010Prop54
  1
strokes_ogs.tif
102
RTVSPost2010PropOp54
 70
     1
102
RTVSPost2010Prop55
280
     0
102
RTVSPost2010PropOp55
 70
     1
102
RTVSPost2010Prop56
140
1.0
102
RTVSPost2010PropOp56
 70
     1
102
RTVSPost2010Prop57
140
1.0
102
RTVSPost2010PropOp57
 70
     1
102
RTVSPropertyOp0
 70
     1
102
RTVSPropertyOp1
 70
     1
102
RTVSPropertyOp2
 70
     1
102
RTVSPropertyOp3
 70
     1
102
RTVSPropertyOp4
 70
     1
102
RTVSPropertyOp5
 70
     1
102
RTVSPropertyOp6
 70
     1
102
RTVSPropertyOp7
 70
     1
102
RTVSPropertyOp8
 70
     1
102
RTVSPropertyOp9
 70
     1
102
RTVSPropertyOp10
 70
     1
102
RTVSPropertyOp11
 70
     1
102
RTVSPropertyOp12
 70
     1
102
RTVSPropertyOp13
 70
     1
102
RTVSPropertyOp14
 70
     1
102
RTVSPropertyOp15
 70
     1
102
RTVSPropertyOp16
 70
     1
102
RTVSPropertyOp17
 70
     1
102
RTVSPropertyOp18
 70
     1
102
RTVSPropertyOp19
 70
     1
102
RTVSPropertyOp20
 70
     1
102
RTVSPropertyOp21
 70
     1
102
RTVSPropertyOp22
 70
     1
102
RTVSPropertyOp23
 70
     1
102
RTVSPropertyOp24
 70
     1
102
RTVSPropertyOp25
 70
     1
102
RTVSPropertyOp26
 70
     1
102
RTVSPropertyOp27
 70
     1
102
RTVSPropertyOp28
 70
     1
102
RTVSPropertyOp29
 70
     1
102
RTVSPropertyOp30
 70
     1
102
RTVSPropertyOp31
 70
     1
102
RTVSPropertyOp32
 70
     1
102
RTVSPropertyOp33
 70
     1
102
RTVSPropertyOp34
 70
     1
102
RTVSPropertyOp35
 70
     1
102
RTVSPropertyOp36
 70
     1
102
RTVSPropertyOp37
 70
     1
102
RTVSPropertyOp38
 70
     1
102
RTVSPropertyOp39
 70
     1
102
RTVSPropertyOp40
 70
     1
102
RTVSPropertyOp41
 70
     1
102
RTVSPropertyOp42
 70
     1
102
RTVSPropertyOp43
 70
     1
102
RTVSPropertyOp44
 70
     1
102
RTVSPropertyOp45
 70
     1
102
RTVSPropertyOp46
 70
     1
102
RTVSPropertyOp47
 70
     1
102
RTVSPropertyOp48
 70
     1
102
RTVSPropertyOp49
 70
     1
102
RTVSPropertyOp50
 70
     1
102
RTVSPropertyOp51
 70
     0
102
RTVSPropertyOp52
 70
     0
102
RTVSPropertyOp53
 70
     1
102
RTVSPropertyOp54
 70
     1
102
RTVSPropertyOp55
 70
     1
102
RTVSPropertyOp56
 70
     1
102
RTVSPropertyOp57
 70
     1
102
RTVSPropertyOp58
 70
     1
102
RTVSPropertyOp59
 70
     1
102
RTVSPropertyOp60
 70
     1
102
RTVSPropertyOp61
 70
     1
102
RTVSPropertyOp62
 70
     1
  0
XRECORD
  5
FE869
102
{ACAD_REACTORS
330
FE868
102
}
330
FE868
100
AcDbXrecord
280
     1
102
RTVSPost2010Prop28
280
     0
102
RTVSPost2010PropOp28
 70
     0
102
RTVSPost2010Prop29
280
     1
102
RTVSPost2010PropOp29
 70
     0
102
RTVSPost2010Prop30
280
     1
102
RTVSPost2010PropOp30
 70
     0
102
RTVSPost2010Prop31
280
     0
102
RTVSPost2010PropOp31
 70
     0
102
RTVSPost2010Prop32
280
     0
102
RTVSPost2010PropOp32
 70
     0
102
RTVSPost2010Prop33
280
     0
102
RTVSPost2010PropOp33
 70
     0
102
RTVSPost2010Prop34
280
     0
102
RTVSPost2010PropOp34
 70
     0
102
RTVSPost2010Prop35
280
     0
102
RTVSPost2010PropOp35
 70
     0
102
RTVSPost2010Prop36
280
     0
102
RTVSPost2010PropOp36
 70
     0
102
RTVSPost2010Prop37
 90
       50
102
RTVSPost2010PropOp37
 70
     0
102
RTVSPost2010Prop38
140
0.0
102
RTVSPost2010PropOp38
 70
     0
102
RTVSPost2010Prop39
140
1.0
102
RTVSPost2010PropOp39
 70
     0
102
RTVSPost2010Prop40
 90
        0
102
RTVSPost2010PropOp40
 70
     0
102
RTVSPost2010Prop41ColorIndex
 90
       18
102
RTVSPost2010Prop41ColorRGB
 90
        0
102
RTVSPost2010PropOp41
 70
     0
102
RTVSPost2010Prop42
 90
       50
102
RTVSPost2010PropOp42
 70
     0
102
RTVSPost2010Prop43
 90
        3
102
RTVSPost2010PropOp43
 70
     0
102
RTVSPost2010Prop44ColorIndex
 90
        5
102
RTVSPost2010Prop44ColorRGB
 90
      255
102
RTVSPost2010PropOp44
 70
     0
102
RTVSPost2010Prop45
280
     0
102
RTVSPost2010PropOp45
 70
     0
102
RTVSPost2010Prop46
 90
       50
102
RTVSPost2010PropOp46
 70
     0
102
RTVSPost2010Prop47
 90
       50
102
RTVSPost2010PropOp47
 70
     0
102
RTVSPost2010Prop48
 90
       50
102
RTVSPost2010PropOp48
 70
     0
102
RTVSPost2010Prop49
280
     0
102
RTVSPost2010PropOp49
 70
     0
102
RTVSPost2010Prop50
 90
       50
102
RTVSPost2010PropOp50
 70
     0
102
RTVSPost2010Prop51ColorIndex
 90
      256
102
RTVSPost2010Prop51ColorRGB
 90
-16777216
102
RTVSPost2010PropOp51
 70
     0
102
RTVSPost2010Prop52
140
1.0
102
RTVSPost2010PropOp52
 70
     0
102
RTVSPost2010Prop53
 90
        2
102
RTVSPost2010PropOp53
 70
     0
102
RTVSPost2010Prop54
  1
strokes_ogs.tif
102
RTVSPost2010PropOp54
 70
     0
102
RTVSPost2010Prop55
280
     0
102
RTVSPost2010PropOp55
 70
     0
102
RTVSPost2010Prop56
140
1.0
102
RTVSPost2010PropOp56
 70
     0
102
RTVSPost2010Prop57
140
1.0
102
RTVSPost2010PropOp57
 70
     0
102
RTVSPropertyOp0
 70
     0
102
RTVSPropertyOp1
 70
     0
102
RTVSPropertyOp2
 70
     0
102
RTVSPropertyOp3
 70
     0
102
RTVSPropertyOp4
 70
     0
102
RTVSPropertyOp5
 70
     0
102
RTVSPropertyOp6
 70
     0
102
RTVSPropertyOp7
 70
     0
102
RTVSPropertyOp8
 70
     0
102
RTVSPropertyOp9
 70
     0
102
RTVSPropertyOp10
 70
     0
102
RTVSPropertyOp11
 70
     0
102
RTVSPropertyOp12
 70
     0
102
RTVSPropertyOp13
 70
     0
102
RTVSPropertyOp14
 70
     2
102
RTVSPropertyOp15
 70
     0
102
RTVSPropertyOp16
 70
     0
102
RTVSPropertyOp17
 70
     0
102
RTVSPropertyOp18
 70
     0
102
RTVSPropertyOp19
 70
     0
102
RTVSPropertyOp20
 70
     0
102
RTVSPropertyOp21
 70
     0
102
RTVSPropertyOp22
 70
     0
102
RTVSPropertyOp23
 70
     0
102
RTVSPropertyOp24
 70
     0
102
RTVSPropertyOp25
 70
     0
102
RTVSPropertyOp26
 70
     0
102
RTVSPropertyOp27
 70
     0
102
RTVSPropertyOp28
 70
     0
102
RTVSPropertyOp29
 70
     0
102
RTVSPropertyOp30
 70
     0
102
RTVSPropertyOp31
 70
     0
102
RTVSPropertyOp32
 70
     0
102
RTVSPropertyOp33
 70
     0
102
RTVSPropertyOp34
 70
     0
102
RTVSPropertyOp35
 70
     0
102
RTVSPropertyOp36
 70
     0
102
RTVSPropertyOp37
 70
     0
102
RTVSPropertyOp38
 70
     0
102
RTVSPropertyOp39
 70
     0
102
RTVSPropertyOp40
 70
     0
102
RTVSPropertyOp41
 70
     0
102
RTVSPropertyOp42
 70
     0
102
RTVSPropertyOp43
 70
     0
102
RTVSPropertyOp44
 70
     0
102
RTVSPropertyOp45
 70
     0
102
RTVSPropertyOp46
 70
     0
102
RTVSPropertyOp47
 70
     0
102
RTVSPropertyOp48
 70
     0
102
RTVSPropertyOp49
 70
     0
102
RTVSPropertyOp50
 70
     0
102
RTVSPropertyOp51
 70
     0
102
RTVSPropertyOp52
 70
     0
102
RTVSPropertyOp53
 70
     0
102
RTVSPropertyOp54
 70
     0
102
RTVSPropertyOp55
 70
     0
102
RTVSPropertyOp56
 70
     0
102
RTVSPropertyOp57
 70
     0
102
RTVSPropertyOp58
 70
     0
102
RTVSPropertyOp59
 70
     0
102
RTVSPropertyOp60
 70
     0
102
RTVSPropertyOp61
 70
     0
102
RTVSPropertyOp62
 70
     0
  0
XRECORD
  5
FE859
102
{ACAD_REACTORS
330
FE858
102
}
330
FE858
100
AcDbXrecord
280
     1
102
RTVSPost2010Prop28
280
     0
102
RTVSPost2010PropOp28
 70
     1
102
RTVSPost2010Prop29
280
     1
102
RTVSPost2010PropOp29
 70
     1
102
RTVSPost2010Prop30
280
     1
102
RTVSPost2010PropOp30
 70
     1
102
RTVSPost2010Prop31
280
     0
102
RTVSPost2010PropOp31
 70
     1
102
RTVSPost2010Prop32
280
     0
102
RTVSPost2010PropOp32
 70
     1
102
RTVSPost2010Prop33
280
     0
102
RTVSPost2010PropOp33
 70
     1
102
RTVSPost2010Prop34
280
     0
102
RTVSPost2010PropOp34
 70
     1
102
RTVSPost2010Prop35
280
     0
102
RTVSPost2010PropOp35
 70
     1
102
RTVSPost2010Prop36
280
     0
102
RTVSPost2010PropOp36
 70
     1
102
RTVSPost2010Prop37
 90
       50
102
RTVSPost2010PropOp37
 70
     1
102
RTVSPost2010Prop38
140
0.0
102
RTVSPost2010PropOp38
 70
     1
102
RTVSPost2010Prop39
140
1.0
102
RTVSPost2010PropOp39
 70
     1
102
RTVSPost2010Prop40
 90
        0
102
RTVSPost2010PropOp40
 70
     1
102
RTVSPost2010Prop41ColorIndex
 90
       18
102
RTVSPost2010Prop41ColorRGB
 90
        0
102
RTVSPost2010PropOp41
 70
     1
102
RTVSPost2010Prop42
 90
       50
102
RTVSPost2010PropOp42
 70
     1
102
RTVSPost2010Prop43
 90
        3
102
RTVSPost2010PropOp43
 70
     1
102
RTVSPost2010Prop44ColorIndex
 90
        5
102
RTVSPost2010Prop44ColorRGB
 90
      255
102
RTVSPost2010PropOp44
 70
     1
102
RTVSPost2010Prop45
280
     0
102
RTVSPost2010PropOp45
 70
     1
102
RTVSPost2010Prop46
 90
       50
102
RTVSPost2010PropOp46
 70
     1
102
RTVSPost2010Prop47
 90
       50
102
RTVSPost2010PropOp47
 70
     1
102
RTVSPost2010Prop48
 90
       50
102
RTVSPost2010PropOp48
 70
     1
102
RTVSPost2010Prop49
280
     0
102
RTVSPost2010PropOp49
 70
     1
102
RTVSPost2010Prop50
 90
       50
102
RTVSPost2010PropOp50
 70
     1
102
RTVSPost2010Prop51ColorIndex
 90
      256
102
RTVSPost2010Prop51ColorRGB
 90
-16777216
102
RTVSPost2010PropOp51
 70
     0
102
RTVSPost2010Prop52
140
1.0
102
RTVSPost2010PropOp52
 70
     0
102
RTVSPost2010Prop53
 90
        2
102
RTVSPost2010PropOp53
 70
     1
102
RTVSPost2010Prop54
  1
strokes_ogs.tif
102
RTVSPost2010PropOp54
 70
     1
102
RTVSPost2010Prop55
280
     0
102
RTVSPost2010PropOp55
 70
     1
102
RTVSPost2010Prop56
140
1.0
102
RTVSPost2010PropOp56
 70
     1
102
RTVSPost2010Prop57
140
1.0
102
RTVSPost2010PropOp57
 70
     1
102
RTVSPropertyOp0
 70
     1
102
RTVSPropertyOp1
 70
     1
102
RTVSPropertyOp2
 70
     1
102
RTVSPropertyOp3
 70
     1
102
RTVSPropertyOp4
 70
     1
102
RTVSPropertyOp5
 70
     1
102
RTVSPropertyOp6
 70
     1
102
RTVSPropertyOp7
 70
     1
102
RTVSPropertyOp8
 70
     1
102
RTVSPropertyOp9
 70
     1
102
RTVSPropertyOp10
 70
     1
102
RTVSPropertyOp11
 70
     1
102
RTVSPropertyOp12
 70
     1
102
RTVSPropertyOp13
 70
     1
102
RTVSPropertyOp14
 70
     1
102
RTVSPropertyOp15
 70
     1
102
RTVSPropertyOp16
 70
     1
102
RTVSPropertyOp17
 70
     1
102
RTVSPropertyOp18
 70
     1
102
RTVSPropertyOp19
 70
     1
102
RTVSPropertyOp20
 70
     1
102
RTVSPropertyOp21
 70
     1
102
RTVSPropertyOp22
 70
     1
102
RTVSPropertyOp23
 70
     1
102
RTVSPropertyOp24
 70
     1
102
RTVSPropertyOp25
 70
     1
102
RTVSPropertyOp26
 70
     1
102
RTVSPropertyOp27
 70
     1
102
RTVSPropertyOp28
 70
     1
102
RTVSPropertyOp29
 70
     1
102
RTVSPropertyOp30
 70
     1
102
RTVSPropertyOp31
 70
     1
102
RTVSPropertyOp32
 70
     1
102
RTVSPropertyOp33
 70
     1
102
RTVSPropertyOp34
 70
     1
102
RTVSPropertyOp35
 70
     1
102
RTVSPropertyOp36
 70
     1
102
RTVSPropertyOp37
 70
     1
102
RTVSPropertyOp38
 70
     1
102
RTVSPropertyOp39
 70
     1
102
RTVSPropertyOp40
 70
     1
102
RTVSPropertyOp41
 70
     1
102
RTVSPropertyOp42
 70
     1
102
RTVSPropertyOp43
 70
     1
102
RTVSPropertyOp44
 70
     1
102
RTVSPropertyOp45
 70
     1
102
RTVSPropertyOp46
 70
     1
102
RTVSPropertyOp47
 70
     1
102
RTVSPropertyOp48
 70
     1
102
RTVSPropertyOp49
 70
     1
102
RTVSPropertyOp50
 70
     1
102
RTVSPropertyOp51
 70
     0
102
RTVSPropertyOp52
 70
     0
102
RTVSPropertyOp53
 70
     1
102
RTVSPropertyOp54
 70
     1
102
RTVSPropertyOp55
 70
     1
102
RTVSPropertyOp56
 70
     1
102
RTVSPropertyOp57
 70
     1
102
RTVSPropertyOp58
 70
     1
102
RTVSPropertyOp59
 70
     1
102
RTVSPropertyOp60
 70
     1
102
RTVSPropertyOp61
 70
     1
102
RTVSPropertyOp62
 70
     1
  0
XRECORD
  5
FE86B
102
{ACAD_REACTORS
330
FE86A
102
}
330
FE86A
100
AcDbXrecord
280
     1
102
RTVSPost2010Prop28
280
     0
102
RTVSPost2010PropOp28
 70
     0
102
RTVSPost2010Prop29
280
     1
102
RTVSPost2010PropOp29
 70
     0
102
RTVSPost2010Prop30
280
     1
102
RTVSPost2010PropOp30
 70
     0
102
RTVSPost2010Prop31
280
     0
102
RTVSPost2010PropOp31
 70
     0
102
RTVSPost2010Prop32
280
     0
102
RTVSPost2010PropOp32
 70
     0
102
RTVSPost2010Prop33
280
     0
102
RTVSPost2010PropOp33
 70
     0
102
RTVSPost2010Prop34
280
     0
102
RTVSPost2010PropOp34
 70
     0
102
RTVSPost2010Prop35
280
     0
102
RTVSPost2010PropOp35
 70
     0
102
RTVSPost2010Prop36
280
     0
102
RTVSPost2010PropOp36
 70
     0
102
RTVSPost2010Prop37
 90
       50
102
RTVSPost2010PropOp37
 70
     0
102
RTVSPost2010Prop38
140
0.0
102
RTVSPost2010PropOp38
 70
     0
102
RTVSPost2010Prop39
140
1.0
102
RTVSPost2010PropOp39
 70
     0
102
RTVSPost2010Prop40
 90
        0
102
RTVSPost2010PropOp40
 70
     0
102
RTVSPost2010Prop41ColorIndex
 90
       18
102
RTVSPost2010Prop41ColorRGB
 90
        0
102
RTVSPost2010PropOp41
 70
     0
102
RTVSPost2010Prop42
 90
       50
102
RTVSPost2010PropOp42
 70
     0
102
RTVSPost2010Prop43
 90
        3
102
RTVSPost2010PropOp43
 70
     0
102
RTVSPost2010Prop44ColorIndex
 90
        5
102
RTVSPost2010Prop44ColorRGB
 90
      255
102
RTVSPost2010PropOp44
 70
     0
102
RTVSPost2010Prop45
280
     0
102
RTVSPost2010PropOp45
 70
     0
102
RTVSPost2010Prop46
 90
       50
102
RTVSPost2010PropOp46
 70
     0
102
RTVSPost2010Prop47
 90
       50
102
RTVSPost2010PropOp47
 70
     0
102
RTVSPost2010Prop48
 90
       50
102
RTVSPost2010PropOp48
 70
     0
102
RTVSPost2010Prop49
280
     0
102
RTVSPost2010PropOp49
 70
     0
102
RTVSPost2010Prop50
 90
       50
102
RTVSPost2010PropOp50
 70
     0
102
RTVSPost2010Prop51ColorIndex
 90
      256
102
RTVSPost2010Prop51ColorRGB
 90
-16777216
102
RTVSPost2010PropOp51
 70
     0
102
RTVSPost2010Prop52
140
1.0
102
RTVSPost2010PropOp52
 70
     0
102
RTVSPost2010Prop53
 90
        2
102
RTVSPost2010PropOp53
 70
     0
102
RTVSPost2010Prop54
  1
strokes_ogs.tif
102
RTVSPost2010PropOp54
 70
     0
102
RTVSPost2010Prop55
280
     0
102
RTVSPost2010PropOp55
 70
     0
102
RTVSPost2010Prop56
140
1.0
102
RTVSPost2010PropOp56
 70
     0
102
RTVSPost2010Prop57
140
1.0
102
RTVSPost2010PropOp57
 70
     0
102
RTVSPropertyOp0
 70
     0
102
RTVSPropertyOp1
 70
     0
102
RTVSPropertyOp2
 70
     0
102
RTVSPropertyOp3
 70
     0
102
RTVSPropertyOp4
 70
     0
102
RTVSPropertyOp5
 70
     0
102
RTVSPropertyOp6
 70
     0
102
RTVSPropertyOp7
 70
     0
102
RTVSPropertyOp8
 70
     0
102
RTVSPropertyOp9
 70
     0
102
RTVSPropertyOp10
 70
     0
102
RTVSPropertyOp11
 70
     0
102
RTVSPropertyOp12
 70
     0
102
RTVSPropertyOp13
 70
     0
102
RTVSPropertyOp14
 70
     2
102
RTVSPropertyOp15
 70
     0
102
RTVSPropertyOp16
 70
     0
102
RTVSPropertyOp17
 70
     0
102
RTVSPropertyOp18
 70
     0
102
RTVSPropertyOp19
 70
     0
102
RTVSPropertyOp20
 70
     0
102
RTVSPropertyOp21
 70
     0
102
RTVSPropertyOp22
 70
     0
102
RTVSPropertyOp23
 70
     0
102
RTVSPropertyOp24
 70
     0
102
RTVSPropertyOp25
 70
     0
102
RTVSPropertyOp26
 70
     0
102
RTVSPropertyOp27
 70
     0
102
RTVSPropertyOp28
 70
     0
102
RTVSPropertyOp29
 70
     0
102
RTVSPropertyOp30
 70
     0
102
RTVSPropertyOp31
 70
     0
102
RTVSPropertyOp32
 70
     0
102
RTVSPropertyOp33
 70
     0
102
RTVSPropertyOp34
 70
     0
102
RTVSPropertyOp35
 70
     0
102
RTVSPropertyOp36
 70
     0
102
RTVSPropertyOp37
 70
     0
102
RTVSPropertyOp38
 70
     0
102
RTVSPropertyOp39
 70
     0
102
RTVSPropertyOp40
 70
     0
102
RTVSPropertyOp41
 70
     0
102
RTVSPropertyOp42
 70
     0
102
RTVSPropertyOp43
 70
     0
102
RTVSPropertyOp44
 70
     0
102
RTVSPropertyOp45
 70
     0
102
RTVSPropertyOp46
 70
     0
102
RTVSPropertyOp47
 70
     0
102
RTVSPropertyOp48
 70
     0
102
RTVSPropertyOp49
 70
     0
102
RTVSPropertyOp50
 70
     0
102
RTVSPropertyOp51
 70
     0
102
RTVSPropertyOp52
 70
     0
102
RTVSPropertyOp53
 70
     0
102
RTVSPropertyOp54
 70
     0
102
RTVSPropertyOp55
 70
     0
102
RTVSPropertyOp56
 70
     0
102
RTVSPropertyOp57
 70
     0
102
RTVSPropertyOp58
 70
     0
102
RTVSPropertyOp59
 70
     0
102
RTVSPropertyOp60
 70
     0
102
RTVSPropertyOp61
 70
     0
102
RTVSPropertyOp62
 70
     0
  0
XRECORD
  5
FE851
102
{ACAD_REACTORS
330
FE850
102
}
330
FE850
100
AcDbXrecord
280
     1
102
RTVSPost2010Prop28
280
     0
102
RTVSPost2010PropOp28
 70
     1
102
RTVSPost2010Prop29
280
     1
102
RTVSPost2010PropOp29
 70
     1
102
RTVSPost2010Prop30
280
     1
102
RTVSPost2010PropOp30
 70
     1
102
RTVSPost2010Prop31
280
     0
102
RTVSPost2010PropOp31
 70
     1
102
RTVSPost2010Prop32
280
     0
102
RTVSPost2010PropOp32
 70
     1
102
RTVSPost2010Prop33
280
     0
102
RTVSPost2010PropOp33
 70
     1
102
RTVSPost2010Prop34
280
     0
102
RTVSPost2010PropOp34
 70
     1
102
RTVSPost2010Prop35
280
     0
102
RTVSPost2010PropOp35
 70
     1
102
RTVSPost2010Prop36
280
     0
102
RTVSPost2010PropOp36
 70
     1
102
RTVSPost2010Prop37
 90
       50
102
RTVSPost2010PropOp37
 70
     1
102
RTVSPost2010Prop38
140
0.0
102
RTVSPost2010PropOp38
 70
     1
102
RTVSPost2010Prop39
140
1.0
102
RTVSPost2010PropOp39
 70
     1
102
RTVSPost2010Prop40
 90
        0
102
RTVSPost2010PropOp40
 70
     1
102
RTVSPost2010Prop41ColorIndex
 90
       18
102
RTVSPost2010Prop41ColorRGB
 90
        0
102
RTVSPost2010PropOp41
 70
     1
102
RTVSPost2010Prop42
 90
       50
102
RTVSPost2010PropOp42
 70
     1
102
RTVSPost2010Prop43
 90
        3
102
RTVSPost2010PropOp43
 70
     1
102
RTVSPost2010Prop44ColorIndex
 90
        5
102
RTVSPost2010Prop44ColorRGB
 90
      255
102
RTVSPost2010PropOp44
 70
     1
102
RTVSPost2010Prop45
280
     0
102
RTVSPost2010PropOp45
 70
     1
102
RTVSPost2010Prop46
 90
       50
102
RTVSPost2010PropOp46
 70
     1
102
RTVSPost2010Prop47
 90
       50
102
RTVSPost2010PropOp47
 70
     1
102
RTVSPost2010Prop48
 90
       50
102
RTVSPost2010PropOp48
 70
     1
102
RTVSPost2010Prop49
280
     0
102
RTVSPost2010PropOp49
 70
     1
102
RTVSPost2010Prop50
 90
       50
102
RTVSPost2010PropOp50
 70
     1
102
RTVSPost2010Prop51ColorIndex
 90
      256
102
RTVSPost2010Prop51ColorRGB
 90
-16777216
102
RTVSPost2010PropOp51
 70
     0
102
RTVSPost2010Prop52
140
1.0
102
RTVSPost2010PropOp52
 70
     0
102
RTVSPost2010Prop53
 90
        2
102
RTVSPost2010PropOp53
 70
     1
102
RTVSPost2010Prop54
  1
strokes_ogs.tif
102
RTVSPost2010PropOp54
 70
     1
102
RTVSPost2010Prop55
280
     0
102
RTVSPost2010PropOp55
 70
     1
102
RTVSPost2010Prop56
140
1.0
102
RTVSPost2010PropOp56
 70
     1
102
RTVSPost2010Prop57
140
1.0
102
RTVSPost2010PropOp57
 70
     1
102
RTVSPropertyOp0
 70
     1
102
RTVSPropertyOp1
 70
     1
102
RTVSPropertyOp2
 70
     1
102
RTVSPropertyOp3
 70
     1
102
RTVSPropertyOp4
 70
     1
102
RTVSPropertyOp5
 70
     1
102
RTVSPropertyOp6
 70
     1
102
RTVSPropertyOp7
 70
     1
102
RTVSPropertyOp8
 70
     1
102
RTVSPropertyOp9
 70
     1
102
RTVSPropertyOp10
 70
     1
102
RTVSPropertyOp11
 70
     1
102
RTVSPropertyOp12
 70
     1
102
RTVSPropertyOp13
 70
     1
102
RTVSPropertyOp14
 70
     1
102
RTVSPropertyOp15
 70
     1
102
RTVSPropertyOp16
 70
     1
102
RTVSPropertyOp17
 70
     1
102
RTVSPropertyOp18
 70
     1
102
RTVSPropertyOp19
 70
     1
102
RTVSPropertyOp20
 70
     1
102
RTVSPropertyOp21
 70
     1
102
RTVSPropertyOp22
 70
     1
102
RTVSPropertyOp23
 70
     1
102
RTVSPropertyOp24
 70
     1
102
RTVSPropertyOp25
 70
     1
102
RTVSPropertyOp26
 70
     1
102
RTVSPropertyOp27
 70
     1
102
RTVSPropertyOp28
 70
     1
102
RTVSPropertyOp29
 70
     1
102
RTVSPropertyOp30
 70
     1
102
RTVSPropertyOp31
 70
     1
102
RTVSPropertyOp32
 70
     1
102
RTVSPropertyOp33
 70
     1
102
RTVSPropertyOp34
 70
     1
102
RTVSPropertyOp35
 70
     1
102
RTVSPropertyOp36
 70
     1
102
RTVSPropertyOp37
 70
     1
102
RTVSPropertyOp38
 70
     1
102
RTVSPropertyOp39
 70
     1
102
RTVSPropertyOp40
 70
     1
102
RTVSPropertyOp41
 70
     1
102
RTVSPropertyOp42
 70
     1
102
RTVSPropertyOp43
 70
     1
102
RTVSPropertyOp44
 70
     1
102
RTVSPropertyOp45
 70
     1
102
RTVSPropertyOp46
 70
     1
102
RTVSPropertyOp47
 70
     1
102
RTVSPropertyOp48
 70
     1
102
RTVSPropertyOp49
 70
     1
102
RTVSPropertyOp50
 70
     1
102
RTVSPropertyOp51
 70
     0
102
RTVSPropertyOp52
 70
     0
102
RTVSPropertyOp53
 70
     1
102
RTVSPropertyOp54
 70
     1
102
RTVSPropertyOp55
 70
     1
102
RTVSPropertyOp56
 70
     1
102
RTVSPropertyOp57
 70
     1
102
RTVSPropertyOp58
 70
     1
102
RTVSPropertyOp59
 70
     1
102
RTVSPropertyOp60
 70
     1
102
RTVSPropertyOp61
 70
     1
102
RTVSPropertyOp62
 70
     1
  0
XRECORD
  5
FE867
102
{ACAD_REACTORS
330
FE866
102
}
330
FE866
100
AcDbXrecord
280
     1
102
RTVSPost2010Prop28
280
     0
102
RTVSPost2010PropOp28
 70
     1
102
RTVSPost2010Prop29
280
     1
102
RTVSPost2010PropOp29
 70
     1
102
RTVSPost2010Prop30
280
     1
102
RTVSPost2010PropOp30
 70
     1
102
RTVSPost2010Prop31
280
     0
102
RTVSPost2010PropOp31
 70
     1
102
RTVSPost2010Prop32
280
     0
102
RTVSPost2010PropOp32
 70
     1
102
RTVSPost2010Prop33
280
     0
102
RTVSPost2010PropOp33
 70
     1
102
RTVSPost2010Prop34
280
     0
102
RTVSPost2010PropOp34
 70
     1
102
RTVSPost2010Prop35
280
     0
102
RTVSPost2010PropOp35
 70
     1
102
RTVSPost2010Prop36
280
     0
102
RTVSPost2010PropOp36
 70
     1
102
RTVSPost2010Prop37
 90
       50
102
RTVSPost2010PropOp37
 70
     1
102
RTVSPost2010Prop38
140
0.0
102
RTVSPost2010PropOp38
 70
     1
102
RTVSPost2010Prop39
140
1.0
102
RTVSPost2010PropOp39
 70
     1
102
RTVSPost2010Prop40
 90
        0
102
RTVSPost2010PropOp40
 70
     1
102
RTVSPost2010Prop41ColorIndex
 90
       18
102
RTVSPost2010Prop41ColorRGB
 90
        0
102
RTVSPost2010PropOp41
 70
     1
102
RTVSPost2010Prop42
 90
       50
102
RTVSPost2010PropOp42
 70
     1
102
RTVSPost2010Prop43
 90
        3
102
RTVSPost2010PropOp43
 70
     1
102
RTVSPost2010Prop44ColorIndex
 90
        5
102
RTVSPost2010Prop44ColorRGB
 90
      255
102
RTVSPost2010PropOp44
 70
     1
102
RTVSPost2010Prop45
280
     0
102
RTVSPost2010PropOp45
 70
     1
102
RTVSPost2010Prop46
 90
       50
102
RTVSPost2010PropOp46
 70
     1
102
RTVSPost2010Prop47
 90
       50
102
RTVSPost2010PropOp47
 70
     1
102
RTVSPost2010Prop48
 90
       50
102
RTVSPost2010PropOp48
 70
     1
102
RTVSPost2010Prop49
280
     0
102
RTVSPost2010PropOp49
 70
     1
102
RTVSPost2010Prop50
 90
       50
102
RTVSPost2010PropOp50
 70
     1
102
RTVSPost2010Prop51ColorIndex
 90
      256
102
RTVSPost2010Prop51ColorRGB
 90
-16777216
102
RTVSPost2010PropOp51
 70
     0
102
RTVSPost2010Prop52
140
1.0
102
RTVSPost2010PropOp52
 70
     0
102
RTVSPost2010Prop53
 90
        2
102
RTVSPost2010PropOp53
 70
     1
102
RTVSPost2010Prop54
  1
strokes_ogs.tif
102
RTVSPost2010PropOp54
 70
     1
102
RTVSPost2010Prop55
280
     0
102
RTVSPost2010PropOp55
 70
     1
102
RTVSPost2010Prop56
140
1.0
102
RTVSPost2010PropOp56
 70
     1
102
RTVSPost2010Prop57
140
1.0
102
RTVSPost2010PropOp57
 70
     1
102
RTVSPropertyOp0
 70
     1
102
RTVSPropertyOp1
 70
     1
102
RTVSPropertyOp2
 70
     1
102
RTVSPropertyOp3
 70
     1
102
RTVSPropertyOp4
 70
     1
102
RTVSPropertyOp5
 70
     1
102
RTVSPropertyOp6
 70
     1
102
RTVSPropertyOp7
 70
     1
102
RTVSPropertyOp8
 70
     1
102
RTVSPropertyOp9
 70
     1
102
RTVSPropertyOp10
 70
     1
102
RTVSPropertyOp11
 70
     1
102
RTVSPropertyOp12
 70
     1
102
RTVSPropertyOp13
 70
     1
102
RTVSPropertyOp14
 70
     1
102
RTVSPropertyOp15
 70
     1
102
RTVSPropertyOp16
 70
     1
102
RTVSPropertyOp17
 70
     1
102
RTVSPropertyOp18
 70
     1
102
RTVSPropertyOp19
 70
     1
102
RTVSPropertyOp20
 70
     1
102
RTVSPropertyOp21
 70
     1
102
RTVSPropertyOp22
 70
     1
102
RTVSPropertyOp23
 70
     1
102
RTVSPropertyOp24
 70
     1
102
RTVSPropertyOp25
 70
     1
102
RTVSPropertyOp26
 70
     1
102
RTVSPropertyOp27
 70
     1
102
RTVSPropertyOp28
 70
     1
102
RTVSPropertyOp29
 70
     1
102
RTVSPropertyOp30
 70
     1
102
RTVSPropertyOp31
 70
     1
102
RTVSPropertyOp32
 70
     1
102
RTVSPropertyOp33
 70
     1
102
RTVSPropertyOp34
 70
     1
102
RTVSPropertyOp35
 70
     1
102
RTVSPropertyOp36
 70
     1
102
RTVSPropertyOp37
 70
     1
102
RTVSPropertyOp38
 70
     1
102
RTVSPropertyOp39
 70
     1
102
RTVSPropertyOp40
 70
     1
102
RTVSPropertyOp41
 70
     1
102
RTVSPropertyOp42
 70
     1
102
RTVSPropertyOp43
 70
     1
102
RTVSPropertyOp44
 70
     1
102
RTVSPropertyOp45
 70
     1
102
RTVSPropertyOp46
 70
     1
102
RTVSPropertyOp47
 70
     1
102
RTVSPropertyOp48
 70
     1
102
RTVSPropertyOp49
 70
     1
102
RTVSPropertyOp50
 70
     1
102
RTVSPropertyOp51
 70
     0
102
RTVSPropertyOp52
 70
     0
102
RTVSPropertyOp53
 70
     1
102
RTVSPropertyOp54
 70
     1
102
RTVSPropertyOp55
 70
     1
102
RTVSPropertyOp56
 70
     1
102
RTVSPropertyOp57
 70
     1
102
RTVSPropertyOp58
 70
     1
102
RTVSPropertyOp59
 70
     1
102
RTVSPropertyOp60
 70
     1
102
RTVSPropertyOp61
 70
     1
102
RTVSPropertyOp62
 70
     1
  0
XRECORD
  5
FE865
102
{ACAD_REACTORS
330
FE864
102
}
330
FE864
100
AcDbXrecord
280
     1
102
RTVSPost2010Prop28
280
     0
102
RTVSPost2010PropOp28
 70
     1
102
RTVSPost2010Prop29
280
     1
102
RTVSPost2010PropOp29
 70
     1
102
RTVSPost2010Prop30
280
     1
102
RTVSPost2010PropOp30
 70
     1
102
RTVSPost2010Prop31
280
     0
102
RTVSPost2010PropOp31
 70
     1
102
RTVSPost2010Prop32
280
     0
102
RTVSPost2010PropOp32
 70
     1
102
RTVSPost2010Prop33
280
     0
102
RTVSPost2010PropOp33
 70
     1
102
RTVSPost2010Prop34
280
     0
102
RTVSPost2010PropOp34
 70
     1
102
RTVSPost2010Prop35
280
     0
102
RTVSPost2010PropOp35
 70
     1
102
RTVSPost2010Prop36
280
     0
102
RTVSPost2010PropOp36
 70
     1
102
RTVSPost2010Prop37
 90
       50
102
RTVSPost2010PropOp37
 70
     1
102
RTVSPost2010Prop38
140
0.0
102
RTVSPost2010PropOp38
 70
     1
102
RTVSPost2010Prop39
140
1.0
102
RTVSPost2010PropOp39
 70
     1
102
RTVSPost2010Prop40
 90
        0
102
RTVSPost2010PropOp40
 70
     1
102
RTVSPost2010Prop41ColorIndex
 90
       18
102
RTVSPost2010Prop41ColorRGB
 90
        0
102
RTVSPost2010PropOp41
 70
     1
102
RTVSPost2010Prop42
 90
       50
102
RTVSPost2010PropOp42
 70
     1
102
RTVSPost2010Prop43
 90
        3
102
RTVSPost2010PropOp43
 70
     1
102
RTVSPost2010Prop44ColorIndex
 90
        5
102
RTVSPost2010Prop44ColorRGB
 90
      255
102
RTVSPost2010PropOp44
 70
     1
102
RTVSPost2010Prop45
280
     0
102
RTVSPost2010PropOp45
 70
     1
102
RTVSPost2010Prop46
 90
       50
102
RTVSPost2010PropOp46
 70
     1
102
RTVSPost2010Prop47
 90
       50
102
RTVSPost2010PropOp47
 70
     1
102
RTVSPost2010Prop48
 90
       50
102
RTVSPost2010PropOp48
 70
     1
102
RTVSPost2010Prop49
280
     0
102
RTVSPost2010PropOp49
 70
     1
102
RTVSPost2010Prop50
 90
       50
102
RTVSPost2010PropOp50
 70
     1
102
RTVSPost2010Prop51ColorIndex
 90
      256
102
RTVSPost2010Prop51ColorRGB
 90
-16777216
102
RTVSPost2010PropOp51
 70
     0
102
RTVSPost2010Prop52
140
1.0
102
RTVSPost2010PropOp52
 70
     0
102
RTVSPost2010Prop53
 90
        2
102
RTVSPost2010PropOp53
 70
     1
102
RTVSPost2010Prop54
  1
strokes_ogs.tif
102
RTVSPost2010PropOp54
 70
     1
102
RTVSPost2010Prop55
280
     0
102
RTVSPost2010PropOp55
 70
     1
102
RTVSPost2010Prop56
140
1.0
102
RTVSPost2010PropOp56
 70
     1
102
RTVSPost2010Prop57
140
1.0
102
RTVSPost2010PropOp57
 70
     1
102
RTVSPropertyOp0
 70
     1
102
RTVSPropertyOp1
 70
     1
102
RTVSPropertyOp2
 70
     1
102
RTVSPropertyOp3
 70
     1
102
RTVSPropertyOp4
 70
     1
102
RTVSPropertyOp5
 70
     1
102
RTVSPropertyOp6
 70
     1
102
RTVSPropertyOp7
 70
     1
102
RTVSPropertyOp8
 70
     1
102
RTVSPropertyOp9
 70
     1
102
RTVSPropertyOp10
 70
     1
102
RTVSPropertyOp11
 70
     1
102
RTVSPropertyOp12
 70
     1
102
RTVSPropertyOp13
 70
     1
102
RTVSPropertyOp14
 70
     1
102
RTVSPropertyOp15
 70
     1
102
RTVSPropertyOp16
 70
     1
102
RTVSPropertyOp17
 70
     1
102
RTVSPropertyOp18
 70
     1
102
RTVSPropertyOp19
 70
     1
102
RTVSPropertyOp20
 70
     1
102
RTVSPropertyOp21
 70
     1
102
RTVSPropertyOp22
 70
     1
102
RTVSPropertyOp23
 70
     1
102
RTVSPropertyOp24
 70
     1
102
RTVSPropertyOp25
 70
     1
102
RTVSPropertyOp26
 70
     1
102
RTVSPropertyOp27
 70
     1
102
RTVSPropertyOp28
 70
     1
102
RTVSPropertyOp29
 70
     1
102
RTVSPropertyOp30
 70
     1
102
RTVSPropertyOp31
 70
     1
102
RTVSPropertyOp32
 70
     1
102
RTVSPropertyOp33
 70
     1
102
RTVSPropertyOp34
 70
     1
102
RTVSPropertyOp35
 70
     1
102
RTVSPropertyOp36
 70
     1
102
RTVSPropertyOp37
 70
     1
102
RTVSPropertyOp38
 70
     1
102
RTVSPropertyOp39
 70
     1
102
RTVSPropertyOp40
 70
     1
102
RTVSPropertyOp41
 70
     1
102
RTVSPropertyOp42
 70
     1
102
RTVSPropertyOp43
 70
     1
102
RTVSPropertyOp44
 70
     1
102
RTVSPropertyOp45
 70
     1
102
RTVSPropertyOp46
 70
     1
102
RTVSPropertyOp47
 70
     1
102
RTVSPropertyOp48
 70
     1
102
RTVSPropertyOp49
 70
     1
102
RTVSPropertyOp50
 70
     1
102
RTVSPropertyOp51
 70
     0
102
RTVSPropertyOp52
 70
     0
102
RTVSPropertyOp53
 70
     1
102
RTVSPropertyOp54
 70
     1
102
RTVSPropertyOp55
 70
     1
102
RTVSPropertyOp56
 70
     1
102
RTVSPropertyOp57
 70
     1
102
RTVSPropertyOp58
 70
     1
102
RTVSPropertyOp59
 70
     1
102
RTVSPropertyOp60
 70
     1
102
RTVSPropertyOp61
 70
     1
102
RTVSPropertyOp62
 70
     1
  0
XRECORD
  5
FE85F
102
{ACAD_REACTORS
330
FE85E
102
}
330
FE85E
100
AcDbXrecord
280
     1
102
RTVSPost2010Prop28
280
     0
102
RTVSPost2010PropOp28
 70
     1
102
RTVSPost2010Prop29
280
     1
102
RTVSPost2010PropOp29
 70
     1
102
RTVSPost2010Prop30
280
     1
102
RTVSPost2010PropOp30
 70
     1
102
RTVSPost2010Prop31
280
     0
102
RTVSPost2010PropOp31
 70
     1
102
RTVSPost2010Prop32
280
     0
102
RTVSPost2010PropOp32
 70
     1
102
RTVSPost2010Prop33
280
     0
102
RTVSPost2010PropOp33
 70
     1
102
RTVSPost2010Prop34
280
     0
102
RTVSPost2010PropOp34
 70
     1
102
RTVSPost2010Prop35
280
     0
102
RTVSPost2010PropOp35
 70
     1
102
RTVSPost2010Prop36
280
     0
102
RTVSPost2010PropOp36
 70
     1
102
RTVSPost2010Prop37
 90
       50
102
RTVSPost2010PropOp37
 70
     1
102
RTVSPost2010Prop38
140
0.0
102
RTVSPost2010PropOp38
 70
     1
102
RTVSPost2010Prop39
140
1.0
102
RTVSPost2010PropOp39
 70
     1
102
RTVSPost2010Prop40
 90
        0
102
RTVSPost2010PropOp40
 70
     1
102
RTVSPost2010Prop41ColorIndex
 90
       18
102
RTVSPost2010Prop41ColorRGB
 90
        0
102
RTVSPost2010PropOp41
 70
     1
102
RTVSPost2010Prop42
 90
       50
102
RTVSPost2010PropOp42
 70
     1
102
RTVSPost2010Prop43
 90
        3
102
RTVSPost2010PropOp43
 70
     1
102
RTVSPost2010Prop44ColorIndex
 90
        5
102
RTVSPost2010Prop44ColorRGB
 90
      255
102
RTVSPost2010PropOp44
 70
     1
102
RTVSPost2010Prop45
280
     0
102
RTVSPost2010PropOp45
 70
     1
102
RTVSPost2010Prop46
 90
       50
102
RTVSPost2010PropOp46
 70
     1
102
RTVSPost2010Prop47
 90
       50
102
RTVSPost2010PropOp47
 70
     1
102
RTVSPost2010Prop48
 90
       50
102
RTVSPost2010PropOp48
 70
     1
102
RTVSPost2010Prop49
280
     0
102
RTVSPost2010PropOp49
 70
     1
102
RTVSPost2010Prop50
 90
       50
102
RTVSPost2010PropOp50
 70
     1
102
RTVSPost2010Prop51ColorIndex
 90
      256
102
RTVSPost2010Prop51ColorRGB
 90
-16777216
102
RTVSPost2010PropOp51
 70
     0
102
RTVSPost2010Prop52
140
1.0
102
RTVSPost2010PropOp52
 70
     0
102
RTVSPost2010Prop53
 90
        2
102
RTVSPost2010PropOp53
 70
     1
102
RTVSPost2010Prop54
  1
strokes_ogs.tif
102
RTVSPost2010PropOp54
 70
     1
102
RTVSPost2010Prop55
280
     0
102
RTVSPost2010PropOp55
 70
     1
102
RTVSPost2010Prop56
140
1.0
102
RTVSPost2010PropOp56
 70
     1
102
RTVSPost2010Prop57
140
1.0
102
RTVSPost2010PropOp57
 70
     1
102
RTVSPropertyOp0
 70
     1
102
RTVSPropertyOp1
 70
     1
102
RTVSPropertyOp2
 70
     1
102
RTVSPropertyOp3
 70
     1
102
RTVSPropertyOp4
 70
     1
102
RTVSPropertyOp5
 70
     1
102
RTVSPropertyOp6
 70
     1
102
RTVSPropertyOp7
 70
     1
102
RTVSPropertyOp8
 70
     1
102
RTVSPropertyOp9
 70
     1
102
RTVSPropertyOp10
 70
     1
102
RTVSPropertyOp11
 70
     1
102
RTVSPropertyOp12
 70
     1
102
RTVSPropertyOp13
 70
     1
102
RTVSPropertyOp14
 70
     1
102
RTVSPropertyOp15
 70
     1
102
RTVSPropertyOp16
 70
     1
102
RTVSPropertyOp17
 70
     1
102
RTVSPropertyOp18
 70
     1
102
RTVSPropertyOp19
 70
     1
102
RTVSPropertyOp20
 70
     1
102
RTVSPropertyOp21
 70
     1
102
RTVSPropertyOp22
 70
     1
102
RTVSPropertyOp23
 70
     1
102
RTVSPropertyOp24
 70
     1
102
RTVSPropertyOp25
 70
     1
102
RTVSPropertyOp26
 70
     1
102
RTVSPropertyOp27
 70
     1
102
RTVSPropertyOp28
 70
     1
102
RTVSPropertyOp29
 70
     1
102
RTVSPropertyOp30
 70
     1
102
RTVSPropertyOp31
 70
     1
102
RTVSPropertyOp32
 70
     1
102
RTVSPropertyOp33
 70
     1
102
RTVSPropertyOp34
 70
     1
102
RTVSPropertyOp35
 70
     1
102
RTVSPropertyOp36
 70
     1
102
RTVSPropertyOp37
 70
     1
102
RTVSPropertyOp38
 70
     1
102
RTVSPropertyOp39
 70
     1
102
RTVSPropertyOp40
 70
     1
102
RTVSPropertyOp41
 70
     1
102
RTVSPropertyOp42
 70
     1
102
RTVSPropertyOp43
 70
     1
102
RTVSPropertyOp44
 70
     1
102
RTVSPropertyOp45
 70
     1
102
RTVSPropertyOp46
 70
     1
102
RTVSPropertyOp47
 70
     1
102
RTVSPropertyOp48
 70
     1
102
RTVSPropertyOp49
 70
     1
102
RTVSPropertyOp50
 70
     1
102
RTVSPropertyOp51
 70
     0
102
RTVSPropertyOp52
 70
     0
102
RTVSPropertyOp53
 70
     1
102
RTVSPropertyOp54
 70
     1
102
RTVSPropertyOp55
 70
     1
102
RTVSPropertyOp56
 70
     1
102
RTVSPropertyOp57
 70
     1
102
RTVSPropertyOp58
 70
     1
102
RTVSPropertyOp59
 70
     1
102
RTVSPropertyOp60
 70
     1
102
RTVSPropertyOp61
 70
     1
102
RTVSPropertyOp62
 70
     1
  0
XRECORD
  5
FE861
102
{ACAD_REACTORS
330
FE860
102
}
330
FE860
100
AcDbXrecord
280
     1
102
RTVSPost2010Prop28
280
     0
102
RTVSPost2010PropOp28
 70
     1
102
RTVSPost2010Prop29
280
     1
102
RTVSPost2010PropOp29
 70
     1
102
RTVSPost2010Prop30
280
     1
102
RTVSPost2010PropOp30
 70
     1
102
RTVSPost2010Prop31
280
     0
102
RTVSPost2010PropOp31
 70
     1
102
RTVSPost2010Prop32
280
     0
102
RTVSPost2010PropOp32
 70
     1
102
RTVSPost2010Prop33
280
     0
102
RTVSPost2010PropOp33
 70
     1
102
RTVSPost2010Prop34
280
     0
102
RTVSPost2010PropOp34
 70
     1
102
RTVSPost2010Prop35
280
     0
102
RTVSPost2010PropOp35
 70
     1
102
RTVSPost2010Prop36
280
     0
102
RTVSPost2010PropOp36
 70
     1
102
RTVSPost2010Prop37
 90
       50
102
RTVSPost2010PropOp37
 70
     1
102
RTVSPost2010Prop38
140
0.0
102
RTVSPost2010PropOp38
 70
     1
102
RTVSPost2010Prop39
140
1.0
102
RTVSPost2010PropOp39
 70
     1
102
RTVSPost2010Prop40
 90
        0
102
RTVSPost2010PropOp40
 70
     1
102
RTVSPost2010Prop41ColorIndex
 90
       18
102
RTVSPost2010Prop41ColorRGB
 90
        0
102
RTVSPost2010PropOp41
 70
     1
102
RTVSPost2010Prop42
 90
       50
102
RTVSPost2010PropOp42
 70
     1
102
RTVSPost2010Prop43
 90
        3
102
RTVSPost2010PropOp43
 70
     1
102
RTVSPost2010Prop44ColorIndex
 90
        5
102
RTVSPost2010Prop44ColorRGB
 90
      255
102
RTVSPost2010PropOp44
 70
     1
102
RTVSPost2010Prop45
280
     0
102
RTVSPost2010PropOp45
 70
     1
102
RTVSPost2010Prop46
 90
       50
102
RTVSPost2010PropOp46
 70
     1
102
RTVSPost2010Prop47
 90
       50
102
RTVSPost2010PropOp47
 70
     1
102
RTVSPost2010Prop48
 90
       50
102
RTVSPost2010PropOp48
 70
     1
102
RTVSPost2010Prop49
280
     0
102
RTVSPost2010PropOp49
 70
     1
102
RTVSPost2010Prop50
 90
       50
102
RTVSPost2010PropOp50
 70
     1
102
RTVSPost2010Prop51ColorIndex
 90
      256
102
RTVSPost2010Prop51ColorRGB
 90
-16777216
102
RTVSPost2010PropOp51
 70
     0
102
RTVSPost2010Prop52
140
1.0
102
RTVSPost2010PropOp52
 70
     0
102
RTVSPost2010Prop53
 90
        2
102
RTVSPost2010PropOp53
 70
     1
102
RTVSPost2010Prop54
  1
strokes_ogs.tif
102
RTVSPost2010PropOp54
 70
     1
102
RTVSPost2010Prop55
280
     0
102
RTVSPost2010PropOp55
 70
     1
102
RTVSPost2010Prop56
140
1.0
102
RTVSPost2010PropOp56
 70
     1
102
RTVSPost2010Prop57
140
1.0
102
RTVSPost2010PropOp57
 70
     1
102
RTVSPropertyOp0
 70
     1
102
RTVSPropertyOp1
 70
     1
102
RTVSPropertyOp2
 70
     1
102
RTVSPropertyOp3
 70
     1
102
RTVSPropertyOp4
 70
     1
102
RTVSPropertyOp5
 70
     1
102
RTVSPropertyOp6
 70
     1
102
RTVSPropertyOp7
 70
     1
102
RTVSPropertyOp8
 70
     1
102
RTVSPropertyOp9
 70
     1
102
RTVSPropertyOp10
 70
     1
102
RTVSPropertyOp11
 70
     1
102
RTVSPropertyOp12
 70
     1
102
RTVSPropertyOp13
 70
     1
102
RTVSPropertyOp14
 70
     1
102
RTVSPropertyOp15
 70
     1
102
RTVSPropertyOp16
 70
     1
102
RTVSPropertyOp17
 70
     1
102
RTVSPropertyOp18
 70
     1
102
RTVSPropertyOp19
 70
     1
102
RTVSPropertyOp20
 70
     1
102
RTVSPropertyOp21
 70
     1
102
RTVSPropertyOp22
 70
     1
102
RTVSPropertyOp23
 70
     1
102
RTVSPropertyOp24
 70
     1
102
RTVSPropertyOp25
 70
     1
102
RTVSPropertyOp26
 70
     1
102
RTVSPropertyOp27
 70
     1
102
RTVSPropertyOp28
 70
     1
102
RTVSPropertyOp29
 70
     1
102
RTVSPropertyOp30
 70
     1
102
RTVSPropertyOp31
 70
     1
102
RTVSPropertyOp32
 70
     1
102
RTVSPropertyOp33
 70
     1
102
RTVSPropertyOp34
 70
     1
102
RTVSPropertyOp35
 70
     1
102
RTVSPropertyOp36
 70
     1
102
RTVSPropertyOp37
 70
     1
102
RTVSPropertyOp38
 70
     1
102
RTVSPropertyOp39
 70
     1
102
RTVSPropertyOp40
 70
     1
102
RTVSPropertyOp41
 70
     1
102
RTVSPropertyOp42
 70
     1
102
RTVSPropertyOp43
 70
     1
102
RTVSPropertyOp44
 70
     1
102
RTVSPropertyOp45
 70
     1
102
RTVSPropertyOp46
 70
     1
102
RTVSPropertyOp47
 70
     1
102
RTVSPropertyOp48
 70
     1
102
RTVSPropertyOp49
 70
     1
102
RTVSPropertyOp50
 70
     1
102
RTVSPropertyOp51
 70
     0
102
RTVSPropertyOp52
 70
     0
102
RTVSPropertyOp53
 70
     1
102
RTVSPropertyOp54
 70
     1
102
RTVSPropertyOp55
 70
     1
102
RTVSPropertyOp56
 70
     1
102
RTVSPropertyOp57
 70
     1
102
RTVSPropertyOp58
 70
     1
102
RTVSPropertyOp59
 70
     1
102
RTVSPropertyOp60
 70
     1
102
RTVSPropertyOp61
 70
     1
102
RTVSPropertyOp62
 70
     1
  0
XRECORD
  5
FE857
102
{ACAD_REACTORS
330
FE856
102
}
330
FE856
100
AcDbXrecord
280
     1
102
RTVSPost2010Prop28
280
     0
102
RTVSPost2010PropOp28
 70
     1
102
RTVSPost2010Prop29
280
     1
102
RTVSPost2010PropOp29
 70
     1
102
RTVSPost2010Prop30
280
     1
102
RTVSPost2010PropOp30
 70
     1
102
RTVSPost2010Prop31
280
     0
102
RTVSPost2010PropOp31
 70
     1
102
RTVSPost2010Prop32
280
     0
102
RTVSPost2010PropOp32
 70
     1
102
RTVSPost2010Prop33
280
     0
102
RTVSPost2010PropOp33
 70
     1
102
RTVSPost2010Prop34
280
     0
102
RTVSPost2010PropOp34
 70
     1
102
RTVSPost2010Prop35
280
     0
102
RTVSPost2010PropOp35
 70
     1
102
RTVSPost2010Prop36
280
     0
102
RTVSPost2010PropOp36
 70
     1
102
RTVSPost2010Prop37
 90
       50
102
RTVSPost2010PropOp37
 70
     1
102
RTVSPost2010Prop38
140
0.0
102
RTVSPost2010PropOp38
 70
     1
102
RTVSPost2010Prop39
140
1.0
102
RTVSPost2010PropOp39
 70
     1
102
RTVSPost2010Prop40
 90
        0
102
RTVSPost2010PropOp40
 70
     1
102
RTVSPost2010Prop41ColorIndex
 90
       18
102
RTVSPost2010Prop41ColorRGB
 90
        0
102
RTVSPost2010PropOp41
 70
     1
102
RTVSPost2010Prop42
 90
       50
102
RTVSPost2010PropOp42
 70
     1
102
RTVSPost2010Prop43
 90
        3
102
RTVSPost2010PropOp43
 70
     1
102
RTVSPost2010Prop44ColorIndex
 90
        5
102
RTVSPost2010Prop44ColorRGB
 90
      255
102
RTVSPost2010PropOp44
 70
     1
102
RTVSPost2010Prop45
280
     0
102
RTVSPost2010PropOp45
 70
     1
102
RTVSPost2010Prop46
 90
       50
102
RTVSPost2010PropOp46
 70
     1
102
RTVSPost2010Prop47
 90
       50
102
RTVSPost2010PropOp47
 70
     1
102
RTVSPost2010Prop48
 90
       50
102
RTVSPost2010PropOp48
 70
     1
102
RTVSPost2010Prop49
280
     0
102
RTVSPost2010PropOp49
 70
     1
102
RTVSPost2010Prop50
 90
       50
102
RTVSPost2010PropOp50
 70
     1
102
RTVSPost2010Prop51ColorIndex
 90
      256
102
RTVSPost2010Prop51ColorRGB
 90
-16777216
102
RTVSPost2010PropOp51
 70
     0
102
RTVSPost2010Prop52
140
1.0
102
RTVSPost2010PropOp52
 70
     0
102
RTVSPost2010Prop53
 90
        2
102
RTVSPost2010PropOp53
 70
     1
102
RTVSPost2010Prop54
  1
strokes_ogs.tif
102
RTVSPost2010PropOp54
 70
     1
102
RTVSPost2010Prop55
280
     0
102
RTVSPost2010PropOp55
 70
     1
102
RTVSPost2010Prop56
140
1.0
102
RTVSPost2010PropOp56
 70
     1
102
RTVSPost2010Prop57
140
1.0
102
RTVSPost2010PropOp57
 70
     1
102
RTVSPropertyOp0
 70
     1
102
RTVSPropertyOp1
 70
     1
102
RTVSPropertyOp2
 70
     1
102
RTVSPropertyOp3
 70
     1
102
RTVSPropertyOp4
 70
     1
102
RTVSPropertyOp5
 70
     1
102
RTVSPropertyOp6
 70
     1
102
RTVSPropertyOp7
 70
     1
102
RTVSPropertyOp8
 70
     1
102
RTVSPropertyOp9
 70
     1
102
RTVSPropertyOp10
 70
     1
102
RTVSPropertyOp11
 70
     1
102
RTVSPropertyOp12
 70
     1
102
RTVSPropertyOp13
 70
     1
102
RTVSPropertyOp14
 70
     1
102
RTVSPropertyOp15
 70
     1
102
RTVSPropertyOp16
 70
     1
102
RTVSPropertyOp17
 70
     1
102
RTVSPropertyOp18
 70
     1
102
RTVSPropertyOp19
 70
     1
102
RTVSPropertyOp20
 70
     1
102
RTVSPropertyOp21
 70
     1
102
RTVSPropertyOp22
 70
     1
102
RTVSPropertyOp23
 70
     1
102
RTVSPropertyOp24
 70
     1
102
RTVSPropertyOp25
 70
     1
102
RTVSPropertyOp26
 70
     1
102
RTVSPropertyOp27
 70
     1
102
RTVSPropertyOp28
 70
     1
102
RTVSPropertyOp29
 70
     1
102
RTVSPropertyOp30
 70
     1
102
RTVSPropertyOp31
 70
     1
102
RTVSPropertyOp32
 70
     1
102
RTVSPropertyOp33
 70
     1
102
RTVSPropertyOp34
 70
     1
102
RTVSPropertyOp35
 70
     1
102
RTVSPropertyOp36
 70
     1
102
RTVSPropertyOp37
 70
     1
102
RTVSPropertyOp38
 70
     1
102
RTVSPropertyOp39
 70
     1
102
RTVSPropertyOp40
 70
     1
102
RTVSPropertyOp41
 70
     1
102
RTVSPropertyOp42
 70
     1
102
RTVSPropertyOp43
 70
     1
102
RTVSPropertyOp44
 70
     1
102
RTVSPropertyOp45
 70
     1
102
RTVSPropertyOp46
 70
     1
102
RTVSPropertyOp47
 70
     1
102
RTVSPropertyOp48
 70
     1
102
RTVSPropertyOp49
 70
     1
102
RTVSPropertyOp50
 70
     1
102
RTVSPropertyOp51
 70
     0
102
RTVSPropertyOp52
 70
     0
102
RTVSPropertyOp53
 70
     1
102
RTVSPropertyOp54
 70
     1
102
RTVSPropertyOp55
 70
     1
102
RTVSPropertyOp56
 70
     1
102
RTVSPropertyOp57
 70
     1
102
RTVSPropertyOp58
 70
     1
102
RTVSPropertyOp59
 70
     1
102
RTVSPropertyOp60
 70
     1
102
RTVSPropertyOp61
 70
     1
102
RTVSPropertyOp62
 70
     1
  0
XRECORD
  5
FE84B
102
{ACAD_REACTORS
330
FE84A
102
}
330
FE84A
100
AcDbXrecord
280
     1
102
RTVSPost2010Prop28
280
     0
102
RTVSPost2010PropOp28
 70
     1
102
RTVSPost2010Prop29
280
     1
102
RTVSPost2010PropOp29
 70
     1
102
RTVSPost2010Prop30
280
     1
102
RTVSPost2010PropOp30
 70
     1
102
RTVSPost2010Prop31
280
     0
102
RTVSPost2010PropOp31
 70
     1
102
RTVSPost2010Prop32
280
     0
102
RTVSPost2010PropOp32
 70
     1
102
RTVSPost2010Prop33
280
     0
102
RTVSPost2010PropOp33
 70
     1
102
RTVSPost2010Prop34
280
     0
102
RTVSPost2010PropOp34
 70
     1
102
RTVSPost2010Prop35
280
     0
102
RTVSPost2010PropOp35
 70
     1
102
RTVSPost2010Prop36
280
     0
102
RTVSPost2010PropOp36
 70
     1
102
RTVSPost2010Prop37
 90
       50
102
RTVSPost2010PropOp37
 70
     1
102
RTVSPost2010Prop38
140
0.0
102
RTVSPost2010PropOp38
 70
     1
102
RTVSPost2010Prop39
140
1.0
102
RTVSPost2010PropOp39
 70
     1
102
RTVSPost2010Prop40
 90
        0
102
RTVSPost2010PropOp40
 70
     1
102
RTVSPost2010Prop41ColorIndex
 90
       18
102
RTVSPost2010Prop41ColorRGB
 90
        0
102
RTVSPost2010PropOp41
 70
     1
102
RTVSPost2010Prop42
 90
       50
102
RTVSPost2010PropOp42
 70
     1
102
RTVSPost2010Prop43
 90
        3
102
RTVSPost2010PropOp43
 70
     1
102
RTVSPost2010Prop44ColorIndex
 90
        5
102
RTVSPost2010Prop44ColorRGB
 90
      255
102
RTVSPost2010PropOp44
 70
     1
102
RTVSPost2010Prop45
280
     0
102
RTVSPost2010PropOp45
 70
     1
102
RTVSPost2010Prop46
 90
       50
102
RTVSPost2010PropOp46
 70
     1
102
RTVSPost2010Prop47
 90
       50
102
RTVSPost2010PropOp47
 70
     1
102
RTVSPost2010Prop48
 90
       50
102
RTVSPost2010PropOp48
 70
     1
102
RTVSPost2010Prop49
280
     0
102
RTVSPost2010PropOp49
 70
     1
102
RTVSPost2010Prop50
 90
       50
102
RTVSPost2010PropOp50
 70
     1
102
RTVSPost2010Prop51ColorIndex
 90
      256
102
RTVSPost2010Prop51ColorRGB
 90
-16777216
102
RTVSPost2010PropOp51
 70
     0
102
RTVSPost2010Prop52
140
1.0
102
RTVSPost2010PropOp52
 70
     0
102
RTVSPost2010Prop53
 90
        2
102
RTVSPost2010PropOp53
 70
     1
102
RTVSPost2010Prop54
  1
strokes_ogs.tif
102
RTVSPost2010PropOp54
 70
     1
102
RTVSPost2010Prop55
280
     0
102
RTVSPost2010PropOp55
 70
     1
102
RTVSPost2010Prop56
140
1.0
102
RTVSPost2010PropOp56
 70
     1
102
RTVSPost2010Prop57
140
1.0
102
RTVSPost2010PropOp57
 70
     1
102
RTVSPropertyOp0
 70
     1
102
RTVSPropertyOp1
 70
     1
102
RTVSPropertyOp2
 70
     1
102
RTVSPropertyOp3
 70
     1
102
RTVSPropertyOp4
 70
     1
102
RTVSPropertyOp5
 70
     1
102
RTVSPropertyOp6
 70
     1
102
RTVSPropertyOp7
 70
     1
102
RTVSPropertyOp8
 70
     1
102
RTVSPropertyOp9
 70
     1
102
RTVSPropertyOp10
 70
     1
102
RTVSPropertyOp11
 70
     1
102
RTVSPropertyOp12
 70
     1
102
RTVSPropertyOp13
 70
     1
102
RTVSPropertyOp14
 70
     1
102
RTVSPropertyOp15
 70
     1
102
RTVSPropertyOp16
 70
     1
102
RTVSPropertyOp17
 70
     1
102
RTVSPropertyOp18
 70
     1
102
RTVSPropertyOp19
 70
     1
102
RTVSPropertyOp20
 70
     1
102
RTVSPropertyOp21
 70
     1
102
RTVSPropertyOp22
 70
     1
102
RTVSPropertyOp23
 70
     1
102
RTVSPropertyOp24
 70
     1
102
RTVSPropertyOp25
 70
     1
102
RTVSPropertyOp26
 70
     1
102
RTVSPropertyOp27
 70
     1
102
RTVSPropertyOp28
 70
     1
102
RTVSPropertyOp29
 70
     1
102
RTVSPropertyOp30
 70
     1
102
RTVSPropertyOp31
 70
     1
102
RTVSPropertyOp32
 70
     1
102
RTVSPropertyOp33
 70
     1
102
RTVSPropertyOp34
 70
     1
102
RTVSPropertyOp35
 70
     1
102
RTVSPropertyOp36
 70
     1
102
RTVSPropertyOp37
 70
     1
102
RTVSPropertyOp38
 70
     1
102
RTVSPropertyOp39
 70
     1
102
RTVSPropertyOp40
 70
     1
102
RTVSPropertyOp41
 70
     1
102
RTVSPropertyOp42
 70
     1
102
RTVSPropertyOp43
 70
     1
102
RTVSPropertyOp44
 70
     1
102
RTVSPropertyOp45
 70
     1
102
RTVSPropertyOp46
 70
     1
102
RTVSPropertyOp47
 70
     1
102
RTVSPropertyOp48
 70
     1
102
RTVSPropertyOp49
 70
     1
102
RTVSPropertyOp50
 70
     1
102
RTVSPropertyOp51
 70
     0
102
RTVSPropertyOp52
 70
     0
102
RTVSPropertyOp53
 70
     1
102
RTVSPropertyOp54
 70
     1
102
RTVSPropertyOp55
 70
     1
102
RTVSPropertyOp56
 70
     1
102
RTVSPropertyOp57
 70
     1
102
RTVSPropertyOp58
 70
     1
102
RTVSPropertyOp59
 70
     1
102
RTVSPropertyOp60
 70
     1
102
RTVSPropertyOp61
 70
     1
102
RTVSPropertyOp62
 70
     1
  0
XRECORD
  5
FE863
102
{ACAD_REACTORS
330
FE862
102
}
330
FE862
100
AcDbXrecord
280
     1
102
RTVSPost2010Prop28
280
     0
102
RTVSPost2010PropOp28
 70
     1
102
RTVSPost2010Prop29
280
     1
102
RTVSPost2010PropOp29
 70
     1
102
RTVSPost2010Prop30
280
     1
102
RTVSPost2010PropOp30
 70
     1
102
RTVSPost2010Prop31
280
     0
102
RTVSPost2010PropOp31
 70
     1
102
RTVSPost2010Prop32
280
     0
102
RTVSPost2010PropOp32
 70
     1
102
RTVSPost2010Prop33
280
     0
102
RTVSPost2010PropOp33
 70
     1
102
RTVSPost2010Prop34
280
     0
102
RTVSPost2010PropOp34
 70
     1
102
RTVSPost2010Prop35
280
     0
102
RTVSPost2010PropOp35
 70
     1
102
RTVSPost2010Prop36
280
     0
102
RTVSPost2010PropOp36
 70
     1
102
RTVSPost2010Prop37
 90
       50
102
RTVSPost2010PropOp37
 70
     1
102
RTVSPost2010Prop38
140
0.0
102
RTVSPost2010PropOp38
 70
     1
102
RTVSPost2010Prop39
140
1.0
102
RTVSPost2010PropOp39
 70
     1
102
RTVSPost2010Prop40
 90
        0
102
RTVSPost2010PropOp40
 70
     1
102
RTVSPost2010Prop41ColorIndex
 90
       18
102
RTVSPost2010Prop41ColorRGB
 90
        0
102
RTVSPost2010PropOp41
 70
     1
102
RTVSPost2010Prop42
 90
       50
102
RTVSPost2010PropOp42
 70
     1
102
RTVSPost2010Prop43
 90
        3
102
RTVSPost2010PropOp43
 70
     1
102
RTVSPost2010Prop44ColorIndex
 90
        5
102
RTVSPost2010Prop44ColorRGB
 90
      255
102
RTVSPost2010PropOp44
 70
     1
102
RTVSPost2010Prop45
280
     0
102
RTVSPost2010PropOp45
 70
     1
102
RTVSPost2010Prop46
 90
       50
102
RTVSPost2010PropOp46
 70
     1
102
RTVSPost2010Prop47
 90
       50
102
RTVSPost2010PropOp47
 70
     1
102
RTVSPost2010Prop48
 90
       50
102
RTVSPost2010PropOp48
 70
     1
102
RTVSPost2010Prop49
280
     0
102
RTVSPost2010PropOp49
 70
     1
102
RTVSPost2010Prop50
 90
       50
102
RTVSPost2010PropOp50
 70
     1
102
RTVSPost2010Prop51ColorIndex
 90
      256
102
RTVSPost2010Prop51ColorRGB
 90
-16777216
102
RTVSPost2010PropOp51
 70
     0
102
RTVSPost2010Prop52
140
1.0
102
RTVSPost2010PropOp52
 70
     0
102
RTVSPost2010Prop53
 90
        2
102
RTVSPost2010PropOp53
 70
     1
102
RTVSPost2010Prop54
  1
strokes_ogs.tif
102
RTVSPost2010PropOp54
 70
     1
102
RTVSPost2010Prop55
280
     0
102
RTVSPost2010PropOp55
 70
     1
102
RTVSPost2010Prop56
140
1.0
102
RTVSPost2010PropOp56
 70
     1
102
RTVSPost2010Prop57
140
1.0
102
RTVSPost2010PropOp57
 70
     1
102
RTVSPropertyOp0
 70
     1
102
RTVSPropertyOp1
 70
     1
102
RTVSPropertyOp2
 70
     1
102
RTVSPropertyOp3
 70
     1
102
RTVSPropertyOp4
 70
     1
102
RTVSPropertyOp5
 70
     1
102
RTVSPropertyOp6
 70
     1
102
RTVSPropertyOp7
 70
     1
102
RTVSPropertyOp8
 70
     1
102
RTVSPropertyOp9
 70
     1
102
RTVSPropertyOp10
 70
     1
102
RTVSPropertyOp11
 70
     1
102
RTVSPropertyOp12
 70
     1
102
RTVSPropertyOp13
 70
     1
102
RTVSPropertyOp14
 70
     1
102
RTVSPropertyOp15
 70
     1
102
RTVSPropertyOp16
 70
     1
102
RTVSPropertyOp17
 70
     1
102
RTVSPropertyOp18
 70
     1
102
RTVSPropertyOp19
 70
     1
102
RTVSPropertyOp20
 70
     1
102
RTVSPropertyOp21
 70
     1
102
RTVSPropertyOp22
 70
     1
102
RTVSPropertyOp23
 70
     1
102
RTVSPropertyOp24
 70
     1
102
RTVSPropertyOp25
 70
     1
102
RTVSPropertyOp26
 70
     1
102
RTVSPropertyOp27
 70
     1
102
RTVSPropertyOp28
 70
     1
102
RTVSPropertyOp29
 70
     1
102
RTVSPropertyOp30
 70
     1
102
RTVSPropertyOp31
 70
     1
102
RTVSPropertyOp32
 70
     1
102
RTVSPropertyOp33
 70
     1
102
RTVSPropertyOp34
 70
     1
102
RTVSPropertyOp35
 70
     1
102
RTVSPropertyOp36
 70
     1
102
RTVSPropertyOp37
 70
     1
102
RTVSPropertyOp38
 70
     1
102
RTVSPropertyOp39
 70
     1
102
RTVSPropertyOp40
 70
     1
102
RTVSPropertyOp41
 70
     1
102
RTVSPropertyOp42
 70
     1
102
RTVSPropertyOp43
 70
     1
102
RTVSPropertyOp44
 70
     1
102
RTVSPropertyOp45
 70
     1
102
RTVSPropertyOp46
 70
     1
102
RTVSPropertyOp47
 70
     1
102
RTVSPropertyOp48
 70
     1
102
RTVSPropertyOp49
 70
     1
102
RTVSPropertyOp50
 70
     1
102
RTVSPropertyOp51
 70
     0
102
RTVSPropertyOp52
 70
     0
102
RTVSPropertyOp53
 70
     1
102
RTVSPropertyOp54
 70
     1
102
RTVSPropertyOp55
 70
     1
102
RTVSPropertyOp56
 70
     1
102
RTVSPropertyOp57
 70
     1
102
RTVSPropertyOp58
 70
     1
102
RTVSPropertyOp59
 70
     1
102
RTVSPropertyOp60
 70
     1
102
RTVSPropertyOp61
 70
     1
102
RTVSPropertyOp62
 70
     1
  0
ENDSEC
  0
EOF
