  0
SECTION
  2
HEADER
  9
$ACADVER
  1
AC1018
  9
$ACADMAINTVER
 70
   104
  9
$DWGCODEPAGE
  3
ANSI_932
  9
$LASTSAVEDBY
  1
開発
  9
$INSBASE
 10
0.0
 20
0.0
 30
0.0
  9
$EXTMIN
 10
485.8623824223782
 20
51.10954328582875
 30
-0.0000000000112498
  9
$EXTMAX
 10
900.8861558693306
 20
569.3288487467059
 30
0.0000000000002956
  9
$LIMMIN
 10
0.0
 20
0.0
  9
$LIMMAX
 10
420.0
 20
297.0
  9
$ORTHOMODE
 70
     0
  9
$REGENMODE
 70
     1
  9
$FILLMODE
 70
     1
  9
$QTEXTMODE
 70
     0
  9
$MIRRTEXT
 70
     0
  9
$LTSCALE
 40
0.25
  9
$ATTMODE
 70
     1
  9
$TEXTSIZE
 40
2.5
  9
$TRACEWID
 40
1.0
  9
$TEXTSTYLE
  7
2014++
  9
$CLAYER
  8
04_ele1_0.15
  9
$CELTYPE
  6
ByLayer
  9
$CECOLOR
 62
   256
  9
$CELTSCALE
 40
1.0
  9
$DISPSILH
 70
     0
  9
$DIMSCALE
 40
1.0
  9
$DIMASZ
 40
2.5
  9
$DIMEXO
 40
1.0
  9
$DIMDLI
 40
10.0
  9
$DIMRND
 40
0.0
  9
$DIMDLE
 40
0.0
  9
$DIMEXE
 40
1.0
  9
$DIMTP
 40
0.1
  9
$DIMTM
 40
0.1
  9
$DIMTXT
 40
3.5
  9
$DIMCEN
 40
0.0
  9
$DIMTSZ
 40
0.0
  9
$DIMTOL
 70
     0
  9
$DIMLIM
 70
     0
  9
$DIMTIH
 70
     0
  9
$DIMTOH
 70
     0
  9
$DIMSE1
 70
     0
  9
$DIMSE2
 70
     0
  9
$DIMTAD
 70
     1
  9
$DIMZIN
 70
     8
  9
$DIMBLK
  1

  9
$DIMASO
 70
     1
  9
$DIMSHO
 70
     1
  9
$DIMPOST
  1

  9
$DIMAPOST
  1
"
  9
$DIMALT
 70
     0
  9
$DIMALTD
 70
     2
  9
$DIMALTF
 40
0.0393701
  9
$DIMLFAC
 40
1.0
  9
$DIMTOFL
 70
     1
  9
$DIMTVP
 40
0.0
  9
$DIMTIX
 70
     0
  9
$DIMSOXD
 70
     0
  9
$DIMSAH
 70
     0
  9
$DIMBLK1
  1

  9
$DIMBLK2
  1

  9
$DIMSTYLE
  2
AM_ISO
  9
$DIMCLRD
 70
   256
  9
$DIMCLRE
 70
   256
  9
$DIMCLRT
 70
     2
  9
$DIMTFAC
 40
0.71
  9
$DIMGAP
 40
1.5
  9
$DIMJUST
 70
     0
  9
$DIMSD1
 70
     0
  9
$DIMSD2
 70
     0
  9
$DIMTOLJ
 70
     0
  9
$DIMTZIN
 70
     8
  9
$DIMALTZ
 70
     0
  9
$DIMALTTZ
 70
     0
  9
$DIMUPT
 70
     0
  9
$DIMDEC
 70
     2
  9
$DIMTDEC
 70
     3
  9
$DIMALTU
 70
     2
  9
$DIMALTTD
 70
     4
  9
$DIMTXSTY
  7
STANDARD
  9
$DIMAUNIT
 70
     0
  9
$DIMADEC
 70
     0
  9
$DIMALTRND
 40
0.0
  9
$DIMAZIN
 70
     2
  9
$DIMDSEP
 70
    46
  9
$DIMATFIT
 70
     3
  9
$DIMFRAC
 70
     0
  9
$DIMLDRBLK
  1

  9
$DIMLUNIT
 70
     2
  9
$DIMLWD
 70
    -1
  9
$DIMLWE
 70
    -1
  9
$DIMTMOVE
 70
     0
  9
$LUNITS
 70
     2
  9
$LUPREC
 70
     2
  9
$SKETCHINC
 40
1.0
  9
$FILLETRAD
 40
2.5
  9
$AUNITS
 70
     0
  9
$AUPREC
 70
     0
  9
$MENU
  1
.
  9
$ELEVATION
 40
0.0
  9
$PELEVATION
 40
0.0
  9
$THICKNESS
 40
0.0
  9
$LIMCHECK
 70
     0
  9
$CHAMFERA
 40
2.5
  9
$CHAMFERB
 40
2.5
  9
$CHAMFERC
 40
20.0
  9
$CHAMFERD
 40
0.0
  9
$SKPOLY
 70
     0
  9
$TDCREATE
 40
2457122.568640949
  9
$TDUCREATE
 40
2457122.193640949
  9
$TDUPDATE
 40
2458394.576570359
  9
$TDUUPDATE
 40
2458394.201570359
  9
$TDINDWG
 40
0.1519272338
  9
$TDUSRTIMER
 40
0.1519271991
  9
$USRTIMER
 70
     1
  9
$ANGBASE
 50
0.0
  9
$ANGDIR
 70
     0
  9
$PDMODE
 70
     0
  9
$PDSIZE
 40
0.0
  9
$PLINEWID
 40
0.0
  9
$SPLFRAME
 70
     0
  9
$SPLINETYPE
 70
     6
  9
$SPLINESEGS
 70
     8
  9
$HANDSEED
  5
1001B1
  9
$SURFTAB1
 70
     6
  9
$SURFTAB2
 70
     6
  9
$SURFTYPE
 70
     6
  9
$SURFU
 70
     6
  9
$SURFV
 70
     6
  9
$UCSBASE
  2

  9
$UCSNAME
  2

  9
$UCSORG
 10
0.0
 20
0.0
 30
0.0
  9
$UCSXDIR
 10
1.0
 20
0.0
 30
0.0
  9
$UCSYDIR
 10
0.0
 20
1.0
 30
0.0
  9
$UCSORTHOREF
  2

  9
$UCSORTHOVIEW
 70
     0
  9
$UCSORGTOP
 10
0.0
 20
0.0
 30
0.0
  9
$UCSORGBOTTOM
 10
0.0
 20
0.0
 30
0.0
  9
$UCSORGLEFT
 10
0.0
 20
0.0
 30
0.0
  9
$UCSORGRIGHT
 10
0.0
 20
0.0
 30
0.0
  9
$UCSORGFRONT
 10
0.0
 20
0.0
 30
0.0
  9
$UCSORGBACK
 10
0.0
 20
0.0
 30
0.0
  9
$PUCSBASE
  2

  9
$PUCSNAME
  2

  9
$PUCSORG
 10
0.0
 20
0.0
 30
0.0
  9
$PUCSXDIR
 10
1.0
 20
0.0
 30
0.0
  9
$PUCSYDIR
 10
0.0
 20
1.0
 30
0.0
  9
$PUCSORTHOREF
  2

  9
$PUCSORTHOVIEW
 70
     0
  9
$PUCSORGTOP
 10
0.0
 20
0.0
 30
0.0
  9
$PUCSORGBOTTOM
 10
0.0
 20
0.0
 30
0.0
  9
$PUCSORGLEFT
 10
0.0
 20
0.0
 30
0.0
  9
$PUCSORGRIGHT
 10
0.0
 20
0.0
 30
0.0
  9
$PUCSORGFRONT
 10
0.0
 20
0.0
 30
0.0
  9
$PUCSORGBACK
 10
0.0
 20
0.0
 30
0.0
  9
$USERI1
 70
     0
  9
$USERI2
 70
     0
  9
$USERI3
 70
     0
  9
$USERI4
 70
     0
  9
$USERI5
 70
     0
  9
$USERR1
 40
0.0
  9
$USERR2
 40
0.0
  9
$USERR3
 40
0.0
  9
$USERR4
 40
0.0
  9
$USERR5
 40
0.0
  9
$WORLDVIEW
 70
     1
  9
$SHADEDGE
 70
     3
  9
$SHADEDIF
 70
    70
  9
$TILEMODE
 70
     1
  9
$MAXACTVP
 70
    64
  9
$PINSBASE
 10
0.0
 20
0.0
 30
0.0
  9
$PLIMCHECK
 70
     0
  9
$PEXTMIN
 10
1.000000000000000E+20
 20
1.000000000000000E+20
 30
1.000000000000000E+20
  9
$PEXTMAX
 10
-1.000000000000000E+20
 20
-1.000000000000000E+20
 30
-1.000000000000000E+20
  9
$PLIMMIN
 10
-5.873748779296875
 20
-5.873749732971191
  9
$PLIMMAX
 10
291.05224609375
 20
204.0995779037475
  9
$UNITMODE
 70
     0
  9
$VISRETAIN
 70
     1
  9
$PLINEGEN
 70
     0
  9
$PSLTSCALE
 70
     1
  9
$TREEDEPTH
 70
  3020
  9
$CMLSTYLE
  2
Standard
  9
$CMLJUST
 70
     0
  9
$CMLSCALE
 40
20.0
  9
$PROXYGRAPHICS
 70
     1
  9
$MEASUREMENT
 70
     1
  9
$CELWEIGHT
370
    -1
  9
$ENDCAPS
280
     0
  9
$JOINSTYLE
280
     0
  9
$LWDISPLAY
290
     0
  9
$INSUNITS
 70
     4
  9
$HYPERLINKBASE
  1

  9
$STYLESHEET
  1
MONOCHROME.CTB
  9
$XEDIT
290
     1
  9
$CEPSNTYPE
380
     0
  9
$PSTYLEMODE
290
     1
  9
$FINGERPRINTGUID
  2
{50BE1C40-7876-4AFD-8770-B7778E71A178}
  9
$VERSIONGUID
  2
{9875C0C7-AF33-438D-A232-8435D0A5B338}
  9
$EXTNAMES
290
     1
  9
$PSVPSCALE
 40
0.0
  9
$OLESTARTUP
290
     0
  9
$SORTENTS
280
    96
  9
$INDEXCTL
280
     0
  9
$HIDETEXT
280
     0
  9
$XCLIPFRAME
290
     0
  9
$HALOGAP
280
     0
  9
$OBSCOLOR
 70
   257
  9
$OBSLTYPE
280
     0
  9
$INTERSECTIONDISPLAY
280
     0
  9
$INTERSECTIONCOLOR
 70
   257
  9
$DIMASSOC
280
     1
  9
$PROJECTNAME
  1

  0
ENDSEC
  0
SECTION
  2
CLASSES
  0
CLASS
  1
ACDBDICTIONARYWDFLT
  2
AcDbDictionaryWithDefault
  3
ObjectDBX Classes
 90
        0
 91
        1
280
     0
281
     0
  0
CLASS
  1
DICTIONARYVAR
  2
AcDbDictionaryVar
  3
ObjectDBX Classes
 90
        0
 91
       11
280
     0
281
     0
  0
CLASS
  1
ACME_DOCUMENT
  2
AcMeDbDoc
  3
AcMeServices
 90
     1024
 91
        1
280
     0
281
     0
  0
CLASS
  1
ACMESCOPE
  2
AcMeScope
  3
AcMeServices
 90
     1024
 91
        1
280
     0
281
     0
  0
CLASS
  1
ACMECOMMANDHISTORY
  2
AcMeCommandHistory
  3
AcMeServices
 90
     1024
 91
        1
280
     0
281
     0
  0
CLASS
  1
ACIMSYSVARMAN
  2
AcImSysVarManager
  3
AcMeServices
 90
     1024
 91
        3
280
     0
281
     0
  0
CLASS
  1
ACIMINTSYSVAR
  2
AcImIntSysVar
  3
AcMeServices
 90
     1024
 91
        2
280
     0
281
     0
  0
CLASS
  1
ACMEDRAWINGMAN
  2
AcMeDrawingMan
  3
AcMeServices
 90
     1024
 91
        0
280
     0
281
     0
  0
CLASS
  1
ACMEVIEW
  2
AcMeView
  3
AcMeServices
 90
     1024
 91
        0
280
     0
281
     0
  0
CLASS
  1
ACDBENTITYCACHE
  2
AcMeEntityCache
  3
AcMeServices
 90
     1024
 91
        1
280
     0
281
     0
  0
CLASS
  1
GSMANAGER
  2
AcMeGSManager
  3
AcMeServices
 90
        0
 91
        0
280
     0
281
     0
  0
CLASS
  1
AMDTINTERNALREACTOR
  2
AmdtInternalReactor
  3
AcMeServices
 90
     1024
 91
        0
280
     0
281
     0
  0
CLASS
  1
ACMESTATEMGR
  2
AcMeStateMgr
  3
AcMeServices
 90
     1024
 91
        1
280
     0
281
     0
  0
CLASS
  1
ACGREFMASTER
  2
AcGrefMaster
  3
AcAttribServices
 90
     1024
 91
        1
280
     0
281
     0
  0
CLASS
  1
AM_DRAWING_MGR
  2
AcDmDwgMgr
  3
AcMechDwgViewMgmt
 90
     1024
 91
        0
280
     0
281
     0
  0
CLASS
  1
AM_DWG_DOCUMENT
  2
AcDmDwgDocument
  3
AcMechDwgViewMgmt
 90
     1024
 91
        0
280
     0
281
     0
  0
CLASS
  1
AM_DWG_SHEET
  2
AcDmSheet
  3
AcMechDwgViewMgmt
 90
     1024
 91
        0
280
     0
281
     0
  0
CLASS
  1
AM_VIEWDIMPARMAP
  2
AcDmViewDimParMap
  3
AcMechDwgViewMgmt
 90
     1024
 91
        0
280
     0
281
     0
  0
CLASS
  1
ACIMREALSYSVAR
  2
AcImRealSysVar
  3
AcMeServices
 90
     1024
 91
        0
280
     0
281
     0
  0
CLASS
  1
AM_DWGMGR_NAME
  2
AcDmDwgMgrName
  3
AcMechDwgViewMgmt
 90
     1024
 91
        0
280
     0
281
     0
  0
CLASS
  1
ACME_DATABASE
  2
AcMeDbDatabase
  3
AcMeServices
 90
     1024
 91
        1
280
     0
281
     0
  0
CLASS
  1
ACRFINSADJUSTERMGR
  2
AcRfInsAdjusterMgr
  3
AcMeServices
 90
     1024
 91
        1
280
     0
281
     0
  0
CLASS
  1
ACGREFACADMASTER
  2
AcGrefacadMaster
  3
AcGrefServices
 90
     1024
 91
        1
280
     0
281
     0
  0
CLASS
  1
AMDTMENUSTATEMGR
  2
AmdtMenuStateMgr
  3
McadcomServices
 90
     1024
 91
        1
280
     0
281
     0
  0
CLASS
  1
AMDTMCOMMENUSTATE
  2
AmdtMcomMenuState
  3
McadcomServices
 90
     1024
 91
        1
280
     0
281
     0
  0
CLASS
  1
AMIMASTER
  2
AmiMaster
  3
AmiServices
 90
     1024
 91
        1
280
     0
281
     0
  0
CLASS
  1
AMGSETTINGSOBJ
  2
AmgSettingsObj
  3
"AcadM|Product Description: AutoCAD Mechanical|Company: Autodesk, Inc."
 90
     1024
 91
        2
280
     0
281
     0
  0
CLASS
  1
MAPIAMMOUDLE
  2
MApiAmModule
  3
MApiAmServices
 90
     1024
 91
        1
280
     0
281
     0
  0
CLASS
  1
AMDTADMENUSTATE
  2
AmdtAdMenuState
  3
DesignerServices
 90
        0
 91
        0
280
     0
281
     0
  0
CLASS
  1
ADAPPL
  2
AcAdAppl
  3
DesignerAssemblies
 90
     1024
 91
        0
280
     0
281
     0
  0
CLASS
  1
DEPMGR
  2
AcAdDepMgr
  3
DesignerAssemblies
 90
     1024
 91
        0
280
     0
281
     0
  0
CLASS
  1
PARAMMGR
  2
AcAdParamMgr
  3
DesignerAssemblies
 90
     1024
 91
        0
280
     0
281
     0
  0
CLASS
  1
PARAMSCOPE
  2
AcAdParamScope
  3
DesignerAssemblies
 90
     1024
 91
        0
280
     0
281
     0
  0
CLASS
  1
NAMEDAPPL
  2
AcAdNamedAppl
  3
DesignerAssemblies
 90
     1024
 91
        0
280
     0
281
     0
  0
CLASS
  1
AMDTDMMENUSTATE
  2
AmdtDmMenuState
  3
AcMechDwgViewMgmt
 90
        0
 91
        0
280
     0
281
     0
  0
CLASS
  1
AMDTAMMENUSTATE
  2
AmdtAmMenuState
  3
DesignerAssemblies
 90
     1024
 91
        1
280
     0
281
     0
  0
CLASS
  1
ACIMSTRSYSVAR
  2
AcImStrSysVar
  3
AcMeServices
 90
     1024
 91
        5
280
     0
281
     0
  0
CLASS
  1
ACAMPROJECT
  2
AcAmProject
  3
DesignerAssemblies
 90
     1024
 91
        1
280
     0
281
     0
  0
CLASS
  1
ACAMGRCOMPDEF
  2
AcAmGrCompDef
  3
DesignerAssemblies
 90
     1024
 91
        1
280
     0
281
     0
  0
CLASS
  1
ACCMCONTEXT
  2
AcCmContext
  3
DesignerAssemblies
 90
     1024
 91
        0
280
     0
281
     0
  0
CLASS
  1
ACAMCOMPDEF
  2
AcAmCompDef
  3
DesignerAssemblies
 90
     1024
 91
        1
280
     0
281
     0
  0
CLASS
  1
ACAMCOMPDEFMGR
  2
AcAmCompDefMgr
  3
DesignerAssemblies
 90
     1024
 91
        1
280
     0
281
     0
  0
CLASS
  1
AMCONTEXTMGR
  2
AcAmContextMgr
  3
DesignerAssemblies
 90
     1024
 91
        1
280
     0
281
     0
  0
CLASS
  1
ACAMCONTEXTMODELER
  2
AcAmContextModeler
  3
DesignerAssemblies
 90
     1024
 91
        1
280
     0
281
     0
  0
CLASS
  1
ACMDATADICTIONARY
  2
AcmDataDictionary
  3
"AcmSymBB|Product Description: AutoCAD Mechanical|Company: Autodesk, Inc."
 90
     1024
 91
        1
280
     0
281
     0
  0
CLASS
  1
CATALOGSTATE
  2
AcAmCatalogState
  3
DesignerAssemblies
 90
     1024
 91
        0
280
     0
281
     0
  0
CLASS
  1
ACAMGRCOMPDEFSET
  2
AcAmGrCompDefSet
  3
DesignerAssemblies
 90
     1024
 91
        1
280
     0
281
     0
  0
CLASS
  1
AMDTBROWSERDBTAB
  2
AmdtBrowserDbTab
  3
McadcomServices
 90
     1024
 91
        1
280
     0
281
     0
  0
CLASS
  1
CBROWSERAPPOBJECT
  2
CBrowserAppObject
  3
McadcomServices
 90
     1024
 91
        2
280
     0
281
     0
  0
CLASS
  1
DM_PLACEHOLDER
  2
AcDmSelsetPlaceholder
  3
McadcomServices
 90
     1024
 91
        1
280
     0
281
     0
  0
CLASS
  1
ACMSTANDARDISO
  2
AcmStandardISO
  3
"Amdt_StdImp|Product Description: AutoCAD Mechanical|Company: Autodesk, Inc."
 90
     1024
 91
        1
280
     0
281
     0
  0
CLASS
  1
AMGOBJPROPCFG
  2
AmgObjPropCfg
  3
"AmgLay|Product Description: AutoCAD Mechanical|Company: Autodesk, Inc."
 90
     1024
 91
        1
280
     0
281
     0
  0
CLASS
  1
AMDTEDGESTANDARDISO
  2
AmdtEdgeStdISO
  3
"Amdt_StdImp|Product Description: AutoCAD Mechanical|Company: Autodesk, Inc."
 90
     1024
 91
        0
280
     0
281
     0
  0
CLASS
  1
ACMSURFSTANDARDISO
  2
AcmSurfTextStdISO
  3
"Amdt_StdImp|Product Description: AutoCAD Mechanical|Company: Autodesk, Inc."
 90
     1024
 91
        0
280
     0
281
     0
  0
CLASS
  1
ACMFCFSTANDARDISO
  2
AcmFCFStdISO
  3
"Amdt_StdImp|Product Description: AutoCAD Mechanical|Company: Autodesk, Inc."
 90
     1024
 91
        0
280
     0
281
     0
  0
CLASS
  1
ACMWELDSTANDARDISO
  2
AcmWeldingStdISO
  3
"Amdt_StdImp|Product Description: AutoCAD Mechanical|Company: Autodesk, Inc."
 90
     1024
 91
        1
280
     0
281
     0
  0
CLASS
  1
ACMIDSTANDARDISO
  2
AcmIdStdISO
  3
"Amdt_StdImp|Product Description: AutoCAD Mechanical|Company: Autodesk, Inc."
 90
     1024
 91
        0
280
     0
281
     0
  0
CLASS
  1
ACMDATUMSTANDARDISO
  2
AcmDatumStdISO
  3
"Amdt_StdImp|Product Description: AutoCAD Mechanical|Company: Autodesk, Inc."
 90
     1024
 91
        0
280
     0
281
     0
  0
CLASS
  1
ACMBOMSTANDARDISO
  2
AcmBOMStdISO
  3
"Amdt_StdImp|Product Description: AutoCAD Mechanical|Company: Autodesk, Inc."
 90
     1024
 91
        1
280
     0
281
     0
  0
CLASS
  1
ACMDETAILSTANDARDISO
  2
AmdtDetailSymStdISO
  3
"Amdt_StdImp|Product Description: AutoCAD Mechanical|Company: Autodesk, Inc."
 90
     1024
 91
        1
280
     0
281
     0
  0
CLASS
  1
ACMSECTIONSTANDARDISO
  2
AmdtSectionSymStdISO
  3
"Amdt_StdImp|Product Description: AutoCAD Mechanical|Company: Autodesk, Inc."
 90
     1024
 91
        0
280
     0
281
     0
  0
CLASS
  1
ACMCENTERLINESTANDARDISO
  2
AmdtCenterLineStdISO
  3
"Amdt_StdImp|Product Description: AutoCAD Mechanical|Company: Autodesk, Inc."
 90
     1024
 91
        1
280
     0
281
     0
  0
CLASS
  1
ACMTHREADLINESTANDARDISO
  2
AmdtThreadLineStdISO
  3
"Amdt_StdImp|Product Description: AutoCAD Mechanical|Company: Autodesk, Inc."
 90
     1024
 91
        1
280
     0
281
     0
  0
CLASS
  1
ACMNOTESTANDARDISO
  2
AmdtNoteStdISO
  3
"Amdt_StdImp|Product Description: AutoCAD Mechanical|Company: Autodesk, Inc."
 90
     1024
 91
        1
280
     0
281
     0
  0
CLASS
  1
AMDTNOTETEMPLATEDB
  2
AmdtNoteTemplateDB
  3
AcmSymBB|Product Description: AutoCAD Mechanical|Company: Autodesk, Inc.
 90
     1024
 91
        7
280
     0
281
     0
  0
CLASS
  1
ACAMGLAYSTD
  2
AcAmgLayStd
  3
"AmgLay|Product Description: AutoCAD Mechanical|Company: Autodesk, Inc."
 90
     1024
 91
        1
280
     0
281
     0
  0
CLASS
  1
ACAMGDIMSTD
  2
AcAmgDimStd
  3
"AmgDim|Product Description: AutoCAD Mechanical|Company: Autodesk, Inc."
 90
     1024
 91
        1
280
     0
281
     0
  0
CLASS
  1
ACAMGHOLECHARTSTDISO
  2
AcAmgHoleChartStdISO
  3
AmgDim|Product Description: AutoCAD Mechanical|Company: Autodesk, Inc.
 90
     1024
 91
        1
280
     0
281
     0
  0
CLASS
  1
ACAMGTITLESTD
  2
AcAmgTitleStd
  3
"AmgTitle|Product Description: AutoCAD Mechanical|Company: Autodesk, Inc."
 90
     1024
 91
        1
280
     0
281
     0
  0
CLASS
  1
LAYER_INDEX
  2
AcDbLayerIndex
  3
ObjectDBX Classes
 90
        0
 91
        0
280
     0
281
     0
  0
CLASS
  1
IDBUFFER
  2
AcDbIdBuffer
  3
ObjectDBX Classes
 90
        0
 91
        0
280
     0
281
     0
  0
CLASS
  1
ACMSTANDARDANSI
  2
AcmStandardANSI
  3
"Amdt_StdImp|Product Description: AutoCAD Mechanical|Company: Autodesk, Inc."
 90
     1024
 91
        0
280
     0
281
     0
  0
CLASS
  1
ACMSURFSTANDARDANSI
  2
AcmSurfTextStdANSI
  3
"Amdt_StdImp|Product Description: AutoCAD Mechanical|Company: Autodesk, Inc."
 90
     1024
 91
        0
280
     0
281
     0
  0
CLASS
  1
ACMFCFSTANDARDANSI
  2
AcmFCFStdANSI
  3
"Amdt_StdImp|Product Description: AutoCAD Mechanical|Company: Autodesk, Inc."
 90
     1024
 91
        0
280
     0
281
     0
  0
CLASS
  1
ACMWELDSTANDARDANSI
  2
AcmWeldingStdANSI
  3
"Amdt_StdImp|Product Description: AutoCAD Mechanical|Company: Autodesk, Inc."
 90
     1024
 91
        0
280
     0
281
     0
  0
CLASS
  1
ACMIDSTANDARDANSI
  2
AcmIdStdANSI
  3
"Amdt_StdImp|Product Description: AutoCAD Mechanical|Company: Autodesk, Inc."
 90
     1024
 91
        0
280
     0
281
     0
  0
CLASS
  1
ACMDATUMSTANDARDANSI
  2
AcmDatumStdANSI
  3
"Amdt_StdImp|Product Description: AutoCAD Mechanical|Company: Autodesk, Inc."
 90
     1024
 91
        0
280
     0
281
     0
  0
CLASS
  1
ACMBOMSTANDARDANSI
  2
AcmBOMStdANSI
  3
"Amdt_StdImp|Product Description: AutoCAD Mechanical|Company: Autodesk, Inc."
 90
     1024
 91
        0
280
     0
281
     0
  0
CLASS
  1
ACMDETAILSTANDARDANSI
  2
AmdtDetailSymStdANSI
  3
"Amdt_StdImp|Product Description: AutoCAD Mechanical|Company: Autodesk, Inc."
 90
     1024
 91
        0
280
     0
281
     0
  0
CLASS
  1
ACMSECTIONSTANDARDANSI
  2
AmdtSectionSymStdANSI
  3
"Amdt_StdImp|Product Description: AutoCAD Mechanical|Company: Autodesk, Inc."
 90
     1024
 91
        0
280
     0
281
     0
  0
CLASS
  1
ACMCENTERLINESTANDARDANSI
  2
AmdtCenterLineStdANSI
  3
"Amdt_StdImp|Product Description: AutoCAD Mechanical|Company: Autodesk, Inc."
 90
     1024
 91
        0
280
     0
281
     0
  0
CLASS
  1
ACMTHREADLINESTANDARDANSI
  2
AmdtThreadLineStdANSI
  3
"Amdt_StdImp|Product Description: AutoCAD Mechanical|Company: Autodesk, Inc."
 90
     1024
 91
        0
280
     0
281
     0
  0
CLASS
  1
ACMNOTESTANDARDANSI
  2
AmdtNoteStdANSI
  3
"Amdt_StdImp|Product Description: AutoCAD Mechanical|Company: Autodesk, Inc."
 90
     1024
 91
        0
280
     0
281
     0
  0
CLASS
  1
ACAMGHOLECHARTSTDANSI
  2
AcAmgHoleChartStdANSI
  3
AmgDim|Product Description: AutoCAD Mechanical|Company: Autodesk, Inc.
 90
     1024
 91
        0
280
     0
281
     0
  0
CLASS
  1
ACAMGFILTERDAT
  2
AcAmgFilterDat
  3
"AcadM|Product Description: AutoCAD Mechanical|Company: Autodesk, Inc."
 90
     1024
 91
        0
280
     0
281
     0
  0
CLASS
  1
ACRFATTGENMGR
  2
AcRfAttGeneralMgr
  3
AcAttribServices
 90
     1024
 91
        0
280
     0
281
     0
  0
CLASS
  1
MATERIAL
  2
AcDbMaterial
  3
ObjectDBX Classes
 90
     1153
 91
        3
280
     0
281
     0
  0
CLASS
  1
VISUALSTYLE
  2
AcDbVisualStyle
  3
ObjectDBX Classes
 90
     4095
 91
       24
280
     0
281
     0
  0
CLASS
  1
TABLESTYLE
  2
AcDbTableStyle
  3
ObjectDBX Classes
 90
     4095
 91
        1
280
     0
281
     0
  0
CLASS
  1
SCALE
  2
AcDbScale
  3
ObjectDBX Classes
 90
     1153
 91
       17
280
     0
281
     0
  0
CLASS
  1
MLEADERSTYLE
  2
AcDbMLeaderStyle
  3
ACDB_MLEADERSTYLE_CLASS
 90
     4095
 91
        1
280
     0
281
     0
  0
CLASS
  1
ACDBSECTIONVIEWSTYLE
  2
AcDbSectionViewStyle
  3
ObjectDBX Classes
 90
     1025
 91
        2
280
     0
281
     0
  0
CLASS
  1
ACDBDETAILVIEWSTYLE
  2
AcDbDetailViewStyle
  3
ObjectDBX Classes
 90
     1025
 91
        2
280
     0
281
     0
  0
CLASS
  1
ACMTAPERSTANDARDISO
  2
AcmTaperStdISO
  3
"Amdt_StdImp|Product Description: AutoCAD Mechanical|Company: Autodesk, Inc."
 90
     1024
 91
        1
280
     0
281
     0
  0
CLASS
  1
ACMANOOTATIONVIEWSTANDARDISO
  2
AmdtAnViewStdISO
  3
"Amdt_StdImp|Product Description: AutoCAD Mechanical|Company: Autodesk, Inc."
 90
     1024
 91
        1
280
     0
281
     0
  0
CLASS
  1
ACMSECTIONSTANDARDCUSTOM
  2
AmdtSectionSymStdCustom
  3
"Amdt_StdImp|Product Description: AutoCAD Mechanical|Company: Autodesk, Inc."
 90
     1024
 91
        1
280
     0
281
     0
  0
CLASS
  1
ACMDETAILTANDARDCUSTOM
  2
AmdtDetailSymStdCustom
  3
"Amdt_StdImp|Product Description: AutoCAD Mechanical|Company: Autodesk, Inc."
 90
     1024
 91
        1
280
     0
281
     0
  0
CLASS
  1
FIELD
  2
AcDbField
  3
ObjectDBX Classes
 90
     1152
 91
        3
280
     0
281
     0
  0
CLASS
  1
FIELDLIST
  2
AcDbFieldList
  3
ObjectDBX Classes
 90
     1152
 91
        1
280
     0
281
     0
  0
CLASS
  1
CAMSSTRUCTBTNSTATE
  2
StructBtnState
  3
DesignerAssemblies
 90
     1024
 91
        0
280
     0
281
     0
  0
CLASS
  1
CELLSTYLEMAP
  2
AcDbCellStyleMap
  3
ObjectDBX Classes
 90
     1152
 91
        2
280
     0
281
     0
  0
CLASS
  1
AMDTEDGESTANDARDISO13715
  2
AmdtEdgeStdISO13715
  3
"Amdt_StdImp|Product Description: AutoCAD Mechanical|Company: Autodesk, Inc."
 90
     1024
 91
        1
280
     0
281
     0
  0
CLASS
  1
ACMSURFSTANDARDISO2002
  2
AcmSurfTextStdISO2002
  3
"Amdt_StdImp|Product Description: AutoCAD Mechanical|Company: Autodesk, Inc."
 90
     1024
 91
        1
280
     0
281
     0
  0
CLASS
  1
ACMFCFSTANDARDISO2012
  2
AcmFCFStdISO2012
  3
"Amdt_StdImp|Product Description: AutoCAD Mechanical|Company: Autodesk, Inc."
 90
     1024
 91
        1
280
     0
281
     0
  0
CLASS
  1
ACMIDSTANDARDISO2012
  2
AcmIdStdISO2012
  3
"Amdt_StdImp|Product Description: AutoCAD Mechanical|Company: Autodesk, Inc."
 90
     1024
 91
        1
280
     0
281
     0
  0
CLASS
  1
ACMDATUMSTANDARDISO2012
  2
AcmDatumStdISO2012
  3
"Amdt_StdImp|Product Description: AutoCAD Mechanical|Company: Autodesk, Inc."
 90
     1024
 91
        1
280
     0
281
     0
  0
CLASS
  1
ACMSECTIONSTANDARDISO2001
  2
AmdtSectionSymStdISO2001
  3
"Amdt_StdImp|Product Description: AutoCAD Mechanical|Company: Autodesk, Inc."
 90
     1024
 91
        1
280
     0
281
     0
  0
CLASS
  1
SORTENTSTABLE
  2
AcDbSortentsTable
  3
ObjectDBX Classes
 90
        0
 91
        2
280
     0
281
     0
  0
ENDSEC
  0
SECTION
  2
TABLES
  0
TABLE
  2
VPORT
  5
8
330
0
100
AcDbSymbolTable
 70
     1
  0
VPORT
  5
FEF8E
330
8
100
AcDbSymbolTableRecord
100
AcDbViewportTableRecord
  2
*Active
 70
     0
 10
0.0
 20
0.0
 11
1.0
 21
1.0
 12
693.3742691458544
 22
310.2191960162674
 13
0.0
 23
0.0
 14
2.5
 24
2.5
 15
10.0
 25
10.0
 16
0.0
 26
0.0
 36
1.0
 17
0.0
 27
0.0
 37
0.0
 40
521.7809501719484
 41
1.79243119266055
 42
50.0
 43
0.0
 44
0.0
 50
0.0
 51
0.0
 71
     0
 72
   100
 73
     1
 74
     3
 75
     0
 76
     0
 77
     0
 78
     0
281
     0
 65
     0
110
0.0
120
0.0
130
0.0
111
1.0
121
0.0
131
0.0
112
0.0
122
1.0
132
0.0
 79
     0
146
0.0
1001
ACAD_NAV_VCDISPLAY
1070
     3
  0
ENDTAB
  0
TABLE
  2
LTYPE
  5
5
330
0
100
AcDbSymbolTable
 70
    14
  0
LTYPE
  5
14
330
5
100
AcDbSymbolTableRecord
100
AcDbLinetypeTableRecord
  2
ByBlock
 70
     0
  3

 72
    65
 73
     0
 40
0.0
  0
LTYPE
  5
15
330
5
100
AcDbSymbolTableRecord
100
AcDbLinetypeTableRecord
  2
ByLayer
 70
     0
  3

 72
    65
 73
     0
 40
0.0
  0
LTYPE
  5
16
330
5
100
AcDbSymbolTableRecord
100
AcDbLinetypeTableRecord
  2
Continuous
 70
     0
  3
Solid line
 72
    65
 73
     0
 40
0.0
  0
LTYPE
  5
16D41
330
5
100
AcDbSymbolTableRecord
100
AcDbLinetypeTableRecord
  2
AM_ISO02W050
 70
     0
  3
__ __ __ __ __ __ __ __ __ __ __ __ __ __ __
 72
    65
 73
     2
 40
7.5
 49
6.0
 74
     0
 49
-1.5
 74
     0
  0
LTYPE
  5
16D42
330
5
100
AcDbSymbolTableRecord
100
AcDbLinetypeTableRecord
  2
AM_ISO08W050
 70
     0
  3
____ . ____ . ____ . ____ . ____ . ____ . ____
 72
    65
 73
     4
 40
18.0
 49
12.0
 74
     0
 49
-1.5
 74
     0
 49
3.0
 74
     0
 49
-1.5
 74
     0
  0
LTYPE
  5
16D43
330
5
100
AcDbSymbolTableRecord
100
AcDbLinetypeTableRecord
  2
AM_ISO09W050
 70
     0
  3
_____ . . _____ . . _____ . . ____ .. ____
 72
    65
 73
     6
 40
22.5
 49
12.0
 74
     0
 49
-1.5
 74
     0
 49
3.0
 74
     0
 49
-1.5
 74
     0
 49
3.0
 74
     0
 49
-1.5
 74
     0
  0
LTYPE
  5
16D44
330
5
100
AcDbSymbolTableRecord
100
AcDbLinetypeTableRecord
  2
Amconstr
 70
     0
  3
_______________________
 72
    65
 73
     2
 40
9999.0
 49
9999.0
 74
     0
 49
0.0
 74
     0
  0
LTYPE
  5
16D45
330
5
100
AcDbSymbolTableRecord
100
AcDbLinetypeTableRecord
  2
AM_ISO08W050x2
 70
     0
  3
__ . __ . __ . __ . __ . __
 72
    65
 73
     4
 40
9.0
 49
6.0
 74
     0
 49
-0.75
 74
     0
 49
1.5
 74
     0
 49
-0.75
 74
     0
  0
LTYPE
  5
16D46
330
5
100
AcDbSymbolTableRecord
100
AcDbLinetypeTableRecord
  2
AM_ISO02W050x2
 70
     0
  3
 _ _ _ _ _ _ _ _ _ _ _ _
 72
    65
 73
     2
 40
3.75
 49
3.0
 74
     0
 49
-0.75
 74
     0
  0
LTYPE
  5
16D47
330
5
100
AcDbSymbolTableRecord
100
AcDbLinetypeTableRecord
  2
Amzigzag
 70
     0
  3
/\/-/\/-/\/-/\/-/\/-/\/
 72
    65
 73
     2
 40
11.0001
 49
0.0001
 74
     4
 75
   135
340
3AE2
 46
0.04
 50
0.0
 44
0.0
 45
0.0
 49
-11.0
 74
     0
  0
LTYPE
  5
16D56
330
5
100
AcDbSymbolTableRecord
100
AcDbLinetypeTableRecord
  2
ACISOWELD
 70
     0
  3
_ _ _ _ _
 72
    65
 73
     2
 40
2.0
 49
2.0
 74
     0
 49
-1.0
 74
     0
  0
LTYPE
  5
16D57
330
5
100
AcDbSymbolTableRecord
100
AcDbLinetypeTableRecord
  2
ACISOTGB
 70
     0
  3
__ . . __ . .
 72
    65
 73
     6
 40
9.0
 49
4.0
 74
     0
 49
-1.0
 74
     0
 49
1.0
 74
     0
 49
-1.0
 74
     0
 49
1.0
 74
     0
 49
-1.0
 74
     0
  0
LTYPE
  5
16D58
330
5
100
AcDbSymbolTableRecord
100
AcDbLinetypeTableRecord
  2
ACISOTGL
 70
     0
  3
_ _ _ _ _
 72
    65
 73
     2
 40
3.0
 49
2.0
 74
     0
 49
-1.0
 74
     0
  0
LTYPE
  5
FF4BC
330
5
100
AcDbSymbolTableRecord
100
AcDbLinetypeTableRecord
  2
HIDDEN
 70
     0
  3
Hidden __ __ __ __ __ __ __ __ __ __ __ __ __ _
 72
    65
 73
     2
 40
9.524999999999996
 49
6.349999999999998
 74
     0
 49
-3.174999999999998
 74
     0
  0
LTYPE
  5
FF4BD
330
5
100
AcDbSymbolTableRecord
100
AcDbLinetypeTableRecord
  2
PHANTOM2
 70
     0
  3
Phantom (.5x) ___ _ _ ___ _ _ ___ _ _ ___ _ _
 72
    65
 73
     6
 40
31.75
 49
15.875
 74
     0
 49
-3.174999999999998
 74
     0
 49
3.174999999999998
 74
     0
 49
-3.174999999999998
 74
     0
 49
3.174999999999998
 74
     0
 49
-3.174999999999998
 74
     0
  0
LTYPE
  5
FF4BE
330
5
100
AcDbSymbolTableRecord
100
AcDbLinetypeTableRecord
  2
CENTER
 70
     0
  3
Center ____ _ ____ _ ____ _ ____ _ ____ _ ____
 72
    65
 73
     4
 40
50.8
 49
31.75
 74
     0
 49
-6.349999999999998
 74
     0
 49
6.349999999999998
 74
     0
 49
-6.349999999999998
 74
     0
  0
ENDTAB
  0
TABLE
  2
LAYER
  5
2
102
{ACAD_XDICTIONARY
360
F82BD
102
}
330
0
100
AcDbSymbolTable
 70
     4
  0
LAYER
  5
10
102
{ACAD_XDICTIONARY
360
FF35E
102
}
330
2
100
AcDbSymbolTableRecord
100
AcDbLayerTableRecord
  2
0
 70
     0
 62
     7
  6
Continuous
370
    20
390
F
  0
LAYER
  5
54
330
2
100
AcDbSymbolTableRecord
100
AcDbLayerTableRecord
  2
Defpoints
 70
     0
 62
     7
  6
Continuous
290
     0
370
    -3
390
F
  0
LAYER
  5
86C9
102
{ACAD_XDICTIONARY
360
FF36C
102
}
330
2
100
AcDbSymbolTableRecord
100
AcDbLayerTableRecord
  2
04_ele1_0.15
 70
     0
 62
     4
  6
Continuous
370
    15
390
F
  0
LAYER
  5
FF2A1
102
{ACAD_XDICTIONARY
360
FF392
102
}
330
2
100
AcDbSymbolTableRecord
100
AcDbLayerTableRecord
  2
AM_5
 70
     0
 62
     3
  6
Continuous
370
    25
390
F
1001
AcAecLayerStandard
1000

1000

  0
ENDTAB
  0
TABLE
  2
STYLE
  5
3
330
0
100
AcDbSymbolTable
 70
     7
  0
STYLE
  5
11
330
3
100
AcDbSymbolTableRecord
100
AcDbTextStyleTableRecord
  2
STANDARD
 70
     0
 40
0.0
 41
1.0
 50
0.0
 71
     0
 42
2.5
  3
ISOCP.SHX
  4
EXTFONT.SHX
  0
STYLE
  5
3A59
330
3
100
AcDbSymbolTableRecord
100
AcDbTextStyleTableRecord
  2
new cad
 70
     0
 40
0.0
 41
1.0
 50
0.0
 71
     0
 42
2.5
  3
HGPGothicM.ttf
  4

1001
ACAD
1000
HGPGothicM
1071
    32818
  0
STYLE
  5
3AE2
330
3
100
AcDbSymbolTableRecord
100
AcDbTextStyleTableRecord
  2

 70
     1
 40
0.0
 41
1.0
 50
0.0
 71
     0
 42
2.5
  3
ltypeshp.shx
  4

  0
STYLE
  5
16D55
330
3
100
AcDbSymbolTableRecord
100
AcDbTextStyleTableRecord
  2
ACISOGDT
 70
     0
 40
0.0
 41
1.0
 50
0.0
 71
     0
 42
2.5
  3
amgdt.shx
  4

  0
STYLE
  5
F51B8
330
3
100
AcDbSymbolTableRecord
100
AcDbTextStyleTableRecord
  2
acad
 70
     0
 40
0.0
 41
1.0
 50
0.0
 71
     0
 42
2.5
  3
txt.shx
  4
extfont.shx
  0
STYLE
  5
F61F9
330
3
100
AcDbSymbolTableRecord
100
AcDbTextStyleTableRecord
  2
2014++
 70
     0
 40
0.0
 41
0.8
 50
0.0
 71
     0
 42
2.5
  3
simplex.shx
  4
bigfont.shx
  0
STYLE
  5
FF4F6
330
3
100
AcDbSymbolTableRecord
100
AcDbTextStyleTableRecord
  2
ACISOTS
 70
     0
 40
0.0
 41
1.0
 50
0.0
 71
     0
 42
2.5
  3
isocp.shx
  4
extfont.shx
  0
ENDTAB
  0
TABLE
  2
VIEW
  5
6
330
0
100
AcDbSymbolTable
 70
     0
  0
ENDTAB
  0
TABLE
  2
UCS
  5
7
330
0
100
AcDbSymbolTable
 70
     0
  0
ENDTAB
  0
TABLE
  2
APPID
  5
9
330
0
100
AcDbSymbolTable
 70
    22
  0
APPID
  5
12
330
9
100
AcDbSymbolTableRecord
100
AcDbRegAppTableRecord
  2
ACAD
 70
     0
  0
APPID
  5
16CD8
330
9
100
AcDbSymbolTableRecord
100
AcDbRegAppTableRecord
  2
MCAD_NO_VIS
 70
     0
  0
APPID
  5
16CD9
330
9
100
AcDbSymbolTableRecord
100
AcDbRegAppTableRecord
  2
ACAD_TEMP_GRAPHIC
 70
     0
  0
APPID
  5
16D0B
330
9
100
AcDbSymbolTableRecord
100
AcDbRegAppTableRecord
  2
AD_DRAW
 70
     0
  0
APPID
  5
16D0E
330
9
100
AcDbSymbolTableRecord
100
AcDbRegAppTableRecord
  2
ACATTRIBSERVICES
 70
     0
  0
APPID
  5
16D30
330
9
100
AcDbSymbolTableRecord
100
AcDbRegAppTableRecord
  2
DESIGNERASSEMBLIES
 70
     0
  0
APPID
  5
16D36
330
9
100
AcDbSymbolTableRecord
100
AcDbRegAppTableRecord
  2
ACADM_DIM_EDIT
 70
     0
  0
APPID
  5
16D37
330
9
100
AcDbSymbolTableRecord
100
AcDbRegAppTableRecord
  2
AMDT_DM_ADJ
 70
     0
  0
APPID
  5
16D6D
330
9
100
AcDbSymbolTableRecord
100
AcDbRegAppTableRecord
  2
GENIUS_GENSCREG_15
 70
     0
  0
APPID
  5
16D6E
330
9
100
AcDbSymbolTableRecord
100
AcDbRegAppTableRecord
  2
GENIUS_GENOBJ-N-SDF_13
 70
     0
  0
APPID
  5
16D6F
330
9
100
AcDbSymbolTableRecord
100
AcDbRegAppTableRecord
  2
GENIUS_GENODEF_13
 70
     0
  0
APPID
  5
ADC12
330
9
100
AcDbSymbolTableRecord
100
AcDbRegAppTableRecord
  2
GENIUS_GENDTOL_13
 70
     0
  0
APPID
  5
BA934
330
9
100
AcDbSymbolTableRecord
100
AcDbRegAppTableRecord
  2
GENIUS_GENOBJ-N-FIL_13
 70
     0
  0
APPID
  5
F4A76
330
9
100
AcDbSymbolTableRecord
100
AcDbRegAppTableRecord
  2
DCO15
 70
     0
  0
APPID
  5
FF03E
330
9
100
AcDbSymbolTableRecord
100
AcDbRegAppTableRecord
  2
ACAD_NAV_VCDISPLAY
 70
     0
  0
APPID
  5
FF0CA
330
9
100
AcDbSymbolTableRecord
100
AcDbRegAppTableRecord
  2
ACAD_PSEXT
 70
     0
  0
APPID
  5
FF0D2
330
9
100
AcDbSymbolTableRecord
100
AcDbRegAppTableRecord
  2
ACAD_DSTYLE_DIMINSPECT
 70
     0
  0
APPID
  5
FF13F
330
9
100
AcDbSymbolTableRecord
100
AcDbRegAppTableRecord
  2
ACAD_EXEMPT_FROM_CAD_STANDARDS
 70
     0
  0
APPID
  5
FF2A2
330
9
100
AcDbSymbolTableRecord
100
AcDbRegAppTableRecord
  2
AcAecLayerStandard
 70
     0
  0
APPID
  5
FF2A6
330
9
100
AcDbSymbolTableRecord
100
AcDbRegAppTableRecord
  2
ACAD_DSTYLE_DIMBREAK
 70
     0
  0
APPID
  5
FF2A7
330
9
100
AcDbSymbolTableRecord
100
AcDbRegAppTableRecord
  2
ACAD_DSTYLE_DIMJAG
 70
     0
  0
APPID
  5
FF3E4
330
9
100
AcDbSymbolTableRecord
100
AcDbRegAppTableRecord
  2
ACAD_MLEADERVER
 70
     0
  0
ENDTAB
  0
TABLE
  2
DIMSTYLE
  5
A
330
0
100
AcDbSymbolTable
 70
     8
100
AcDbDimStyleTable
 71
     3
340
16D60
340
16D6A
340
16D65
  0
DIMSTYLE
105
16D60
102
{ACAD_REACTORS
330
100150
102
}
330
A
100
AcDbSymbolTableRecord
100
AcDbDimStyleTableRecord
  2
AM_ISO
 70
     0
  4
"
 41
2.5
 42
1.0
 43
10.0
 44
1.0
 47
0.1
 48
0.1
 73
     0
 74
     0
 77
     1
 78
     8
 79
     2
140
3.5
141
0.0
143
0.0393701
146
0.71
147
1.5
172
     1
176
   256
177
   256
178
     2
271
     2
272
     3
274
     4
283
     0
284
     8
340
11
371
    -1
372
    -1
  0
DIMSTYLE
105
16D61
330
A
100
AcDbSymbolTableRecord
100
AcDbDimStyleTableRecord
  2
AM_ISO$3
 70
     0
  4
"
 41
2.5
 42
1.0
 43
10.0
 44
1.0
 47
0.1
 48
0.1
 73
     0
 77
     1
 78
     8
 79
     2
140
3.5
141
0.0
143
0.0393701
146
0.71
147
1.5
176
   256
177
   256
178
     2
271
     2
272
     3
274
     4
283
     0
284
     8
288
     1
289
     0
340
11
371
    -1
372
    -1
  0
DIMSTYLE
105
16D62
330
A
100
AcDbSymbolTableRecord
100
AcDbDimStyleTableRecord
  2
AM_ISO$4
 70
     0
  4
"
 41
2.5
 42
1.0
 43
10.0
 44
1.0
 47
0.1
 48
0.1
 73
     0
 77
     1
 78
     8
 79
     2
140
3.5
141
0.0
143
0.0393701
146
0.71
147
1.5
176
   256
177
   256
178
     2
271
     2
272
     3
274
     4
283
     0
284
     8
288
     1
289
     0
340
11
371
    -1
372
    -1
  0
DIMSTYLE
105
16D63
330
A
100
AcDbSymbolTableRecord
100
AcDbDimStyleTableRecord
  2
AM_ISO$6
 70
     0
  4
"
 41
2.5
 42
1.0
 43
10.0
 44
1.0
 47
0.1
 48
0.1
 73
     0
 74
     0
 78
     8
 79
     2
140
3.5
141
0.0
143
0.0393701
146
0.71
147
1.5
172
     1
176
   256
177
   256
178
     2
271
     2
272
     3
274
     4
283
     0
284
     8
340
11
371
    -1
372
    -1
  0
DIMSTYLE
105
16D64
102
{ACAD_REACTORS
330
FEA06
330
FF64B
102
}
330
A
100
AcDbSymbolTableRecord
100
AcDbDimStyleTableRecord
  2
AM_ISO$7
 70
     0
  4
"
 41
2.5
 42
1.0
 43
10.0
 44
1.0
 47
0.1
 48
0.1
 73
     0
 74
     0
 77
     1
 78
     8
 79
     2
140
5.0
141
0.0
143
0.0393701
146
0.71
147
1.5
172
     1
176
   256
177
   256
178
     2
271
     2
272
     3
274
     4
283
     0
284
     8
340
11
371
    -1
372
    -1
  0
DIMSTYLE
105
16D65
330
A
100
AcDbSymbolTableRecord
100
AcDbDimStyleTableRecord
  2
AM_ISO$SF
 70
     0
  4
"
 41
2.5
 42
1.0
 43
10.0
 44
1.0
 47
0.1
 48
0.1
 73
     0
 74
     0
 75
     1
 76
     1
 77
     1
 78
     8
 79
     2
140
3.5
141
0.0
143
0.0393701
146
0.71
147
1.5
172
     1
176
   256
177
   256
178
     2
271
     2
272
     3
274
     4
283
     0
284
     8
340
11
371
    -1
372
    -1
  0
DIMSTYLE
105
16D6A
330
A
100
AcDbSymbolTableRecord
100
AcDbDimStyleTableRecord
  2
AM_ISO$SH
 70
     0
  4
"
 41
2.5
 42
1.0
 43
10.0
 44
1.0
 47
0.1
 48
0.1
 73
     0
 74
     0
 75
     1
 76
     1
 77
     1
 78
     8
 79
     2
140
3.5
141
0.0
143
0.0393701
144
2.0
146
0.71
147
1.5
172
     1
173
     1
176
   256
177
   256
178
     2
271
     2
272
     3
274
     4
283
     0
284
     8
340
11
343
16D66
371
    -1
372
    -1
  0
DIMSTYLE
105
FF2A8
102
{ACAD_REACTORS
330
FEA00
330
FF5FA
330
FF5FF
330
FE9DF
330
FEA01
330
FF5FD
330
FF5F8
330
FE9F9
330
FEA25
330
FF63C
102
}
330
A
100
AcDbSymbolTableRecord
100
AcDbDimStyleTableRecord
  2
AM_ISO$0
 70
     0
  4
"
 41
2.5
 42
1.0
 43
10.0
 44
1.0
 47
0.1
 48
0.1
 73
     0
 74
     0
 77
     1
 78
     8
 79
     2
140
3.5
141
0.0
143
0.0393701
146
0.71
147
1.5
172
     1
176
   256
177
   256
178
     2
271
     2
272
     3
274
     4
283
     0
284
     8
340
11
371
    -1
372
    -1
1001
ACAD_DSTYLE_DIMBREAK
1070
   391
1040
3.75
1001
ACAD_DSTYLE_DIMJAG
1070
   388
1040
1.5
  0
ENDTAB
  0
TABLE
  2
BLOCK_RECORD
  5
1
330
0
100
AcDbSymbolTable
 70
    41
  0
BLOCK_RECORD
  5
1F
102
{ACAD_XDICTIONARY
360
16D78
102
}
330
1
100
AcDbSymbolTableRecord
100
AcDbBlockTableRecord
  2
*Model_Space
340
22
  0
BLOCK_RECORD
  5
FF0BE
330
1
100
AcDbSymbolTableRecord
100
AcDbBlockTableRecord
  2
*Paper_Space
340
FF0BF
  0
BLOCK_RECORD
  5
16D66
330
1
100
AcDbSymbolTableRecord
100
AcDbBlockTableRecord
  2
GENAXEH
340
0
  0
BLOCK_RECORD
  5
FEAAF
330
1
100
AcDbSymbolTableRecord
100
AcDbBlockTableRecord
  2
*D1
340
0
  0
BLOCK_RECORD
  5
FEABB
330
1
100
AcDbSymbolTableRecord
100
AcDbBlockTableRecord
  2
*D2
340
0
  0
BLOCK_RECORD
  5
FEAC8
330
1
100
AcDbSymbolTableRecord
100
AcDbBlockTableRecord
  2
*D3
340
0
  0
BLOCK_RECORD
  5
FEAD4
330
1
100
AcDbSymbolTableRecord
100
AcDbBlockTableRecord
  2
*D4
340
0
  0
BLOCK_RECORD
  5
FEAE2
330
1
100
AcDbSymbolTableRecord
100
AcDbBlockTableRecord
  2
*D5
340
0
  0
BLOCK_RECORD
  5
FEAEF
330
1
100
AcDbSymbolTableRecord
100
AcDbBlockTableRecord
  2
*D6
340
0
  0
BLOCK_RECORD
  5
FEAFD
330
1
100
AcDbSymbolTableRecord
100
AcDbBlockTableRecord
  2
*D7
340
0
  0
BLOCK_RECORD
  5
FEB0B
330
1
100
AcDbSymbolTableRecord
100
AcDbBlockTableRecord
  2
*D8
340
0
  0
BLOCK_RECORD
  5
FEB19
330
1
100
AcDbSymbolTableRecord
100
AcDbBlockTableRecord
  2
*D9
340
0
  0
BLOCK_RECORD
  5
FEB25
330
1
100
AcDbSymbolTableRecord
100
AcDbBlockTableRecord
  2
*D10
340
0
  0
BLOCK_RECORD
  5
FEB31
330
1
100
AcDbSymbolTableRecord
100
AcDbBlockTableRecord
  2
*D11
340
0
  0
BLOCK_RECORD
  5
FEB56
330
1
100
AcDbSymbolTableRecord
100
AcDbBlockTableRecord
  2
*D12
340
0
  0
BLOCK_RECORD
  5
FF506
330
1
100
AcDbSymbolTableRecord
100
AcDbBlockTableRecord
  2
*D13
340
0
  0
BLOCK_RECORD
  5
FF513
330
1
100
AcDbSymbolTableRecord
100
AcDbBlockTableRecord
  2
*D14
340
0
  0
BLOCK_RECORD
  5
FF51F
330
1
100
AcDbSymbolTableRecord
100
AcDbBlockTableRecord
  2
*D15
340
0
  0
BLOCK_RECORD
  5
FF52B
330
1
100
AcDbSymbolTableRecord
100
AcDbBlockTableRecord
  2
*D16
340
0
  0
BLOCK_RECORD
  5
FF538
330
1
100
AcDbSymbolTableRecord
100
AcDbBlockTableRecord
  2
*D17
340
0
  0
BLOCK_RECORD
  5
FF544
330
1
100
AcDbSymbolTableRecord
100
AcDbBlockTableRecord
  2
*D18
340
0
  0
BLOCK_RECORD
  5
FF551
330
1
100
AcDbSymbolTableRecord
100
AcDbBlockTableRecord
  2
*D19
340
0
  0
BLOCK_RECORD
  5
FF55E
330
1
100
AcDbSymbolTableRecord
100
AcDbBlockTableRecord
  2
*D20
340
0
  0
BLOCK_RECORD
  5
FF56B
330
1
100
AcDbSymbolTableRecord
100
AcDbBlockTableRecord
  2
*D21
340
0
  0
BLOCK_RECORD
  5
FF577
330
1
100
AcDbSymbolTableRecord
100
AcDbBlockTableRecord
  2
*D22
340
0
  0
BLOCK_RECORD
  5
FF57F
330
1
100
AcDbSymbolTableRecord
100
AcDbBlockTableRecord
  2
*D23
340
0
  0
BLOCK_RECORD
  5
FF58D
330
1
100
AcDbSymbolTableRecord
100
AcDbBlockTableRecord
  2
*D24
340
0
  0
BLOCK_RECORD
  5
FF64C
330
1
100
AcDbSymbolTableRecord
100
AcDbBlockTableRecord
  2
*D25
340
0
  0
BLOCK_RECORD
  5
FF659
330
1
100
AcDbSymbolTableRecord
100
AcDbBlockTableRecord
  2
*D26
340
0
  0
BLOCK_RECORD
  5
FF666
330
1
100
AcDbSymbolTableRecord
100
AcDbBlockTableRecord
  2
*D27
340
0
  0
BLOCK_RECORD
  5
FF671
330
1
100
AcDbSymbolTableRecord
100
AcDbBlockTableRecord
  2
*D28
340
0
  0
BLOCK_RECORD
  5
FF679
330
1
100
AcDbSymbolTableRecord
100
AcDbBlockTableRecord
  2
*D29
340
0
  0
BLOCK_RECORD
  5
FF687
330
1
100
AcDbSymbolTableRecord
100
AcDbBlockTableRecord
  2
*D30
340
0
  0
BLOCK_RECORD
  5
FF694
330
1
100
AcDbSymbolTableRecord
100
AcDbBlockTableRecord
  2
*D31
340
0
  0
BLOCK_RECORD
  5
FF6A0
330
1
100
AcDbSymbolTableRecord
100
AcDbBlockTableRecord
  2
*D32
340
0
  0
BLOCK_RECORD
  5
FF6AC
330
1
100
AcDbSymbolTableRecord
100
AcDbBlockTableRecord
  2
*D33
340
0
  0
BLOCK_RECORD
  5
FF6B9
330
1
100
AcDbSymbolTableRecord
100
AcDbBlockTableRecord
  2
*D34
340
0
  0
BLOCK_RECORD
  5
FF6C5
330
1
100
AcDbSymbolTableRecord
100
AcDbBlockTableRecord
  2
*D35
340
0
  0
BLOCK_RECORD
  5
FF6D2
330
1
100
AcDbSymbolTableRecord
100
AcDbBlockTableRecord
  2
*D36
340
0
  0
BLOCK_RECORD
  5
FF8F6
102
{ACAD_XDICTIONARY
360
FF8F8
102
}
330
1
100
AcDbSymbolTableRecord
100
AcDbBlockTableRecord
  2
A$C47F316C8
340
0
1001
ACAD
1000
DesignCenter Data
1002
{
1070
     1
1070
     4
1002
}
  0
BLOCK_RECORD
  5
FF9A4
330
1
100
AcDbSymbolTableRecord
100
AcDbBlockTableRecord
  2
*D38
340
0
  0
BLOCK_RECORD
  5
FFA19
330
1
100
AcDbSymbolTableRecord
100
AcDbBlockTableRecord
  2
*D39
340
0
  0
ENDTAB
  0
ENDSEC
  0
SECTION
  2
BLOCKS
  0
BLOCK
  5
20
330
1F
100
AcDbEntity
  8
0
100
AcDbBlockBegin
  2
*Model_Space
 70
     0
 10
0.0
 20
0.0
 30
0.0
  3
*Model_Space
  1

  0
ENDBLK
  5
21
330
1F
100
AcDbEntity
  8
0
100
AcDbBlockEnd
  0
BLOCK
  5
FF0C0
330
FF0BE
100
AcDbEntity
 67
     1
  8
0
100
AcDbBlockBegin
  2
*Paper_Space
 70
     0
 10
0.0
 20
0.0
 30
0.0
  3
*Paper_Space
  1

  0
ENDBLK
  5
FF0C1
330
FF0BE
100
AcDbEntity
 67
     1
  8
0
100
AcDbBlockEnd
  0
BLOCK
  5
16D68
330
16D66
100
AcDbEntity
  8
0
100
AcDbBlockBegin
  2
GENAXEH
 70
     0
 10
0.0
 20
0.0
 30
0.0
  3
GENAXEH
  1

  0
LINE
  5
16D67
330
16D66
100
AcDbEntity
  8
0
100
AcDbLine
 10
-1.0
 20
0.0
 30
0.0
 11
1.0
 21
0.0
 31
0.0
  0
ENDBLK
  5
16D69
330
16D66
100
AcDbEntity
  8
0
100
AcDbBlockEnd
  0
BLOCK
  5
FEAB9
330
FEAAF
100
AcDbEntity
  8
0
100
AcDbBlockBegin
  2
*D1
 70
     1
 10
0.0
 20
0.0
 30
0.0
  3
*D1
  1

  0
LINE
  5
FFF73
330
FEAAF
100
AcDbEntity
  8
AM_5
440
 16777216
100
AcDbLine
 10
553.4797698218093
 20
60.11727383160465
 30
0.0
 11
489.7088407131973
 21
60.11727383160469
 31
0.0
  0
LINE
  5
FFF74
330
FEAAF
100
AcDbEntity
  8
AM_5
440
 16777216
100
AcDbLine
 10
553.4797698218101
 20
120.1172738316047
 30
0.0
 11
489.7088407131973
 21
120.1172738316047
 31
0.0
  0
LINE
  5
FFF75
330
FEAAF
100
AcDbEntity
  8
AM_5
440
 16777216
100
AcDbLine
 10
490.7088407131974
 20
62.61727383160469
 30
0.0
 11
490.7088407131974
 21
117.6172738316047
 31
0.0
  0
SOLID
  5
FFF76
330
FEAAF
100
AcDbEntity
  8
AM_5
440
 16777216
100
AcDbTrace
 10
490.2921740465306
 20
62.61727383160469
 30
0.0
 11
491.1255073798639
 21
62.61727383160469
 31
0.0
 12
490.7088407131974
 22
60.11727383160469
 32
0.0
 13
490.7088407131974
 23
60.11727383160469
 33
0.0
  0
SOLID
  5
FFF77
330
FEAAF
100
AcDbEntity
  8
AM_5
440
 16777216
100
AcDbTrace
 10
490.2921740465306
 20
117.6172738316047
 30
0.0
 11
491.1255073798639
 21
117.6172738316047
 31
0.0
 12
490.7088407131974
 22
120.1172738316047
 32
0.0
 13
490.7088407131974
 23
120.1172738316047
 33
0.0
  0
MTEXT
  5
FFF78
330
FEAAF
100
AcDbEntity
  8
AM_5
 62
     2
440
 16777216
100
AcDbMText
 10
487.4588407131973
 20
90.11727383160469
 30
0.0
 40
3.5
 41
0.0
 71
     5
 72
     1
  1
%%c60
 11
0.0000000000000001
 21
1.0
 31
0.0
 73
     1
 44
1.0
  0
POINT
  5
FFF79
330
FEAAF
100
AcDbEntity
  8
Defpoints
 62
     0
440
 16777216
100
AcDbPoint
 10
554.4797698218093
 20
60.11727383160465
 30
0.0
  0
POINT
  5
FFF7A
330
FEAAF
100
AcDbEntity
  8
Defpoints
 62
     0
440
 16777216
100
AcDbPoint
 10
554.4797698218101
 20
120.1172738316047
 30
0.0
  0
POINT
  5
FFF7B
330
FEAAF
100
AcDbEntity
  8
Defpoints
 62
     0
440
 16777216
100
AcDbPoint
 10
490.7088407131974
 20
120.1172738316047
 30
0.0
  0
ENDBLK
  5
FEABA
330
FEAAF
100
AcDbEntity
  8
0
100
AcDbBlockEnd
  0
BLOCK
  5
FEAC6
330
FEABB
100
AcDbEntity
  8
0
100
AcDbBlockBegin
  2
*D2
 70
     1
 10
0.0
 20
0.0
 30
0.0
  3
*D2
  1

  0
LINE
  5
FFB80
330
FEABB
100
AcDbEntity
  8
AM_5
440
 16777216
100
AcDbLine
 10
559.7501099797763
 20
107.1172738316046
 30
0.0
 11
602.3035866275741
 21
107.1172738316046
 31
0.0
  0
LINE
  5
FFB81
330
FEABB
100
AcDbEntity
  8
AM_5
440
 16777216
100
AcDbLine
 10
594.4797698218094
 20
90.11727383160469
 30
0.0
 11
602.3035866275741
 21
90.11727383160469
 31
0.0
  0
LINE
  5
FFB82
330
FEABB
100
AcDbEntity
  8
AM_5
440
 16777216
100
AcDbLine
 10
601.3035866275742
 20
92.61727383160469
 30
0.0
 11
601.3035866275742
 21
104.6172738316047
 31
0.0
  0
LINE
  5
FFB83
330
FEABB
100
AcDbEntity
  8
AM_5
440
 16777216
100
AcDbLine
 10
601.3035866275742
 20
107.1172738316046
 30
0.0
 11
601.3035866275742
 21
116.2301834409342
 31
0.0
  0
SOLID
  5
FFB84
330
FEABB
100
AcDbEntity
  8
AM_5
440
 16777216
100
AcDbTrace
 10
600.8869199609075
 20
92.61727383160469
 30
0.0
 11
601.7202532942408
 21
92.61727383160469
 31
0.0
 12
601.3035866275742
 22
90.11727383160469
 32
0.0
 13
601.3035866275742
 23
90.11727383160469
 33
0.0
  0
SOLID
  5
FFB85
330
FEABB
100
AcDbEntity
  8
AM_5
440
 16777216
100
AcDbTrace
 10
600.8869199609075
 20
104.6172738316047
 30
0.0
 11
601.7202532942408
 21
104.6172738316047
 31
0.0
 12
601.3035866275742
 22
107.1172738316046
 32
0.0
 13
601.3035866275742
 23
107.1172738316046
 33
0.0
  0
MTEXT
  5
FFB86
330
FEABB
100
AcDbEntity
  8
AM_5
 62
     2
440
 16777216
100
AcDbMText
 10
598.0535866275742
 20
113.1551834409343
 30
0.0
 40
3.5
 41
0.0
 71
     5
 72
     1
  1
17
 11
0.0000000000000001
 21
1.0
 31
0.0
 73
     1
 44
1.0
  0
POINT
  5
FFB87
330
FEABB
100
AcDbEntity
  8
Defpoints
 62
     0
440
 16777216
100
AcDbPoint
 10
558.7501099797763
 20
107.1172738316046
 30
0.0
  0
POINT
  5
FFB88
330
FEABB
100
AcDbEntity
  8
Defpoints
 62
     0
440
 16777216
100
AcDbPoint
 10
593.4797698218094
 20
90.11727383160469
 30
0.0
  0
POINT
  5
FFB89
330
FEABB
100
AcDbEntity
  8
Defpoints
 62
     0
440
 16777216
100
AcDbPoint
 10
601.3035866275742
 20
90.11727383160469
 30
0.0
  0
ENDBLK
  5
FEAC7
330
FEABB
100
AcDbEntity
  8
0
100
AcDbBlockEnd
  0
BLOCK
  5
FEAD2
330
FEAC8
100
AcDbEntity
  8
0
100
AcDbBlockBegin
  2
*D3
 70
     1
 10
0.0
 20
0.0
 30
0.0
  3
*D3
  1

  0
LINE
  5
FFB8A
330
FEAC8
100
AcDbEntity
  8
AM_5
440
 16777216
100
AcDbLine
 10
585.7065414799579
 20
152.2103167737625
 30
0.0
 11
557.1840154574856
 21
111.0223417621182
 31
0.0
  0
LINE
  5
FFB8B
330
FEAC8
100
AcDbEntity
  8
AM_5
440
 16777216
100
AcDbLine
 10
551.7755241861332
 20
103.212205901092
 30
0.0
 11
550.3522370094612
 21
101.1569069902954
 31
0.0
  0
MTEXT
  5
FFB8C
102
{ACAD_XDICTIONARY
360
100116
102
}
330
FEAC8
100
AcDbEntity
  8
AM_5
 62
     2
440
 16777216
100
AcDbMText
 10
578.2538384579842
 20
147.1568514426326
 30
0.0
 40
3.5
 41
0.0
 71
     5
 72
     1
  1
4-\U+22054.5
 11
0.5693148706687353
 21
0.8221195643186222
 31
0.0
 73
     1
 44
1.0
  0
LINE
  5
FFB8D
330
FEAC8
100
AcDbEntity
  8
AM_5
440
 16777216
100
AcDbLine
 10
553.198811362805
 20
105.2675048118885
 30
0.0
 11
555.7607282808138
 21
108.9670428513216
 31
0.0
  0
SOLID
  5
FFB8E
330
FEAC8
100
AcDbEntity
  8
AM_5
440
 16777216
100
AcDbTrace
 10
551.4329743676671
 20
103.4494204305373
 30
0.0
 11
552.1180740045991
 21
102.9749913716466
 31
0.0
 12
553.198811362805
 22
105.2675048118885
 32
0.0
 13
553.198811362805
 23
105.2675048118885
 33
0.0
  0
SOLID
  5
FFB8F
330
FEAC8
100
AcDbEntity
  8
AM_5
440
 16777216
100
AcDbTrace
 10
556.8414656390196
 20
111.2595562915635
 30
0.0
 11
557.5265652759518
 21
110.7851272326728
 31
0.0
 12
555.7607282808138
 22
108.9670428513216
 32
0.0
 13
555.7607282808138
 23
108.9670428513216
 33
0.0
  0
POINT
  5
FFB90
330
FEAC8
100
AcDbEntity
  8
Defpoints
 62
     0
440
 16777216
100
AcDbPoint
 10
555.7607282808138
 20
108.9670428513216
 30
0.0
  0
POINT
  5
FFB91
330
FEAC8
100
AcDbEntity
  8
Defpoints
 62
     0
440
 16777216
100
AcDbPoint
 10
553.198811362805
 20
105.2675048118885
 30
0.0
  0
ENDBLK
  5
FEAD3
330
FEAC8
100
AcDbEntity
  8
0
100
AcDbBlockEnd
  0
BLOCK
  5
FEAE0
330
FEAD4
100
AcDbEntity
  8
0
100
AcDbBlockBegin
  2
*D4
 70
     1
 10
0.0
 20
0.0
 30
0.0
  3
*D4
  1

  0
LINE
  5
FFB92
330
FEAD4
100
AcDbEntity
  8
AM_5
440
 16777216
100
AcDbLine
 10
554.4797698218101
 20
50.11727383160465
 30
0.0
 11
554.4797698218101
 21
32.51718793238743
 31
0.0
  0
LINE
  5
FFB93
330
FEAD4
100
AcDbEntity
  8
AM_5
440
 16777216
100
AcDbLine
 10
576.4797698218099
 20
84.84693367363908
 30
0.0
 11
576.4797698218099
 21
32.51718793238743
 31
0.0
  0
LINE
  5
FFB94
330
FEAD4
100
AcDbEntity
  8
AM_5
440
 16777216
100
AcDbLine
 10
556.9797698218101
 20
33.51718793238743
 30
0.0
 11
573.97976982181
 21
33.51718793238743
 31
0.0
  0
LINE
  5
FFB95
330
FEAD4
100
AcDbEntity
  8
AM_5
440
 16777216
100
AcDbLine
 10
576.4797698218099
 20
33.51718793238743
 30
0.0
 11
596.7010219639164
 21
33.51718793238743
 31
0.0
  0
SOLID
  5
FFB96
330
FEAD4
100
AcDbEntity
  8
AM_5
440
 16777216
100
AcDbTrace
 10
556.9797698218101
 20
33.9338545990541
 30
0.0
 11
556.9797698218101
 21
33.10052126572077
 31
0.0
 12
554.4797698218101
 22
33.51718793238743
 32
0.0
 13
554.4797698218101
 23
33.51718793238743
 33
0.0
  0
SOLID
  5
FFB97
330
FEAD4
100
AcDbEntity
  8
AM_5
440
 16777216
100
AcDbTrace
 10
573.97976982181
 20
33.9338545990541
 30
0.0
 11
573.97976982181
 21
33.10052126572077
 31
0.0
 12
576.4797698218099
 22
33.51718793238743
 32
0.0
 13
576.4797698218099
 23
33.51718793238743
 33
0.0
  0
MTEXT
  5
FFB98
330
FEAD4
100
AcDbEntity
  8
AM_5
 62
     2
440
 16777216
100
AcDbMText
 10
593.1264796410817
 20
36.76753242057641
 30
0.0
 40
3.5
 41
0.0
 71
     5
 72
     1
  1
22
 73
     1
 44
1.0
  0
POINT
  5
FFB99
330
FEAD4
100
AcDbEntity
  8
Defpoints
 62
     0
440
 16777216
100
AcDbPoint
 10
554.4797698218101
 20
51.11727383160467
 30
0.0
  0
POINT
  5
FFB9A
330
FEAD4
100
AcDbEntity
  8
Defpoints
 62
     0
440
 16777216
100
AcDbPoint
 10
576.4797698218099
 20
85.84693367363909
 30
0.0
  0
POINT
  5
FFB9B
330
FEAD4
100
AcDbEntity
  8
Defpoints
 62
     0
440
 16777216
100
AcDbPoint
 10
576.4797698218099
 20
33.51718793238743
 30
0.0
  0
ENDBLK
  5
FEAE1
330
FEAD4
100
AcDbEntity
  8
0
100
AcDbBlockEnd
  0
BLOCK
  5
FEAED
330
FEAE2
100
AcDbEntity
  8
0
100
AcDbBlockBegin
  2
*D5
 70
     1
 10
0.0
 20
0.0
 30
0.0
  3
*D5
  1

  0
LINE
  5
FFB9C
330
FEAE2
100
AcDbEntity
  8
AM_5
440
 16777216
100
AcDbLine
 10
594.4797698218094
 20
90.11727383160469
 30
0.0
 11
602.3035866275741
 21
90.11727383160469
 31
0.0
  0
LINE
  5
FFB9D
330
FEAE2
100
AcDbEntity
  8
AM_5
440
 16777216
100
AcDbLine
 10
559.7501099797754
 20
73.11727383160469
 30
0.0
 11
602.3035866275741
 21
73.11727383160469
 31
0.0
  0
LINE
  5
FFB9E
330
FEAE2
100
AcDbEntity
  8
AM_5
440
 16777216
100
AcDbLine
 10
601.3035866275742
 20
87.61727383160467
 30
0.0
 11
601.3035866275742
 21
75.61727383160469
 31
0.0
  0
LINE
  5
FFB9F
330
FEAE2
100
AcDbEntity
  8
AM_5
440
 16777216
100
AcDbLine
 10
601.3035866275742
 20
73.11727383160469
 30
0.0
 11
601.3035866275742
 21
56.13706385589146
 31
0.0
  0
SOLID
  5
FFBA0
330
FEAE2
100
AcDbEntity
  8
AM_5
440
 16777216
100
AcDbTrace
 10
600.8869199609075
 20
87.61727383160467
 30
0.0
 11
601.7202532942408
 21
87.61727383160467
 31
0.0
 12
601.3035866275742
 22
90.11727383160469
 32
0.0
 13
601.3035866275742
 23
90.11727383160469
 33
0.0
  0
SOLID
  5
FFBA1
330
FEAE2
100
AcDbEntity
  8
AM_5
440
 16777216
100
AcDbTrace
 10
600.8869199609075
 20
75.61727383160469
 30
0.0
 11
601.7202532942408
 21
75.61727383160469
 31
0.0
 12
601.3035866275742
 22
73.11727383160469
 32
0.0
 13
601.3035866275742
 23
73.11727383160469
 33
0.0
  0
MTEXT
  5
FFBA2
330
FEAE2
100
AcDbEntity
  8
AM_5
 62
     2
440
 16777216
100
AcDbMText
 10
598.0535866275742
 20
59.21206385589157
 30
0.0
 40
3.5
 41
0.0
 71
     5
 72
     1
  1
17
 11
0.0000000000000001
 21
1.0
 31
0.0
 73
     1
 44
1.0
  0
POINT
  5
FFBA3
330
FEAE2
100
AcDbEntity
  8
Defpoints
 62
     0
440
 16777216
100
AcDbPoint
 10
593.4797698218094
 20
90.11727383160469
 30
0.0
  0
POINT
  5
FFBA4
330
FEAE2
100
AcDbEntity
  8
Defpoints
 62
     0
440
 16777216
100
AcDbPoint
 10
558.7501099797754
 20
73.11727383160469
 30
0.0
  0
POINT
  5
FFBA5
330
FEAE2
100
AcDbEntity
  8
Defpoints
 62
     0
440
 16777216
100
AcDbPoint
 10
601.3035866275742
 20
73.11727383160469
 30
0.0
  0
ENDBLK
  5
FEAEE
330
FEAE2
100
AcDbEntity
  8
0
100
AcDbBlockEnd
  0
BLOCK
  5
FEAFB
330
FEAEF
100
AcDbEntity
  8
0
100
AcDbBlockBegin
  2
*D6
 70
     1
 10
0.0
 20
0.0
 30
0.0
  3
*D6
  1

  0
LINE
  5
FFBA6
330
FEAEF
100
AcDbEntity
  8
AM_5
440
 16777216
100
AcDbLine
 10
532.4797698218101
 20
84.84693367363908
 30
0.0
 11
532.4797698218101
 21
32.51718793238743
 31
0.0
  0
LINE
  5
FFBA7
330
FEAEF
100
AcDbEntity
  8
AM_5
440
 16777216
100
AcDbLine
 10
554.4797698218101
 20
50.11727383160465
 30
0.0
 11
554.4797698218101
 21
32.51718793238743
 31
0.0
  0
LINE
  5
FFBA8
330
FEAEF
100
AcDbEntity
  8
AM_5
440
 16777216
100
AcDbLine
 10
551.9797698218101
 20
33.51718793238743
 30
0.0
 11
534.9797698218101
 21
33.51718793238743
 31
0.0
  0
LINE
  5
FFBA9
330
FEAEF
100
AcDbEntity
  8
AM_5
440
 16777216
100
AcDbLine
 10
532.4797698218101
 20
33.51718793238743
 30
0.0
 11
512.5042122307941
 21
33.51718793238743
 31
0.0
  0
SOLID
  5
FFBAA
330
FEAEF
100
AcDbEntity
  8
AM_5
440
 16777216
100
AcDbTrace
 10
551.9797698218101
 20
33.9338545990541
 30
0.0
 11
551.9797698218101
 21
33.10052126572077
 31
0.0
 12
554.4797698218101
 22
33.51718793238743
 32
0.0
 13
554.4797698218101
 23
33.51718793238743
 33
0.0
  0
SOLID
  5
FFBAB
330
FEAEF
100
AcDbEntity
  8
AM_5
440
 16777216
100
AcDbTrace
 10
534.9797698218101
 20
33.9338545990541
 30
0.0
 11
534.9797698218101
 21
33.10052126572077
 31
0.0
 12
532.4797698218101
 22
33.51718793238743
 32
0.0
 13
532.4797698218101
 23
33.51718793238743
 33
0.0
  0
MTEXT
  5
FFBAC
330
FEAEF
100
AcDbEntity
  8
AM_5
 62
     2
440
 16777216
100
AcDbMText
 10
516.0787545536286
 20
36.76753242057641
 30
0.0
 40
3.5
 41
0.0
 71
     5
 72
     1
  1
22
 73
     1
 44
1.0
  0
POINT
  5
FFBAD
330
FEAEF
100
AcDbEntity
  8
Defpoints
 62
     0
440
 16777216
100
AcDbPoint
 10
532.4797698218101
 20
85.84693367363909
 30
0.0
  0
POINT
  5
FFBAE
330
FEAEF
100
AcDbEntity
  8
Defpoints
 62
     0
440
 16777216
100
AcDbPoint
 10
554.4797698218101
 20
51.11727383160467
 30
0.0
  0
POINT
  5
FFBAF
330
FEAEF
100
AcDbEntity
  8
Defpoints
 62
     0
440
 16777216
100
AcDbPoint
 10
554.4797698218101
 20
33.51718793238743
 30
0.0
  0
ENDBLK
  5
FEAFC
330
FEAEF
100
AcDbEntity
  8
0
100
AcDbBlockEnd
  0
BLOCK
  5
FEB09
330
FEAFD
100
AcDbEntity
  8
0
100
AcDbBlockBegin
  2
*D7
 70
     1
 10
0.0
 20
0.0
 30
0.0
  3
*D7
  1

  0
LINE
  5
FFC9D
330
FEAFD
100
AcDbEntity
  8
AM_5
440
 16777216
100
AcDbLine
 10
584.4594686506943
 20
398.4549051135521
 30
0.0
 11
624.2430779363344
 21
398.4549051135521
 31
0.0
  0
LINE
  5
FFC9E
330
FEAFD
100
AcDbEntity
  8
AM_5
440
 16777216
100
AcDbLine
 10
577.4594686506941
 20
395.8549051135489
 30
0.0
 11
624.2430779363344
 21
395.8549051135489
 31
0.0
  0
LINE
  5
FFC9F
330
FEAFD
100
AcDbEntity
  8
AM_5
440
 16777216
100
AcDbLine
 10
623.2430779363344
 20
393.3549051135489
 30
0.0
 11
623.2430779363344
 21
390.8549051135489
 31
0.0
  0
LINE
  5
FFCA0
330
FEAFD
100
AcDbEntity
  8
AM_5
440
 16777216
100
AcDbLine
 10
623.2430779363344
 20
400.954905113552
 30
0.0
 11
623.2430779363344
 21
413.285030806998
 31
0.0
  0
LINE
  5
FFCA1
330
FEAFD
100
AcDbEntity
  8
AM_5
440
 16777216
100
AcDbLine
 10
623.2430779363344
 20
395.8549051135489
 30
0.0
 11
623.2430779363344
 21
398.4549051135521
 31
0.0
  0
SOLID
  5
FFCA2
330
FEAFD
100
AcDbEntity
  8
AM_5
440
 16777216
100
AcDbTrace
 10
622.8264112696677
 20
393.3549051135489
 30
0.0
 11
623.659744603001
 21
393.3549051135489
 31
0.0
 12
623.2430779363344
 22
395.8549051135489
 32
0.0
 13
623.2430779363344
 23
395.8549051135489
 33
0.0
  0
SOLID
  5
FFCA3
330
FEAFD
100
AcDbEntity
  8
AM_5
440
 16777216
100
AcDbTrace
 10
622.8264112696677
 20
400.954905113552
 30
0.0
 11
623.659744603001
 21
400.954905113552
 31
0.0
 12
623.2430779363344
 22
398.4549051135521
 32
0.0
 13
623.2430779363344
 23
398.4549051135521
 33
0.0
  0
MTEXT
  5
FFCA4
330
FEAFD
100
AcDbEntity
  8
AM_5
 62
     2
440
 16777216
100
AcDbMText
 10
619.9927334481452
 20
409.203780806998
 30
0.0
 40
3.5
 41
0.0
 71
     5
 72
     1
  1
2.6
 11
0.0000000000000001
 21
1.0
 31
0.0
 73
     1
 44
1.0
  0
POINT
  5
FFCA5
330
FEAFD
100
AcDbEntity
  8
Defpoints
 62
     0
440
 16777216
100
AcDbPoint
 10
583.4594686506943
 20
398.4549051135521
 30
0.0
  0
POINT
  5
FFCA6
330
FEAFD
100
AcDbEntity
  8
Defpoints
 62
     0
440
 16777216
100
AcDbPoint
 10
576.4594686506941
 20
395.8549051135489
 30
0.0
  0
POINT
  5
FFCA7
330
FEAFD
100
AcDbEntity
  8
Defpoints
 62
     0
440
 16777216
100
AcDbPoint
 10
623.2430779363344
 20
395.8549051135489
 30
0.0
  0
ENDBLK
  5
FEB0A
330
FEAFD
100
AcDbEntity
  8
0
100
AcDbBlockEnd
  0
BLOCK
  5
FEB17
330
FEB0B
100
AcDbEntity
  8
0
100
AcDbBlockBegin
  2
*D8
 70
     1
 10
0.0
 20
0.0
 30
0.0
  3
*D8
  1

  0
LINE
  5
FFCCF
330
FEB0B
100
AcDbEntity
  8
AM_5
440
 16777216
100
AcDbLine
 10
546.4594686506943
 20
252.5188011706692
 30
0.0
 11
546.4594686506943
 21
240.2496319822376
 31
0.0
  0
LINE
  5
FFCD0
330
FEB0B
100
AcDbEntity
  8
AM_5
440
 16777216
100
AcDbLine
 10
562.4594686506943
 20
252.5188011706692
 30
0.0
 11
562.4594686506943
 21
240.2496319822376
 31
0.0
  0
LINE
  5
FFCD1
330
FEB0B
100
AcDbEntity
  8
AM_5
440
 16777216
100
AcDbLine
 10
548.9594686506944
 20
241.2496319822377
 30
0.0
 11
559.9594686506945
 21
241.2496319822377
 31
0.0
  0
LINE
  5
FFCD2
330
FEB0B
100
AcDbEntity
  8
AM_5
440
 16777216
100
AcDbLine
 10
562.4594686506943
 20
241.2496319822377
 30
0.0
 11
589.6659507648811
 21
241.2496319822377
 31
0.0
  0
SOLID
  5
FFCD3
330
FEB0B
100
AcDbEntity
  8
AM_5
440
 16777216
100
AcDbTrace
 10
548.9594686506944
 20
241.6662986489043
 30
0.0
 11
548.9594686506944
 21
240.832965315571
 31
0.0
 12
546.4594686506943
 22
241.2496319822377
 32
0.0
 13
546.4594686506943
 23
241.2496319822377
 33
0.0
  0
SOLID
  5
FFCD4
330
FEB0B
100
AcDbEntity
  8
AM_5
440
 16777216
100
AcDbTrace
 10
559.9594686506945
 20
241.6662986489043
 30
0.0
 11
559.9594686506945
 21
240.832965315571
 31
0.0
 12
562.4594686506943
 22
241.2496319822377
 32
0.0
 13
562.4594686506943
 23
241.2496319822377
 33
0.0
  0
MTEXT
  5
FFCD5
330
FEB0B
100
AcDbEntity
  8
AM_5
 62
     2
440
 16777216
100
AcDbMText
 10
584.9291397412589
 20
244.4996319822376
 30
0.0
 40
3.5
 41
0.0
 71
     5
 72
     1
  1
%%c16
 73
     1
 44
1.0
  0
POINT
  5
FFCD6
330
FEB0B
100
AcDbEntity
  8
Defpoints
 62
     0
440
 16777216
100
AcDbPoint
 10
546.4594686506943
 20
253.5188011706692
 30
0.0
  0
POINT
  5
FFCD7
330
FEB0B
100
AcDbEntity
  8
Defpoints
 62
     0
440
 16777216
100
AcDbPoint
 10
562.4594686506943
 20
253.5188011706692
 30
0.0
  0
POINT
  5
FFCD8
330
FEB0B
100
AcDbEntity
  8
Defpoints
 62
     0
440
 16777216
100
AcDbPoint
 10
562.4594686506943
 20
241.2496319822377
 30
0.0
  0
ENDBLK
  5
FEB18
330
FEB0B
100
AcDbEntity
  8
0
100
AcDbBlockEnd
  0
BLOCK
  5
FEB23
330
FEB19
100
AcDbEntity
  8
0
100
AcDbBlockBegin
  2
*D9
 70
     1
 10
0.0
 20
0.0
 30
0.0
  3
*D9
  1

  0
LINE
  5
FFCE2
330
FEB19
100
AcDbEntity
  8
AM_5
440
 16777216
100
AcDbLine
 10
545.4594686506956
 20
147.815700221333
 30
0.0
 11
489.7088407131973
 21
147.815700221333
 31
0.0
  0
LINE
  5
FFCE3
330
FEB19
100
AcDbEntity
  8
AM_5
440
 16777216
100
AcDbLine
 10
524.4594686506944
 20
398.4549051135521
 30
0.0
 11
489.7088407131973
 21
398.4549051135521
 31
0.0
  0
LINE
  5
FFCE4
330
FEB19
100
AcDbEntity
  8
AM_5
440
 16777216
100
AcDbLine
 10
490.7088407131974
 20
150.315700221333
 30
0.0
 11
490.7088407131974
 21
395.9549051135521
 31
0.0
  0
SOLID
  5
FFCE5
330
FEB19
100
AcDbEntity
  8
AM_5
440
 16777216
100
AcDbTrace
 10
490.2921740465306
 20
150.315700221333
 30
0.0
 11
491.1255073798639
 21
150.315700221333
 31
0.0
 12
490.7088407131974
 22
147.815700221333
 32
0.0
 13
490.7088407131974
 23
147.815700221333
 33
0.0
  0
SOLID
  5
FFCE6
330
FEB19
100
AcDbEntity
  8
AM_5
440
 16777216
100
AcDbTrace
 10
490.2921740465306
 20
395.9549051135521
 30
0.0
 11
491.1255073798641
 21
395.9549051135521
 31
0.0
 12
490.7088407131974
 22
398.4549051135521
 32
0.0
 13
490.7088407131974
 23
398.4549051135521
 33
0.0
  0
MTEXT
  5
FFCE7
330
FEB19
100
AcDbEntity
  8
AM_5
 62
     2
440
 16777216
100
AcDbMText
 10
487.4588407131973
 20
273.1353026674426
 30
0.0
 40
3.5
 41
0.0
 71
     5
 72
     1
  1
L
 11
0.0000000000000001
 21
1.0
 31
0.0
 73
     1
 44
1.0
  0
POINT
  5
FFCE8
330
FEB19
100
AcDbEntity
  8
Defpoints
 62
     0
440
 16777216
100
AcDbPoint
 10
546.4594686506956
 20
147.815700221333
 30
0.0
  0
POINT
  5
FFCE9
330
FEB19
100
AcDbEntity
  8
Defpoints
 62
     0
440
 16777216
100
AcDbPoint
 10
525.4594686506947
 20
398.4549051135521
 30
0.0
  0
POINT
  5
FFCEA
330
FEB19
100
AcDbEntity
  8
Defpoints
 62
     0
440
 16777216
100
AcDbPoint
 10
490.7088407131974
 20
398.4549051135521
 30
0.0
  0
ENDBLK
  5
FEB24
330
FEB19
100
AcDbEntity
  8
0
100
AcDbBlockEnd
  0
BLOCK
  5
FEB2F
330
FEB25
100
AcDbEntity
  8
0
100
AcDbBlockBegin
  2
*D10
 70
     1
 10
0.0
 20
0.0
 30
0.0
  3
*D10
  1

  0
LINE
  5
FFCD9
330
FEB25
100
AcDbEntity
  8
AM_5
440
 16777216
100
AcDbLine
 10
545.4594686506943
 20
147.8157002213339
 30
0.0
 11
521.5648705083924
 21
147.8157002213339
 31
0.0
  0
LINE
  5
FFCDA
330
FEB25
100
AcDbEntity
  8
AM_5
440
 16777216
100
AcDbLine
 10
545.4594686506943
 20
197.815700221333
 30
0.0
 11
521.5648705083924
 21
197.815700221333
 31
0.0
  0
LINE
  5
FFCDB
330
FEB25
100
AcDbEntity
  8
AM_5
440
 16777216
100
AcDbLine
 10
522.5648705083925
 20
150.3157002213339
 30
0.0
 11
522.5648705083925
 21
195.315700221333
 31
0.0
  0
SOLID
  5
FFCDC
330
FEB25
100
AcDbEntity
  8
AM_5
440
 16777216
100
AcDbTrace
 10
522.1482038417258
 20
150.3157002213339
 30
0.0
 11
522.9815371750589
 21
150.3157002213339
 31
0.0
 12
522.5648705083925
 22
147.8157002213339
 32
0.0
 13
522.5648705083925
 23
147.8157002213339
 33
0.0
  0
SOLID
  5
FFCDD
330
FEB25
100
AcDbEntity
  8
AM_5
440
 16777216
100
AcDbTrace
 10
522.1482038417258
 20
195.315700221333
 30
0.0
 11
522.9815371750589
 21
195.315700221333
 31
0.0
 12
522.5648705083925
 22
197.815700221333
 32
0.0
 13
522.5648705083925
 23
197.815700221333
 33
0.0
  0
MTEXT
  5
FFCDE
330
FEB25
100
AcDbEntity
  8
AM_5
 62
     2
440
 16777216
100
AcDbMText
 10
519.3148705083924
 20
172.8157002213335
 30
0.0
 40
3.5
 41
0.0
 71
     5
 72
     1
  1
50
 11
0.0000000000000001
 21
1.0
 31
0.0
 73
     1
 44
1.0
  0
POINT
  5
FFCDF
330
FEB25
100
AcDbEntity
  8
Defpoints
 62
     0
440
 16777216
100
AcDbPoint
 10
546.4594686506943
 20
147.8157002213339
 30
0.0
  0
POINT
  5
FFCE0
330
FEB25
100
AcDbEntity
  8
Defpoints
 62
     0
440
 16777216
100
AcDbPoint
 10
546.4594686506943
 20
197.815700221333
 30
0.0
  0
POINT
  5
FFCE1
330
FEB25
100
AcDbEntity
  8
Defpoints
 62
     0
440
 16777216
100
AcDbPoint
 10
522.5648705083925
 20
197.815700221333
 30
0.0
  0
ENDBLK
  5
FEB30
330
FEB25
100
AcDbEntity
  8
0
100
AcDbBlockEnd
  0
BLOCK
  5
FEB38
330
FEB31
100
AcDbEntity
  8
0
100
AcDbBlockBegin
  2
*D11
 70
     1
 10
0.0
 20
0.0
 30
0.0
  3
*D11
  1

  0
LINE
  5
FF33A
330
FEB31
100
AcDbEntity
  8
AM_5
440
 16777216
100
AcDbLine
 10
517.7268243352844
 20
376.8277521486817
 30
0.0
 11
543.2173009165303
 21
402.8157179013438
 31
0.0
  0
MTEXT
  5
FF33B
330
FEB31
100
AcDbEntity
  8
AM_5
 62
     2
440
 16777216
100
AcDbMText
 10
519.1538787768755
 20
382.9239199296715
 30
0.0
 40
3.5
 41
0.0
 71
     5
 72
     1
  1
R3.0
 11
0.7002405824023028
 21
0.7139069454465926
 31
0.0
 73
     1
 44
1.0
1001
ACAD
1000
MTEXTBEGIN
1070
    73
1070
     1
1070
    44
1040
1.0
1070
    74
1070
     0
1000
MTEXTEND
  0
SOLID
  5
FF33C
330
FEB31
100
AcDbEntity
  8
AM_5
440
 16777216
100
AcDbTrace
 10
542.919839689261
 20
403.1074848106781
 30
0.0
 11
543.5147621437995
 21
402.5239509920096
 31
0.0
 12
544.967902372536
 22
404.6004852649604
 32
0.0
 13
544.967902372536
 23
404.6004852649604
 33
0.0
  0
POINT
  5
FF33D
330
FEB31
100
AcDbEntity
  8
Defpoints
 62
     0
440
 16777216
100
AcDbPoint
 10
544.967902372536
 20
404.6004852649604
 30
0.0
  0
POINT
  5
FF33E
330
FEB31
100
AcDbEntity
  8
Defpoints
 62
     0
440
 16777216
100
AcDbPoint
 10
543.2173009165311
 20
402.8157179013446
 30
0.0
  0
ENDBLK
  5
FEB39
330
FEB31
100
AcDbEntity
  8
0
100
AcDbBlockEnd
  0
BLOCK
  5
FEB62
330
FEB56
100
AcDbEntity
  8
0
100
AcDbBlockBegin
  2
*D12
 70
     1
 10
0.0
 20
0.0
 30
0.0
  3
*D12
  1

  0
LINE
  5
FFCC4
330
FEB56
100
AcDbEntity
  8
AM_5
440
 16777216
100
AcDbLine
 10
524.4594686506944
 20
398.4549051135521
 30
0.0
 11
503.3662011523932
 21
398.4549051135521
 31
0.0
  0
LINE
  5
FFCC5
330
FEB56
100
AcDbEntity
  8
AM_5
440
 16777216
100
AcDbLine
 10
524.4594686506944
 20
404.454905113551
 30
0.0
 11
503.3662011523932
 21
404.454905113551
 31
0.0
  0
LINE
  5
FFCC6
330
FEB56
100
AcDbEntity
  8
AM_5
440
 16777216
100
AcDbLine
 10
504.3662011523933
 20
395.9549051135521
 30
0.0
 11
504.3662011523933
 21
393.4549051135521
 31
0.0
  0
LINE
  5
FFCC7
330
FEB56
100
AcDbEntity
  8
AM_5
440
 16777216
100
AcDbLine
 10
504.3662011523933
 20
406.9549051135512
 30
0.0
 11
504.3662011523933
 21
430.6740765957605
 31
0.0
  0
LINE
  5
FFCC8
330
FEB56
100
AcDbEntity
  8
AM_5
440
 16777216
100
AcDbLine
 10
504.3662011523933
 20
398.4549051135521
 30
0.0
 11
504.3662011523933
 21
404.454905113551
 31
0.0
  0
SOLID
  5
FFCC9
330
FEB56
100
AcDbEntity
  8
AM_5
440
 16777216
100
AcDbTrace
 10
503.9495344857265
 20
395.9549051135521
 30
0.0
 11
504.7828678190598
 21
395.9549051135521
 31
0.0
 12
504.3662011523933
 22
398.4549051135521
 32
0.0
 13
504.3662011523933
 23
398.4549051135521
 33
0.0
  0
SOLID
  5
FFCCA
330
FEB56
100
AcDbEntity
  8
AM_5
440
 16777216
100
AcDbTrace
 10
503.9495344857265
 20
406.9549051135512
 30
0.0
 11
504.7828678190598
 21
406.9549051135512
 31
0.0
 12
504.3662011523933
 22
404.454905113551
 32
0.0
 13
504.3662011523933
 23
404.454905113551
 33
0.0
  0
MTEXT
  5
FFCCB
330
FEB56
100
AcDbEntity
  8
AM_5
 62
     2
440
 16777216
100
AcDbMText
 10
501.116201152393
 20
426.1122655721385
 30
0.0
 40
3.5
 41
0.0
 71
     5
 72
     1
  1
t=6
 11
0.0000000000000001
 21
1.0
 31
0.0
 73
     1
 44
1.0
  0
POINT
  5
FFCCC
330
FEB56
100
AcDbEntity
  8
Defpoints
 62
     0
440
 16777216
100
AcDbPoint
 10
525.4594686506947
 20
398.4549051135521
 30
0.0
  0
POINT
  5
FFCCD
330
FEB56
100
AcDbEntity
  8
Defpoints
 62
     0
440
 16777216
100
AcDbPoint
 10
525.4594686506947
 20
404.454905113551
 30
0.0
  0
POINT
  5
FFCCE
330
FEB56
100
AcDbEntity
  8
Defpoints
 62
     0
440
 16777216
100
AcDbPoint
 10
504.3662011523933
 20
404.454905113551
 30
0.0
  0
ENDBLK
  5
FEB63
330
FEB56
100
AcDbEntity
  8
0
100
AcDbBlockEnd
  0
BLOCK
  5
FF507
330
FF506
100
AcDbEntity
  8
0
100
AcDbBlockBegin
  2
*D13
 70
     1
 10
0.0
 20
0.0
 30
0.0
  3
*D13
  1

  0
LINE
  5
FF508
330
FF506
100
AcDbEntity
  8
AM_5
440
 16777216
100
AcDbLine
 10
1378.526991990877
 20
331.6834342701852
 30
0.0
 11
1378.526991990877
 21
336.4281301637941
 31
0.0
  0
LINE
  5
FF509
330
FF506
100
AcDbEntity
  8
AM_5
440
 16777216
100
AcDbLine
 10
1394.526991990877
 20
331.6834342701852
 30
0.0
 11
1394.526991990877
 21
336.4281301637941
 31
0.0
  0
LINE
  5
FF50A
330
FF506
100
AcDbEntity
  8
AM_5
440
 16777216
100
AcDbLine
 10
1381.026991990877
 20
335.4281301637942
 30
0.0
 11
1392.026991990877
 21
335.4281301637942
 31
0.0
  0
LINE
  5
FF50B
330
FF506
100
AcDbEntity
  8
AM_5
440
 16777216
100
AcDbLine
 10
1394.526991990877
 20
335.4281301637942
 30
0.0
 11
1421.733474105063
 21
335.4281301637942
 31
0.0
  0
SOLID
  5
FF50C
330
FF506
100
AcDbEntity
  8
AM_5
440
 16777216
100
AcDbTrace
 10
1381.026991990877
 20
335.8447968304608
 30
0.0
 11
1381.026991990877
 21
335.0114634971274
 31
0.0
 12
1378.526991990877
 22
335.4281301637942
 32
0.0
 13
1378.526991990877
 23
335.4281301637942
 33
0.0
  0
SOLID
  5
FF50D
330
FF506
100
AcDbEntity
  8
AM_5
440
 16777216
100
AcDbTrace
 10
1392.026991990877
 20
335.8447968304608
 30
0.0
 11
1392.026991990877
 21
335.0114634971274
 31
0.0
 12
1394.526991990877
 22
335.4281301637942
 32
0.0
 13
1394.526991990877
 23
335.4281301637942
 33
0.0
  0
MTEXT
  5
FF50E
330
FF506
100
AcDbEntity
  8
AM_5
 62
     2
440
 16777216
100
AcDbMText
 10
1416.996663081441
 20
338.6781301637942
 30
0.0
 40
3.5
 41
0.0
 71
     5
 72
     1
  1
%%c16
 73
     1
 44
1.0
  0
POINT
  5
FF50F
330
FF506
100
AcDbEntity
  8
Defpoints
 62
     0
440
 16777216
100
AcDbPoint
 10
1378.526991990877
 20
330.6834342701852
 30
0.0
  0
POINT
  5
FF510
330
FF506
100
AcDbEntity
  8
Defpoints
 62
     0
440
 16777216
100
AcDbPoint
 10
1394.526991990877
 20
330.6834342701852
 30
0.0
  0
POINT
  5
FF511
330
FF506
100
AcDbEntity
  8
Defpoints
 62
     0
440
 16777216
100
AcDbPoint
 10
1394.526991990877
 20
335.4281301637942
 30
0.0
  0
ENDBLK
  5
FF512
330
FF506
100
AcDbEntity
  8
0
100
AcDbBlockEnd
  0
BLOCK
  5
FF514
330
FF513
100
AcDbEntity
  8
0
100
AcDbBlockBegin
  2
*D14
 70
     1
 10
0.0
 20
0.0
 30
0.0
  3
*D14
  1

  0
LINE
  5
FF515
330
FF513
100
AcDbEntity
  8
AM_5
440
 16777216
100
AcDbLine
 10
1377.526991990877
 20
224.9803333208486
 30
0.0
 11
1335.433724492575
 21
224.9803333208486
 31
0.0
  0
LINE
  5
FF516
330
FF513
100
AcDbEntity
  8
AM_5
440
 16777216
100
AcDbLine
 10
1351.526991990877
 20
474.9803333208483
 30
0.0
 11
1335.433724492575
 21
474.9803333208483
 31
0.0
  0
LINE
  5
FF517
330
FF513
100
AcDbEntity
  8
AM_5
440
 16777216
100
AcDbLine
 10
1336.433724492575
 20
227.4803333208486
 30
0.0
 11
1336.433724492575
 21
472.4803333208483
 31
0.0
  0
SOLID
  5
FF518
330
FF513
100
AcDbEntity
  8
AM_5
440
 16777216
100
AcDbTrace
 10
1336.017057825908
 20
227.4803333208486
 30
0.0
 11
1336.850391159242
 21
227.4803333208486
 31
0.0
 12
1336.433724492575
 22
224.9803333208486
 32
0.0
 13
1336.433724492575
 23
224.9803333208486
 33
0.0
  0
SOLID
  5
FF519
330
FF513
100
AcDbEntity
  8
AM_5
440
 16777216
100
AcDbTrace
 10
1336.017057825908
 20
472.4803333208483
 30
0.0
 11
1336.850391159242
 21
472.4803333208483
 31
0.0
 12
1336.433724492575
 22
474.9803333208483
 32
0.0
 13
1336.433724492575
 23
474.9803333208483
 33
0.0
  0
MTEXT
  5
FF51A
330
FF513
100
AcDbEntity
  8
AM_5
 62
     2
440
 16777216
100
AcDbMText
 10
1333.183724492575
 20
349.9803333208488
 30
0.0
 40
3.5
 41
0.0
 71
     5
 72
     1
  1
L
 11
0.0000000000000001
 21
1.0
 31
0.0
 73
     1
 44
1.0
  0
POINT
  5
FF51B
330
FF513
100
AcDbEntity
  8
Defpoints
 62
     0
440
 16777216
100
AcDbPoint
 10
1378.526991990877
 20
224.9803333208486
 30
0.0
  0
POINT
  5
FF51C
330
FF513
100
AcDbEntity
  8
Defpoints
 62
     0
440
 16777216
100
AcDbPoint
 10
1352.526991990877
 20
474.9803333208483
 30
0.0
  0
POINT
  5
FF51D
330
FF513
100
AcDbEntity
  8
Defpoints
 62
     0
440
 16777216
100
AcDbPoint
 10
1336.433724492575
 20
474.9803333208483
 30
0.0
  0
ENDBLK
  5
FF51E
330
FF513
100
AcDbEntity
  8
0
100
AcDbBlockEnd
  0
BLOCK
  5
FF520
330
FF51F
100
AcDbEntity
  8
0
100
AcDbBlockBegin
  2
*D15
 70
     1
 10
0.0
 20
0.0
 30
0.0
  3
*D15
  1

  0
LINE
  5
FF521
330
FF51F
100
AcDbEntity
  8
AM_5
440
 16777216
100
AcDbLine
 10
1377.526991990877
 20
224.9803333208504
 30
0.0
 11
1353.632393848575
 21
224.9803333208504
 31
0.0
  0
LINE
  5
FF522
330
FF51F
100
AcDbEntity
  8
AM_5
440
 16777216
100
AcDbLine
 10
1377.526991990877
 20
274.9803333208486
 30
0.0
 11
1353.632393848575
 21
274.9803333208486
 31
0.0
  0
LINE
  5
FF523
330
FF51F
100
AcDbEntity
  8
AM_5
440
 16777216
100
AcDbLine
 10
1354.632393848575
 20
227.4803333208504
 30
0.0
 11
1354.632393848575
 21
272.4803333208486
 31
0.0
  0
SOLID
  5
FF524
330
FF51F
100
AcDbEntity
  8
AM_5
440
 16777216
100
AcDbTrace
 10
1354.215727181908
 20
227.4803333208504
 30
0.0
 11
1355.049060515241
 21
227.4803333208504
 31
0.0
 12
1354.632393848575
 22
224.9803333208504
 32
0.0
 13
1354.632393848575
 23
224.9803333208504
 33
0.0
  0
SOLID
  5
FF525
330
FF51F
100
AcDbEntity
  8
AM_5
440
 16777216
100
AcDbTrace
 10
1354.215727181908
 20
272.4803333208486
 30
0.0
 11
1355.049060515241
 21
272.4803333208486
 31
0.0
 12
1354.632393848575
 22
274.9803333208486
 32
0.0
 13
1354.632393848575
 23
274.9803333208486
 33
0.0
  0
MTEXT
  5
FF526
330
FF51F
100
AcDbEntity
  8
AM_5
 62
     2
440
 16777216
100
AcDbMText
 10
1351.382393848575
 20
249.9803333208497
 30
0.0
 40
3.5
 41
0.0
 71
     5
 72
     1
  1
50
 11
0.0000000000000001
 21
1.0
 31
0.0
 73
     1
 44
1.0
  0
POINT
  5
FF527
330
FF51F
100
AcDbEntity
  8
Defpoints
 62
     0
440
 16777216
100
AcDbPoint
 10
1378.526991990877
 20
224.9803333208504
 30
0.0
  0
POINT
  5
FF528
330
FF51F
100
AcDbEntity
  8
Defpoints
 62
     0
440
 16777216
100
AcDbPoint
 10
1378.526991990877
 20
274.9803333208486
 30
0.0
  0
POINT
  5
FF529
330
FF51F
100
AcDbEntity
  8
Defpoints
 62
     0
440
 16777216
100
AcDbPoint
 10
1354.632393848575
 20
274.9803333208486
 30
0.0
  0
ENDBLK
  5
FF52A
330
FF51F
100
AcDbEntity
  8
0
100
AcDbBlockEnd
  0
BLOCK
  5
FF52C
330
FF52B
100
AcDbEntity
  8
0
100
AcDbBlockBegin
  2
*D16
 70
     1
 10
0.0
 20
0.0
 30
0.0
  3
*D16
  1

  0
LINE
  5
FF52D
330
FF52B
100
AcDbEntity
  8
AM_5
440
 16777216
100
AcDbLine
 10
1362.526991990878
 20
162.0115667731527
 30
0.0
 11
1362.526991990878
 21
93.28298716547328
 31
0.0
  0
LINE
  5
FF52E
330
FF52B
100
AcDbEntity
  8
AM_5
440
 16777216
100
AcDbLine
 10
1386.526991990878
 20
127.2819069311201
 30
0.0
 11
1386.526991990878
 21
93.28298716547328
 31
0.0
  0
LINE
  5
FF52F
330
FF52B
100
AcDbEntity
  8
AM_5
440
 16777216
100
AcDbLine
 10
1384.026991990877
 20
94.28298716547329
 30
0.0
 11
1365.026991990877
 21
94.28298716547329
 31
0.0
  0
LINE
  5
FF530
330
FF52B
100
AcDbEntity
  8
AM_5
440
 16777216
100
AcDbLine
 10
1362.526991990878
 20
94.28298716547329
 30
0.0
 11
1341.725222734283
 21
94.28298716547329
 31
0.0
  0
SOLID
  5
FF531
330
FF52B
100
AcDbEntity
  8
AM_5
440
 16777216
100
AcDbTrace
 10
1384.026991990877
 20
94.69965383213994
 30
0.0
 11
1384.026991990877
 21
93.86632049880658
 31
0.0
 12
1386.526991990878
 22
94.28298716547329
 32
0.0
 13
1386.526991990878
 23
94.28298716547329
 33
0.0
  0
SOLID
  5
FF532
330
FF52B
100
AcDbEntity
  8
AM_5
440
 16777216
100
AcDbTrace
 10
1365.026991990877
 20
94.69965383213994
 30
0.0
 11
1365.026991990877
 21
93.86632049880658
 31
0.0
 12
1362.526991990878
 22
94.28298716547329
 32
0.0
 13
1362.526991990878
 23
94.28298716547329
 33
0.0
  0
MTEXT
  5
FF533
330
FF52B
100
AcDbEntity
  8
AM_5
 62
     2
440
 16777216
100
AcDbMText
 10
1345.36966171066
 20
97.53333165366226
 30
0.0
 40
3.5
 41
0.0
 71
     5
 72
     1
  1
24
 73
     1
 44
1.0
  0
POINT
  5
FF534
330
FF52B
100
AcDbEntity
  8
Defpoints
 62
     0
440
 16777216
100
AcDbPoint
 10
1362.526991990878
 20
163.0115667731527
 30
0.0
  0
POINT
  5
FF535
330
FF52B
100
AcDbEntity
  8
Defpoints
 62
     0
440
 16777216
100
AcDbPoint
 10
1386.526991990878
 20
128.2819069311201
 30
0.0
  0
POINT
  5
FF536
330
FF52B
100
AcDbEntity
  8
Defpoints
 62
     0
440
 16777216
100
AcDbPoint
 10
1386.526991990878
 20
94.28298716547329
 30
0.0
  0
ENDBLK
  5
FF537
330
FF52B
100
AcDbEntity
  8
0
100
AcDbBlockEnd
  0
BLOCK
  5
FF539
330
FF538
100
AcDbEntity
  8
0
100
AcDbBlockBegin
  2
*D17
 70
     1
 10
0.0
 20
0.0
 30
0.0
  3
*D17
  1

  0
LINE
  5
FF53A
330
FF538
100
AcDbEntity
  8
AM_5
440
 16777216
100
AcDbLine
 10
1385.526991990877
 20
133.2819069311201
 30
0.0
 11
1333.278975790358
 21
133.2819069311202
 31
0.0
  0
LINE
  5
FF53B
330
FF538
100
AcDbEntity
  8
AM_5
440
 16777216
100
AcDbLine
 10
1385.526991990877
 20
201.2819069311202
 30
0.0
 11
1333.278975790358
 21
201.2819069311202
 31
0.0
  0
LINE
  5
FF53C
330
FF538
100
AcDbEntity
  8
AM_5
440
 16777216
100
AcDbLine
 10
1334.278975790358
 20
135.7819069311201
 30
0.0
 11
1334.278975790358
 21
198.7819069311202
 31
0.0
  0
SOLID
  5
FF53D
330
FF538
100
AcDbEntity
  8
AM_5
440
 16777216
100
AcDbTrace
 10
1333.862309123692
 20
135.7819069311201
 30
0.0
 11
1334.695642457025
 21
135.7819069311201
 31
0.0
 12
1334.278975790358
 22
133.2819069311202
 32
0.0
 13
1334.278975790358
 23
133.2819069311202
 33
0.0
  0
SOLID
  5
FF53E
330
FF538
100
AcDbEntity
  8
AM_5
440
 16777216
100
AcDbTrace
 10
1333.862309123692
 20
198.7819069311202
 30
0.0
 11
1334.695642457025
 21
198.7819069311202
 31
0.0
 12
1334.278975790358
 22
201.2819069311202
 32
0.0
 13
1334.278975790358
 23
201.2819069311202
 33
0.0
  0
MTEXT
  5
FF53F
330
FF538
100
AcDbEntity
  8
AM_5
 62
     2
440
 16777216
100
AcDbMText
 10
1331.028975790358
 20
167.2819069311203
 30
0.0
 40
3.5
 41
0.0
 71
     5
 72
     1
  1
%%c68
 11
0.0000000000000001
 21
1.0
 31
0.0
 73
     1
 44
1.0
  0
POINT
  5
FF540
330
FF538
100
AcDbEntity
  8
Defpoints
 62
     0
440
 16777216
100
AcDbPoint
 10
1386.526991990877
 20
133.2819069311201
 30
0.0
  0
POINT
  5
FF541
330
FF538
100
AcDbEntity
  8
Defpoints
 62
     0
440
 16777216
100
AcDbPoint
 10
1386.526991990878
 20
201.2819069311202
 30
0.0
  0
POINT
  5
FF542
330
FF538
100
AcDbEntity
  8
Defpoints
 62
     0
440
 16777216
100
AcDbPoint
 10
1334.278975790358
 20
201.2819069311202
 30
0.0
  0
ENDBLK
  5
FF543
330
FF538
100
AcDbEntity
  8
0
100
AcDbBlockEnd
  0
BLOCK
  5
FF545
330
FF544
100
AcDbEntity
  8
0
100
AcDbBlockBegin
  2
*D18
 70
     1
 10
0.0
 20
0.0
 30
0.0
  3
*D18
  1

  0
LINE
  5
FF546
330
FF544
100
AcDbEntity
  8
AM_5
440
 16777216
100
AcDbLine
 10
1426.526991990877
 20
167.2819069311201
 30
0.0
 11
1444.917053046053
 21
167.2819069311201
 31
0.0
  0
LINE
  5
FF547
330
FF544
100
AcDbEntity
  8
AM_5
440
 16777216
100
AcDbLine
 10
1391.797332148842
 20
149.2819069311201
 30
0.0
 11
1444.917053046053
 21
149.2819069311201
 31
0.0
  0
LINE
  5
FF548
330
FF544
100
AcDbEntity
  8
AM_5
440
 16777216
100
AcDbLine
 10
1443.917053046053
 20
164.7819069311201
 30
0.0
 11
1443.917053046053
 21
151.7819069311201
 31
0.0
  0
LINE
  5
FF549
330
FF544
100
AcDbEntity
  8
AM_5
440
 16777216
100
AcDbLine
 10
1443.917053046053
 20
149.2819069311201
 30
0.0
 11
1443.917053046053
 21
133.2113163999468
 31
0.0
  0
SOLID
  5
FF54A
330
FF544
100
AcDbEntity
  8
AM_5
440
 16777216
100
AcDbTrace
 10
1443.500386379386
 20
164.7819069311201
 30
0.0
 11
1444.33371971272
 21
164.7819069311201
 31
0.0
 12
1443.917053046053
 22
167.2819069311201
 32
0.0
 13
1443.917053046053
 23
167.2819069311201
 33
0.0
  0
SOLID
  5
FF54B
330
FF544
100
AcDbEntity
  8
AM_5
440
 16777216
100
AcDbTrace
 10
1443.500386379386
 20
151.7819069311201
 30
0.0
 11
1444.33371971272
 21
151.7819069311201
 31
0.0
 12
1443.917053046053
 22
149.2819069311201
 32
0.0
 13
1443.917053046053
 23
149.2819069311201
 33
0.0
  0
MTEXT
  5
FF54C
330
FF544
100
AcDbEntity
  8
AM_5
 62
     2
440
 16777216
100
AcDbMText
 10
1440.667053046053
 20
136.286316399947
 30
0.0
 40
3.5
 41
0.0
 71
     5
 72
     1
  1
18
 11
0.0000000000000001
 21
1.0
 31
0.0
 73
     1
 44
1.0
  0
POINT
  5
FF54D
330
FF544
100
AcDbEntity
  8
Defpoints
 62
     0
440
 16777216
100
AcDbPoint
 10
1425.526991990877
 20
167.2819069311201
 30
0.0
  0
POINT
  5
FF54E
330
FF544
100
AcDbEntity
  8
Defpoints
 62
     0
440
 16777216
100
AcDbPoint
 10
1390.797332148842
 20
149.2819069311201
 30
0.0
  0
POINT
  5
FF54F
330
FF544
100
AcDbEntity
  8
Defpoints
 62
     0
440
 16777216
100
AcDbPoint
 10
1443.917053046053
 20
149.2819069311201
 30
0.0
  0
ENDBLK
  5
FF550
330
FF544
100
AcDbEntity
  8
0
100
AcDbBlockEnd
  0
BLOCK
  5
FF552
330
FF551
100
AcDbEntity
  8
0
100
AcDbBlockBegin
  2
*D19
 70
     1
 10
0.0
 20
0.0
 30
0.0
  3
*D19
  1

  0
LINE
  5
FF553
330
FF551
100
AcDbEntity
  8
AM_5
440
 16777216
100
AcDbLine
 10
1391.797332148844
 20
185.2819069311183
 30
0.0
 11
1444.917053046053
 21
185.2819069311183
 31
0.0
  0
LINE
  5
FF554
330
FF551
100
AcDbEntity
  8
AM_5
440
 16777216
100
AcDbLine
 10
1426.526991990877
 20
167.2819069311201
 30
0.0
 11
1444.917053046053
 21
167.2819069311201
 31
0.0
  0
LINE
  5
FF555
330
FF551
100
AcDbEntity
  8
AM_5
440
 16777216
100
AcDbLine
 10
1443.917053046053
 20
169.7819069311201
 30
0.0
 11
1443.917053046053
 21
182.7819069311183
 31
0.0
  0
LINE
  5
FF556
330
FF551
100
AcDbEntity
  8
AM_5
440
 16777216
100
AcDbLine
 10
1443.917053046053
 20
185.2819069311183
 30
0.0
 11
1443.917053046053
 21
201.1187525768171
 31
0.0
  0
SOLID
  5
FF557
330
FF551
100
AcDbEntity
  8
AM_5
440
 16777216
100
AcDbTrace
 10
1443.500386379386
 20
169.7819069311201
 30
0.0
 11
1444.333719712719
 21
169.7819069311201
 31
0.0
 12
1443.917053046053
 22
167.2819069311201
 32
0.0
 13
1443.917053046053
 23
167.2819069311201
 33
0.0
  0
SOLID
  5
FF558
330
FF551
100
AcDbEntity
  8
AM_5
440
 16777216
100
AcDbTrace
 10
1443.500386379386
 20
182.7819069311183
 30
0.0
 11
1444.333719712719
 21
182.7819069311183
 31
0.0
 12
1443.917053046053
 22
185.2819069311183
 32
0.0
 13
1443.917053046053
 23
185.2819069311183
 33
0.0
  0
MTEXT
  5
FF559
330
FF551
100
AcDbEntity
  8
AM_5
 62
     2
440
 16777216
100
AcDbMText
 10
1440.667053046053
 20
198.0437525768173
 30
0.0
 40
3.5
 41
0.0
 71
     5
 72
     1
  1
18
 11
0.0000000000000001
 21
1.0
 31
0.0
 73
     1
 44
1.0
  0
POINT
  5
FF55A
330
FF551
100
AcDbEntity
  8
Defpoints
 62
     0
440
 16777216
100
AcDbPoint
 10
1390.797332148844
 20
185.2819069311183
 30
0.0
  0
POINT
  5
FF55B
330
FF551
100
AcDbEntity
  8
Defpoints
 62
     0
440
 16777216
100
AcDbPoint
 10
1425.526991990877
 20
167.2819069311201
 30
0.0
  0
POINT
  5
FF55C
330
FF551
100
AcDbEntity
  8
Defpoints
 62
     0
440
 16777216
100
AcDbPoint
 10
1443.917053046053
 20
167.2819069311201
 30
0.0
  0
ENDBLK
  5
FF55D
330
FF551
100
AcDbEntity
  8
0
100
AcDbBlockEnd
  0
BLOCK
  5
FF55F
330
FF55E
100
AcDbEntity
  8
0
100
AcDbBlockBegin
  2
*D20
 70
     1
 10
0.0
 20
0.0
 30
0.0
  3
*D20
  1

  0
LINE
  5
FF560
330
FF55E
100
AcDbEntity
  8
AM_5
440
 16777216
100
AcDbLine
 10
1386.526991990878
 20
127.2819069311201
 30
0.0
 11
1386.526991990878
 21
93.28298716547328
 31
0.0
  0
LINE
  5
FF561
330
FF55E
100
AcDbEntity
  8
AM_5
440
 16777216
100
AcDbLine
 10
1410.526991990877
 20
162.0115667731527
 30
0.0
 11
1410.526991990877
 21
93.28298716547328
 31
0.0
  0
LINE
  5
FF562
330
FF55E
100
AcDbEntity
  8
AM_5
440
 16777216
100
AcDbLine
 10
1389.026991990877
 20
94.28298716547329
 30
0.0
 11
1408.026991990877
 21
94.28298716547329
 31
0.0
  0
LINE
  5
FF563
330
FF55E
100
AcDbEntity
  8
AM_5
440
 16777216
100
AcDbLine
 10
1410.526991990877
 20
94.28298716547329
 30
0.0
 11
1430.572446235436
 21
94.28298716547329
 31
0.0
  0
SOLID
  5
FF564
330
FF55E
100
AcDbEntity
  8
AM_5
440
 16777216
100
AcDbTrace
 10
1389.026991990877
 20
94.69965383213994
 30
0.0
 11
1389.026991990877
 21
93.86632049880658
 31
0.0
 12
1386.526991990878
 22
94.28298716547329
 32
0.0
 13
1386.526991990878
 23
94.28298716547329
 33
0.0
  0
SOLID
  5
FF565
330
FF55E
100
AcDbEntity
  8
AM_5
440
 16777216
100
AcDbTrace
 10
1408.026991990877
 20
94.69965383213994
 30
0.0
 11
1408.026991990877
 21
93.86632049880658
 31
0.0
 12
1410.526991990877
 22
94.28298716547329
 32
0.0
 13
1410.526991990877
 23
94.28298716547329
 33
0.0
  0
MTEXT
  5
FF566
330
FF55E
100
AcDbEntity
  8
AM_5
 62
     2
440
 16777216
100
AcDbMText
 10
1426.928007259058
 20
97.53333165366226
 30
0.0
 40
3.5
 41
0.0
 71
     5
 72
     1
  1
24
 73
     1
 44
1.0
  0
POINT
  5
FF567
330
FF55E
100
AcDbEntity
  8
Defpoints
 62
     0
440
 16777216
100
AcDbPoint
 10
1386.526991990878
 20
128.2819069311201
 30
0.0
  0
POINT
  5
FF568
330
FF55E
100
AcDbEntity
  8
Defpoints
 62
     0
440
 16777216
100
AcDbPoint
 10
1410.526991990877
 20
163.0115667731527
 30
0.0
  0
POINT
  5
FF569
330
FF55E
100
AcDbEntity
  8
Defpoints
 62
     0
440
 16777216
100
AcDbPoint
 10
1410.526991990877
 20
94.28298716547329
 30
0.0
  0
ENDBLK
  5
FF56A
330
FF55E
100
AcDbEntity
  8
0
100
AcDbBlockEnd
  0
BLOCK
  5
FF56C
330
FF56B
100
AcDbEntity
  8
0
100
AcDbBlockBegin
  2
*D21
 70
     1
 10
0.0
 20
0.0
 30
0.0
  3
*D21
  1

  0
LINE
  5
FF56D
330
FF56B
100
AcDbEntity
  8
AM_5
440
 16777216
100
AcDbLine
 10
1419.682424201861
 20
234.7179098304382
 30
0.0
 11
1389.172751734878
 21
189.226834734895
 31
0.0
  0
LINE
  5
FF56E
330
FF56B
100
AcDbEntity
  8
AM_5
440
 16777216
100
AcDbLine
 10
1383.881232246875
 20
181.3369791273414
 30
0.0
 11
1382.488727118453
 21
179.2607013358795
 31
0.0
  0
MTEXT
  5
FF56F
102
{ACAD_XDICTIONARY
360
FF570
102
}
330
FF56B
100
AcDbEntity
  8
AM_5
 62
     2
440
 16777216
100
AcDbMText
 10
1412.305845379624
 20
229.553959882385
 30
0.0
 40
3.5
 41
0.0
 71
     5
 72
     1
  1
4-\U+22054.5
 11
0.5570020513688241
 21
0.8305111165847945
 31
0.0
 73
     1
 44
1.0
  0
LINE
  5
FF571
330
FF56B
100
AcDbEntity
  8
AM_5
440
 16777216
100
AcDbLine
 10
1385.273737375297
 20
183.4132569188034
 30
0.0
 11
1387.780246606456
 21
187.1505569434331
 31
0.0
  0
SOLID
  5
FF572
330
FF56B
100
AcDbEntity
  8
AM_5
440
 16777216
100
AcDbTrace
 10
1383.535185948298
 20
181.5690633154119
 30
0.0
 11
1384.227278545452
 21
181.104894939271
 31
0.0
 12
1385.273737375297
 22
183.4132569188034
 32
0.0
 13
1385.273737375297
 23
183.4132569188034
 33
0.0
  0
SOLID
  5
FF573
330
FF56B
100
AcDbEntity
  8
AM_5
440
 16777216
100
AcDbTrace
 10
1388.826705436301
 20
189.4589189229655
 30
0.0
 11
1389.518798033455
 21
188.9947505468246
 31
0.0
 12
1387.780246606456
 22
187.1505569434331
 32
0.0
 13
1387.780246606456
 23
187.1505569434331
 33
0.0
  0
POINT
  5
FF574
330
FF56B
100
AcDbEntity
  8
Defpoints
 62
     0
440
 16777216
100
AcDbPoint
 10
1387.780246606456
 20
187.1505569434331
 30
0.0
  0
POINT
  5
FF575
330
FF56B
100
AcDbEntity
  8
Defpoints
 62
     0
440
 16777216
100
AcDbPoint
 10
1385.273737375297
 20
183.4132569188034
 30
0.0
  0
ENDBLK
  5
FF576
330
FF56B
100
AcDbEntity
  8
0
100
AcDbBlockEnd
  0
BLOCK
  5
FF578
330
FF577
100
AcDbEntity
  8
0
100
AcDbBlockBegin
  2
*D22
 70
     1
 10
0.0
 20
0.0
 30
0.0
  3
*D22
  1

  0
LINE
  5
FF579
330
FF577
100
AcDbEntity
  8
AM_5
440
 16777216
100
AcDbLine
 10
1360.117041849309
 20
462.2968334117073
 30
0.0
 11
1375.264523085601
 21
472.4803333208448
 31
0.0
  0
MTEXT
  5
FF57A
330
FF577
100
AcDbEntity
  8
AM_5
 62
     2
440
 16777216
100
AcDbMText
 10
1362.744835467865
 20
467.979653723095
 30
0.0
 40
3.5
 41
0.0
 71
     5
 72
     1
  1
R3.0
 11
0.8298901439909942
 21
0.5579268311406138
 31
0.0
 73
     1
 44
1.0
  0
SOLID
  5
FF57B
330
FF577
100
AcDbEntity
  8
AM_5
440
 16777216
100
AcDbTrace
 10
1375.032053572626
 20
472.8261208808412
 30
0.0
 11
1375.496992598576
 21
472.1345457608487
 31
0.0
 12
1377.339248445579
 22
473.8751503986965
 32
0.0
 13
1377.339248445579
 23
473.8751503986965
 33
0.0
  0
POINT
  5
FF57C
330
FF577
100
AcDbEntity
  8
Defpoints
 62
     0
440
 16777216
100
AcDbPoint
 10
1377.339248445579
 20
473.8751503986965
 30
0.0
  0
POINT
  5
FF57D
330
FF577
100
AcDbEntity
  8
Defpoints
 62
     0
440
 16777216
100
AcDbPoint
 10
1375.2645230856
 20
472.4803333208445
 30
0.0
  0
ENDBLK
  5
FF57E
330
FF577
100
AcDbEntity
  8
0
100
AcDbBlockEnd
  0
BLOCK
  5
FF580
330
FF57F
100
AcDbEntity
  8
0
100
AcDbBlockBegin
  2
*D23
 70
     1
 10
0.0
 20
0.0
 30
0.0
  3
*D23
  1

  0
LINE
  5
FF581
330
FF57F
100
AcDbEntity
  8
AM_5
440
 16777216
100
AcDbLine
 10
1421.526991990877
 20
474.9803333208467
 30
0.0
 11
1445.503979017934
 21
474.9803333208467
 31
0.0
  0
LINE
  5
FF582
330
FF57F
100
AcDbEntity
  8
AM_5
440
 16777216
100
AcDbLine
 10
1411.526991990878
 20
472.3803333208445
 30
0.0
 11
1445.503979017934
 21
472.3803333208445
 31
0.0
  0
LINE
  5
FF583
330
FF57F
100
AcDbEntity
  8
AM_5
440
 16777216
100
AcDbLine
 10
1444.503979017934
 20
469.8803333208443
 30
0.0
 11
1444.503979017934
 21
467.3803333208446
 31
0.0
  0
LINE
  5
FF584
330
FF57F
100
AcDbEntity
  8
AM_5
440
 16777216
100
AcDbLine
 10
1444.503979017934
 20
477.4803333208466
 30
0.0
 11
1444.503979017934
 21
495.9760677836419
 31
0.0
  0
LINE
  5
FF585
330
FF57F
100
AcDbEntity
  8
AM_5
440
 16777216
100
AcDbLine
 10
1444.503979017934
 20
472.3803333208445
 30
0.0
 11
1444.503979017934
 21
474.9803333208467
 31
0.0
  0
SOLID
  5
FF586
330
FF57F
100
AcDbEntity
  8
AM_5
440
 16777216
100
AcDbTrace
 10
1444.087312351268
 20
469.8803333208443
 30
0.0
 11
1444.920645684601
 21
469.8803333208443
 31
0.0
 12
1444.503979017934
 22
472.3803333208445
 32
0.0
 13
1444.503979017934
 23
472.3803333208445
 33
0.0
  0
SOLID
  5
FF587
330
FF57F
100
AcDbEntity
  8
AM_5
440
 16777216
100
AcDbTrace
 10
1444.087312351268
 20
477.4803333208466
 30
0.0
 11
1444.920645684601
 21
477.4803333208466
 31
0.0
 12
1444.503979017934
 22
474.9803333208467
 32
0.0
 13
1444.503979017934
 23
474.9803333208467
 33
0.0
  0
MTEXT
  5
FF588
330
FF57F
100
AcDbEntity
  8
AM_5
 62
     2
440
 16777216
100
AcDbMText
 10
1441.253634529745
 20
491.8948177836421
 30
0.0
 40
3.5
 41
0.0
 71
     5
 72
     1
  1
2.6
 11
0.0000000000000001
 21
1.0
 31
0.0
 73
     1
 44
1.0
  0
POINT
  5
FF589
330
FF57F
100
AcDbEntity
  8
Defpoints
 62
     0
440
 16777216
100
AcDbPoint
 10
1420.526991990877
 20
474.9803333208467
 30
0.0
  0
POINT
  5
FF58A
330
FF57F
100
AcDbEntity
  8
Defpoints
 62
     0
440
 16777216
100
AcDbPoint
 10
1410.526991990878
 20
472.3803333208445
 30
0.0
  0
POINT
  5
FF58B
330
FF57F
100
AcDbEntity
  8
Defpoints
 62
     0
440
 16777216
100
AcDbPoint
 10
1444.503979017934
 20
472.3803333208445
 30
0.0
  0
ENDBLK
  5
FF58C
330
FF57F
100
AcDbEntity
  8
0
100
AcDbBlockEnd
  0
BLOCK
  5
FF58E
330
FF58D
100
AcDbEntity
  8
0
100
AcDbBlockBegin
  2
*D24
 70
     1
 10
0.0
 20
0.0
 30
0.0
  3
*D24
  1

  0
LINE
  5
FF58F
330
FF58D
100
AcDbEntity
  8
AM_5
440
 16777216
100
AcDbLine
 10
1351.526991990877
 20
474.9803333208483
 30
0.0
 11
1349.091084931771
 21
474.9803333208483
 31
0.0
  0
LINE
  5
FF590
330
FF58D
100
AcDbEntity
  8
AM_5
440
 16777216
100
AcDbLine
 10
1351.526991990877
 20
480.9803333208466
 30
0.0
 11
1349.091084931771
 21
480.9803333208466
 31
0.0
  0
LINE
  5
FF591
330
FF58D
100
AcDbEntity
  8
AM_5
440
 16777216
100
AcDbLine
 10
1350.091084931771
 20
472.4803333208483
 30
0.0
 11
1350.091084931771
 21
469.9803333208484
 31
0.0
  0
LINE
  5
FF592
330
FF58D
100
AcDbEntity
  8
AM_5
440
 16777216
100
AcDbLine
 10
1350.091084931771
 20
483.4803333208467
 30
0.0
 11
1350.091084931771
 21
507.1995048030569
 31
0.0
  0
LINE
  5
FF593
330
FF58D
100
AcDbEntity
  8
AM_5
440
 16777216
100
AcDbLine
 10
1350.091084931771
 20
474.9803333208483
 30
0.0
 11
1350.091084931771
 21
480.9803333208466
 31
0.0
  0
SOLID
  5
FF594
330
FF58D
100
AcDbEntity
  8
AM_5
440
 16777216
100
AcDbTrace
 10
1349.674418265104
 20
472.4803333208483
 30
0.0
 11
1350.507751598438
 21
472.4803333208483
 31
0.0
 12
1350.091084931771
 22
474.9803333208483
 32
0.0
 13
1350.091084931771
 23
474.9803333208483
 33
0.0
  0
SOLID
  5
FF595
330
FF58D
100
AcDbEntity
  8
AM_5
440
 16777216
100
AcDbTrace
 10
1349.674418265104
 20
483.4803333208467
 30
0.0
 11
1350.507751598438
 21
483.4803333208467
 31
0.0
 12
1350.091084931771
 22
480.9803333208466
 32
0.0
 13
1350.091084931771
 23
480.9803333208466
 33
0.0
  0
MTEXT
  5
FF596
330
FF58D
100
AcDbEntity
  8
AM_5
 62
     2
440
 16777216
100
AcDbMText
 10
1346.841084931771
 20
502.6376937794347
 30
0.0
 40
3.5
 41
0.0
 71
     5
 72
     1
  1
t=6
 11
0.0000000000000001
 21
1.0
 31
0.0
 73
     1
 44
1.0
  0
POINT
  5
FF597
330
FF58D
100
AcDbEntity
  8
Defpoints
 62
     0
440
 16777216
100
AcDbPoint
 10
1352.526991990877
 20
474.9803333208483
 30
0.0
  0
POINT
  5
FF598
330
FF58D
100
AcDbEntity
  8
Defpoints
 62
     0
440
 16777216
100
AcDbPoint
 10
1352.526991990877
 20
480.9803333208466
 30
0.0
  0
POINT
  5
FF599
330
FF58D
100
AcDbEntity
  8
Defpoints
 62
     0
440
 16777216
100
AcDbPoint
 10
1350.091084931771
 20
480.9803333208466
 30
0.0
  0
ENDBLK
  5
FF59A
330
FF58D
100
AcDbEntity
  8
0
100
AcDbBlockEnd
  0
BLOCK
  5
FF64D
330
FF64C
100
AcDbEntity
  8
0
100
AcDbBlockBegin
  2
*D25
 70
     1
 10
0.0
 20
0.0
 30
0.0
  3
*D25
  1

  0
LINE
  5
FFA9D
330
FF64C
100
AcDbEntity
  8
AM_5
440
 16777216
100
AcDbLine
 10
809.7501099797771
 20
108.1172738316029
 30
0.0
 11
862.8698308769861
 21
108.1172738316029
 31
0.0
  0
LINE
  5
FFA9E
330
FF64C
100
AcDbEntity
  8
AM_5
440
 16777216
100
AcDbLine
 10
844.4797698218103
 20
90.11727383160469
 30
0.0
 11
862.8698308769861
 21
90.11727383160469
 31
0.0
  0
LINE
  5
FFA9F
330
FF64C
100
AcDbEntity
  8
AM_5
440
 16777216
100
AcDbLine
 10
861.8698308769861
 20
92.61727383160469
 30
0.0
 11
861.8698308769861
 21
105.6172738316029
 31
0.0
  0
LINE
  5
FFAA0
330
FF64C
100
AcDbEntity
  8
AM_5
440
 16777216
100
AcDbLine
 10
861.8698308769861
 20
108.1172738316029
 30
0.0
 11
861.8698308769861
 21
123.9541194773018
 31
0.0
  0
SOLID
  5
FFAA1
330
FF64C
100
AcDbEntity
  8
AM_5
440
 16777216
100
AcDbTrace
 10
861.4531642103194
 20
92.61727383160469
 30
0.0
 11
862.2864975436526
 21
92.61727383160469
 31
0.0
 12
861.8698308769861
 22
90.11727383160469
 32
0.0
 13
861.8698308769861
 23
90.11727383160469
 33
0.0
  0
SOLID
  5
FFAA2
330
FF64C
100
AcDbEntity
  8
AM_5
440
 16777216
100
AcDbTrace
 10
861.4531642103194
 20
105.6172738316029
 30
0.0
 11
862.2864975436526
 21
105.6172738316029
 31
0.0
 12
861.8698308769861
 22
108.1172738316029
 32
0.0
 13
861.8698308769861
 23
108.1172738316029
 33
0.0
  0
MTEXT
  5
FFAA3
330
FF64C
100
AcDbEntity
  8
AM_5
 62
     2
440
 16777216
100
AcDbMText
 10
858.6198308769859
 20
120.8791194773019
 30
0.0
 40
3.5
 41
0.0
 71
     5
 72
     1
  1
18
 11
0.0000000000000001
 21
1.0
 31
0.0
 73
     1
 44
1.0
  0
POINT
  5
FFAA4
330
FF64C
100
AcDbEntity
  8
Defpoints
 62
     0
440
 16777216
100
AcDbPoint
 10
808.7501099797771
 20
108.1172738316029
 30
0.0
  0
POINT
  5
FFAA5
330
FF64C
100
AcDbEntity
  8
Defpoints
 62
     0
440
 16777216
100
AcDbPoint
 10
843.4797698218103
 20
90.11727383160469
 30
0.0
  0
POINT
  5
FFAA6
330
FF64C
100
AcDbEntity
  8
Defpoints
 62
     0
440
 16777216
100
AcDbPoint
 10
861.8698308769861
 20
90.11727383160469
 30
0.0
  0
ENDBLK
  5
FF64E
330
FF64C
100
AcDbEntity
  8
0
100
AcDbBlockEnd
  0
BLOCK
  5
FF65A
330
FF659
100
AcDbEntity
  8
0
100
AcDbBlockBegin
  2
*D26
 70
     1
 10
0.0
 20
0.0
 30
0.0
  3
*D26
  1

  0
LINE
  5
FFAB9
330
FF659
100
AcDbEntity
  8
AM_5
440
 16777216
100
AcDbLine
 10
804.4797698218113
 20
50.11727383160468
 30
0.0
 11
804.4797698218113
 21
16.11835406595786
 31
0.0
  0
LINE
  5
FFABA
330
FF659
100
AcDbEntity
  8
AM_5
440
 16777216
100
AcDbLine
 10
828.4797698218103
 20
84.8469336736373
 30
0.0
 11
828.4797698218103
 21
16.11835406595786
 31
0.0
  0
LINE
  5
FFABB
330
FF659
100
AcDbEntity
  8
AM_5
440
 16777216
100
AcDbLine
 10
806.9797698218112
 20
17.11835406595787
 30
0.0
 11
825.9797698218104
 21
17.11835406595787
 31
0.0
  0
LINE
  5
FFABC
330
FF659
100
AcDbEntity
  8
AM_5
440
 16777216
100
AcDbLine
 10
828.4797698218103
 20
17.11835406595787
 30
0.0
 11
848.525224066369
 21
17.11835406595787
 31
0.0
  0
SOLID
  5
FFABD
330
FF659
100
AcDbEntity
  8
AM_5
440
 16777216
100
AcDbTrace
 10
806.9797698218112
 20
17.53502073262454
 30
0.0
 11
806.9797698218112
 21
16.7016873992912
 31
0.0
 12
804.4797698218113
 22
17.11835406595787
 32
0.0
 13
804.4797698218113
 23
17.11835406595787
 33
0.0
  0
SOLID
  5
FFABE
330
FF659
100
AcDbEntity
  8
AM_5
440
 16777216
100
AcDbTrace
 10
825.9797698218104
 20
17.53502073262454
 30
0.0
 11
825.9797698218104
 21
16.7016873992912
 31
0.0
 12
828.4797698218103
 22
17.11835406595787
 32
0.0
 13
828.4797698218103
 23
17.11835406595787
 33
0.0
  0
MTEXT
  5
FFABF
330
FF659
100
AcDbEntity
  8
AM_5
 62
     2
440
 16777216
100
AcDbMText
 10
844.880785089991
 20
20.36869855414686
 30
0.0
 40
3.5
 41
0.0
 71
     5
 72
     1
  1
24
 73
     1
 44
1.0
  0
POINT
  5
FFAC0
330
FF659
100
AcDbEntity
  8
Defpoints
 62
     0
440
 16777216
100
AcDbPoint
 10
804.4797698218113
 20
51.11727383160467
 30
0.0
  0
POINT
  5
FFAC1
330
FF659
100
AcDbEntity
  8
Defpoints
 62
     0
440
 16777216
100
AcDbPoint
 10
828.4797698218103
 20
85.8469336736373
 30
0.0
  0
POINT
  5
FFAC2
330
FF659
100
AcDbEntity
  8
Defpoints
 62
     0
440
 16777216
100
AcDbPoint
 10
828.4797698218103
 20
17.11835406595787
 30
0.0
  0
ENDBLK
  5
FF65B
330
FF659
100
AcDbEntity
  8
0
100
AcDbBlockEnd
  0
BLOCK
  5
FF667
330
FF666
100
AcDbEntity
  8
0
100
AcDbBlockBegin
  2
*D27
 70
     1
 10
0.0
 20
0.0
 30
0.0
  3
*D27
  1

  0
LINE
  5
FFAA7
330
FF666
100
AcDbEntity
  8
AM_5
440
 16777216
100
AcDbLine
 10
837.6352020328017
 20
157.5532767309177
 30
0.0
 11
807.1255295658115
 21
112.0622016353795
 31
0.0
  0
LINE
  5
FFAA8
330
FF666
100
AcDbEntity
  8
AM_5
440
 16777216
100
AcDbLine
 10
801.8340100778077
 20
104.1723460278261
 30
0.0
 11
800.4415049493854
 21
102.0960682363644
 31
0.0
  0
MTEXT
  5
FFAA9
102
{ACAD_XDICTIONARY
360
100114
102
}
330
FF666
100
AcDbEntity
  8
AM_5
 62
     2
440
 16777216
100
AcDbMText
 10
830.2586232105642
 20
152.3893267828656
 30
0.0
 40
3.5
 41
0.0
 71
     5
 72
     1
  1
4-\U+22054.5
 11
0.5570020513689509
 21
0.8305111165847092
 31
0.0
 73
     1
 44
1.0
  0
LINE
  5
FFAAA
330
FF666
100
AcDbEntity
  8
AM_5
440
 16777216
100
AcDbLine
 10
803.2265152062301
 20
106.2486238192879
 30
0.0
 11
805.7330244373892
 21
109.9859238439177
 31
0.0
  0
SOLID
  5
FFAAB
330
FF666
100
AcDbEntity
  8
AM_5
440
 16777216
100
AcDbTrace
 10
801.4879637792308
 20
104.4044302158965
 30
0.0
 11
802.1800563763845
 21
103.9402618397558
 31
0.0
 12
803.2265152062301
 22
106.2486238192879
 32
0.0
 13
803.2265152062301
 23
106.2486238192879
 33
0.0
  0
SOLID
  5
FFAAC
330
FF666
100
AcDbEntity
  8
AM_5
440
 16777216
100
AcDbTrace
 10
806.7794832672346
 20
112.2942858234499
 30
0.0
 11
807.4715758643886
 21
111.8301174473091
 31
0.0
 12
805.7330244373892
 22
109.9859238439177
 32
0.0
 13
805.7330244373892
 23
109.9859238439177
 33
0.0
  0
POINT
  5
FFAAD
330
FF666
100
AcDbEntity
  8
Defpoints
 62
     0
440
 16777216
100
AcDbPoint
 10
805.7330244373892
 20
109.9859238439177
 30
0.0
  0
POINT
  5
FFAAE
330
FF666
100
AcDbEntity
  8
Defpoints
 62
     0
440
 16777216
100
AcDbPoint
 10
803.2265152062301
 20
106.2486238192879
 30
0.0
  0
ENDBLK
  5
FF668
330
FF666
100
AcDbEntity
  8
0
100
AcDbBlockEnd
  0
BLOCK
  5
FF672
330
FF671
100
AcDbEntity
  8
0
100
AcDbBlockBegin
  2
*D28
 70
     1
 10
0.0
 20
0.0
 30
0.0
  3
*D28
  1

  0
LINE
  5
FF7AC
330
FF671
100
AcDbEntity
  8
AM_5
440
 16777216
100
AcDbLine
 10
778.0698196802395
 20
385.1322003121961
 30
0.0
 11
793.2173009165344
 21
395.3157002213302
 31
0.0
  0
MTEXT
  5
FF7AD
330
FF671
100
AcDbEntity
  8
AM_5
 62
     2
440
 16777216
100
AcDbMText
 10
780.6976132987966
 20
390.8150206235831
 30
0.0
 40
3.5
 41
0.0
 71
     5
 72
     1
  1
R3.0
 11
0.8298901439911292
 21
0.5579268311404132
 31
0.0
 73
     1
 44
1.0
  0
SOLID
  5
FF7AE
330
FF671
100
AcDbEntity
  8
AM_5
440
 16777216
100
AcDbTrace
 10
792.9848314035592
 20
395.6614877813263
 30
0.0
 11
793.4497704295096
 21
394.9699126613337
 31
0.0
 12
795.2920262765123
 22
396.7105172991812
 32
0.0
 13
795.2920262765123
 23
396.7105172991812
 33
0.0
  0
POINT
  5
FF7AF
330
FF671
100
AcDbEntity
  8
Defpoints
 62
     0
440
 16777216
100
AcDbPoint
 10
795.2920262765123
 20
396.7105172991812
 30
0.0
  0
POINT
  5
FF7B0
330
FF671
100
AcDbEntity
  8
Defpoints
 62
     0
440
 16777216
100
AcDbPoint
 10
793.2173009165332
 20
395.3157002213293
 30
0.0
  0
ENDBLK
  5
FF673
330
FF671
100
AcDbEntity
  8
0
100
AcDbBlockEnd
  0
BLOCK
  5
FF67A
330
FF679
100
AcDbEntity
  8
0
100
AcDbBlockBegin
  2
*D29
 70
     1
 10
0.0
 20
0.0
 30
0.0
  3
*D29
  1

  0
LINE
  5
FFB00
330
FF679
100
AcDbEntity
  8
AM_5
440
 16777216
100
AcDbLine
 10
839.4797698218104
 20
397.8157002213313
 30
0.0
 11
863.4567568488671
 21
397.8157002213313
 31
0.0
  0
LINE
  5
FFB01
330
FF679
100
AcDbEntity
  8
AM_5
440
 16777216
100
AcDbLine
 10
829.4797698218113
 20
395.2157002213292
 30
0.0
 11
863.4567568488671
 21
395.2157002213292
 31
0.0
  0
LINE
  5
FFB02
330
FF679
100
AcDbEntity
  8
AM_5
440
 16777216
100
AcDbLine
 10
862.4567568488672
 20
392.7157002213292
 30
0.0
 11
862.4567568488672
 21
390.2157002213292
 31
0.0
  0
LINE
  5
FFB03
330
FF679
100
AcDbEntity
  8
AM_5
440
 16777216
100
AcDbLine
 10
862.4567568488672
 20
400.3157002213312
 30
0.0
 11
862.4567568488672
 21
418.8114346841265
 31
0.0
  0
LINE
  5
FFB04
330
FF679
100
AcDbEntity
  8
AM_5
440
 16777216
100
AcDbLine
 10
862.4567568488672
 20
395.2157002213292
 30
0.0
 11
862.4567568488672
 21
397.8157002213313
 31
0.0
  0
SOLID
  5
FFB05
330
FF679
100
AcDbEntity
  8
AM_5
440
 16777216
100
AcDbTrace
 10
862.0400901822007
 20
392.7157002213292
 30
0.0
 11
862.8734235155338
 21
392.7157002213292
 31
0.0
 12
862.4567568488672
 22
395.2157002213292
 32
0.0
 13
862.4567568488672
 23
395.2157002213292
 33
0.0
  0
SOLID
  5
FFB06
330
FF679
100
AcDbEntity
  8
AM_5
440
 16777216
100
AcDbTrace
 10
862.0400901822007
 20
400.3157002213312
 30
0.0
 11
862.8734235155338
 21
400.3157002213312
 31
0.0
 12
862.4567568488672
 22
397.8157002213313
 32
0.0
 13
862.4567568488672
 23
397.8157002213313
 33
0.0
  0
MTEXT
  5
FFB07
330
FF679
100
AcDbEntity
  8
AM_5
 62
     2
440
 16777216
100
AcDbMText
 10
859.2064123606782
 20
414.7301846841266
 30
0.0
 40
3.5
 41
0.0
 71
     5
 72
     1
  1
2.6
 11
0.0000000000000001
 21
1.0
 31
0.0
 73
     1
 44
1.0
  0
POINT
  5
FFB08
330
FF679
100
AcDbEntity
  8
Defpoints
 62
     0
440
 16777216
100
AcDbPoint
 10
838.4797698218104
 20
397.8157002213313
 30
0.0
  0
POINT
  5
FFB09
330
FF679
100
AcDbEntity
  8
Defpoints
 62
     0
440
 16777216
100
AcDbPoint
 10
828.479769821811
 20
395.2157002213292
 30
0.0
  0
POINT
  5
FFB0A
330
FF679
100
AcDbEntity
  8
Defpoints
 62
     0
440
 16777216
100
AcDbPoint
 10
862.4567568488672
 20
395.2157002213292
 30
0.0
  0
ENDBLK
  5
FF67B
330
FF679
100
AcDbEntity
  8
0
100
AcDbBlockEnd
  0
BLOCK
  5
FF688
330
FF687
100
AcDbEntity
  8
0
100
AcDbBlockBegin
  2
*D30
 70
     1
 10
0.0
 20
0.0
 30
0.0
  3
*D30
  1

  0
LINE
  5
FFAD6
330
FF687
100
AcDbEntity
  8
AM_5
440
 16777216
100
AcDbLine
 10
796.4797698218103
 20
254.5188011706698
 30
0.0
 11
796.4797698218103
 21
259.2634970642787
 31
0.0
  0
LINE
  5
FFAD7
330
FF687
100
AcDbEntity
  8
AM_5
440
 16777216
100
AcDbLine
 10
812.4797698218102
 20
254.5188011706698
 30
0.0
 11
812.4797698218102
 21
259.2634970642787
 31
0.0
  0
LINE
  5
FFAD8
330
FF687
100
AcDbEntity
  8
AM_5
440
 16777216
100
AcDbLine
 10
798.9797698218104
 20
258.2634970642788
 30
0.0
 11
809.9797698218104
 21
258.2634970642788
 31
0.0
  0
LINE
  5
FFAD9
330
FF687
100
AcDbEntity
  8
AM_5
440
 16777216
100
AcDbLine
 10
812.4797698218102
 20
258.2634970642788
 30
0.0
 11
839.6862519359961
 21
258.2634970642788
 31
0.0
  0
SOLID
  5
FFADA
330
FF687
100
AcDbEntity
  8
AM_5
440
 16777216
100
AcDbTrace
 10
798.9797698218104
 20
258.6801637309454
 30
0.0
 11
798.9797698218104
 21
257.8468303976121
 31
0.0
 12
796.4797698218103
 22
258.2634970642788
 32
0.0
 13
796.4797698218103
 23
258.2634970642788
 33
0.0
  0
SOLID
  5
FFADB
330
FF687
100
AcDbEntity
  8
AM_5
440
 16777216
100
AcDbTrace
 10
809.9797698218104
 20
258.6801637309454
 30
0.0
 11
809.9797698218104
 21
257.8468303976121
 31
0.0
 12
812.4797698218102
 22
258.2634970642788
 32
0.0
 13
812.4797698218102
 23
258.2634970642788
 33
0.0
  0
MTEXT
  5
FFADC
330
FF687
100
AcDbEntity
  8
AM_5
 62
     2
440
 16777216
100
AcDbMText
 10
834.9494409123742
 20
261.5134970642787
 30
0.0
 40
3.5
 41
0.0
 71
     5
 72
     1
  1
%%c16
 73
     1
 44
1.0
  0
POINT
  5
FFADD
330
FF687
100
AcDbEntity
  8
Defpoints
 62
     0
440
 16777216
100
AcDbPoint
 10
796.4797698218103
 20
253.5188011706698
 30
0.0
  0
POINT
  5
FFADE
330
FF687
100
AcDbEntity
  8
Defpoints
 62
     0
440
 16777216
100
AcDbPoint
 10
812.4797698218102
 20
253.5188011706698
 30
0.0
  0
POINT
  5
FFADF
330
FF687
100
AcDbEntity
  8
Defpoints
 62
     0
440
 16777216
100
AcDbPoint
 10
812.4797698218102
 20
258.2634970642788
 30
0.0
  0
ENDBLK
  5
FF689
330
FF687
100
AcDbEntity
  8
0
100
AcDbBlockEnd
  0
BLOCK
  5
FF695
330
FF694
100
AcDbEntity
  8
0
100
AcDbBlockBegin
  2
*D31
 70
     1
 10
0.0
 20
0.0
 30
0.0
  3
*D31
  1

  0
LINE
  5
FFF7C
330
FF694
100
AcDbEntity
  8
AM_5
440
 16777216
100
AcDbLine
 10
795.4797698218103
 20
147.8157002213331
 30
0.0
 11
751.2317536212909
 21
147.8157002213331
 31
0.0
  0
LINE
  5
FFF7D
330
FF694
100
AcDbEntity
  8
AM_5
440
 16777216
100
AcDbLine
 10
769.4797698218104
 20
397.815700221333
 30
0.0
 11
751.231753621291
 21
397.815700221333
 31
0.0
  0
LINE
  5
FFF7E
330
FF694
100
AcDbEntity
  8
AM_5
440
 16777216
100
AcDbLine
 10
752.2317536212908
 20
150.3157002213332
 30
0.0
 11
752.231753621291
 21
395.315700221333
 31
0.0
  0
SOLID
  5
FFF7F
330
FF694
100
AcDbEntity
  8
AM_5
440
 16777216
100
AcDbTrace
 10
751.8150869546241
 20
150.3157002213332
 30
0.0
 11
752.6484202879576
 21
150.3157002213332
 31
0.0
 12
752.2317536212908
 22
147.8157002213331
 32
0.0
 13
752.2317536212908
 23
147.8157002213331
 33
0.0
  0
SOLID
  5
FFF80
330
FF694
100
AcDbEntity
  8
AM_5
440
 16777216
100
AcDbTrace
 10
751.8150869546245
 20
395.315700221333
 30
0.0
 11
752.6484202879577
 21
395.315700221333
 31
0.0
 12
752.231753621291
 22
397.815700221333
 32
0.0
 13
752.231753621291
 23
397.815700221333
 33
0.0
  0
MTEXT
  5
FFF81
330
FF694
100
AcDbEntity
  8
AM_5
 62
     2
440
 16777216
100
AcDbMText
 10
748.981753621291
 20
272.8157002213332
 30
0.0
 40
3.5
 41
0.0
 71
     5
 72
     1
  1
L
 11
0.0000000000000001
 21
1.0
 31
0.0
 73
     1
 44
1.0
  0
POINT
  5
FFF82
330
FF694
100
AcDbEntity
  8
Defpoints
 62
     0
440
 16777216
100
AcDbPoint
 10
796.4797698218103
 20
147.8157002213331
 30
0.0
  0
POINT
  5
FFF83
330
FF694
100
AcDbEntity
  8
Defpoints
 62
     0
440
 16777216
100
AcDbPoint
 10
770.4797698218103
 20
397.815700221333
 30
0.0
  0
POINT
  5
FFF84
330
FF694
100
AcDbEntity
  8
Defpoints
 62
     0
440
 16777216
100
AcDbPoint
 10
752.231753621291
 20
397.815700221333
 30
0.0
  0
ENDBLK
  5
FF696
330
FF694
100
AcDbEntity
  8
0
100
AcDbBlockEnd
  0
BLOCK
  5
FF6A1
330
FF6A0
100
AcDbEntity
  8
0
100
AcDbBlockBegin
  2
*D32
 70
     1
 10
0.0
 20
0.0
 30
0.0
  3
*D32
  1

  0
LINE
  5
FFACD
330
FF6A0
100
AcDbEntity
  8
AM_5
440
 16777216
100
AcDbLine
 10
795.4797698218103
 20
147.815700221335
 30
0.0
 11
771.5851716795082
 21
147.815700221335
 31
0.0
  0
LINE
  5
FFACE
330
FF6A0
100
AcDbEntity
  8
AM_5
440
 16777216
100
AcDbLine
 10
795.4797698218103
 20
197.8157002213331
 30
0.0
 11
771.5851716795082
 21
197.8157002213331
 31
0.0
  0
LINE
  5
FFACF
330
FF6A0
100
AcDbEntity
  8
AM_5
440
 16777216
100
AcDbLine
 10
772.5851716795082
 20
150.315700221335
 30
0.0
 11
772.5851716795082
 21
195.3157002213331
 31
0.0
  0
SOLID
  5
FFAD0
330
FF6A0
100
AcDbEntity
  8
AM_5
440
 16777216
100
AcDbTrace
 10
772.1685050128415
 20
150.315700221335
 30
0.0
 11
773.0018383461747
 21
150.315700221335
 31
0.0
 12
772.5851716795082
 22
147.815700221335
 32
0.0
 13
772.5851716795082
 23
147.815700221335
 33
0.0
  0
SOLID
  5
FFAD1
330
FF6A0
100
AcDbEntity
  8
AM_5
440
 16777216
100
AcDbTrace
 10
772.1685050128415
 20
195.3157002213331
 30
0.0
 11
773.0018383461747
 21
195.3157002213331
 31
0.0
 12
772.5851716795082
 22
197.8157002213331
 32
0.0
 13
772.5851716795082
 23
197.8157002213331
 33
0.0
  0
MTEXT
  5
FFAD2
330
FF6A0
100
AcDbEntity
  8
AM_5
 62
     2
440
 16777216
100
AcDbMText
 10
769.3351716795082
 20
172.8157002213341
 30
0.0
 40
3.5
 41
0.0
 71
     5
 72
     1
  1
50
 11
0.0000000000000001
 21
1.0
 31
0.0
 73
     1
 44
1.0
  0
POINT
  5
FFAD3
330
FF6A0
100
AcDbEntity
  8
Defpoints
 62
     0
440
 16777216
100
AcDbPoint
 10
796.4797698218103
 20
147.815700221335
 30
0.0
  0
POINT
  5
FFAD4
330
FF6A0
100
AcDbEntity
  8
Defpoints
 62
     0
440
 16777216
100
AcDbPoint
 10
796.4797698218103
 20
197.8157002213331
 30
0.0
  0
POINT
  5
FFAD5
330
FF6A0
100
AcDbEntity
  8
Defpoints
 62
     0
440
 16777216
100
AcDbPoint
 10
772.5851716795082
 20
197.8157002213331
 30
0.0
  0
ENDBLK
  5
FF6A2
330
FF6A0
100
AcDbEntity
  8
0
100
AcDbBlockEnd
  0
BLOCK
  5
FF6AD
330
FF6AC
100
AcDbEntity
  8
0
100
AcDbBlockBegin
  2
*D33
 70
     1
 10
0.0
 20
0.0
 30
0.0
  3
*D33
  1

  0
LINE
  5
FFAAF
330
FF6AC
100
AcDbEntity
  8
AM_5
440
 16777216
100
AcDbLine
 10
780.4797698218112
 20
84.8469336736373
 30
0.0
 11
780.4797698218112
 21
16.11835406595786
 31
0.0
  0
LINE
  5
FFAB0
330
FF6AC
100
AcDbEntity
  8
AM_5
440
 16777216
100
AcDbLine
 10
804.4797698218113
 20
50.11727383160468
 30
0.0
 11
804.4797698218113
 21
16.11835406595786
 31
0.0
  0
LINE
  5
FFAB1
330
FF6AC
100
AcDbEntity
  8
AM_5
440
 16777216
100
AcDbLine
 10
801.9797698218113
 20
17.11835406595787
 30
0.0
 11
782.9797698218112
 21
17.11835406595787
 31
0.0
  0
LINE
  5
FFAB2
330
FF6AC
100
AcDbEntity
  8
AM_5
440
 16777216
100
AcDbLine
 10
780.4797698218112
 20
17.11835406595787
 30
0.0
 11
759.6780005652152
 21
17.11835406595787
 31
0.0
  0
SOLID
  5
FFAB3
330
FF6AC
100
AcDbEntity
  8
AM_5
440
 16777216
100
AcDbTrace
 10
801.9797698218113
 20
17.53502073262454
 30
0.0
 11
801.9797698218113
 21
16.7016873992912
 31
0.0
 12
804.4797698218113
 22
17.11835406595787
 32
0.0
 13
804.4797698218113
 23
17.11835406595787
 33
0.0
  0
SOLID
  5
FFAB4
330
FF6AC
100
AcDbEntity
  8
AM_5
440
 16777216
100
AcDbTrace
 10
782.9797698218112
 20
17.53502073262454
 30
0.0
 11
782.9797698218112
 21
16.7016873992912
 31
0.0
 12
780.4797698218112
 22
17.11835406595787
 32
0.0
 13
780.4797698218112
 23
17.11835406595787
 33
0.0
  0
MTEXT
  5
FFAB5
330
FF6AC
100
AcDbEntity
  8
AM_5
 62
     2
440
 16777216
100
AcDbMText
 10
763.3224395415933
 20
20.36869855414686
 30
0.0
 40
3.5
 41
0.0
 71
     5
 72
     1
  1
24
 73
     1
 44
1.0
  0
POINT
  5
FFAB6
330
FF6AC
100
AcDbEntity
  8
Defpoints
 62
     0
440
 16777216
100
AcDbPoint
 10
780.4797698218112
 20
85.8469336736373
 30
0.0
  0
POINT
  5
FFAB7
330
FF6AC
100
AcDbEntity
  8
Defpoints
 62
     0
440
 16777216
100
AcDbPoint
 10
804.4797698218113
 20
51.11727383160467
 30
0.0
  0
POINT
  5
FFAB8
330
FF6AC
100
AcDbEntity
  8
Defpoints
 62
     0
440
 16777216
100
AcDbPoint
 10
804.4797698218113
 20
17.11835406595787
 30
0.0
  0
ENDBLK
  5
FF6AE
330
FF6AC
100
AcDbEntity
  8
0
100
AcDbBlockEnd
  0
BLOCK
  5
FF6BA
330
FF6B9
100
AcDbEntity
  8
0
100
AcDbBlockBegin
  2
*D34
 70
     1
 10
0.0
 20
0.0
 30
0.0
  3
*D34
  1

  0
LINE
  5
FFA52
330
FF6B9
100
AcDbEntity
  8
AM_5
440
 16777216
100
AcDbLine
 10
803.4797698218103
 20
56.11727383160467
 30
0.0
 11
751.231753621291
 21
56.11727383160469
 31
0.0
  0
LINE
  5
FFA53
330
FF6B9
100
AcDbEntity
  8
AM_5
440
 16777216
100
AcDbLine
 10
803.479769821811
 20
124.1172738316047
 30
0.0
 11
751.231753621291
 21
124.1172738316048
 31
0.0
  0
LINE
  5
FFA54
330
FF6B9
100
AcDbEntity
  8
AM_5
440
 16777216
100
AcDbLine
 10
752.231753621291
 20
58.61727383160467
 30
0.0
 11
752.231753621291
 21
121.6172738316048
 31
0.0
  0
SOLID
  5
FFA55
330
FF6B9
100
AcDbEntity
  8
AM_5
440
 16777216
100
AcDbTrace
 10
751.8150869546245
 20
58.61727383160469
 30
0.0
 11
752.6484202879577
 21
58.61727383160467
 31
0.0
 12
752.231753621291
 22
56.11727383160467
 32
0.0
 13
752.231753621291
 23
56.11727383160467
 33
0.0
  0
SOLID
  5
FFA56
330
FF6B9
100
AcDbEntity
  8
AM_5
440
 16777216
100
AcDbTrace
 10
751.8150869546245
 20
121.6172738316048
 30
0.0
 11
752.6484202879577
 21
121.6172738316048
 31
0.0
 12
752.231753621291
 22
124.1172738316048
 32
0.0
 13
752.231753621291
 23
124.1172738316048
 33
0.0
  0
MTEXT
  5
FFA57
330
FF6B9
100
AcDbEntity
  8
AM_5
 62
     2
440
 16777216
100
AcDbMText
 10
748.981753621291
 20
90.11727383160486
 30
0.0
 40
3.5
 41
0.0
 71
     5
 72
     1
  1
%%c68
 11
0.0000000000000001
 21
1.0
 31
0.0
 73
     1
 44
1.0
  0
POINT
  5
FFA58
330
FF6B9
100
AcDbEntity
  8
Defpoints
 62
     0
440
 16777216
100
AcDbPoint
 10
804.4797698218102
 20
56.11727383160467
 30
0.0
  0
POINT
  5
FFA59
330
FF6B9
100
AcDbEntity
  8
Defpoints
 62
     0
440
 16777216
100
AcDbPoint
 10
804.4797698218113
 20
124.1172738316047
 30
0.0
  0
POINT
  5
FFA5A
330
FF6B9
100
AcDbEntity
  8
Defpoints
 62
     0
440
 16777216
100
AcDbPoint
 10
752.231753621291
 20
124.1172738316048
 30
0.0
  0
ENDBLK
  5
FF6BB
330
FF6B9
100
AcDbEntity
  8
0
100
AcDbBlockEnd
  0
BLOCK
  5
FF6C6
330
FF6C5
100
AcDbEntity
  8
0
100
AcDbBlockBegin
  2
*D35
 70
     1
 10
0.0
 20
0.0
 30
0.0
  3
*D35
  1

  0
LINE
  5
FFAC3
330
FF6C5
100
AcDbEntity
  8
AM_5
440
 16777216
100
AcDbLine
 10
844.4797698218103
 20
90.11727383160469
 30
0.0
 11
862.8698308769861
 21
90.11727383160469
 31
0.0
  0
LINE
  5
FFAC4
330
FF6C5
100
AcDbEntity
  8
AM_5
440
 16777216
100
AcDbLine
 10
809.7501099797749
 20
72.11727383160469
 30
0.0
 11
862.8698308769861
 21
72.11727383160469
 31
0.0
  0
LINE
  5
FFAC5
330
FF6C5
100
AcDbEntity
  8
AM_5
440
 16777216
100
AcDbLine
 10
861.8698308769861
 20
87.61727383160467
 30
0.0
 11
861.8698308769861
 21
74.61727383160469
 31
0.0
  0
LINE
  5
FFAC6
330
FF6C5
100
AcDbEntity
  8
AM_5
440
 16777216
100
AcDbLine
 10
861.8698308769861
 20
72.11727383160469
 30
0.0
 11
861.8698308769861
 21
56.04668330043145
 31
0.0
  0
SOLID
  5
FFAC7
330
FF6C5
100
AcDbEntity
  8
AM_5
440
 16777216
100
AcDbTrace
 10
861.4531642103194
 20
87.61727383160467
 30
0.0
 11
862.2864975436526
 21
87.61727383160467
 31
0.0
 12
861.8698308769861
 22
90.11727383160469
 32
0.0
 13
861.8698308769861
 23
90.11727383160469
 33
0.0
  0
SOLID
  5
FFAC8
330
FF6C5
100
AcDbEntity
  8
AM_5
440
 16777216
100
AcDbTrace
 10
861.4531642103194
 20
74.61727383160469
 30
0.0
 11
862.2864975436526
 21
74.61727383160469
 31
0.0
 12
861.8698308769861
 22
72.11727383160469
 32
0.0
 13
861.8698308769861
 23
72.11727383160469
 33
0.0
  0
MTEXT
  5
FFAC9
330
FF6C5
100
AcDbEntity
  8
AM_5
 62
     2
440
 16777216
100
AcDbMText
 10
858.6198308769859
 20
59.12168330043158
 30
0.0
 40
3.5
 41
0.0
 71
     5
 72
     1
  1
18
 11
0.0000000000000001
 21
1.0
 31
0.0
 73
     1
 44
1.0
  0
POINT
  5
FFACA
330
FF6C5
100
AcDbEntity
  8
Defpoints
 62
     0
440
 16777216
100
AcDbPoint
 10
843.4797698218103
 20
90.11727383160469
 30
0.0
  0
POINT
  5
FFACB
330
FF6C5
100
AcDbEntity
  8
Defpoints
 62
     0
440
 16777216
100
AcDbPoint
 10
808.750109979775
 20
72.11727383160469
 30
0.0
  0
POINT
  5
FFACC
330
FF6C5
100
AcDbEntity
  8
Defpoints
 62
     0
440
 16777216
100
AcDbPoint
 10
861.8698308769861
 20
72.11727383160469
 30
0.0
  0
ENDBLK
  5
FF6C7
330
FF6C5
100
AcDbEntity
  8
0
100
AcDbBlockEnd
  0
BLOCK
  5
FF6D3
330
FF6D2
100
AcDbEntity
  8
0
100
AcDbBlockBegin
  2
*D36
 70
     1
 10
0.0
 20
0.0
 30
0.0
  3
*D36
  1

  0
LINE
  5
FFB0B
330
FF6D2
100
AcDbEntity
  8
AM_5
440
 16777216
100
AcDbLine
 10
769.4797698218104
 20
397.815700221333
 30
0.0
 11
767.0438627627041
 21
397.815700221333
 31
0.0
  0
LINE
  5
FFB0C
330
FF6D2
100
AcDbEntity
  8
AM_5
440
 16777216
100
AcDbLine
 10
769.4797698218104
 20
403.8157002213311
 30
0.0
 11
767.0438627627041
 21
403.8157002213311
 31
0.0
  0
LINE
  5
FFB0D
330
FF6D2
100
AcDbEntity
  8
AM_5
440
 16777216
100
AcDbLine
 10
768.0438627627041
 20
395.315700221333
 30
0.0
 11
768.0438627627041
 21
392.815700221333
 31
0.0
  0
LINE
  5
FFB0E
330
FF6D2
100
AcDbEntity
  8
AM_5
440
 16777216
100
AcDbLine
 10
768.0438627627041
 20
406.3157002213311
 30
0.0
 11
768.0438627627041
 21
430.0348717035413
 31
0.0
  0
LINE
  5
FFB0F
330
FF6D2
100
AcDbEntity
  8
AM_5
440
 16777216
100
AcDbLine
 10
768.0438627627041
 20
397.815700221333
 30
0.0
 11
768.0438627627041
 21
403.8157002213311
 31
0.0
  0
SOLID
  5
FFB10
330
FF6D2
100
AcDbEntity
  8
AM_5
440
 16777216
100
AcDbTrace
 10
767.6271960960376
 20
395.315700221333
 30
0.0
 11
768.4605294293707
 21
395.315700221333
 31
0.0
 12
768.0438627627041
 22
397.815700221333
 32
0.0
 13
768.0438627627041
 23
397.815700221333
 33
0.0
  0
SOLID
  5
FFB11
330
FF6D2
100
AcDbEntity
  8
AM_5
440
 16777216
100
AcDbTrace
 10
767.6271960960376
 20
406.3157002213311
 30
0.0
 11
768.4605294293707
 21
406.3157002213311
 31
0.0
 12
768.0438627627041
 22
403.8157002213311
 32
0.0
 13
768.0438627627041
 23
403.8157002213311
 33
0.0
  0
MTEXT
  5
FFB12
330
FF6D2
100
AcDbEntity
  8
AM_5
 62
     2
440
 16777216
100
AcDbMText
 10
764.793862762704
 20
425.4730606799193
 30
0.0
 40
3.5
 41
0.0
 71
     5
 72
     1
  1
t=6
 11
0.0000000000000001
 21
1.0
 31
0.0
 73
     1
 44
1.0
  0
POINT
  5
FFB13
330
FF6D2
100
AcDbEntity
  8
Defpoints
 62
     0
440
 16777216
100
AcDbPoint
 10
770.4797698218103
 20
397.815700221333
 30
0.0
  0
POINT
  5
FFB14
330
FF6D2
100
AcDbEntity
  8
Defpoints
 62
     0
440
 16777216
100
AcDbPoint
 10
770.4797698218103
 20
403.8157002213311
 30
0.0
  0
POINT
  5
FFB15
330
FF6D2
100
AcDbEntity
  8
Defpoints
 62
     0
440
 16777216
100
AcDbPoint
 10
768.0438627627041
 20
403.8157002213311
 30
0.0
  0
ENDBLK
  5
FF6D4
330
FF6D2
100
AcDbEntity
  8
0
100
AcDbBlockEnd
  0
BLOCK
  5
FF8FA
330
FF8F6
100
AcDbEntity
  8
0
100
AcDbBlockBegin
  2
A$C47F316C8
 70
     0
 10
0.0
 20
0.0
 30
0.0
  3
A$C47F316C8
  1

  0
MTEXT
  5
FF8F7
330
FF8F6
100
AcDbEntity
  8
04_ele1_0.15
100
AcDbMText
 10
0.0000005287628255
 20
9.999999055451439
 30
0.0
 40
10.0
 41
165.7528629834987
 71
     1
 72
     5
  1
15kN（60\U+03C6）スパイクザボルト
  7
2014++
 73
     1
 44
1.0
1001
ACAD
1000
ACAD_MTEXT_COLUMN_INFO_BEGIN
1070
    75
1070
     2
1070
    79
1070
     0
1070
    76
1070
     1
1070
    78
1070
     0
1070
    48
1040
165.7528629834987
1070
    49
1040
12.5
1070
    50
1070
     1
1040
0.0
1000
ACAD_MTEXT_COLUMN_INFO_END
  0
ENDBLK
  5
FF8FB
330
FF8F6
100
AcDbEntity
  8
0
100
AcDbBlockEnd
  0
BLOCK
  5
FF9A5
330
FF9A4
100
AcDbEntity
  8
0
100
AcDbBlockBegin
  2
*D38
 70
     1
 10
0.0
 20
0.0
 30
0.0
  3
*D38
  1

  0
LINE
  5
FF9C2
330
FF9A4
100
AcDbEntity
  8
AM_5
440
 16777216
100
AcDbLine
 10
273.588443635676
 20
600.6851062857015
 30
0.0
 11
273.588443635676
 21
456.5857209519233
 31
0.0
  0
LINE
  5
FF9C3
330
FF9A4
100
AcDbEntity
  8
AM_5
440
 16777216
100
AcDbLine
 10
427.1592028923323
 20
600.6851062857015
 30
0.0
 11
427.1592028923323
 21
456.5857209519233
 31
0.0
  0
LINE
  5
FF9C4
330
FF9A4
100
AcDbEntity
  8
AM_5
440
 16777216
100
AcDbLine
 10
276.0884436356759
 20
457.5857209519234
 30
0.0
 11
424.6592028923322
 21
457.5857209519234
 31
0.0
  0
SOLID
  5
FF9C5
330
FF9A4
100
AcDbEntity
  8
AM_5
440
 16777216
100
AcDbTrace
 10
276.0884436356759
 20
458.00238761859
 30
0.0
 11
276.0884436356759
 21
457.1690542852566
 31
0.0
 12
273.588443635676
 22
457.5857209519234
 32
0.0
 13
273.588443635676
 23
457.5857209519234
 33
0.0
  0
SOLID
  5
FF9C6
330
FF9A4
100
AcDbEntity
  8
AM_5
440
 16777216
100
AcDbTrace
 10
424.6592028923322
 20
458.00238761859
 30
0.0
 11
424.6592028923322
 21
457.1690542852566
 31
0.0
 12
427.1592028923323
 22
457.5857209519234
 32
0.0
 13
427.1592028923323
 23
457.5857209519234
 33
0.0
  0
MTEXT
  5
FF9C7
330
FF9A4
100
AcDbEntity
  8
AM_5
 62
     2
440
 16777216
100
AcDbMText
 10
350.3738232640042
 20
460.8357209519232
 30
0.0
 40
3.5
 41
0.0
 71
     5
 72
     1
  1
153.57
 73
     1
 44
1.0
  0
POINT
  5
FF9C8
330
FF9A4
100
AcDbEntity
  8
Defpoints
 62
     0
440
 16777216
100
AcDbPoint
 10
273.588443635676
 20
601.6851062857015
 30
0.0
  0
POINT
  5
FF9C9
330
FF9A4
100
AcDbEntity
  8
Defpoints
 62
     0
440
 16777216
100
AcDbPoint
 10
427.1592028923323
 20
601.6851062857015
 30
0.0
  0
POINT
  5
FF9CA
330
FF9A4
100
AcDbEntity
  8
Defpoints
 62
     0
440
 16777216
100
AcDbPoint
 10
427.1592028923323
 20
457.5857209519234
 30
0.0
  0
ENDBLK
  5
FF9A6
330
FF9A4
100
AcDbEntity
  8
0
100
AcDbBlockEnd
  0
BLOCK
  5
FFA1A
330
FFA19
100
AcDbEntity
  8
0
100
AcDbBlockBegin
  2
*D39
 70
     1
 10
0.0
 20
0.0
 30
0.0
  3
*D39
  1

  0
LINE
  5
FFA37
330
FFA19
100
AcDbEntity
  8
AM_5
440
 16777216
100
AcDbLine
 10
83.90451191032569
 20
730.5707868572662
 30
0.0
 11
244.0806471462352
 21
730.5707868572662
 31
0.0
  0
LINE
  5
FFA38
330
FFA19
100
AcDbEntity
  8
AM_5
440
 16777216
100
AcDbLine
 10
79.82359053376876
 20
403.2338308025173
 30
0.0
 11
244.0806471462352
 21
403.2338308025171
 31
0.0
  0
LINE
  5
FFA39
330
FFA19
100
AcDbEntity
  8
AM_5
440
 16777216
100
AcDbLine
 10
243.0806471462352
 20
728.0707868572663
 30
0.0
 11
243.0806471462351
 21
405.7338308025173
 31
0.0
  0
SOLID
  5
FFA3A
330
FFA19
100
AcDbEntity
  8
AM_5
440
 16777216
100
AcDbTrace
 10
242.6639804795686
 20
728.0707868572663
 30
0.0
 11
243.4973138129019
 21
728.0707868572663
 31
0.0
 12
243.0806471462352
 22
730.5707868572662
 32
0.0
 13
243.0806471462352
 23
730.5707868572662
 33
0.0
  0
SOLID
  5
FFA3B
330
FFA19
100
AcDbEntity
  8
AM_5
440
 16777216
100
AcDbTrace
 10
242.6639804795685
 20
405.7338308025173
 30
0.0
 11
243.4973138129018
 21
405.7338308025173
 31
0.0
 12
243.0806471462351
 22
403.2338308025171
 32
0.0
 13
243.0806471462351
 23
403.2338308025171
 33
0.0
  0
MTEXT
  5
FFA3C
330
FFA19
100
AcDbEntity
  8
AM_5
 62
     2
440
 16777216
100
AcDbMText
 10
239.8303026580461
 20
566.9023088298916
 30
0.0
 40
3.5
 41
0.0
 71
     5
 72
     1
  1
327.34
 11
0.0000000000000001
 21
1.0
 31
0.0
 73
     1
 44
1.0
  0
POINT
  5
FFA3D
330
FFA19
100
AcDbEntity
  8
Defpoints
 62
     0
440
 16777216
100
AcDbPoint
 10
82.9045119103257
 20
730.5707868572662
 30
0.0
  0
POINT
  5
FFA3E
330
FFA19
100
AcDbEntity
  8
Defpoints
 62
     0
440
 16777216
100
AcDbPoint
 10
78.82359053376877
 20
403.2338308025173
 30
0.0
  0
POINT
  5
FFA3F
330
FFA19
100
AcDbEntity
  8
Defpoints
 62
     0
440
 16777216
100
AcDbPoint
 10
243.0806471462351
 20
403.2338308025171
 30
0.0
  0
ENDBLK
  5
FFA1B
330
FFA19
100
AcDbEntity
  8
0
100
AcDbBlockEnd
  0
ENDSEC
  0
SECTION
  2
ENTITIES
  0
CIRCLE
  5
FE9DE
330
1F
100
AcDbEntity
  8
AM_5
100
AcDbCircle
 10
554.4797698218093
 20
90.11727383160469
 30
0.0
 40
30.0
  0
DIMENSION
  5
FE9DF
330
1F
100
AcDbEntity
  8
AM_5
100
AcDbDimension
  2
*D1
 10
490.7088407131974
 20
120.1172738316047
 30
0.0
 11
490.7088407131974
 21
90.11727383160469
 31
0.0
 70
   160
  1
%%c<>
 71
     5
 42
60.00000000000002
  3
AM_ISO$0
100
AcDbAlignedDimension
 13
554.4797698218093
 23
60.11727383160465
 33
0.0
 14
554.4797698218101
 24
120.1172738316047
 34
0.0
 50
90.0
100
AcDbRotatedDimension
1001
ACAD_DSTYLE_DIMINSPECT
1070
   396
1000
100%
1070
   395
1000

1070
   394
1070
    33
1070
   393
1070
     0
  0
CIRCLE
  5
FE9E0
330
1F
100
AcDbEntity
  8
AM_5
100
AcDbCircle
 10
554.47976982181
 20
107.1172738316056
 30
0.0
 40
2.25
  0
LINE
  5
FE9E2
330
1F
100
AcDbEntity
  8
AM_5
100
AcDbLine
 10
554.4797698218101
 20
51.11727383160467
 30
0.0
 11
554.4797698218094
 21
425.748143568679
 31
0.0
  0
LINE
  5
FE9E6
330
1F
100
AcDbEntity
  8
AM_5
100
AcDbLine
 10
593.4797698218094
 20
90.11727383160469
 30
0.0
 11
515.4797698218093
 21
90.11727383160469
 31
0.0
  0
CIRCLE
  5
FE9E7
330
1F
100
AcDbEntity
  8
AM_5
100
AcDbCircle
 10
576.4797698218099
 20
90.11727383160559
 30
0.0
 40
2.25
  0
CIRCLE
  5
FE9E9
330
1F
100
AcDbEntity
  8
AM_5
100
AcDbCircle
 10
532.4797698218101
 20
90.11727383160508
 30
0.0
 40
2.25
  0
LINE
  5
FE9EA
330
1F
100
AcDbEntity
  8
AM_5
100
AcDbLine
 10
550.2094296638438
 20
107.1172738316046
 30
0.0
 11
558.7501099797763
 21
107.1172738316046
 31
0.0
  0
LINE
  5
FE9EB
330
1F
100
AcDbEntity
  8
AM_5
100
AcDbLine
 10
550.209429663843
 20
73.11727383160456
 30
0.0
 11
558.7501099797754
 21
73.11727383160456
 31
0.0
  0
CIRCLE
  5
FE9EC
330
1F
100
AcDbEntity
  8
AM_5
100
AcDbCircle
 10
554.4797698218093
 20
90.11727383160469
 30
0.0
 40
8.0
  0
CIRCLE
  5
FE9ED
330
1F
100
AcDbEntity
  8
AM_5
100
AcDbCircle
 10
554.4797698218093
 20
90.11727383160469
 30
0.0
 40
9.0
  0
CIRCLE
  5
FE9EE
330
1F
100
AcDbEntity
  8
AM_5
100
AcDbCircle
 10
554.4797698218101
 20
73.11727383160456
 30
0.0
 40
2.25
  0
LINE
  5
FE9EF
330
1F
100
AcDbEntity
  8
AM_5
100
AcDbLine
 10
550.209429663844
 20
73.11727383160456
 30
0.0
 11
558.7501099797764
 21
73.11727383160456
 31
0.0
  0
LINE
  5
FE9F0
330
1F
100
AcDbEntity
  8
AM_5
100
AcDbLine
 10
550.2094296638438
 20
107.1172738316046
 30
0.0
 11
558.7501099797763
 21
107.1172738316046
 31
0.0
  0
LINE
  5
FE9F1
330
1F
100
AcDbEntity
  8
AM_5
100
AcDbLine
 10
576.4797698218101
 20
85.84693367363859
 30
0.0
 11
576.4797698218101
 21
94.38761398957069
 31
0.0
  0
LINE
  5
FE9F2
330
1F
100
AcDbEntity
  8
AM_5
100
AcDbLine
 10
576.4797698218099
 20
85.84693367363895
 30
0.0
 11
576.4797698218099
 21
94.38761398957115
 31
0.0
  0
LINE
  5
FE9F3
330
1F
100
AcDbEntity
  8
AM_5
100
AcDbLine
 10
532.4797698218101
 20
85.84693367363859
 30
0.0
 11
532.4797698218101
 21
94.38761398957069
 31
0.0
  0
LINE
  5
FE9F4
330
1F
100
AcDbEntity
  8
AM_5
100
AcDbLine
 10
532.4797698218101
 20
85.84693367363895
 30
0.0
 11
532.4797698218101
 21
94.38761398957115
 31
0.0
  0
LINE
  5
FE9F6
330
1F
100
AcDbEntity
  8
AM_5
100
AcDbLine
 10
578.7094686506945
 20
398.4549051135502
 30
0.0
 11
577.4594686506937
 21
395.854905113548
 31
0.0
  0
LINE
  5
FE9F7
330
1F
100
AcDbEntity
  8
AM_5
100
AcDbLine
 10
524.4594686506944
 20
404.454905113551
 30
0.0
 11
584.4594686506943
 21
404.4549051135519
 31
0.0
  0
LINE
  5
FE9F8
330
1F
100
AcDbEntity
  8
AM_5
100
AcDbLine
 10
584.4594686506943
 20
398.454905113551
 30
0.0
 11
565.721937555975
 21
398.4549051135521
 31
0.0
  0
DIMENSION
  5
FE9F9
330
1F
100
AcDbEntity
  8
AM_5
100
AcDbDimension
  2
*D8
 10
562.4594686506943
 20
241.2496319822377
 30
0.0
 11
584.9291397412589
 21
241.2496319822377
 31
0.0
 70
   160
  1
%%c<>
 71
     5
 42
16.0
  3
AM_ISO$0
100
AcDbAlignedDimension
 13
546.4594686506943
 23
253.5188011706692
 33
0.0
 14
562.4594686506943
 24
253.5188011706692
 34
0.0
 50
180.0
100
AcDbRotatedDimension
1001
ACAD_DSTYLE_DIMINSPECT
1070
   396
1000
100%
1070
   395
1000

1070
   394
1070
    33
1070
   393
1070
     0
  0
LINE
  5
FE9FB
330
1F
100
AcDbEntity
  8
AM_5
100
AcDbLine
 10
584.4594686506943
 20
398.4549051135521
 30
0.0
 11
584.4594686506943
 21
404.4549051135519
 31
0.0
  0
LINE
  5
FE9FE
330
1F
100
AcDbEntity
  8
AM_5
100
AcDbLine
 10
562.4594686506943
 20
147.8157002213334
 30
0.0
 11
562.4594686506943
 21
287.1690579691518
 31
0.0
  0
LINE
  5
FE9FF
330
1F
100
AcDbEntity
  8
AM_5
100
AcDbLine
 10
546.4594686506943
 20
147.8157002213334
 30
0.0
 11
546.4594686506943
 21
287.1690579691519
 31
0.0
  0
DIMENSION
  5
FEA00
330
1F
100
AcDbEntity
  8
AM_5
100
AcDbDimension
  2
*D9
 10
490.7088407131974
 20
398.4549051135521
 30
0.0
 11
487.4588407131973
 21
273.1353026674426
 31
0.0
 70
    32
  1
L
 71
     5
 42
250.639204892219
  3
AM_ISO$0
100
AcDbAlignedDimension
 13
546.4594686506956
 23
147.815700221333
 33
0.0
 14
525.4594686506947
 24
398.4549051135521
 34
0.0
 50
90.0
100
AcDbRotatedDimension
1001
ACAD_DSTYLE_DIMINSPECT
1070
   396
1000
100%
1070
   395
1000

1070
   394
1070
    33
1070
   393
1070
     0
  0
DIMENSION
  5
FEA01
330
1F
100
AcDbEntity
  8
AM_5
100
AcDbDimension
  2
*D10
 10
522.5648705083925
 20
197.815700221333
 30
0.0
 11
519.3148705083924
 21
172.8157002213335
 31
0.0
 70
    32
  1
<>
 71
     5
 42
49.99999999999911
  3
AM_ISO$0
100
AcDbAlignedDimension
 13
546.4594686506943
 23
147.8157002213339
 33
0.0
 14
546.4594686506943
 24
197.815700221333
 34
0.0
 50
90.0
100
AcDbRotatedDimension
1001
ACAD_DSTYLE_DIMINSPECT
1070
   396
1000
100%
1070
   395
1000

1070
   394
1070
    33
1070
   393
1070
     0
  0
LINE
  5
FEA02
330
1F
100
AcDbEntity
  8
AM_5
100
AcDbLine
 10
547.9594686506942
 20
197.815700221333
 30
0.0
 11
547.9594686506942
 21
147.815700221333
 31
0.0
  0
LINE
  5
FEA03
330
1F
100
AcDbEntity
  8
AM_5
100
AcDbLine
 10
560.9594686506942
 20
197.815700221333
 30
0.0
 11
560.9594686506942
 21
147.815700221333
 31
0.0
  0
LINE
  5
FEA04
330
1F
100
AcDbEntity
  8
AM_5
100
AcDbLine
 10
546.4594686506943
 20
147.815700221333
 30
0.0
 11
562.4594686506943
 21
147.8157002213334
 31
0.0
  0
MTEXT
  5
FEA05
330
1F
100
AcDbEntity
  8
AM_5
100
AcDbMText
 10
578.5690719290335
 20
185.1778743001289
 30
0.0
 40
5.0
 41
33.71
 71
     1
 72
     5
  1
{\fMS Gothic|b0|i0|c128|p49;M16}
  7
acad
 73
     1
 44
1.0
1001
ACAD
1000
MTEXTBEGIN
1070
    73
1070
     1
1070
    44
1040
1.0
1070
    74
1070
     0
1000
MTEXTEND
  0
LEADER
  5
FEA06
330
1F
100
AcDbEntity
  8
AM_5
100
AcDbLeader
  3
AM_ISO$7
 76
     3
 10
559.5917632504854
 20
171.0309249360707
 30
0.0
 10
568.5824367295015
 20
182.3966991954481
 30
0.0
 10
575.9685255935107
 20
182.3966991954481
 30
0.0
211
1.0
221
-0.0000000000000002
231
0.0
1001
ACAD
1000
DSTYLE
1002
{
1070
   140
1040
3.5
1002
}
  0
LINE
  5
FEA07
330
1F
100
AcDbEntity
  8
AM_5
100
AcDbLine
 10
562.4594686506943
 20
197.815700221333
 30
0.0
 11
546.4594686506943
 21
197.815700221333
 31
0.0
  0
LINE
  5
FEA08
330
1F
100
AcDbEntity
  8
AM_5
100
AcDbLine
 10
560.9594686506942
 20
197.815700221333
 30
0.0
 11
562.4594686506942
 21
200.4137764326861
 31
0.0
  0
LINE
  5
FEA09
330
1F
100
AcDbEntity
  8
AM_5
100
AcDbLine
 10
547.9594686506942
 20
197.815700221333
 30
0.0
 11
546.4594686506942
 21
200.4137764326866
 31
0.0
  0
LINE
  5
FEA0A
330
1F
100
AcDbEntity
  8
AM_5
100
AcDbLine
 10
531.4594686506948
 20
395.854905113548
 30
0.0
 11
533.4594686506948
 21
395.8549051135498
 31
0.0
  0
LINE
  5
FEA0D
330
1F
100
AcDbEntity
  8
AM_5
100
AcDbLine
 10
524.4594686506942
 20
398.4549051135521
 30
0.0
 11
543.1969997454142
 21
398.4549051135521
 31
0.0
  0
LINE
  5
FEA0E
330
1F
100
AcDbEntity
  8
AM_5
100
AcDbLine
 10
562.4594686506943
 20
296.244024436282
 30
0.0
 11
562.4594686506944
 21
386.9586364799228
 31
0.0
  0
LINE
  5
FEA0F
330
1F
100
AcDbEntity
  8
AM_5
100
AcDbLine
 10
546.4594719320256
 20
296.2440244355469
 30
0.0
 11
546.4594686506947
 21
386.9586364799246
 31
0.0
  0
SPLINE
  5
FEA10
330
1F
100
AcDbEntity
  8
AM_5
100
AcDbSpline
210
0.0
220
0.0
230
1.0
 70
  1064
 71
     3
 72
     9
 73
     5
 74
     3
 42
0.000000001
 43
0.0000000001
 44
0.0000000001
 40
0.0
 40
0.0
 40
0.0
 40
0.0
 40
4.890644556711342
 40
9.764695136385004
 40
9.764695136385004
 40
9.764695136385004
 40
9.764695136385004
 10
554.4797745829148
 20
296.2440244362817
 30
0.0
 10
555.8136719432716
 20
297.6526041119265
 30
0.0
 10
558.4769407447713
 20
300.4649841466003
 30
0.0
 10
561.1334641674593
 20
297.6494160949595
 30
0.0
 10
562.4594686506943
 20
296.2440244362813
 30
0.0
 11
554.4797745829148
 21
296.2440244362817
 31
0.0
 11
558.4797745829145
 21
299.0579903529361
 31
0.0
 11
562.4594686506943
 21
296.2440244362813
 31
0.0
  0
SPLINE
  5
FEA11
330
1F
100
AcDbEntity
  8
AM_5
100
AcDbSpline
210
0.0
220
0.0
230
1.0
 70
  1064
 71
     3
 72
     9
 73
     5
 74
     3
 42
0.000000001
 43
0.0000000001
 44
0.0000000001
 40
0.0
 40
0.0
 40
0.0
 40
0.0
 40
4.890644556711342
 40
9.764695136385102
 40
9.764695136385102
 40
9.764695136385102
 40
9.764695136385102
 10
554.4797745829148
 20
296.2440244362817
 30
0.0
 10
555.8136719432717
 20
294.8354447606368
 30
0.0
 10
558.4769407447713
 20
292.023064725963
 30
0.0
 10
561.1334641674594
 20
294.838632777604
 30
0.0
 10
562.4594686506943
 20
296.2440244362822
 30
0.0
 11
554.4797745829148
 21
296.2440244362817
 31
0.0
 11
558.4797745829145
 21
293.4300585196272
 31
0.0
 11
562.4594686506943
 21
296.2440244362822
 31
0.0
  0
SPLINE
  5
FEA12
330
1F
100
AcDbEntity
  8
AM_5
100
AcDbSpline
210
0.0
220
0.0
230
1.0
 70
  1064
 71
     3
 72
     9
 73
     5
 74
     3
 42
0.000000001
 43
0.0000000001
 44
0.0000000001
 40
0.0
 40
0.0
 40
0.0
 40
0.0
 40
4.874054467146691
 40
9.764699023858423
 40
9.764699023858423
 40
9.764699023858423
 40
9.764699023858423
 10
554.47976982181
 20
287.1690579691523
 30
0.0
 10
555.8057760234306
 20
288.5744500006242
 30
0.0
 10
558.4623018275374
 20
291.3900176743862
 30
0.0
 10
561.1255714234832
 20
288.5776372694607
 30
0.0
 10
562.4594686506935
 20
287.1690579691519
 30
0.0
 11
554.47976982181
 21
287.1690579691523
 31
0.0
 11
558.4594686506938
 21
289.9830238858069
 31
0.0
 11
562.4594686506935
 21
287.1690579691519
 31
0.0
  0
SPLINE
  5
FEA13
330
1F
100
AcDbEntity
  8
AM_5
100
AcDbSpline
210
0.0
220
0.0
230
1.0
 70
  1064
 71
     3
 72
     9
 73
     5
 74
     3
 42
0.000000001
 43
0.0000000001
 44
0.0000000001
 40
0.0
 40
0.0
 40
0.0
 40
0.0
 40
4.890644556711375
 40
9.797908313705647
 40
9.797908313705647
 40
9.797908313705647
 40
9.797908313705647
 10
554.4797745829145
 20
296.2440244362808
 30
0.0
 10
553.1469975776878
 20
294.8386297991058
 30
0.0
 10
550.4769145756617
 20
292.0230647667385
 30
0.0
 10
547.8001329311714
 20
294.8354477590624
 30
0.0
 10
546.4594719320256
 20
296.2440244355469
 30
0.0
 11
554.4797745829145
 21
296.2440244362808
 31
0.0
 11
550.4797745829148
 21
293.4300585196263
 31
0.0
 11
546.4594719320256
 21
296.2440244355469
 31
0.0
  0
SPLINE
  5
FEA14
330
1F
100
AcDbEntity
  8
AM_5
100
AcDbSpline
210
0.0
220
0.0
230
1.0
 70
  1064
 71
     3
 72
     9
 73
     5
 74
     3
 42
0.000000001
 43
0.0000000001
 44
0.0000000001
 40
0.0
 40
0.0
 40
0.0
 40
0.0
 40
4.907262545102546
 40
9.797907101814402
 40
9.797907101814402
 40
9.797907101814402
 40
9.797907101814402
 10
554.4797698218096
 20
287.1690579691532
 30
0.0
 10
553.1391093567748
 20
288.5776345297277
 30
0.0
 10
550.4623284487315
 20
291.390017637307
 30
0.0
 10
547.7922456962232
 20
288.574452721819
 30
0.0
 10
546.4594686506943
 20
287.1690579691529
 30
0.0
 11
554.4797698218096
 21
287.1690579691532
 31
0.0
 11
550.4594686506942
 21
289.9830238858079
 31
0.0
 11
546.4594686506943
 21
287.1690579691529
 31
0.0
  0
SPLINE
  5
FEA15
330
1F
100
AcDbEntity
  8
AM_5
100
AcDbSpline
210
0.0
220
0.0
230
1.0
 70
  1064
 71
     3
 72
     9
 73
     5
 74
     3
 42
0.000000001
 43
0.0000000001
 44
0.0000000001
 40
0.0
 40
0.0
 40
0.0
 40
0.0
 40
4.907262545102383
 40
9.797907101814207
 40
9.797907101814207
 40
9.797907101814207
 40
9.797907101814207
 10
554.4797698218096
 20
287.1690579691513
 30
0.0
 10
553.1391093567747
 20
285.7604814085769
 30
0.0
 10
550.4623284487315
 20
282.9480983009979
 30
0.0
 10
547.7922456962235
 20
285.7636632164858
 30
0.0
 10
546.4594686506943
 20
287.1690579691519
 30
0.0
 11
554.4797698218096
 21
287.1690579691513
 31
0.0
 11
550.4594686506942
 21
284.3550920524969
 31
0.0
 11
546.4594686506943
 21
287.1690579691519
 31
0.0
  0
LINE
  5
FEA16
330
1F
100
AcDbEntity
  8
AM_5
100
AcDbLine
 10
555.4594686506947
 20
395.8549051135489
 30
0.0
 11
553.4594686506948
 21
395.8549051135508
 31
0.0
  0
LINE
  5
FEA17
330
1F
100
AcDbEntity
  8
AM_5
100
AcDbLine
 10
543.1969997454142
 20
398.4549051135521
 30
0.0
 11
565.721937555975
 21
398.4549051135521
 31
0.0
  0
LINE
  5
FEA18
330
1F
100
AcDbEntity
  8
AM_5
100
AcDbLine
 10
546.4221317528958
 20
388.4549051135512
 30
0.0
 11
562.4968055484933
 21
388.4549051135512
 31
0.0
  0
LINE
  5
FEA1A
330
1F
100
AcDbEntity
  8
AM_5
100
AcDbLine
 10
556.7094686506951
 20
398.454905113551
 30
0.0
 11
555.4594686506947
 21
395.8549051135489
 31
0.0
  0
LINE
  5
FEA1B
330
1F
100
AcDbEntity
  8
AM_5
100
AcDbLine
 10
577.459468650694
 20
395.854905113548
 30
0.0
 11
575.4594686506939
 21
395.8549051135498
 31
0.0
  0
LINE
  5
FEA1C
330
1F
100
AcDbEntity
  8
AM_5
100
AcDbLine
 10
574.2094686506943
 20
398.4549051135502
 30
0.0
 11
575.4594686506935
 21
395.8549051135498
 31
0.0
  0
LINE
  5
FEA1D
330
1F
100
AcDbEntity
  8
AM_5
100
AcDbLine
 10
562.6083529443945
 20
389.9437480505524
 30
0.0
 11
563.2343445804496
 21
396.2036644111042
 31
0.0
  0
ARC
  5
FEA1E
330
1F
100
AcDbEntity
  8
AM_5
100
AcDbCircle
 10
592.4594686506943
 20
386.9586364799228
 30
0.0
 40
30.0
100
AcDbArc
 50
174.2894068625026
 51
180.0
  0
ARC
  5
FEA1F
330
1F
100
AcDbEntity
  8
AM_5
100
AcDbCircle
 10
565.721937555975
 20
395.9549051135521
 30
0.0
 40
2.5
100
AcDbArc
 50
90.0
 51
174.2894068625026
  0
LINE
  5
FEA20
330
1F
100
AcDbEntity
  8
AM_5
100
AcDbLine
 10
534.7094686506941
 20
398.4549051135502
 30
0.0
 11
533.459468650695
 21
395.8549051135498
 31
0.0
  0
LINE
  5
FEA21
330
1F
100
AcDbEntity
  8
AM_5
100
AcDbLine
 10
552.2094686506951
 20
398.454905113551
 30
0.0
 11
553.4594686506944
 21
395.8549051135508
 31
0.0
  0
LINE
  5
FEA22
330
1F
100
AcDbEntity
  8
AM_5
100
AcDbLine
 10
546.310584356994
 20
389.9437480505542
 30
0.0
 11
545.684592720939
 21
396.2036644111042
 31
0.0
  0
ARC
  5
FEA23
330
1F
100
AcDbEntity
  8
AM_5
100
AcDbCircle
 10
516.4594686506942
 20
386.9586364799246
 30
0.0
 40
30.0
100
AcDbArc
 50
0.0
 51
5.710593137497376
  0
ARC
  5
FEA24
330
1F
100
AcDbEntity
  8
AM_5
100
AcDbCircle
 10
543.1969997454142
 20
395.9549051135521
 30
0.0
 40
2.5
100
AcDbArc
 50
5.710593137497376
 51
90.0
  0
DIMENSION
  5
FEA25
330
1F
100
AcDbEntity
  8
AM_5
100
AcDbDimension
  2
*D12
 10
504.3662011523933
 20
404.454905113551
 30
0.0
 11
504.3662011523931
 21
426.1122655721385
 31
0.0
 70
   160
  1
t=<>
 71
     5
 42
5.999999999999147
  3
AM_ISO$0
100
AcDbAlignedDimension
 13
525.4594686506947
 23
398.4549051135521
 33
0.0
 14
525.4594686506947
 24
404.454905113551
 34
0.0
 50
90.0
100
AcDbRotatedDimension
1001
ACAD_DSTYLE_DIMINSPECT
1070
   396
1000
100%
1070
   395
1000

1070
   394
1070
    33
1070
   393
1070
     0
  0
LINE
  5
FEA26
330
1F
100
AcDbEntity
  8
AM_5
100
AcDbLine
 10
524.4594686506944
 20
398.454905113551
 30
0.0
 11
524.4594686506944
 21
404.454905113551
 31
0.0
  0
LINE
  5
FEA27
330
1F
100
AcDbEntity
  8
AM_5
100
AcDbLine
 10
530.2094686506941
 20
398.4549051135502
 30
0.0
 11
531.4594686506948
 21
395.854905113548
 31
0.0
  0
CIRCLE
  5
FEA32
330
1F
100
AcDbEntity
  8
AM_5
100
AcDbCircle
 10
554.4797698218103
 20
489.3201586942551
 30
0.0
 40
30.0
  0
LINE
  5
FEA33
330
1F
100
AcDbEntity
  8
AM_5
100
AcDbLine
 10
593.4797698218102
 20
489.3201586942551
 30
0.0
 11
515.4797698218103
 21
489.3201586942551
 31
0.0
  0
LINE
  5
FEA40
330
1F
100
AcDbEntity
  8
AM_5
100
AcDbLine
 10
554.4797698218103
 20
528.3201586942551
 30
0.0
 11
554.4797698218103
 21
450.3201586942551
 31
0.0
  0
LINE
  5
FF5F6
330
1F
100
AcDbEntity
  8
AM_5
100
AcDbLine
 10
796.4797698218103
 20
147.8157002213331
 30
0.0
 11
796.4797698218103
 21
287.1425710798877
 31
0.0
  0
LINE
  5
FF5F7
330
1F
100
AcDbEntity
  8
AM_5
100
AcDbLine
 10
812.4797698218102
 20
147.8157002213331
 30
0.0
 11
812.4797698218102
 21
287.1425710798877
 31
0.0
  0
DIMENSION
  5
FF5F8
330
1F
100
AcDbEntity
  8
AM_5
100
AcDbDimension
  2
*D30
 10
812.4797698218102
 20
258.2634970642788
 30
0.0
 11
834.9494409123742
 21
258.2634970642788
 31
0.0
 70
   160
  1
%%c<>
 71
     5
 42
16.0
  3
AM_ISO$0
100
AcDbAlignedDimension
 13
796.4797698218103
 23
253.5188011706698
 33
0.0
 14
812.4797698218102
 24
253.5188011706698
 34
0.0
 50
180.0
100
AcDbRotatedDimension
1001
ACAD_DSTYLE_DIMINSPECT
1070
   396
1000
100%
1070
   395
1000

1070
   394
1070
    33
1070
   393
1070
     0
  0
LINE
  5
FF5F9
330
1F
100
AcDbEntity
  8
AM_5
100
AcDbLine
 10
804.4797698218113
 20
51.11727383160467
 30
0.0
 11
804.4797698218102
 21
425.7481435686797
 31
0.0
  0
DIMENSION
  5
FF5FA
330
1F
100
AcDbEntity
  8
AM_5
100
AcDbDimension
  2
*D31
 10
752.231753621291
 20
397.815700221333
 30
0.0
 11
748.981753621291
 21
272.8157002213332
 31
0.0
 70
    32
  1
L
 71
     5
 42
249.9999999999998
  3
AM_ISO$0
100
AcDbAlignedDimension
 13
796.4797698218103
 23
147.8157002213331
 33
0.0
 14
770.4797698218103
 24
397.815700221333
 34
0.0
 50
90.0
100
AcDbRotatedDimension
1001
ACAD_DSTYLE_DIMINSPECT
1070
   396
1000
100%
1070
   395
1000

1070
   394
1070
    33
1070
   393
1070
     0
  0
CIRCLE
  5
FF5FB
330
1F
100
AcDbEntity
  8
AM_5
100
AcDbCircle
 10
804.4797698218102
 20
90.1172738316046
 30
0.0
 40
34.0
  0
CIRCLE
  5
FF5FC
330
1F
100
AcDbEntity
  8
AM_5
100
AcDbCircle
 10
780.4797698218103
 20
90.1172738316046
 30
0.0
 40
2.25
  0
DIMENSION
  5
FF5FD
330
1F
100
AcDbEntity
  8
AM_5
100
AcDbDimension
  2
*D32
 10
772.5851716795082
 20
197.8157002213331
 30
0.0
 11
769.3351716795082
 21
172.8157002213341
 31
0.0
 70
    32
  1
<>
 71
     5
 42
49.99999999999815
  3
AM_ISO$0
100
AcDbAlignedDimension
 13
796.4797698218103
 23
147.815700221335
 33
0.0
 14
796.4797698218103
 24
197.8157002213331
 34
0.0
 50
90.0
100
AcDbRotatedDimension
1001
ACAD_DSTYLE_DIMINSPECT
1070
   396
1000
100%
1070
   395
1000

1070
   394
1070
    33
1070
   393
1070
     0
  0
DIMENSION
  5
FF5FF
330
1F
100
AcDbEntity
  8
AM_5
100
AcDbDimension
  2
*D34
 10
752.231753621291
 20
124.1172738316048
 30
0.0
 11
748.981753621291
 21
90.11727383160486
 31
0.0
 70
    32
  1
%%c<>
 71
     5
 42
68.00000000000007
  3
AM_ISO$0
100
AcDbAlignedDimension
 13
804.4797698218102
 23
56.11727383160467
 33
0.0
 14
804.4797698218113
 24
124.1172738316047
 34
0.0
 50
90.0
100
AcDbRotatedDimension
1001
ACAD_DSTYLE_DIMINSPECT
1070
   396
1000
100%
1070
   395
1000

1070
   394
1070
    33
1070
   393
1070
     0
  0
LINE
  5
FF600
330
1F
100
AcDbEntity
  8
AM_5
100
AcDbLine
 10
843.4797698218103
 20
90.11727383160469
 30
0.0
 11
765.4797698218104
 21
90.11727383160469
 31
0.0
  0
LINE
  5
FF605
330
1F
100
AcDbEntity
  8
AM_5
100
AcDbLine
 10
828.4797698218103
 20
85.8469336736373
 30
0.0
 11
828.4797698218103
 21
94.38761398957026
 31
0.0
  0
LINE
  5
FF606
330
1F
100
AcDbEntity
  8
AM_5
100
AcDbLine
 10
828.479769821811
 20
85.8469336736373
 30
0.0
 11
828.479769821811
 21
94.38761398957026
 31
0.0
  0
CIRCLE
  5
FF607
330
1F
100
AcDbEntity
  8
AM_5
100
AcDbCircle
 10
828.4797698218103
 20
90.1172738316046
 30
0.0
 40
2.25
  0
LINE
  5
FF608
330
1F
100
AcDbEntity
  8
AM_5
100
AcDbLine
 10
812.4797698218102
 20
197.8157002213331
 30
0.0
 11
796.4797698218103
 21
197.8157002213331
 31
0.0
  0
LINE
  5
FF609
330
1F
100
AcDbEntity
  8
AM_5
100
AcDbLine
 10
800.2094296638443
 20
72.11727383160469
 30
0.0
 11
808.7501099797771
 21
72.11727383160469
 31
0.0
  0
CIRCLE
  5
FF60A
330
1F
100
AcDbEntity
  8
AM_5
100
AcDbCircle
 10
804.4797698218102
 20
90.1172738316046
 30
0.0
 40
9.0
  0
CIRCLE
  5
FF60B
330
1F
100
AcDbEntity
  8
AM_5
100
AcDbCircle
 10
804.4797698218102
 20
90.1172738316046
 30
0.0
 40
8.0
  0
LINE
  5
FF60C
330
1F
100
AcDbEntity
  8
AM_5
100
AcDbLine
 10
800.2094296638428
 20
72.11727383160469
 30
0.0
 11
808.750109979775
 21
72.11727383160469
 31
0.0
  0
LINE
  5
FF60D
330
1F
100
AcDbEntity
  8
AM_5
100
AcDbLine
 10
800.2094296638443
 20
108.1172738316029
 30
0.0
 11
808.7501099797771
 21
108.1172738316029
 31
0.0
  0
LINE
  5
FF60E
330
1F
100
AcDbEntity
  8
AM_5
100
AcDbLine
 10
796.4797698218103
 20
147.8157002213331
 30
0.0
 11
812.4797698218102
 21
147.8157002213331
 31
0.0
  0
LINE
  5
FF60F
330
1F
100
AcDbEntity
  8
AM_5
100
AcDbLine
 10
800.2094296638443
 20
108.1172738316029
 30
0.0
 11
808.7501099797771
 21
108.1172738316029
 31
0.0
  0
LINE
  5
FF610
330
1F
100
AcDbEntity
  8
AM_5
100
AcDbLine
 10
810.9797698218088
 20
197.8157002213331
 30
0.0
 11
810.9797698218088
 21
147.8157002213331
 31
0.0
  0
CIRCLE
  5
FF611
330
1F
100
AcDbEntity
  8
AM_5
100
AcDbCircle
 10
804.4797698218102
 20
72.11727383160459
 30
0.0
 40
2.25
  0
CIRCLE
  5
FF612
330
1F
100
AcDbEntity
  8
AM_5
100
AcDbCircle
 10
804.4797698218102
 20
108.1172738316046
 30
0.0
 40
2.25
  0
LINE
  5
FF613
330
1F
100
AcDbEntity
  8
AM_5
100
AcDbLine
 10
810.9797698218088
 20
197.8157002213331
 30
0.0
 11
812.4797698218088
 21
200.4137764326872
 31
0.0
  0
LINE
  5
FF614
330
1F
100
AcDbEntity
  8
AM_5
100
AcDbLine
 10
797.9797698218089
 20
197.8157002213331
 30
0.0
 11
797.9797698218089
 21
147.8157002213331
 31
0.0
  0
LINE
  5
FF615
330
1F
100
AcDbEntity
  8
AM_5
100
AcDbLine
 10
780.4797698218112
 20
85.8469336736373
 30
0.0
 11
780.4797698218112
 21
94.38761398957026
 31
0.0
  0
LINE
  5
FF616
330
1F
100
AcDbEntity
  8
AM_5
100
AcDbLine
 10
780.4797698218112
 20
85.8469336736373
 30
0.0
 11
780.4797698218112
 21
94.38761398957026
 31
0.0
  0
LINE
  5
FF617
330
1F
100
AcDbEntity
  8
AM_5
100
AcDbLine
 10
797.9797698218089
 20
197.8157002213331
 30
0.0
 11
796.4797698218088
 21
200.4137764326872
 31
0.0
  0
CIRCLE
  5
FF618
330
1F
100
AcDbEntity
  8
AM_5
100
AcDbCircle
 10
804.4797698218102
 20
489.3201586942551
 30
0.0
 40
34.0
  0
LINE
  5
FF61A
330
1F
100
AcDbEntity
  8
AM_5
100
AcDbLine
 10
778.2297698218103
 20
397.815700221333
 30
0.0
 11
779.4797698218112
 21
395.2157002213309
 31
0.0
  0
LINE
  5
FF61B
330
1F
100
AcDbEntity
  8
AM_5
100
AcDbLine
 10
770.4797698218103
 20
397.815700221333
 30
0.0
 11
793.2173009165292
 21
397.815700221333
 31
0.0
  0
LINE
  5
FF61C
330
1F
100
AcDbEntity
  8
AM_5
100
AcDbLine
 10
770.4797698218103
 20
403.8157002213329
 30
0.0
 11
838.4797698218104
 21
403.8157002213329
 31
0.0
  0
LINE
  5
FF61D
330
1F
100
AcDbEntity
  8
AM_5
100
AcDbLine
 10
843.4797698218103
 20
489.3201586942552
 30
0.0
 11
765.4797698218104
 21
489.3201586942552
 31
0.0
  0
LINE
  5
FF61E
330
1F
100
AcDbEntity
  8
AM_5
100
AcDbLine
 10
838.4797698218104
 20
397.815700221333
 30
0.0
 11
815.7422387270901
 21
397.815700221333
 31
0.0
  0
LINE
  5
FF620
330
1F
100
AcDbEntity
  8
AM_5
100
AcDbLine
 10
826.2297698218112
 20
397.8157002213313
 30
0.0
 11
827.4797698218103
 21
395.2157002213292
 31
0.0
  0
LINE
  5
FF621
330
1F
100
AcDbEntity
  8
AM_5
100
AcDbLine
 10
829.4797698218113
 20
395.2157002213292
 30
0.0
 11
827.4797698218112
 21
395.2157002213292
 31
0.0
  0
LINE
  5
FF622
330
1F
100
AcDbEntity
  8
AM_5
100
AcDbLine
 10
838.4797698218104
 20
403.8157002213329
 30
0.0
 11
838.4797698218104
 21
397.815700221333
 31
0.0
  0
LINE
  5
FF623
330
1F
100
AcDbEntity
  8
AM_5
100
AcDbLine
 10
830.7297698218112
 20
397.8157002213313
 30
0.0
 11
829.4797698218102
 21
395.2157002213292
 31
0.0
  0
LINE
  5
FF624
330
1F
100
AcDbEntity
  8
AM_5
100
AcDbLine
 10
804.4797698218102
 20
528.3201586942551
 30
0.0
 11
804.4797698218102
 21
450.3201586942551
 31
0.0
  0
LINE
  5
FF625
330
1F
100
AcDbEntity
  8
AM_5
100
AcDbLine
 10
796.442432924011
 20
387.8157002213331
 30
0.0
 11
812.5171067196092
 21
387.8157002213331
 31
0.0
  0
LINE
  5
FF626
330
1F
100
AcDbEntity
  8
AM_5
100
AcDbLine
 10
793.2173009165292
 20
397.815700221333
 30
0.0
 11
815.7422387270901
 21
397.815700221333
 31
0.0
  0
SPLINE
  5
FF627
330
1F
100
AcDbEntity
  8
AM_5
100
AcDbSpline
210
0.0
220
0.0
230
1.0
 70
  1064
 71
     3
 72
     9
 73
     5
 74
     3
 42
0.000000001
 43
0.0000000001
 44
0.0000000001
 40
0.0
 40
0.0
 40
0.0
 40
0.0
 40
4.890644556712112
 40
9.781289113423481
 40
9.781289113423481
 40
9.781289113423481
 40
9.781289113423481
 10
804.4797698218102
 20
287.1425710798877
 30
0.0
 10
803.1464364884769
 20
285.73558812156
 30
0.0
 10
800.4797698218105
 20
282.9216222049047
 30
0.0
 10
797.8131031551444
 20
285.7355881215602
 30
0.0
 10
796.4797698218112
 20
287.1425710798877
 30
0.0
 11
804.4797698218102
 21
287.1425710798877
 31
0.0
 11
800.4797698218103
 21
284.3286051632324
 31
0.0
 11
796.4797698218112
 21
287.1425710798877
 31
0.0
  0
SPLINE
  5
FF628
330
1F
100
AcDbEntity
  8
AM_5
100
AcDbSpline
210
0.0
220
0.0
230
1.0
 70
  1064
 71
     3
 72
     9
 73
     5
 74
     3
 42
0.000000001
 43
0.0000000001
 44
0.0000000001
 40
0.0
 40
0.0
 40
0.0
 40
0.0
 40
4.890644556711164
 40
9.781289113421584
 40
9.781289113421584
 40
9.781289113421584
 40
9.781289113421584
 10
804.4797698218102
 20
287.1425710798897
 30
0.0
 10
803.1464364884769
 20
288.5495540382166
 30
0.0
 10
800.4797698218105
 20
291.3635199548702
 30
0.0
 10
797.8131031551442
 20
288.5495540382164
 30
0.0
 10
796.4797698218112
 20
287.1425710798897
 30
0.0
 11
804.4797698218102
 21
287.1425710798897
 31
0.0
 11
800.4797698218103
 21
289.9565369965433
 31
0.0
 11
796.4797698218112
 21
287.1425710798897
 31
0.0
  0
SPLINE
  5
FF629
330
1F
100
AcDbEntity
  8
AM_5
100
AcDbSpline
210
0.0
220
0.0
230
1.0
 70
  1064
 71
     3
 72
     9
 73
     5
 74
     3
 42
0.000000001
 43
0.0000000001
 44
0.0000000001
 40
0.0
 40
0.0
 40
0.0
 40
0.0
 40
4.890644556712243
 40
9.781289113423742
 40
9.781289113423742
 40
9.781289113423742
 40
9.781289113423742
 10
804.4797698218102
 20
296.0540599417539
 30
0.0
 10
803.1464364884769
 20
294.6470769834261
 30
0.0
 10
800.4797698218105
 20
291.8331110667706
 30
0.0
 10
797.8131031551442
 20
294.6470769834262
 30
0.0
 10
796.4797698218112
 20
296.0540599417539
 30
0.0
 11
804.4797698218102
 21
296.0540599417539
 31
0.0
 11
800.4797698218103
 21
293.2400940250984
 31
0.0
 11
796.4797698218112
 21
296.0540599417539
 31
0.0
  0
LINE
  5
FF62A
330
1F
100
AcDbEntity
  8
AM_5
100
AcDbLine
 10
812.4797698218102
 20
296.0540599417539
 30
0.0
 11
812.4797698218102
 21
386.3194315877038
 31
0.0
  0
LINE
  5
FF62B
330
1F
100
AcDbEntity
  8
AM_5
100
AcDbLine
 10
812.4797698218102
 20
296.0540599417539
 30
0.0
 11
812.4797698218102
 21
386.3194315877038
 31
0.0
  0
SPLINE
  5
FF62C
330
1F
100
AcDbEntity
  8
AM_5
100
AcDbSpline
210
0.0
220
0.0
230
1.0
 70
  1064
 71
     3
 72
     9
 73
     5
 74
     3
 42
0.000000001
 43
0.0000000001
 44
0.0000000001
 40
0.0
 40
0.0
 40
0.0
 40
0.0
 40
4.890644556712276
 40
9.781289113424552
 40
9.781289113424552
 40
9.781289113424552
 40
9.781289113424552
 10
804.4797698218102
 20
287.1425710798877
 30
0.0
 10
805.8131031551436
 20
288.5495540382155
 30
0.0
 10
808.4797698218103
 20
291.3635199548711
 30
0.0
 10
811.1464364884771
 20
288.5495540382155
 30
0.0
 10
812.4797698218102
 20
287.1425710798877
 30
0.0
 11
804.4797698218102
 21
287.1425710798877
 31
0.0
 11
808.4797698218103
 21
289.9565369965433
 31
0.0
 11
812.4797698218102
 21
287.1425710798877
 31
0.0
  0
SPLINE
  5
FF62D
330
1F
100
AcDbEntity
  8
AM_5
100
AcDbSpline
210
0.0
220
0.0
230
1.0
 70
  1064
 71
     3
 72
     9
 73
     5
 74
     3
 42
0.000000001
 43
0.0000000001
 44
0.0000000001
 40
0.0
 40
0.0
 40
0.0
 40
0.0
 40
4.890644556712243
 40
9.781289113424486
 40
9.781289113424486
 40
9.781289113424486
 40
9.781289113424486
 10
804.4797698218102
 20
296.0540599417539
 30
0.0
 10
805.8131031551436
 20
294.6470769834261
 30
0.0
 10
808.4797698218103
 20
291.8331110667706
 30
0.0
 10
811.1464364884769
 20
294.6470769834261
 30
0.0
 10
812.4797698218102
 20
296.0540599417539
 30
0.0
 11
804.4797698218102
 21
296.0540599417539
 31
0.0
 11
808.4797698218103
 21
293.2400940250984
 31
0.0
 11
812.4797698218102
 21
296.0540599417539
 31
0.0
  0
SPLINE
  5
FF62E
330
1F
100
AcDbEntity
  8
AM_5
100
AcDbSpline
210
0.0
220
0.0
230
1.0
 70
  1064
 71
     3
 72
     9
 73
     5
 74
     3
 42
0.000000001
 43
0.0000000001
 44
0.0000000001
 40
0.0
 40
0.0
 40
0.0
 40
0.0
 40
4.890644556712079
 40
9.781289113424159
 40
9.781289113424159
 40
9.781289113424159
 40
9.781289113424159
 10
804.4797698218102
 20
296.0540599417539
 30
0.0
 10
805.8131031551436
 20
297.4610429000815
 30
0.0
 10
808.4797698218103
 20
300.2750088167368
 30
0.0
 10
811.1464364884769
 20
297.4610429000815
 30
0.0
 10
812.4797698218102
 20
296.0540599417539
 30
0.0
 11
804.4797698218102
 21
296.0540599417539
 31
0.0
 11
808.4797698218103
 21
298.8680258584092
 31
0.0
 11
812.4797698218102
 21
296.0540599417539
 31
0.0
  0
ARC
  5
FF62F
330
1F
100
AcDbEntity
  8
AM_5
100
AcDbCircle
 10
815.7422387270901
 20
395.3157002213329
 30
0.0
 40
2.5
100
AcDbArc
 50
90.0
 51
174.2894068625289
  0
LINE
  5
FF630
330
1F
100
AcDbEntity
  8
AM_5
100
AcDbLine
 10
812.6286541155103
 20
389.3045431583333
 30
0.0
 11
813.2546457515653
 21
395.5644595188854
 31
0.0
  0
ARC
  5
FF631
330
1F
100
AcDbEntity
  8
AM_5
100
AcDbCircle
 10
842.4797698218103
 20
386.3194315877036
 30
0.0
 40
30.0
100
AcDbArc
 50
174.2894068625289
 51
180.0
  0
LINE
  5
FF632
330
1F
100
AcDbEntity
  8
AM_5
100
AcDbLine
 10
802.2297698218112
 20
397.815700221333
 30
0.0
 11
803.4797698218103
 21
395.2157002213327
 31
0.0
  0
LINE
  5
FF633
330
1F
100
AcDbEntity
  8
AM_5
100
AcDbLine
 10
806.7297698218112
 20
397.815700221333
 30
0.0
 11
805.4797698218104
 21
395.2157002213309
 31
0.0
  0
LINE
  5
FF634
330
1F
100
AcDbEntity
  8
AM_5
100
AcDbLine
 10
805.4797698218104
 20
395.2157002213309
 30
0.0
 11
803.4797698218103
 21
395.2157002213327
 31
0.0
  0
LINE
  5
FF635
330
1F
100
AcDbEntity
  8
AM_5
100
AcDbLine
 10
796.4797698218103
 20
296.0540599417539
 30
0.0
 11
796.4797698218103
 21
386.3194315877056
 31
0.0
  0
LINE
  5
FF636
330
1F
100
AcDbEntity
  8
AM_5
100
AcDbLine
 10
796.4797698218103
 20
296.0540599417539
 30
0.0
 11
796.4797698218103
 21
386.3194315877056
 31
0.0
  0
ARC
  5
FF637
330
1F
100
AcDbEntity
  8
AM_5
100
AcDbCircle
 10
766.4797698218103
 20
386.3194315877054
 30
0.0
 40
30.0
100
AcDbArc
 50
0.0
 51
5.710593137471121
  0
ARC
  5
FF638
330
1F
100
AcDbEntity
  8
AM_5
100
AcDbCircle
 10
793.2173009165292
 20
395.315700221333
 30
0.0
 40
2.5
100
AcDbArc
 50
5.710593137471121
 51
90.0
  0
LINE
  5
FF639
330
1F
100
AcDbEntity
  8
AM_5
100
AcDbLine
 10
796.3308855281102
 20
389.3045431583352
 30
0.0
 11
795.7048938920552
 21
395.5644595188854
 31
0.0
  0
LINE
  5
FF63A
330
1F
100
AcDbEntity
  8
AM_5
100
AcDbLine
 10
782.7297698218103
 20
397.815700221333
 30
0.0
 11
781.4797698218113
 21
395.2157002213309
 31
0.0
  0
LINE
  5
FF63B
330
1F
100
AcDbEntity
  8
AM_5
100
AcDbLine
 10
779.4797698218103
 20
395.2157002213309
 30
0.0
 11
781.4797698218103
 21
395.2157002213309
 31
0.0
  0
DIMENSION
  5
FF63C
330
1F
100
AcDbEntity
  8
AM_5
100
AcDbDimension
  2
*D36
 10
768.0438627627041
 20
403.8157002213311
 30
0.0
 11
768.043862762704
 21
425.4730606799193
 31
0.0
 70
   160
  1
t=<>
 71
     5
 42
5.999999999998236
  3
AM_ISO$0
100
AcDbAlignedDimension
 13
770.4797698218103
 23
397.815700221333
 33
0.0
 14
770.4797698218103
 24
403.8157002213311
 34
0.0
 50
90.0
100
AcDbRotatedDimension
1001
ACAD_DSTYLE_DIMINSPECT
1070
   396
1000
100%
1070
   395
1000

1070
   394
1070
    33
1070
   393
1070
     0
  0
LINE
  5
FF63D
330
1F
100
AcDbEntity
  8
AM_5
100
AcDbLine
 10
770.4797698218103
 20
403.8157002213329
 30
0.0
 11
770.4797698218103
 21
397.815700221333
 31
0.0
  0
MTEXT
  5
FF63E
330
1F
100
AcDbEntity
  8
AM_5
100
AcDbMText
 10
875.387604323679
 20
302.674471881612
 30
0.0
 40
5.25
 41
43.23451318750425
 71
     5
 72
     5
  1
{\fMS Gothic|b0|i0|c128|p49;360\fHGPM|b0|i0|c128|p50;}
  7
new cad
 73
     1
 44
1.0
  0
LINE
  5
FF63F
330
1F
100
AcDbEntity
  8
AM_5
100
AcDbLine
 10
887.6587343167992
 20
313.924471881612
 30
0.0
 11
887.6587343167992
 21
283.924471881612
 31
0.0
  0
LINE
  5
FF640
330
1F
100
AcDbEntity
  8
AM_5
100
AcDbLine
 10
863.1164743305618
 20
313.924471881612
 30
0.0
 11
863.1164743305618
 21
283.924471881612
 31
0.0
  0
LINE
  5
FF641
330
1F
100
AcDbEntity
  8
AM_5
100
AcDbLine
 10
863.1164743305618
 20
283.924471881612
 30
0.0
 11
887.6587343167992
 21
283.924471881612
 31
0.0
  0
LINE
  5
FF642
330
1F
100
AcDbEntity
  8
AM_5
100
AcDbLine
 10
863.1164743305618
 20
298.924471881612
 30
0.0
 11
887.6587343167992
 21
298.924471881612
 31
0.0
  0
LINE
  5
FF643
330
1F
100
AcDbEntity
  8
AM_5
100
AcDbLine
 10
863.1164743305618
 20
291.4244718816119
 30
0.0
 11
887.6587343167992
 21
291.4244718816119
 31
0.0
  0
MTEXT
  5
FF644
330
1F
100
AcDbEntity
  8
AM_5
100
AcDbMText
 10
875.387604323679
 20
287.6744718816119
 30
0.0
 40
5.25
 41
43.23451318750425
 71
     5
 72
     5
  1
{\fMS Gothic|b0|i0|c128|p49;540\fHGPM|b0|i0|c128|p50;}
  7
new cad
 73
     1
 44
1.0
  0
MTEXT
  5
FF645
330
1F
100
AcDbEntity
  8
AM_5
100
AcDbMText
 10
875.387604323679
 20
295.174471881612
 30
0.0
 40
5.25
 41
43.23451318750425
 71
     5
 72
     5
  1
{\fMS Gothic|b0|i0|c128|p49;450\fHGPM|b0|i0|c128|p50;}
  7
new cad
 73
     1
 44
1.0
  0
LINE
  5
FF646
330
1F
100
AcDbEntity
  8
AM_5
100
AcDbLine
 10
863.1164743305618
 20
306.424471881612
 30
0.0
 11
887.6587343167992
 21
306.424471881612
 31
0.0
  0
LINE
  5
FF647
330
1F
100
AcDbEntity
  8
AM_5
100
AcDbLine
 10
863.1164743305618
 20
306.424471881612
 30
0.0
 11
887.6587343167992
 21
306.424471881612
 31
0.0
  0
LINE
  5
FF648
330
1F
100
AcDbEntity
  8
AM_5
100
AcDbLine
 10
863.1164743305618
 20
313.924471881612
 30
0.0
 11
887.6587343167992
 21
313.924471881612
 31
0.0
  0
MTEXT
  5
FF649
330
1F
100
AcDbEntity
  8
AM_5
100
AcDbMText
 10
875.387604323679
 20
310.174471881612
 30
0.0
 40
6.0
 41
43.23451318750425
 71
     5
 72
     5
  1
{\fMS Gothic|b0|i0|c128|p49;L\fHGPM|b0|i0|c128|p50;}
  7
new cad
 73
     1
 44
1.0
  0
MTEXT
  5
FF64A
330
1F
100
AcDbEntity
  8
AM_5
100
AcDbMText
 10
826.765990753026
 20
193.6588149614816
 30
0.0
 40
5.0
 41
33.71
 71
     1
 72
     5
  1
{\fMS Gothic|b0|i0|c128|p49;M16}
  7
acad
 73
     1
 44
1.0
  0
LEADER
  5
FF64B
330
1F
100
AcDbEntity
  8
AM_5
100
AcDbLeader
  3
AM_ISO$7
 76
     3
 10
807.7886820744781
 20
179.5118655974234
 30
0.0
 10
816.7793555534942
 20
190.8776398568008
 30
0.0
 10
824.1654444175031
 20
190.8776398568008
 30
0.0
211
1.0
221
-0.0000000000000002
231
0.0
1001
ACAD
1000
DSTYLE
1002
{
1070
   140
1040
3.5
1002
}
  0
MTEXT
  5
FF85A
330
1F
100
AcDbEntity
  8
AM_5
100
AcDbMText
 10
490.729141885174
 20
569.3201586942551
 30
0.0
 40
10.0
 41
165.7528629834987
 71
     1
 72
     5
  1
15kN（60\U+03C6）スパイクザボルト
  7
2014++
 73
     1
 44
1.0
1001
ACAD
1000
ACAD_MTEXT_COLUMN_INFO_BEGIN
1070
    75
1070
     2
1070
    79
1070
     0
1070
    76
1070
     1
1070
    78
1070
     0
1070
    48
1040
165.7528629834987
1070
    49
1040
12.5
1070
    50
1070
     1
1040
0.0
1000
ACAD_MTEXT_COLUMN_INFO_END
  0
MTEXT
  5
FF951
330
1F
100
AcDbEntity
  8
AM_5
100
AcDbMText
 10
753.6724050327721
 20
569.3201586942551
 30
0.0
 40
10.0
 41
165.7528629834987
 71
     1
 72
     5
  1
20kN（68\U+03C6）スパイクザボルト
  7
2014++
 73
     1
 44
1.0
1001
ACAD
1000
ACAD_MTEXT_COLUMN_INFO_BEGIN
1070
    75
1070
     2
1070
    79
1070
     0
1070
    76
1070
     1
1070
    78
1070
     0
1070
    48
1040
165.7528629834987
1070
    49
1040
12.5
1070
    50
1070
     1
1040
0.0
1000
ACAD_MTEXT_COLUMN_INFO_END
  0
MTEXT
  5
FFF10
330
1F
100
AcDbEntity
  8
AM_5
100
AcDbMText
 10
637.6349834067347
 20
302.674471881612
 30
0.0
 40
5.25
 41
43.23451318750425
 71
     5
 72
     5
  1
{\fMS Gothic|b0|i0|c128|p49;360\fHGPM|b0|i0|c128|p50;}
  7
new cad
 73
     1
 44
1.0
  0
LINE
  5
FFF11
330
1F
100
AcDbEntity
  8
AM_5
100
AcDbLine
 10
649.9061133998549
 20
313.924471881612
 30
0.0
 11
649.9061133998549
 21
283.924471881612
 31
0.0
  0
LINE
  5
FFF12
330
1F
100
AcDbEntity
  8
AM_5
100
AcDbLine
 10
625.3638534136178
 20
313.924471881612
 30
0.0
 11
625.3638534136178
 21
283.924471881612
 31
0.0
  0
LINE
  5
FFF13
330
1F
100
AcDbEntity
  8
AM_5
100
AcDbLine
 10
625.3638534136178
 20
283.924471881612
 30
0.0
 11
649.9061133998549
 21
283.924471881612
 31
0.0
  0
LINE
  5
FFF14
330
1F
100
AcDbEntity
  8
AM_5
100
AcDbLine
 10
625.3638534136178
 20
298.924471881612
 30
0.0
 11
649.9061133998549
 21
298.924471881612
 31
0.0
  0
LINE
  5
FFF15
330
1F
100
AcDbEntity
  8
AM_5
100
AcDbLine
 10
625.3638534136178
 20
291.424471881612
 30
0.0
 11
649.9061133998549
 21
291.424471881612
 31
0.0
  0
MTEXT
  5
FFF16
330
1F
100
AcDbEntity
  8
AM_5
100
AcDbMText
 10
637.6349834067347
 20
287.674471881612
 30
0.0
 40
5.25
 41
43.23451318750425
 71
     5
 72
     5
  1
{\fMS Gothic|b0|i0|c128|p49;540\fHGPM|b0|i0|c128|p50;}
  7
new cad
 73
     1
 44
1.0
  0
MTEXT
  5
FFF17
330
1F
100
AcDbEntity
  8
AM_5
100
AcDbMText
 10
637.6349834067347
 20
295.174471881612
 30
0.0
 40
5.25
 41
43.23451318750425
 71
     5
 72
     5
  1
{\fMS Gothic|b0|i0|c128|p49;450\fHGPM|b0|i0|c128|p50;}
  7
new cad
 73
     1
 44
1.0
  0
LINE
  5
FFF18
330
1F
100
AcDbEntity
  8
AM_5
100
AcDbLine
 10
625.3638534136178
 20
306.424471881612
 30
0.0
 11
649.9061133998549
 21
306.424471881612
 31
0.0
  0
LINE
  5
FFF19
330
1F
100
AcDbEntity
  8
AM_5
100
AcDbLine
 10
625.3638534136178
 20
306.424471881612
 30
0.0
 11
649.9061133998549
 21
306.424471881612
 31
0.0
  0
LINE
  5
FFF1A
330
1F
100
AcDbEntity
  8
AM_5
100
AcDbLine
 10
625.3638534136178
 20
313.924471881612
 30
0.0
 11
649.9061133998549
 21
313.924471881612
 31
0.0
  0
MTEXT
  5
FFF1B
330
1F
100
AcDbEntity
  8
AM_5
100
AcDbMText
 10
637.6349834067347
 20
310.174471881612
 30
0.0
 40
6.0
 41
43.23451318750425
 71
     5
 72
     5
  1
{\fMS Gothic|b0|i0|c128|p49;L\fHGPM|b0|i0|c128|p50;}
  7
new cad
 73
     1
 44
1.0
  0
VIEWPORT
  5
FF0C7
102
{ACAD_XDICTIONARY
360
FF0C8
102
}
330
FF0BE
100
AcDbEntity
 67
     1
  8
0
100
AcDbViewport
 10
142.5892486572266
 20
99.1129140853882
 30
0.0
 40
430.4720018747953
 41
222.1517806396485
 68
     1
 69
     1
 12
142.5892486572266
 22
99.1129140853882
 13
0.0
 23
0.0
 14
10.0
 24
10.0
 15
10.0
 25
10.0
 16
0.0
 26
0.0
 36
1.0
 17
0.0
 27
0.0
 37
0.0
 42
50.0
 43
0.0
 44
0.0
 45
222.1517806396485
 50
0.0
 51
0.0
 72
   100
 90
   819232
  1

281
     0
 71
     1
 74
     0
110
0.0
120
0.0
130
0.0
111
1.0
121
0.0
131
0.0
112
0.0
122
1.0
132
0.0
 79
     0
146
0.0
170
     0
1001
GENIUS_GENODEF_13
1002
{
1000
HIER
1070
     0
1002
}
1002
{
1000
MANEDIT
1070
     0
1002
}
1002
{
1000
NOSEL
1070
     0
1002
}
1002
{
1000
BEHIND
1070
     0
1002
}
1002
{
1000
OTHER
1070
     0
1002
}
1002
{
1000
REACTOR
1002
}
1001
GENIUS_GENOBJ-N-SDF_13
1002
{
1000
OWNER
1000
GEN
1002
}
1001
GENIUS_GENSCREG_15
1000
PF
1040
1.0
1000
DF
1040
1.0
1000
MIN
1011
-72.64675228017108
1021
-11.96297623443604
1031
0.0
1000
MAX
1011
357.8252495946242
1021
210.1888044052125
1031
0.0
1000
FLAGS
1070
     4
  0
ENDSEC
  0
SECTION
  2
OBJECTS
  0
DICTIONARY
  5
C
330
0
100
AcDbDictionary
281
     1
  3
ACAD_CIP_PREVIOUS_PRODUCT_INFO
350
FF013
  3
ACAD_COLOR
350
8712
  3
ACAD_DETAILVIEWSTYLE
350
FEFFB
  3
ACAD_FIELDLIST
350
FF02F
  3
ACAD_GROUP
350
D
  3
ACAD_LAYOUT
350
1A
  3
ACAD_MATERIAL
350
8711
  3
ACAD_MLEADERSTYLE
350
FEFF7
  3
ACAD_MLINESTYLE
350
17
  3
ACAD_PLOTSETTINGS
350
19
  3
ACAD_PLOTSTYLENAME
350
E
  3
ACAD_SCALELIST
350
FEFE5
  3
ACAD_SECTIONVIEWSTYLE
350
FEFF9
  3
ACAD_TABLESTYLE
350
FEFE3
  3
ACAD_VISUALSTYLE
350
FEFCA
  3
AcadDim
350
CCA4E
  3
ACDB_RECOMPOSE_DATA
350
100176
  3
AcDbVariableDictionary
350
6B9
  3
AcmDictionary
350
16D31
  3
AMG
350
16D13
  3
AMGSNAPSETTINGS
350
17AE6
  3
ASE_INDEX_DICTIONARY
350
F4A75
  0
DICTIONARY
  5
F82BD
330
2
100
AcDbDictionary
280
     1
281
     1
  3
ACAD_LAYERFILTERS
360
F82C0
  3
ACAD_LAYERSTATES
360
F82BE
  0
DICTIONARY
  5
FF35E
330
10
100
AcDbDictionary
280
     1
281
     1
  3
ADSK_XREC_LAYER_RECONCILED
360
FF35F
  0
DICTIONARY
  5
FF36C
330
86C9
100
AcDbDictionary
280
     1
281
     1
  3
ADSK_XREC_LAYER_RECONCILED
360
FF36D
  0
DICTIONARY
  5
FF392
330
FF2A1
100
AcDbDictionary
280
     1
281
     1
  3
ADSK_XREC_LAYER_RECONCILED
360
FF393
  0
DICTIONARY
  5
16D78
330
1F
100
AcDbDictionary
280
     1
281
     1
  3
ACAD_SORTENTS
360
FF7C8
  0
DICTIONARY
  5
FF8F8
330
FF8F6
100
AcDbDictionary
280
     1
281
     1
  3
ACAD_SORTENTS
360
FF8F9
  0
DICTIONARY
  5
100116
330
FFB8C
100
AcDbDictionary
280
     1
281
     1
  3
ACAD_MTEXT_2008_RT
360
1001B0
  0
DICTIONARY
  5
FF570
330
FF56F
100
AcDbDictionary
280
     1
281
     1
  3
ACAD_MTEXT_2008_RT
360
1001AE
  0
DICTIONARY
  5
100114
330
FFAA9
100
AcDbDictionary
280
     1
281
     1
  3
ACAD_MTEXT_2008_RT
360
1001AF
  0
DICTIONARY
  5
FF0C8
330
FF0C7
100
AcDbDictionary
280
     1
281
     1
  3
ASDK_XREC_ANNOTATION_SCALE_INFO
360
FF0C9
  0
XRECORD
  5
FF013
102
{ACAD_REACTORS
330
C
102
}
330
C
100
AcDbXrecord
280
     1
300
AMECH_PP
300
2016
300
AMECH_PP_F_S
  0
DICTIONARY
  5
8712
102
{ACAD_REACTORS
330
C
102
}
330
C
100
AcDbDictionary
281
     1
  0
DICTIONARY
  5
FEFFB
102
{ACAD_REACTORS
330
C
102
}
330
C
100
AcDbDictionary
281
     1
  3
Metric50
350
FEFFC
  0
FIELDLIST
  5
FF02F
102
{ACAD_REACTORS
330
C
102
}
330
C
100
AcDbIdSet
 90
        3
330
10016A
330
10016B
330
10016C
100
AcDbFieldList
  0
DICTIONARY
  5
D
102
{ACAD_REACTORS
330
C
102
}
330
C
100
AcDbDictionary
281
     1
  0
DICTIONARY
  5
1A
102
{ACAD_REACTORS
330
C
102
}
330
C
100
AcDbDictionary
281
     1
  3
Model
350
22
  3
レイアウト1
350
FF0BF
  0
DICTIONARY
  5
8711
102
{ACAD_REACTORS
330
C
102
}
330
C
100
AcDbDictionary
281
     1
  3
ByBlock
350
FEFBA
  3
ByLayer
350
FEFB2
  3
Global
350
FEFC2
  0
DICTIONARY
  5
FEFF7
102
{ACAD_REACTORS
330
C
102
}
330
C
100
AcDbDictionary
281
     1
  3
Standard
350
FEFF8
  0
DICTIONARY
  5
17
102
{ACAD_REACTORS
330
C
102
}
330
C
100
AcDbDictionary
281
     1
  3
Standard
350
18
  0
DICTIONARY
  5
19
102
{ACAD_REACTORS
330
C
102
}
330
C
100
AcDbDictionary
281
     1
  0
ACDBDICTIONARYWDFLT
  5
E
102
{ACAD_REACTORS
330
C
102
}
330
C
100
AcDbDictionary
281
     1
  3
Normal
350
F
100
AcDbDictionaryWithDefault
340
F
  0
DICTIONARY
  5
FEFE5
102
{ACAD_REACTORS
330
C
102
}
330
C
100
AcDbDictionary
281
     1
  3
A0
350
FEFE6
  3
A1
350
FEFE7
  3
A2
350
FEFE8
  3
A3
350
FEFE9
  3
A4
350
FEFEA
  3
A5
350
FEFEB
  3
A6
350
FEFEC
  3
A7
350
FEFED
  3
A8
350
FEFEE
  3
A9
350
FEFEF
  3
B0
350
FEFF0
  3
B1
350
FEFF1
  3
B2
350
FEFF2
  3
B3
350
FEFF3
  3
B4
350
FEFF4
  3
B5
350
FEFF5
  3
B6
350
FEFF6
  0
DICTIONARY
  5
FEFF9
102
{ACAD_REACTORS
330
C
102
}
330
C
100
AcDbDictionary
281
     1
  3
Metric50
350
FEFFA
  0
DICTIONARY
  5
FEFE3
102
{ACAD_REACTORS
330
C
102
}
330
C
100
AcDbDictionary
281
     1
  3
Standard
350
FEFE4
  0
DICTIONARY
  5
FEFCA
102
{ACAD_REACTORS
330
C
102
}
330
C
100
AcDbDictionary
281
     1
  3
2dWireframe
350
FEFD0
  3
Basic
350
FEFCF
  3
Brighten
350
FEFD6
  3
ColorChange
350
FEFDA
  3
Conceptual
350
FEFD3
  3
Dim
350
FEFD5
  3
EdgeColorOff
350
FEFE2
  3
Facepattern
350
FEFD9
  3
Flat
350
FEFCB
  3
FlatWithEdges
350
FEFCC
  3
Gouraud
350
FEFCD
  3
GouraudWithEdges
350
FEFCE
  3
Hidden
350
FEFD2
  3
JitterOff
350
FEFE0
  3
Linepattern
350
FEFD8
  3
OverhangOff
350
FEFE1
  3
Realistic
350
FEFD4
  3
Shaded
350
FEFDF
  3
Shaded with edges
350
FEFDE
  3
Shades of Gray
350
FEFDB
  3
Sketchy
350
FEFDC
  3
Thicken
350
FEFD7
  3
Wireframe
350
FEFD1
  3
X-Ray
350
FEFDD
  0
XRECORD
  5
CCA4E
102
{ACAD_REACTORS
330
C
102
}
330
C
100
AcDbXrecord
280
     1
 90
   990106
  3

 60
     0
 61
     0
 62
     1
 63
     3
 64
     0
 65
     0
 66
     0
 67
     3
 68
     1
 69
     0
 70
     0
 71
     0
 72
     0
 40
17.73254125325911
170
     0
  0
XRECORD
  5
100176
102
{ACAD_REACTORS
330
C
102
}
330
C
100
AcDbXrecord
280
     1
 90
        1
330
FEFE4
330
FF85A
330
FF8F7
330
FF951
  0
DICTIONARY
  5
6B9
102
{ACAD_REACTORS
330
C
102
}
330
C
100
AcDbDictionary
281
     1
  3
CANNOSCALE
350
FF398
  3
CMLEADERSTYLE
350
FF395
  3
CTABLESTYLE
350
FF394
  3
CVIEWDETAILSTYLE
350
FF396
  3
CVIEWSECTIONSTYLE
350
FF397
  3
DIMASSOC
350
F4248
  3
INDEXCTL
350
F4247
  3
PROJECTNAME
350
F4249
  3
SORTENTS
350
6BA
  3
XCLIPFRAME
350
100174
  0
DICTIONARY
  5
16D31
102
{ACAD_REACTORS
330
C
102
}
330
C
100
AcDbDictionary
281
     1
  3
AcmStdDictionary
350
16D3E
  3
AMDTSECTSYM_ARROWCOLOR
350
16DB5
  0
DICTIONARY
  5
16D13
102
{ACAD_REACTORS
330
C
102
}
330
C
100
AcDbDictionary
281
     1
  0
DICTIONARY
  5
17AE6
102
{ACAD_REACTORS
330
C
102
}
330
C
100
AcDbDictionary
281
     1
  0
DICTIONARY
  5
F4A75
102
{ACAD_REACTORS
330
C
102
}
330
C
100
AcDbDictionary
281
     1
  3
ASEBlockHierarchyIndexRecord
350
F4A77
1001
DCO15
1040
1654516794.149
  0
DICTIONARY
  5
F82C0
102
{ACAD_REACTORS
330
F82BD
102
}
330
F82BD
100
AcDbDictionary
281
     1
  0
DICTIONARY
  5
F82BE
102
{ACAD_REACTORS
330
F82BD
102
}
330
F82BD
100
AcDbDictionary
281
     1
  3
2014++
350
F82D2
  3
2014+++
350
F82BF
  0
XRECORD
  5
FF35F
102
{ACAD_REACTORS
330
FF35E
102
}
330
FF35E
100
AcDbXrecord
280
     1
290
     1
  0
XRECORD
  5
FF36D
102
{ACAD_REACTORS
330
FF36C
102
}
330
FF36C
100
AcDbXrecord
280
     1
290
     1
  0
XRECORD
  5
FF393
102
{ACAD_REACTORS
330
FF392
102
}
330
FF392
100
AcDbXrecord
280
     1
290
     1
  0
SORTENTSTABLE
  5
FF7C8
102
{ACAD_REACTORS
330
16D78
102
}
330
16D78
100
AcDbSortentsTable
330
1F
331
FEA24
  5
FEA24
331
FEA20
  5
FEA20
331
FE9F8
  5
FE9F8
331
FF62F
  5
FF62F
331
FEA40
  5
FEA40
331
FF62B
  5
FF62B
331
FF64B
  5
FF64B
331
FF5FC
  5
FF5FC
331
FF5F8
  5
FF5F8
331
FF627
  5
FF627
331
FEA07
  5
FEA07
331
FEA03
  5
FEA03
331
FEA1C
  5
FEA1C
331
FF623
  5
FF623
331
FEA18
  5
FEA18
331
FEA14
  5
FEA14
331
FF61B
  5
FF61B
331
FEA10
  5
FEA10
331
FF617
  5
FF617
331
FF613
  5
FF613
331
FF60F
  5
FF60F
331
FEA08
  5
FEA08
331
FE9F4
  5
FE9F4
331
FF60B
  5
FF60B
331
FE9F0
  5
FE9F0
331
FF63F
  5
FF63F
331
FF63B
  5
FF63B
331
FF644
  5
FF644
331
FF640
  5
FF640
331
FF634
  5
FF634
331
FF607
  5
FF607
331
FF630
  5
FF630
331
FE9EC
  5
FE9EC
331
FF5F7
  5
FF5F7
331
FE9E0
  5
FE9E0
331
FEA27
  5
FEA27
331
FEA23
  5
FEA23
331
FE9FF
  5
FE9FF
331
FE9FB
  5
FE9FB
331
FF62E
  5
FF62E
331
FEA33
  5
FEA33
331
FF62A
  5
FF62A
331
FF64A
  5
FF64A
331
FE9DF
  5
FE9DF
331
FF5FF
  5
FF5FF
331
FF5FB
  5
FF5FB
331
FEA1F
  5
FEA1F
331
FF626
  5
FF626
331
FEA06
  5
FEA06
331
FF622
  5
FF622
331
FEA02
  5
FEA02
331
FEA1B
  5
FEA1B
331
FF61E
  5
FF61E
331
FEA17
  5
FEA17
331
FEA13
  5
FEA13
331
FF61A
  5
FF61A
331
FEA0F
  5
FEA0F
331
FF616
  5
FF616
331
FF612
  5
FF612
331
FF60E
  5
FF60E
331
FE9F7
  5
FE9F7
331
FE9F3
  5
FE9F3
331
FF60A
  5
FF60A
331
FF647
  5
FF647
331
FF63E
  5
FF63E
331
FF63A
  5
FF63A
331
FF643
  5
FF643
331
FF637
  5
FF637
331
FF633
  5
FF633
331
FE9EF
  5
FE9EF
331
FF606
  5
FF606
331
FE9EB
  5
FE9EB
331
FF5F6
  5
FF5F6
331
FE9E7
  5
FE9E7
331
FEA26
  5
FEA26
331
FEA22
  5
FEA22
331
FE9FE
  5
FE9FE
331
FF62D
  5
FF62D
331
FEA32
  5
FEA32
331
FF629
  5
FF629
331
FF649
  5
FF649
331
FE9DE
  5
FE9DE
331
FF5FA
  5
FF5FA
331
FEA1E
  5
FEA1E
331
FF625
  5
FF625
331
FEA05
  5
FEA05
331
FF621
  5
FF621
331
FEA01
  5
FEA01
331
FEA1A
  5
FEA1A
331
FEA16
  5
FEA16
331
FF61D
  5
FF61D
331
FEA12
  5
FEA12
331
FEA0E
  5
FEA0E
331
FF615
  5
FF615
331
FF611
  5
FF611
331
FEA0A
  5
FEA0A
331
FF60D
  5
FF60D
331
FE9F6
  5
FE9F6
331
FE9F2
  5
FE9F2
331
FF609
  5
FF609
331
FF646
  5
FF646
331
FF63D
  5
FF63D
331
FF639
  5
FF639
331
FF642
  5
FF642
331
FF636
  5
FF636
331
FF632
  5
FF632
331
FE9EE
  5
FE9EE
331
FF605
  5
FF605
331
FE9EA
  5
FE9EA
331
FE9E6
  5
FE9E6
331
FE9E2
  5
FE9E2
331
FEA25
  5
FEA25
331
FEA21
  5
FEA21
331
FE9F9
  5
FE9F9
331
FF62C
  5
FF62C
331
FF628
  5
FF628
331
FF648
  5
FF648
331
FF5FD
  5
FF5FD
331
FF5F9
  5
FF5F9
331
FEA1D
  5
FEA1D
331
FF624
  5
FF624
331
FEA04
  5
FEA04
331
FF620
  5
FF620
331
FEA00
  5
FEA00
331
FEA15
  5
FEA15
331
FF61C
  5
FF61C
331
FEA11
  5
FEA11
331
FF618
  5
FF618
331
FEA0D
  5
FEA0D
331
FF614
  5
FF614
331
FF610
  5
FF610
331
FEA09
  5
FEA09
331
FF60C
  5
FF60C
331
FE9F1
  5
FE9F1
331
FF608
  5
FF608
331
FF63C
  5
FF63C
331
FF645
  5
FF645
331
FF638
  5
FF638
331
FF641
  5
FF641
331
FF635
  5
FF635
331
FF631
  5
FF631
331
FE9ED
  5
FE9ED
331
FF600
  5
FF600
331
FE9E9
  5
FE9E9
  0
SORTENTSTABLE
  5
FF8F9
102
{ACAD_REACTORS
330
FF8F8
102
}
330
FF8F8
100
AcDbSortentsTable
330
FF8F6
  0
XRECORD
  5
1001B0
102
{ACAD_REACTORS
330
100116
102
}
330
100116
100
AcDbXrecord
280
     1
 40
4146.0
  1
4-\U+22054.5
  0
XRECORD
  5
1001AE
102
{ACAD_REACTORS
330
FF570
102
}
330
FF570
100
AcDbXrecord
280
     1
 40
4146.0
  1
4-\U+22054.5
  0
XRECORD
  5
1001AF
102
{ACAD_REACTORS
330
100114
102
}
330
100114
100
AcDbXrecord
280
     1
 40
4146.0
  1
4-\U+22054.5
  0
XRECORD
  5
FF0C9
102
{ACAD_REACTORS
330
FF0C8
102
}
330
FF0C8
100
AcDbXrecord
280
     1
 90
        1
340
FEFE6
  0
ACDBDETAILVIEWSTYLE
  5
FEFFC
102
{ACAD_XDICTIONARY
360
1001AC
102
}
102
{ACAD_REACTORS
330
FEFFB
330
100165
102
}
330
FEFFB
100
AcDbModelDocViewStyle
 70
     0
  3
Metric50
290
     0
100
AcDbDetailViewStyle
 70
     0
 71
     0
 90
        3
 71
     1
340
11
 62
   256
 40
5.0
340
0
 62
   256
 40
5.0
300

 40
0.0
280
     1
 71
     2
340
16
 90
       25
 62
   256
 71
     3
340
11
 62
   256
 40
5.0
 90
        0
 40
15.0
 90
        1
300
%<\AcVar ViewDetailId>% (%<\AcVar ViewScale \f "%sn">%)
 71
     4
340
16
 90
       25
 62
   256
340
16
 90
       25
 62
   256
280
     0
  0
LAYOUT
  5
22
102
{ACAD_REACTORS
330
1A
102
}
330
1A
100
AcDbPlotSettings
  1

  2
FUJITSU FAX Print Driver
  4
User261
  6

 40
3.174999952316281
 41
3.174999952316281
 42
3.17498779296875
 43
3.17498779296875
 44
297.0244750976562
 45
419.8775329589842
 46
0.0
 47
0.0
 48
0.0
 49
0.0
140
0.0
141
0.0
142
1.0
143
1.197207273994177
 70
 11952
 72
     1
 73
     1
 74
     0
  7
monochrome.ctb
 75
     0
147
0.8352772504160906
 76
     0
 77
     2
 78
   300
148
-6.027674911478015
149
-7.671586470139232
100
AcDbLayout
  1
Model
 70
     1
 71
     0
 10
0.0
 20
0.0
 11
12.0
 21
9.0
 12
0.0
 22
0.0
 32
0.0
 14
0.0
 24
0.0
 34
0.0
 15
0.0
 25
0.0
 35
0.0
146
0.0
 13
0.0
 23
0.0
 33
0.0
 16
1.0
 26
0.0
 36
0.0
 17
0.0
 27
1.0
 37
0.0
 76
     0
330
1F
331
FEF8E
  0
LAYOUT
  5
FF0BF
102
{ACAD_REACTORS
330
1A
102
}
330
1A
100
AcDbPlotSettings
  1

  2
RICOH imagio MP C5001 RPCS
  4
A4
  6

 40
5.873749732971191
 41
5.873748779296875
 42
5.873733520507812
 43
5.873748779296875
 44
209.9733276367186
 45
296.9259948730469
 46
0.0
 47
0.0
 48
0.0
 49
0.0
140
0.0
141
0.0
142
1.0
143
1.0
 70
   688
 72
     1
 73
     1
 74
     5
  7

 75
    16
147
1.0
 76
     0
 77
     2
 78
   300
148
0.0
149
0.0
100
AcDbLayout
  1
レイアウト1
 70
     1
 71
     1
 10
-5.873748779296875
 20
-5.873749732971191
 11
291.05224609375
 21
204.0995779037475
 12
0.0
 22
0.0
 32
0.0
 14
1.000000000000000E+20
 24
1.000000000000000E+20
 34
1.000000000000000E+20
 15
-1.000000000000000E+20
 25
-1.000000000000000E+20
 35
-1.000000000000000E+20
146
0.0
 13
0.0
 23
0.0
 33
0.0
 16
1.0
 26
0.0
 36
0.0
 17
0.0
 27
1.0
 37
0.0
 76
     0
330
FF0BE
331
FF0C7
1001
ACAD_PSEXT
1000
RICOH imagio MP C5001 RPCS
1000
RICOH imagio MP C5001 RPCS
1000
IP_192.168.13.100
1000
RPCS Driver (For Windows)
1070
     0
  0
MATERIAL
  5
FEFBA
102
{ACAD_XDICTIONARY
360
FEFBB
102
}
102
{ACAD_REACTORS
330
8711
102
}
330
8711
100
AcDbMaterial
  1
ByBlock
 72
     0
 43
0.0008202099737533
 43
0.0
 43
0.0
 43
0.0
 43
0.0
 43
0.0008202099737533
 43
0.0
 43
0.0
 43
0.0
 43
0.0
 43
1.0
 43
0.0
 43
0.0
 43
0.0
 43
0.0
 43
1.0
 77
     0
 47
0.0008202099737533
 47
0.0
 47
0.0
 47
0.0
 47
0.0
 47
0.0008202099737533
 47
0.0
 47
0.0
 47
0.0
 47
0.0
 47
1.0
 47
0.0
 47
0.0
 47
0.0
 47
0.0
 47
1.0
171
     0
 49
0.0008202099737533
 49
0.0
 49
0.0
 49
0.0
 49
0.0
 49
0.0008202099737533
 49
0.0
 49
0.0
 49
0.0
 49
0.0
 49
1.0
 49
0.0
 49
0.0
 49
0.0
 49
0.0
 49
1.0
175
     0
142
0.0008202099737533
142
0.0
142
0.0
142
0.0
142
0.0
142
0.0008202099737533
142
0.0
142
0.0
142
0.0
142
0.0
142
1.0
142
0.0
142
0.0
142
0.0
142
0.0
142
1.0
179
     0
144
0.0008202099737533
144
0.0
144
0.0
144
0.0
144
0.0
144
0.0008202099737533
144
0.0
144
0.0
144
0.0
144
0.0
144
1.0
144
0.0
144
0.0
144
0.0
144
0.0
144
1.0
147
0.0008202099737533
147
0.0
147
0.0
147
0.0
147
0.0
147
0.0008202099737533
147
0.0
147
0.0
147
0.0
147
0.0
147
1.0
147
0.0
147
0.0
147
0.0
147
0.0
147
1.0
  0
MATERIAL
  5
FEFB2
102
{ACAD_XDICTIONARY
360
FEFB3
102
}
102
{ACAD_REACTORS
330
8711
102
}
330
8711
100
AcDbMaterial
  1
ByLayer
 72
     0
 43
0.0008202099737533
 43
0.0
 43
0.0
 43
0.0
 43
0.0
 43
0.0008202099737533
 43
0.0
 43
0.0
 43
0.0
 43
0.0
 43
1.0
 43
0.0
 43
0.0
 43
0.0
 43
0.0
 43
1.0
 77
     0
 47
0.0008202099737533
 47
0.0
 47
0.0
 47
0.0
 47
0.0
 47
0.0008202099737533
 47
0.0
 47
0.0
 47
0.0
 47
0.0
 47
1.0
 47
0.0
 47
0.0
 47
0.0
 47
0.0
 47
1.0
171
     0
 49
0.0008202099737533
 49
0.0
 49
0.0
 49
0.0
 49
0.0
 49
0.0008202099737533
 49
0.0
 49
0.0
 49
0.0
 49
0.0
 49
1.0
 49
0.0
 49
0.0
 49
0.0
 49
0.0
 49
1.0
175
     0
142
0.0008202099737533
142
0.0
142
0.0
142
0.0
142
0.0
142
0.0008202099737533
142
0.0
142
0.0
142
0.0
142
0.0
142
1.0
142
0.0
142
0.0
142
0.0
142
0.0
142
1.0
179
     0
144
0.0008202099737533
144
0.0
144
0.0
144
0.0
144
0.0
144
0.0008202099737533
144
0.0
144
0.0
144
0.0
144
0.0
144
1.0
144
0.0
144
0.0
144
0.0
144
0.0
144
1.0
147
0.0008202099737533
147
0.0
147
0.0
147
0.0
147
0.0
147
0.0008202099737533
147
0.0
147
0.0
147
0.0
147
0.0
147
1.0
147
0.0
147
0.0
147
0.0
147
0.0
147
1.0
  0
MATERIAL
  5
FEFC2
102
{ACAD_XDICTIONARY
360
FEFC3
102
}
102
{ACAD_REACTORS
330
8711
102
}
330
8711
100
AcDbMaterial
  1
Global
 72
     0
 43
0.0008202099737533
 43
0.0
 43
0.0
 43
0.0
 43
0.0
 43
0.0008202099737533
 43
0.0
 43
0.0
 43
0.0
 43
0.0
 43
1.0
 43
0.0
 43
0.0
 43
0.0
 43
0.0
 43
1.0
 77
     0
 47
0.0008202099737533
 47
0.0
 47
0.0
 47
0.0
 47
0.0
 47
0.0008202099737533
 47
0.0
 47
0.0
 47
0.0
 47
0.0
 47
1.0
 47
0.0
 47
0.0
 47
0.0
 47
0.0
 47
1.0
171
     0
 49
0.0008202099737533
 49
0.0
 49
0.0
 49
0.0
 49
0.0
 49
0.0008202099737533
 49
0.0
 49
0.0
 49
0.0
 49
0.0
 49
1.0
 49
0.0
 49
0.0
 49
0.0
 49
0.0
 49
1.0
175
     0
142
0.0008202099737533
142
0.0
142
0.0
142
0.0
142
0.0
142
0.0008202099737533
142
0.0
142
0.0
142
0.0
142
0.0
142
1.0
142
0.0
142
0.0
142
0.0
142
0.0
142
1.0
179
     0
144
0.0008202099737533
144
0.0
144
0.0
144
0.0
144
0.0
144
0.0008202099737533
144
0.0
144
0.0
144
0.0
144
0.0
144
1.0
144
0.0
144
0.0
144
0.0
144
0.0
144
1.0
147
0.0008202099737533
147
0.0
147
0.0
147
0.0
147
0.0
147
0.0008202099737533
147
0.0
147
0.0
147
0.0
147
0.0
147
1.0
147
0.0
147
0.0
147
0.0
147
0.0
147
1.0
  0
MLEADERSTYLE
  5
FEFF8
102
{ACAD_XDICTIONARY
360
1001A8
102
}
102
{ACAD_REACTORS
330
FEFF7
102
}
330
FEFF7
100
AcDbMLeaderStyle
170
     2
171
     1
172
     0
 90
        2
 40
0.0
 41
0.0
173
     1
 91
-1056964608
340
14
 92
       -2
290
     1
 42
2.0
291
     1
 43
0.36
  3
Standard
 44
4.0
300

342
11
174
     1
178
     6
175
     1
176
     0
 93
-1056964608
 45
4.0
292
     0
297
     0
 46
4.0
 94
-1056964608
 47
1.0
 49
1.0
140
1.0
293
     1
141
0.0
294
     1
177
     0
142
1.0
295
     0
296
     0
143
0.125
1001
ACAD_MLEADERVER
1070
     2
  0
MLINESTYLE
  5
18
102
{ACAD_REACTORS
330
17
102
}
330
17
100
AcDbMlineStyle
  2
STANDARD
 70
     0
  3

 62
   256
 51
90.0
 52
90.0
 71
     2
 49
0.5
 62
   256
  6
BYLAYER
 49
-0.5
 62
   256
  6
BYLAYER
  0
ACDBPLACEHOLDER
  5
F
102
{ACAD_REACTORS
330
E
102
}
330
E
  0
SCALE
  5
FEFE6
102
{ACAD_REACTORS
330
FEFE5
102
}
330
FEFE5
100
AcDbScale
 70
     0
300
1:1
140
1.0
141
1.0
290
     1
  0
SCALE
  5
FEFE7
102
{ACAD_REACTORS
330
FEFE5
102
}
330
FEFE5
100
AcDbScale
 70
     0
300
1:2
140
1.0
141
2.0
290
     0
  0
SCALE
  5
FEFE8
102
{ACAD_REACTORS
330
FEFE5
102
}
330
FEFE5
100
AcDbScale
 70
     0
300
1:4
140
1.0
141
4.0
290
     0
  0
SCALE
  5
FEFE9
102
{ACAD_REACTORS
330
FEFE5
102
}
330
FEFE5
100
AcDbScale
 70
     0
300
1:5
140
1.0
141
5.0
290
     0
  0
SCALE
  5
FEFEA
102
{ACAD_REACTORS
330
FEFE5
102
}
330
FEFE5
100
AcDbScale
 70
     0
300
1:8
140
1.0
141
8.0
290
     0
  0
SCALE
  5
FEFEB
102
{ACAD_REACTORS
330
FEFE5
102
}
330
FEFE5
100
AcDbScale
 70
     0
300
1:10
140
1.0
141
10.0
290
     0
  0
SCALE
  5
FEFEC
102
{ACAD_REACTORS
330
FEFE5
102
}
330
FEFE5
100
AcDbScale
 70
     0
300
1:16
140
1.0
141
16.0
290
     0
  0
SCALE
  5
FEFED
102
{ACAD_REACTORS
330
FEFE5
102
}
330
FEFE5
100
AcDbScale
 70
     0
300
1:20
140
1.0
141
20.0
290
     0
  0
SCALE
  5
FEFEE
102
{ACAD_REACTORS
330
FEFE5
102
}
330
FEFE5
100
AcDbScale
 70
     0
300
1:30
140
1.0
141
30.0
290
     0
  0
SCALE
  5
FEFEF
102
{ACAD_REACTORS
330
FEFE5
102
}
330
FEFE5
100
AcDbScale
 70
     0
300
1:40
140
1.0
141
40.0
290
     0
  0
SCALE
  5
FEFF0
102
{ACAD_REACTORS
330
FEFE5
102
}
330
FEFE5
100
AcDbScale
 70
     0
300
1:50
140
1.0
141
50.0
290
     0
  0
SCALE
  5
FEFF1
102
{ACAD_REACTORS
330
FEFE5
102
}
330
FEFE5
100
AcDbScale
 70
     0
300
1:100
140
1.0
141
100.0
290
     0
  0
SCALE
  5
FEFF2
102
{ACAD_REACTORS
330
FEFE5
102
}
330
FEFE5
100
AcDbScale
 70
     0
300
2:1
140
2.0
141
1.0
290
     0
  0
SCALE
  5
FEFF3
102
{ACAD_REACTORS
330
FEFE5
102
}
330
FEFE5
100
AcDbScale
 70
     0
300
4:1
140
4.0
141
1.0
290
     0
  0
SCALE
  5
FEFF4
102
{ACAD_REACTORS
330
FEFE5
102
}
330
FEFE5
100
AcDbScale
 70
     0
300
8:1
140
8.0
141
1.0
290
     0
  0
SCALE
  5
FEFF5
102
{ACAD_REACTORS
330
FEFE5
102
}
330
FEFE5
100
AcDbScale
 70
     0
300
10:1
140
10.0
141
1.0
290
     0
  0
SCALE
  5
FEFF6
102
{ACAD_REACTORS
330
FEFE5
102
}
330
FEFE5
100
AcDbScale
 70
     0
300
100:1
140
100.0
141
1.0
290
     0
  0
ACDBSECTIONVIEWSTYLE
  5
FEFFA
102
{ACAD_XDICTIONARY
360
1001AA
102
}
102
{ACAD_REACTORS
330
FEFF9
330
100164
102
}
330
FEFF9
100
AcDbModelDocViewStyle
 70
     0
  3
Metric50
290
     0
100
AcDbSectionViewStyle
 70
     0
 71
     0
 90
      102
 71
     1
340
11
 62
   256
 40
5.0
340
0
340
0
 62
   256
 40
5.0
300
I, O, Q, S, X, Z
 40
10.0
 90
        0
 40
2.5
 90
        0
 71
     2
340
16
 90
       25
 62
   256
340
16
 90
       50
 62
   256
 40
5.0
 40
2.5
 40
5.0
 71
     3
340
11
 62
   256
 40
5.0
 90
        0
 40
15.0
 90
        1
300
%<\AcVar ViewSectionStartId>%-%<\AcVar ViewSectionEndId>% (%<\AcVar ViewScale \f "%sn">%)
 71
     4
 62
   256
 62
   257
300
ANSI31
 40
1.0
 90
        0
290
     0
290
     0
 90
        6
 40
0.0
 40
1.570796326794896
 40
0.2617993877991494
 40
1.308996938995747
 40
-0.2617993877991494
 40
1.832595714594044
  0
TABLESTYLE
  5
FEFE4
102
{ACAD_XDICTIONARY
360
FF39A
102
}
102
{ACAD_REACTORS
330
FEFE3
102
}
330
FEFE3
100
AcDbTableStyle
  3
Standard
 70
     0
 71
     0
 40
1.5
 41
1.5
280
     0
281
     0
  7
STANDARD
140
4.5
170
     2
 62
     0
 63
     7
283
     0
274
    -2
284
     1
 64
     0
275
    -2
285
     1
 65
     0
276
    -2
286
     1
 66
     0
277
    -2
287
     1
 67
     0
278
    -2
288
     1
 68
     0
279
    -2
289
     1
 69
     0
  7
STANDARD
140
6.0
170
     5
 62
     0
 63
     7
283
     0
274
    -2
284
     1
 64
     0
275
    -2
285
     1
 65
     0
276
    -2
286
     1
 66
     0
277
    -2
287
     1
 67
     0
278
    -2
288
     1
 68
     0
279
    -2
289
     1
 69
     0
  7
STANDARD
140
4.5
170
     5
 62
     0
 63
     7
283
     0
274
    -2
284
     1
 64
     0
275
    -2
285
     1
 65
     0
276
    -2
286
     1
 66
     0
277
    -2
287
     1
 67
     0
278
    -2
288
     1
 68
     0
279
    -2
289
     1
 69
     0
  0
VISUALSTYLE
  5
FEFD0
102
{ACAD_XDICTIONARY
360
100181
102
}
102
{ACAD_REACTORS
330
FEFCA
102
}
330
FEFCA
100
AcDbVisualStyle
  2

 70
     4
 71
     0
 72
     2
 73
     0
 90
        0
 40
-0.6
 41
-30.0
 62
     5
 63
     7
 74
     1
 91
        4
 64
     7
 65
   257
 75
     1
175
     1
 42
1.0
 92
        0
 66
   257
 43
1.0
 76
     1
 77
     6
 78
     2
 67
     7
 79
     5
170
     0
171
     0
290
     0
174
     0
 93
        1
 44
0.0
173
     0
291
     0
 45
0.0
1001
ACAD
1000
AcDbSavedByObjectVersion
1070
     0
  0
VISUALSTYLE
  5
FEFCF
102
{ACAD_XDICTIONARY
360
10017F
102
}
102
{ACAD_REACTORS
330
FEFCA
102
}
330
FEFCA
100
AcDbVisualStyle
  2

 70
     7
 71
     1
 72
     0
 73
     1
 90
        0
 40
-0.6
 41
-30.0
 62
     5
 63
     7
 74
     0
 91
        4
 64
     7
 65
   257
 75
     1
175
     1
 42
1.0
 92
        8
 66
     7
 43
1.0
 76
     1
 77
     6
 78
     2
 67
     7
 79
     5
170
     0
171
     0
290
     0
174
     0
 93
        1
 44
0.0
173
     0
291
     1
 45
0.0
1001
ACAD
1000
AcDbSavedByObjectVersion
1070
     0
  0
VISUALSTYLE
  5
FEFD6
102
{ACAD_XDICTIONARY
360
10018D
102
}
102
{ACAD_REACTORS
330
FEFCA
102
}
330
FEFCA
100
AcDbVisualStyle
  2

 70
    12
 71
     2
 72
     2
 73
     0
 90
        0
 40
-0.6
 41
-30.0
 62
     5
 63
     7
 74
     1
 91
        4
 64
     7
 65
   257
 75
     1
175
     1
 42
1.0
 92
        8
 66
     7
 43
1.0
 76
     1
 77
     6
 78
     2
 67
     7
 79
     5
170
     0
171
     0
290
     0
174
     0
 93
        1
 44
50.0
173
     0
291
     1
 45
0.0
1001
ACAD
1000
AcDbSavedByObjectVersion
1070
     0
  0
VISUALSTYLE
  5
FEFDA
102
{ACAD_XDICTIONARY
360
100195
102
}
102
{ACAD_REACTORS
330
FEFCA
102
}
330
FEFCA
100
AcDbVisualStyle
  2

 70
    16
 71
     2
 72
     2
 73
     3
 90
        0
 40
-0.6
 41
-30.0
 62
     5
 63
     8
 74
     1
 91
        4
 64
     7
 65
   257
 75
     1
175
     1
 42
1.0
 92
        8
 66
     8
 43
1.0
 76
     1
 77
     6
 78
     2
 67
     7
 79
     5
170
     0
171
     0
290
     0
174
     0
 93
        1
 44
0.0
173
     0
291
     1
 45
0.0
1001
ACAD
1000
AcDbSavedByObjectVersion
1070
     0
  0
VISUALSTYLE
  5
FEFD3
102
{ACAD_XDICTIONARY
360
100187
102
}
102
{ACAD_REACTORS
330
FEFCA
102
}
330
FEFCA
100
AcDbVisualStyle
  2

 70
     9
 71
     3
 72
     2
 73
     0
 90
        0
 40
-0.6
 41
-30.0
 62
     5
 63
     7
 74
     2
 91
        2
 64
     7
 65
   257
 75
     1
175
     1
 42
179.0
 92
        8
 66
     7
 43
1.0
 76
     1
 77
     6
 78
     2
 67
     7
 79
     3
170
     0
171
     0
290
     0
174
     0
 93
        1
 44
0.0
173
     0
291
     0
 45
0.0
1001
ACAD
1000
AcDbSavedByObjectVersion
1070
     0
  0
VISUALSTYLE
  5
FEFD5
102
{ACAD_XDICTIONARY
360
10018B
102
}
102
{ACAD_REACTORS
330
FEFCA
102
}
330
FEFCA
100
AcDbVisualStyle
  2

 70
    11
 71
     2
 72
     2
 73
     0
 90
        0
 40
-0.6
 41
-30.0
 62
     5
 63
     7
 74
     1
 91
        4
 64
     7
 65
   257
 75
     1
175
     1
 42
1.0
 92
        8
 66
     7
 43
1.0
 76
     1
 77
     6
 78
     2
 67
     7
 79
     5
170
     0
171
     0
290
     0
174
     0
 93
        1
 44
-50.0
173
     0
291
     1
 45
0.0
1001
ACAD
1000
AcDbSavedByObjectVersion
1070
     0
  0
VISUALSTYLE
  5
FEFE2
102
{ACAD_XDICTIONARY
360
1001A5
102
}
102
{ACAD_REACTORS
330
FEFCA
102
}
330
FEFCA
100
AcDbVisualStyle
  2

 70
    22
 71
     2
 72
     2
 73
     0
 90
        0
 40
-0.6
 41
-30.0
 62
     5
 63
     7
 74
     1
 91
        4
 64
     7
 65
   257
 75
     1
175
     1
 42
1.0
 92
        8
 66
     7
 43
1.0
 76
     1
 77
     6
 78
     2
 67
     7
 79
     5
170
     0
171
     0
290
     0
174
     0
 93
        1
 44
0.0
173
     0
291
     1
 45
0.0
1001
ACAD
1000
AcDbSavedByObjectVersion
1070
     0
  0
VISUALSTYLE
  5
FEFD9
102
{ACAD_XDICTIONARY
360
100193
102
}
102
{ACAD_REACTORS
330
FEFCA
102
}
330
FEFCA
100
AcDbVisualStyle
  2

 70
    15
 71
     2
 72
     2
 73
     0
 90
        0
 40
-0.6
 41
-30.0
 62
     5
 63
     7
 74
     1
 91
        4
 64
     7
 65
   257
 75
     1
175
     1
 42
1.0
 92
        8
 66
     7
 43
1.0
 76
     1
 77
     6
 78
     2
 67
     7
 79
     5
170
     0
171
     0
290
     0
174
     0
 93
        1
 44
0.0
173
     0
291
     1
 45
0.0
1001
ACAD
1000
AcDbSavedByObjectVersion
1070
     0
  0
VISUALSTYLE
  5
FEFCB
102
{ACAD_XDICTIONARY
360
100177
102
}
102
{ACAD_REACTORS
330
FEFCA
102
}
330
FEFCA
100
AcDbVisualStyle
  2

 70
     0
 71
     2
 72
     1
 73
     1
 90
        2
 40
-0.6
 41
30.0
 62
     5
 63
     7
 74
     0
 91
        0
 64
     7
 65
   257
 75
     1
175
     1
 42
1.0
 92
        8
 66
     7
 43
1.0
 76
     1
 77
     6
 78
     2
 67
     7
 79
     5
170
     0
171
     0
290
     0
174
     0
 93
       13
 44
0.0
173
     0
291
     1
 45
0.0
1001
ACAD
1000
AcDbSavedByObjectVersion
1070
     0
  0
VISUALSTYLE
  5
FEFCC
102
{ACAD_XDICTIONARY
360
100179
102
}
102
{ACAD_REACTORS
330
FEFCA
102
}
330
FEFCA
100
AcDbVisualStyle
  2

 70
     1
 71
     2
 72
     1
 73
     1
 90
        2
 40
-0.6
 41
30.0
 62
     5
 63
     7
 74
     1
 91
        0
 64
     7
 65
   257
 75
     1
175
     1
 42
1.0
 92
        0
 66
   257
 43
1.0
 76
     1
 77
     6
 78
     2
 67
     7
 79
     5
170
     0
171
     0
290
     0
174
     0
 93
       13
 44
0.0
173
     0
291
     1
 45
0.0
1001
ACAD
1000
AcDbSavedByObjectVersion
1070
     0
  0
VISUALSTYLE
  5
FEFCD
102
{ACAD_XDICTIONARY
360
10017B
102
}
102
{ACAD_REACTORS
330
FEFCA
102
}
330
FEFCA
100
AcDbVisualStyle
  2

 70
     2
 71
     2
 72
     2
 73
     1
 90
        2
 40
-0.6
 41
30.0
 62
     5
 63
     7
 74
     0
 91
        0
 64
     7
 65
   257
 75
     1
175
     1
 42
1.0
 92
        0
 66
     7
 43
1.0
 76
     1
 77
     6
 78
     2
 67
     7
 79
     5
170
     0
171
     0
290
     0
174
     0
 93
       13
 44
0.0
173
     0
291
     1
 45
0.0
1001
ACAD
1000
AcDbSavedByObjectVersion
1070
     0
  0
VISUALSTYLE
  5
FEFCE
102
{ACAD_XDICTIONARY
360
10017D
102
}
102
{ACAD_REACTORS
330
FEFCA
102
}
330
FEFCA
100
AcDbVisualStyle
  2

 70
     3
 71
     2
 72
     2
 73
     1
 90
        2
 40
-0.6
 41
30.0
 62
     5
 63
     7
 74
     1
 91
        0
 64
     7
 65
   257
 75
     1
175
     1
 42
1.0
 92
        0
 66
   257
 43
1.0
 76
     1
 77
     6
 78
     2
 67
     7
 79
     5
170
     0
171
     0
290
     0
174
     0
 93
       13
 44
0.0
173
     0
291
     1
 45
0.0
1001
ACAD
1000
AcDbSavedByObjectVersion
1070
     0
  0
VISUALSTYLE
  5
FEFD2
102
{ACAD_XDICTIONARY
360
100185
102
}
102
{ACAD_REACTORS
330
FEFCA
102
}
330
FEFCA
100
AcDbVisualStyle
  2

 70
     6
 71
     1
 72
     2
 73
     2
 90
        0
 40
-0.6
 41
-30.0
 62
     5
 63
     7
 74
     2
 91
        2
 64
     7
 65
   257
 75
     2
175
     1
 42
40.0
 92
        0
 66
   257
 43
1.0
 76
     1
 77
     6
 78
     2
 67
     7
 79
     3
170
     0
171
     0
290
     0
174
     0
 93
        1
 44
0.0
173
     0
291
     0
 45
0.0
1001
ACAD
1000
AcDbSavedByObjectVersion
1070
     0
  0
VISUALSTYLE
  5
FEFE0
102
{ACAD_XDICTIONARY
360
1001A1
102
}
102
{ACAD_REACTORS
330
FEFCA
102
}
330
FEFCA
100
AcDbVisualStyle
  2

 70
    20
 71
     2
 72
     2
 73
     0
 90
        0
 40
-0.6
 41
-30.0
 62
     5
 63
     7
 74
     1
 91
        4
 64
     7
 65
   257
 75
     1
175
     1
 42
1.0
 92
       10
 66
     7
 43
1.0
 76
     1
 77
     6
 78
     2
 67
     7
 79
     5
170
     0
171
     0
290
     0
174
     0
 93
        1
 44
0.0
173
     0
291
     1
 45
0.0
1001
ACAD
1000
AcDbSavedByObjectVersion
1070
     0
  0
VISUALSTYLE
  5
FEFD8
102
{ACAD_XDICTIONARY
360
100191
102
}
102
{ACAD_REACTORS
330
FEFCA
102
}
330
FEFCA
100
AcDbVisualStyle
  2

 70
    14
 71
     2
 72
     2
 73
     0
 90
        0
 40
-0.6
 41
-30.0
 62
     5
 63
     7
 74
     1
 91
        4
 64
     7
 65
   257
 75
     7
175
     7
 42
1.0
 92
        8
 66
     7
 43
1.0
 76
     1
 77
     6
 78
     2
 67
     7
 79
     5
170
     0
171
     0
290
     0
174
     0
 93
        1
 44
0.0
173
     0
291
     1
 45
0.0
1001
ACAD
1000
AcDbSavedByObjectVersion
1070
     0
  0
VISUALSTYLE
  5
FEFE1
102
{ACAD_XDICTIONARY
360
1001A3
102
}
102
{ACAD_REACTORS
330
FEFCA
102
}
330
FEFCA
100
AcDbVisualStyle
  2

 70
    21
 71
     2
 72
     2
 73
     0
 90
        0
 40
-0.6
 41
-30.0
 62
     5
 63
     7
 74
     1
 91
        4
 64
     7
 65
   257
 75
     1
175
     1
 42
1.0
 92
        9
 66
     7
 43
1.0
 76
     1
 77
     6
 78
     2
 67
     7
 79
     5
170
     0
171
     0
290
     0
174
     0
 93
        1
 44
0.0
173
     0
291
     1
 45
0.0
1001
ACAD
1000
AcDbSavedByObjectVersion
1070
     0
  0
VISUALSTYLE
  5
FEFD4
102
{ACAD_XDICTIONARY
360
100189
102
}
102
{ACAD_REACTORS
330
FEFCA
102
}
330
FEFCA
100
AcDbVisualStyle
  2

 70
     8
 71
     2
 72
     3
 73
     0
 90
        2
 40
-0.6
 41
30.0
 62
     5
 63
     7
 74
     0
 91
        0
 64
     7
 65
   257
 75
     1
175
     1
 42
1.0
 92
        8
 66
   257
 43
1.0
 76
     1
 77
     6
 78
     2
 67
     7
 79
     3
170
     0
171
     0
290
     0
174
     0
 93
       13
 44
0.0
173
     0
291
     0
 45
0.0
1001
ACAD
1000
AcDbSavedByObjectVersion
1070
     0
  0
VISUALSTYLE
  5
FEFDF
102
{ACAD_XDICTIONARY
360
10019F
102
}
102
{ACAD_REACTORS
330
FEFCA
102
}
330
FEFCA
100
AcDbVisualStyle
  2

 70
    27
 71
     2
 72
     2
 73
     1
 90
        2
 40
-0.6
 41
30.0
 62
     5
 63
     7
 74
     0
 91
        4
 64
     7
 65
   257
 75
     1
175
     1
 42
1.0
 92
        8
 66
   257
 43
1.0
 76
     1
 77
     6
 78
     2
 67
     8
 79
     3
170
     0
171
     0
290
     0
174
     0
 93
        5
 44
0.0
173
     0
291
     0
 45
0.0
1001
ACAD
1000
AcDbSavedByObjectVersion
1070
     0
  0
VISUALSTYLE
  5
FEFDE
102
{ACAD_XDICTIONARY
360
10019D
102
}
102
{ACAD_REACTORS
330
FEFCA
102
}
330
FEFCA
100
AcDbVisualStyle
  2

 70
    26
 71
     2
 72
     2
 73
     1
 90
        2
 40
-0.6
 41
30.0
 62
     5
 63
     7
 74
     1
 91
       10
 64
     7
 65
   257
 75
     2
175
     1
 42
1.0
 92
        8
 66
   257
 43
1.0
 76
     1
 77
     6
 78
     2
 67
     7
 79
     3
170
     0
171
     0
290
     0
174
     0
 93
        5
 44
0.0
173
     0
291
     0
 45
0.0
1001
ACAD
1000
AcDbSavedByObjectVersion
1070
     0
  0
VISUALSTYLE
  5
FEFDB
102
{ACAD_XDICTIONARY
360
100197
102
}
102
{ACAD_REACTORS
330
FEFCA
102
}
330
FEFCA
100
AcDbVisualStyle
  2

 70
    23
 71
     2
 72
     2
 73
     3
 90
        0
 40
-0.6
 41
-30.0
 62
     5
 63
     7
 74
     2
 91
        2
 64
     7
 65
     7
 75
     1
175
     1
 42
40.0
 92
        8
 66
     7
 43
1.0
 76
     1
 77
     6
 78
     2
 67
     7
 79
     3
170
     0
171
     0
290
     0
174
     0
 93
        1
 44
0.0
173
     0
291
     0
 45
0.0
1001
ACAD
1000
AcDbSavedByObjectVersion
1070
     0
  0
VISUALSTYLE
  5
FEFDC
102
{ACAD_XDICTIONARY
360
100199
102
}
102
{ACAD_REACTORS
330
FEFCA
102
}
330
FEFCA
100
AcDbVisualStyle
  2

 70
    24
 71
     1
 72
     2
 73
     2
 90
        0
 40
-0.6
 41
-30.0
 62
     5
 63
     7
 74
     2
 91
        2
 64
     7
 65
     7
 75
     1
175
     1
 42
40.0
 92
       11
 66
     7
 43
1.0
 76
     1
 77
     6
 78
     2
 67
     7
 79
     6
170
     0
171
     0
290
     0
174
     0
 93
        1
 44
0.0
173
     0
291
     0
 45
0.0
1001
ACAD
1000
AcDbSavedByObjectVersion
1070
     0
  0
VISUALSTYLE
  5
FEFD7
102
{ACAD_XDICTIONARY
360
10018F
102
}
102
{ACAD_REACTORS
330
FEFCA
102
}
330
FEFCA
100
AcDbVisualStyle
  2

 70
    13
 71
     2
 72
     2
 73
     0
 90
        0
 40
-0.6
 41
-30.0
 62
     5
 63
     7
 74
     1
 91
        4
 64
     7
 65
   257
 75
     1
175
     1
 42
1.0
 92
       12
 66
     7
 43
1.0
 76
     1
 77
     6
 78
     2
 67
     7
 79
     5
170
     0
171
     0
290
     0
174
     0
 93
        1
 44
0.0
173
     0
291
     1
 45
0.0
1001
ACAD
1000
AcDbSavedByObjectVersion
1070
     0
  0
VISUALSTYLE
  5
FEFD1
102
{ACAD_XDICTIONARY
360
100183
102
}
102
{ACAD_REACTORS
330
FEFCA
102
}
330
FEFCA
100
AcDbVisualStyle
  2

 70
     5
 71
     0
 72
     2
 73
     0
 90
        0
 40
-0.6
 41
-30.0
 62
     5
 63
     7
 74
     1
 91
        4
 64
     7
 65
   257
 75
     1
175
     1
 42
1.0
 92
        0
 66
   257
 43
1.0
 76
     1
 77
     6
 78
     2
 67
     7
 79
     3
170
     0
171
     0
290
     0
174
     0
 93
        1
 44
0.0
173
     0
291
     0
 45
0.0
1001
ACAD
1000
AcDbSavedByObjectVersion
1070
     0
  0
VISUALSTYLE
  5
FEFDD
102
{ACAD_XDICTIONARY
360
10019B
102
}
102
{ACAD_REACTORS
330
FEFCA
102
}
330
FEFCA
100
AcDbVisualStyle
  2

 70
    25
 71
     2
 72
     2
 73
     1
 90
        1
 40
0.5
 41
-30.0
 62
     5
 63
     7
 74
     1
 91
        0
 64
     7
 65
   257
 75
     1
175
     1
 42
1.0
 92
        8
 66
     7
 43
1.0
 76
     1
 77
     6
 78
     2
 67
     7
 79
     3
170
     0
171
     0
290
     0
174
     0
 93
       13
 44
0.0
173
     0
291
     0
 45
0.0
1001
ACAD
1000
AcDbSavedByObjectVersion
1070
     0
  0
DICTIONARYVAR
  5
FF398
102
{ACAD_REACTORS
330
6B9
102
}
330
6B9
100
DictionaryVariables
280
     0
  1
1:1
  0
DICTIONARYVAR
  5
FF395
102
{ACAD_REACTORS
330
6B9
102
}
330
6B9
100
DictionaryVariables
280
     0
  1
STANDARD
  0
DICTIONARYVAR
  5
FF394
102
{ACAD_REACTORS
330
6B9
102
}
330
6B9
100
DictionaryVariables
280
     0
  1
STANDARD
  0
DICTIONARYVAR
  5
FF396
102
{ACAD_REACTORS
330
6B9
102
}
330
6B9
100
DictionaryVariables
280
     0
  1
Metric50
  0
DICTIONARYVAR
  5
FF397
102
{ACAD_REACTORS
330
6B9
102
}
330
6B9
100
DictionaryVariables
280
     0
  1
Metric50
  0
DICTIONARYVAR
  5
F4248
102
{ACAD_REACTORS
330
6B9
102
}
330
6B9
100
DictionaryVariables
280
     0
  1
1
  0
DICTIONARYVAR
  5
F4247
102
{ACAD_REACTORS
330
6B9
102
}
330
6B9
100
DictionaryVariables
280
     0
  1
0
  0
DICTIONARYVAR
  5
F4249
102
{ACAD_REACTORS
330
6B9
102
}
330
6B9
100
DictionaryVariables
280
     0
  1

  0
DICTIONARYVAR
  5
6BA
102
{ACAD_REACTORS
330
6B9
102
}
330
6B9
100
DictionaryVariables
280
     0
  1
96
  0
DICTIONARYVAR
  5
100174
102
{ACAD_REACTORS
330
6B9
102
}
330
6B9
100
DictionaryVariables
280
     0
  1
2
  0
DICTIONARY
  5
16D3E
102
{ACAD_REACTORS
330
16D31
102
}
330
16D31
100
AcDbDictionary
281
     1
  0
XRECORD
  5
16DB5
102
{ACAD_REACTORS
330
16D31
102
}
330
16D31
100
AcDbXrecord
280
     1
 90
-1023410169
  0
XRECORD
  5
F4A77
102
{ACAD_REACTORS
330
F4A75
102
}
330
F4A75
100
AcDbXrecord
280
     1
330
0
330
0
330
0
330
0
330
0
330
0
330
0
330
0
330
0
  0
XRECORD
  5
F82D2
102
{ACAD_REACTORS
330
F82BE
102
}
330
F82BE
100
AcDbXrecord
280
     1
 91
      484
330
4C
 90
        8
 62
     2
370
    40
331
16
  1
色_2
330
30
 90
        8
 62
    30
370
     9
331
F3ACE
  1
色_30
330
3AE4
 90
        8
 62
   123
370
     9
331
3AE3
  1
色_123
330
F3AD3
 90
        8
 62
   233
370
     9
331
16CF6
  1
色_233
330
33
 90
        8
 62
     8
370
     9
331
16
  1
色_8
330
86CB
 90
        8
 62
     7
370
    20
331
16
  1
色_7
330
86C9
 90
        8
 62
     4
370
    15
331
16
  1
色_4
330
86C8
 90
        8
 62
   173
370
     9
331
16
  1
色_173
420
-1034792193
330
86CC
 90
        8
 62
     1
370
     5
331
16
  1
色_1
330
548
 90
        0
 62
     6
370
    -3
331
16
  1
色_6
330
86FE
 90
        8
 62
   241
370
     5
331
58DA
  1
色_241
330
54
 90
        0
 62
     7
370
    -3
331
16
  1
色_7
330
F61AE
 90
        0
 62
     1
370
    25
331
16
  1
色_1
330
10
 90
        8
 62
     7
370
    20
331
16
  1
色_7
  0
XRECORD
  5
F82BF
102
{ACAD_REACTORS
330
F82BE
102
}
330
F82BE
100
AcDbXrecord
280
     1
 91
      484
330
4C
 90
        8
 62
     2
370
    40
331
16
  1
色_2
330
30
 90
        8
 62
    30
370
     9
331
F3ACE
  1
色_30
330
3AE4
 90
        8
 62
   123
370
     9
331
3AE3
  1
色_123
330
F3AD3
 90
        8
 62
   233
370
     9
331
16CF6
  1
色_233
330
33
 90
        8
 62
     8
370
     9
331
16
  1
色_8
330
86C8
 90
        8
 62
   173
370
     5
331
16
  1
色_173
420
-1034792193
330
548
 90
        0
 62
     6
370
    -3
331
16
  1
色_6
330
86FE
 90
        8
 62
   241
370
     5
331
58DA
  1
色_241
330
86CC
 90
        8
 62
     1
370
     9
331
16
  1
色_1
330
86CB
 90
        8
 62
     5
370
    20
331
16
  1
色_5
330
86C9
 90
        8
 62
     4
370
    15
331
16
  1
色_4
330
54
 90
        0
 62
     7
370
    -3
331
16
  1
色_7
330
F61AE
 90
        0
 62
     1
370
    25
331
16
  1
色_1
330
10
 90
        8
 62
     7
370
    20
331
16
  1
色_7
  0
DICTIONARY
  5
1001AC
330
FEFFC
100
AcDbDictionary
280
     1
281
     1
  3
ACAD_XREC_ROUNDTRIP
360
1001AD
  0
DICTIONARY
  5
FEFBB
330
FEFBA
100
AcDbDictionary
280
     1
281
     1
  3
ACAD_XREC_ROUNDTRIP
360
FF3B1
  3
BUMPTILE
360
FEFBD
  3
DIFFUSETILE
360
FEFBC
  3
OPACITYTILE
360
FEFC0
  3
REFLECTIONTILE
360
FEFBF
  3
REFRACTIONTILE
360
FEFC1
  3
SPECULARTILE
360
FEFBE
  0
DICTIONARY
  5
FEFB3
330
FEFB2
100
AcDbDictionary
280
     1
281
     1
  3
ACAD_XREC_ROUNDTRIP
360
FF3B0
  3
BUMPTILE
360
FEFB5
  3
DIFFUSETILE
360
FEFB4
  3
OPACITYTILE
360
FEFB8
  3
REFLECTIONTILE
360
FEFB7
  3
REFRACTIONTILE
360
FEFB9
  3
SPECULARTILE
360
FEFB6
  0
DICTIONARY
  5
FEFC3
330
FEFC2
100
AcDbDictionary
280
     1
281
     1
  3
ACAD_XREC_ROUNDTRIP
360
FF3B2
  3
BUMPTILE
360
FEFC5
  3
DIFFUSETILE
360
FEFC4
  3
OPACITYTILE
360
FEFC8
  3
REFLECTIONTILE
360
FEFC7
  3
REFRACTIONTILE
360
FEFC9
  3
SPECULARTILE
360
FEFC6
  0
DICTIONARY
  5
1001A8
330
FEFF8
100
AcDbDictionary
280
     1
281
     1
  3
ACAD_XREC_ROUNDTRIP
360
1001A9
  0
DICTIONARY
  5
1001AA
330
FEFFA
100
AcDbDictionary
280
     1
281
     1
  3
ACAD_XREC_ROUNDTRIP
360
1001AB
  0
DICTIONARY
  5
FF39A
330
FEFE4
100
AcDbDictionary
280
     1
281
     1
  3
ACAD_ROUNDTRIP_2008_TABLESTYLE_CELLSTYLEMAP
360
100175
  3
ACAD_XREC_ROUNDTRIP
360
1001A7
  0
DICTIONARY
  5
100181
330
FEFD0
100
AcDbDictionary
280
     1
281
     1
  3
ACAD_XREC_ROUNDTRIP
360
100182
  0
DICTIONARY
  5
10017F
330
FEFCF
100
AcDbDictionary
280
     1
281
     1
  3
ACAD_XREC_ROUNDTRIP
360
100180
  0
DICTIONARY
  5
10018D
330
FEFD6
100
AcDbDictionary
280
     1
281
     1
  3
ACAD_XREC_ROUNDTRIP
360
10018E
  0
DICTIONARY
  5
100195
330
FEFDA
100
AcDbDictionary
280
     1
281
     1
  3
ACAD_XREC_ROUNDTRIP
360
100196
  0
DICTIONARY
  5
100187
330
FEFD3
100
AcDbDictionary
280
     1
281
     1
  3
ACAD_XREC_ROUNDTRIP
360
100188
  0
DICTIONARY
  5
10018B
330
FEFD5
100
AcDbDictionary
280
     1
281
     1
  3
ACAD_XREC_ROUNDTRIP
360
10018C
  0
DICTIONARY
  5
1001A5
330
FEFE2
100
AcDbDictionary
280
     1
281
     1
  3
ACAD_XREC_ROUNDTRIP
360
1001A6
  0
DICTIONARY
  5
100193
330
FEFD9
100
AcDbDictionary
280
     1
281
     1
  3
ACAD_XREC_ROUNDTRIP
360
100194
  0
DICTIONARY
  5
100177
330
FEFCB
100
AcDbDictionary
280
     1
281
     1
  3
ACAD_XREC_ROUNDTRIP
360
100178
  0
DICTIONARY
  5
100179
330
FEFCC
100
AcDbDictionary
280
     1
281
     1
  3
ACAD_XREC_ROUNDTRIP
360
10017A
  0
DICTIONARY
  5
10017B
330
FEFCD
100
AcDbDictionary
280
     1
281
     1
  3
ACAD_XREC_ROUNDTRIP
360
10017C
  0
DICTIONARY
  5
10017D
330
FEFCE
100
AcDbDictionary
280
     1
281
     1
  3
ACAD_XREC_ROUNDTRIP
360
10017E
  0
DICTIONARY
  5
100185
330
FEFD2
100
AcDbDictionary
280
     1
281
     1
  3
ACAD_XREC_ROUNDTRIP
360
100186
  0
DICTIONARY
  5
1001A1
330
FEFE0
100
AcDbDictionary
280
     1
281
     1
  3
ACAD_XREC_ROUNDTRIP
360
1001A2
  0
DICTIONARY
  5
100191
330
FEFD8
100
AcDbDictionary
280
     1
281
     1
  3
ACAD_XREC_ROUNDTRIP
360
100192
  0
DICTIONARY
  5
1001A3
330
FEFE1
100
AcDbDictionary
280
     1
281
     1
  3
ACAD_XREC_ROUNDTRIP
360
1001A4
  0
DICTIONARY
  5
100189
330
FEFD4
100
AcDbDictionary
280
     1
281
     1
  3
ACAD_XREC_ROUNDTRIP
360
10018A
  0
DICTIONARY
  5
10019F
330
FEFDF
100
AcDbDictionary
280
     1
281
     1
  3
ACAD_XREC_ROUNDTRIP
360
1001A0
  0
DICTIONARY
  5
10019D
330
FEFDE
100
AcDbDictionary
280
     1
281
     1
  3
ACAD_XREC_ROUNDTRIP
360
10019E
  0
DICTIONARY
  5
100197
330
FEFDB
100
AcDbDictionary
280
     1
281
     1
  3
ACAD_XREC_ROUNDTRIP
360
100198
  0
DICTIONARY
  5
100199
330
FEFDC
100
AcDbDictionary
280
     1
281
     1
  3
ACAD_XREC_ROUNDTRIP
360
10019A
  0
DICTIONARY
  5
10018F
330
FEFD7
100
AcDbDictionary
280
     1
281
     1
  3
ACAD_XREC_ROUNDTRIP
360
100190
  0
DICTIONARY
  5
100183
330
FEFD1
100
AcDbDictionary
280
     1
281
     1
  3
ACAD_XREC_ROUNDTRIP
360
100184
  0
DICTIONARY
  5
10019B
330
FEFDD
100
AcDbDictionary
280
     1
281
     1
  3
ACAD_XREC_ROUNDTRIP
360
10019C
  0
XRECORD
  5
1001AD
102
{ACAD_REACTORS
330
1001AC
102
}
330
1001AC
100
AcDbXrecord
280
     1
102
DISPLAYNAME
  1
Metric50
102
FLAGS
 90
        0
  0
XRECORD
  5
FF3B1
102
{ACAD_REACTORS
330
FEFBB
102
}
330
FEFBB
100
AcDbXrecord
280
     1
102
MATERIAL
148
0.0
149
0.0
149
0.0
 93
        0
 94
      127
282
     0
 72
     0
 77
     0
171
     0
175
     0
179
     0
273
     0
  0
XRECORD
  5
FEFBD
102
{ACAD_REACTORS
330
FEFBB
102
}
330
FEFBB
100
AcDbXrecord
280
     1
270
     1
271
     1
  0
XRECORD
  5
FEFBC
102
{ACAD_REACTORS
330
FEFBB
102
}
330
FEFBB
100
AcDbXrecord
280
     1
270
     1
271
     1
  0
XRECORD
  5
FEFC0
102
{ACAD_REACTORS
330
FEFBB
102
}
330
FEFBB
100
AcDbXrecord
280
     1
270
     1
271
     1
  0
XRECORD
  5
FEFBF
102
{ACAD_REACTORS
330
FEFBB
102
}
330
FEFBB
100
AcDbXrecord
280
     1
270
     1
271
     1
  0
XRECORD
  5
FEFC1
102
{ACAD_REACTORS
330
FEFBB
102
}
330
FEFBB
100
AcDbXrecord
280
     1
270
     1
271
     1
  0
XRECORD
  5
FEFBE
102
{ACAD_REACTORS
330
FEFBB
102
}
330
FEFBB
100
AcDbXrecord
280
     1
270
     1
271
     1
  0
XRECORD
  5
FF3B0
102
{ACAD_REACTORS
330
FEFB3
102
}
330
FEFB3
100
AcDbXrecord
280
     1
102
MATERIAL
148
0.0
149
0.0
149
0.0
 93
        0
 94
      127
282
     0
 72
     0
 77
     0
171
     0
175
     0
179
     0
273
     0
  0
XRECORD
  5
FEFB5
102
{ACAD_REACTORS
330
FEFB3
102
}
330
FEFB3
100
AcDbXrecord
280
     1
270
     1
271
     1
  0
XRECORD
  5
FEFB4
102
{ACAD_REACTORS
330
FEFB3
102
}
330
FEFB3
100
AcDbXrecord
280
     1
270
     1
271
     1
  0
XRECORD
  5
FEFB8
102
{ACAD_REACTORS
330
FEFB3
102
}
330
FEFB3
100
AcDbXrecord
280
     1
270
     1
271
     1
  0
XRECORD
  5
FEFB7
102
{ACAD_REACTORS
330
FEFB3
102
}
330
FEFB3
100
AcDbXrecord
280
     1
270
     1
271
     1
  0
XRECORD
  5
FEFB9
102
{ACAD_REACTORS
330
FEFB3
102
}
330
FEFB3
100
AcDbXrecord
280
     1
270
     1
271
     1
  0
XRECORD
  5
FEFB6
102
{ACAD_REACTORS
330
FEFB3
102
}
330
FEFB3
100
AcDbXrecord
280
     1
270
     1
271
     1
  0
XRECORD
  5
FF3B2
102
{ACAD_REACTORS
330
FEFC3
102
}
330
FEFC3
100
AcDbXrecord
280
     1
102
MATERIAL
148
0.0
149
0.0
149
0.0
 93
        0
 94
      127
282
     0
 72
     0
 77
     0
171
     0
175
     0
179
     0
273
     0
  0
XRECORD
  5
FEFC5
102
{ACAD_REACTORS
330
FEFC3
102
}
330
FEFC3
100
AcDbXrecord
280
     1
270
     1
271
     1
  0
XRECORD
  5
FEFC4
102
{ACAD_REACTORS
330
FEFC3
102
}
330
FEFC3
100
AcDbXrecord
280
     1
270
     1
271
     1
  0
XRECORD
  5
FEFC8
102
{ACAD_REACTORS
330
FEFC3
102
}
330
FEFC3
100
AcDbXrecord
280
     1
270
     1
271
     1
  0
XRECORD
  5
FEFC7
102
{ACAD_REACTORS
330
FEFC3
102
}
330
FEFC3
100
AcDbXrecord
280
     1
270
     1
271
     1
  0
XRECORD
  5
FEFC9
102
{ACAD_REACTORS
330
FEFC3
102
}
330
FEFC3
100
AcDbXrecord
280
     1
270
     1
271
     1
  0
XRECORD
  5
FEFC6
102
{ACAD_REACTORS
330
FEFC3
102
}
330
FEFC3
100
AcDbXrecord
280
     1
270
     1
271
     1
  0
XRECORD
  5
1001A9
102
{ACAD_REACTORS
330
1001A8
102
}
330
1001A8
100
AcDbXrecord
280
     1
102
ACAD_ROUNDTRIP_2012_MLEADER_STYLE
298
     1
  0
XRECORD
  5
1001AB
102
{ACAD_REACTORS
330
1001AA
102
}
330
1001AA
100
AcDbXrecord
280
     1
102
DISPLAYNAME
  1
Metric50
102
FLAGS
 90
        0
  0
CELLSTYLEMAP
  5
100175
102
{ACAD_REACTORS
330
FF39A
102
}
330
FF39A
100
AcDbCellStyleMap
 90
        3
300
CELLSTYLE
  1
TABLEFORMAT_BEGIN
 90
        5
170
     1
 91
        0
 92
    32768
 62
   257
 93
        1
300
CONTENTFORMAT
  1
CONTENTFORMAT_BEGIN
 90
        0
 91
        0
 92
      512
 93
        0
300

 40
0.0
140
1.0
 94
        5
 62
     0
340
11
144
6.0
309
CONTENTFORMAT_END
171
     1
301
MARGIN
  1
CELLMARGIN_BEGIN
 40
1.5
 40
1.5
 40
1.5
 40
1.5
 40
0.18
 40
0.18
309
CELLMARGIN_END
 94
        6
 95
        1
302
GRIDFORMAT
  1
GRIDFORMAT_BEGIN
 90
        0
 91
        1
 62
     0
 92
       -2
340
0
 93
        0
 40
1.125
309
GRIDFORMAT_END
 95
        2
302
GRIDFORMAT
  1
GRIDFORMAT_BEGIN
 90
        0
 91
        1
 62
     0
 92
       -2
340
0
 93
        0
 40
1.125
309
GRIDFORMAT_END
 95
        4
302
GRIDFORMAT
  1
GRIDFORMAT_BEGIN
 90
        0
 91
        1
 62
     0
 92
       -2
340
0
 93
        0
 40
1.125
309
GRIDFORMAT_END
 95
        8
302
GRIDFORMAT
  1
GRIDFORMAT_BEGIN
 90
        0
 91
        1
 62
     0
 92
       -2
340
0
 93
        0
 40
1.125
309
GRIDFORMAT_END
 95
       16
302
GRIDFORMAT
  1
GRIDFORMAT_BEGIN
 90
        0
 91
        1
 62
     0
 92
       -2
340
0
 93
        0
 40
1.125
309
GRIDFORMAT_END
 95
       32
302
GRIDFORMAT
  1
GRIDFORMAT_BEGIN
 90
        0
 91
        1
 62
     0
 92
       -2
340
0
 93
        0
 40
1.125
309
GRIDFORMAT_END
309
TABLEFORMAT_END
  1
CELLSTYLE_BEGIN
 90
        1
 91
        1
300
_TITLE
309
CELLSTYLE_END
300
CELLSTYLE
  1
TABLEFORMAT_BEGIN
 90
        5
170
     1
 91
        0
 92
        0
 62
   257
 93
        1
300
CONTENTFORMAT
  1
CONTENTFORMAT_BEGIN
 90
        0
 91
        0
 92
      512
 93
        0
300

 40
0.0
140
1.0
 94
        5
 62
     0
340
11
144
4.5
309
CONTENTFORMAT_END
171
     1
301
MARGIN
  1
CELLMARGIN_BEGIN
 40
1.5
 40
1.5
 40
1.5
 40
1.5
 40
0.18
 40
0.18
309
CELLMARGIN_END
 94
        6
 95
        1
302
GRIDFORMAT
  1
GRIDFORMAT_BEGIN
 90
        0
 91
        1
 62
     0
 92
       -2
340
0
 93
        0
 40
1.125
309
GRIDFORMAT_END
 95
        2
302
GRIDFORMAT
  1
GRIDFORMAT_BEGIN
 90
        0
 91
        1
 62
     0
 92
       -2
340
0
 93
        0
 40
1.125
309
GRIDFORMAT_END
 95
        4
302
GRIDFORMAT
  1
GRIDFORMAT_BEGIN
 90
        0
 91
        1
 62
     0
 92
       -2
340
0
 93
        0
 40
1.125
309
GRIDFORMAT_END
 95
        8
302
GRIDFORMAT
  1
GRIDFORMAT_BEGIN
 90
        0
 91
        1
 62
     0
 92
       -2
340
0
 93
        0
 40
1.125
309
GRIDFORMAT_END
 95
       16
302
GRIDFORMAT
  1
GRIDFORMAT_BEGIN
 90
        0
 91
        1
 62
     0
 92
       -2
340
0
 93
        0
 40
1.125
309
GRIDFORMAT_END
 95
       32
302
GRIDFORMAT
  1
GRIDFORMAT_BEGIN
 90
        0
 91
        1
 62
     0
 92
       -2
340
0
 93
        0
 40
1.125
309
GRIDFORMAT_END
309
TABLEFORMAT_END
  1
CELLSTYLE_BEGIN
 90
        2
 91
        1
300
_HEADER
309
CELLSTYLE_END
300
CELLSTYLE
  1
TABLEFORMAT_BEGIN
 90
        5
170
     1
 91
        0
 92
        0
 62
   257
 93
        1
300
CONTENTFORMAT
  1
CONTENTFORMAT_BEGIN
 90
        0
 91
        0
 92
      512
 93
        0
300

 40
0.0
140
1.0
 94
        2
 62
     0
340
11
144
4.5
309
CONTENTFORMAT_END
171
     1
301
MARGIN
  1
CELLMARGIN_BEGIN
 40
1.5
 40
1.5
 40
1.5
 40
1.5
 40
0.18
 40
0.18
309
CELLMARGIN_END
 94
        6
 95
        1
302
GRIDFORMAT
  1
GRIDFORMAT_BEGIN
 90
        0
 91
        1
 62
     0
 92
       -2
340
0
 93
        0
 40
1.125
309
GRIDFORMAT_END
 95
        2
302
GRIDFORMAT
  1
GRIDFORMAT_BEGIN
 90
        0
 91
        1
 62
     0
 92
       -2
340
0
 93
        0
 40
1.125
309
GRIDFORMAT_END
 95
        4
302
GRIDFORMAT
  1
GRIDFORMAT_BEGIN
 90
        0
 91
        1
 62
     0
 92
       -2
340
0
 93
        0
 40
1.125
309
GRIDFORMAT_END
 95
        8
302
GRIDFORMAT
  1
GRIDFORMAT_BEGIN
 90
        0
 91
        1
 62
     0
 92
       -2
340
0
 93
        0
 40
1.125
309
GRIDFORMAT_END
 95
       16
302
GRIDFORMAT
  1
GRIDFORMAT_BEGIN
 90
        0
 91
        1
 62
     0
 92
       -2
340
0
 93
        0
 40
1.125
309
GRIDFORMAT_END
 95
       32
302
GRIDFORMAT
  1
GRIDFORMAT_BEGIN
 90
        0
 91
        1
 62
     0
 92
       -2
340
0
 93
        0
 40
1.125
309
GRIDFORMAT_END
309
TABLEFORMAT_END
  1
CELLSTYLE_BEGIN
 90
        3
 91
        2
300
_DATA
309
CELLSTYLE_END
  0
XRECORD
  5
1001A7
102
{ACAD_REACTORS
330
FF39A
102
}
330
FF39A
100
AcDbXrecord
280
     1
102
ACAD_ROUNDTRIP_PRE2007_TABLESTYLE
 90
      512
 91
        0
  1

 92
      512
 93
        0
  2

 94
      512
 95
        0
  3

  0
XRECORD
  5
100182
102
{ACAD_REACTORS
330
100181
102
}
330
100181
100
AcDbXrecord
280
     1
102
RTVSPost2010Prop28
280
     1
102
RTVSPost2010PropOp28
 70
     1
102
RTVSPost2010Prop29
280
     1
102
RTVSPost2010PropOp29
 70
     1
102
RTVSPost2010Prop30
280
     0
102
RTVSPost2010PropOp30
 70
     1
102
RTVSPost2010Prop31
280
     0
102
RTVSPost2010PropOp31
 70
     1
102
RTVSPost2010Prop32
280
     0
102
RTVSPost2010PropOp32
 70
     1
102
RTVSPost2010Prop33
280
     0
102
RTVSPost2010PropOp33
 70
     1
102
RTVSPost2010Prop34
280
     0
102
RTVSPost2010PropOp34
 70
     1
102
RTVSPost2010Prop35
280
     0
102
RTVSPost2010PropOp35
 70
     1
102
RTVSPost2010Prop36
280
     0
102
RTVSPost2010PropOp36
 70
     1
102
RTVSPost2010Prop37
 90
       50
102
RTVSPost2010PropOp37
 70
     1
102
RTVSPost2010Prop38
140
0.0
102
RTVSPost2010PropOp38
 70
     1
102
RTVSPost2010Prop39
140
1.0
102
RTVSPost2010PropOp39
 70
     1
102
RTVSPost2010Prop40
 90
        0
102
RTVSPost2010PropOp40
 70
     1
102
RTVSPost2010Prop41ColorIndex
 90
       18
102
RTVSPost2010Prop41ColorRGB
 90
        0
102
RTVSPost2010PropOp41
 70
     1
102
RTVSPost2010Prop42
 90
       50
102
RTVSPost2010PropOp42
 70
     1
102
RTVSPost2010Prop43
 90
        3
102
RTVSPost2010PropOp43
 70
     1
102
RTVSPost2010Prop44ColorIndex
 90
        5
102
RTVSPost2010Prop44ColorRGB
 90
      255
102
RTVSPost2010PropOp44
 70
     1
102
RTVSPost2010Prop45
280
     0
102
RTVSPost2010PropOp45
 70
     1
102
RTVSPost2010Prop46
 90
       50
102
RTVSPost2010PropOp46
 70
     1
102
RTVSPost2010Prop47
 90
       50
102
RTVSPost2010PropOp47
 70
     1
102
RTVSPost2010Prop48
 90
       50
102
RTVSPost2010PropOp48
 70
     1
102
RTVSPost2010Prop49
280
     0
102
RTVSPost2010PropOp49
 70
     1
102
RTVSPost2010Prop50
 90
       50
102
RTVSPost2010PropOp50
 70
     1
102
RTVSPost2010Prop51ColorIndex
 90
      256
102
RTVSPost2010Prop51ColorRGB
 90
-16777216
102
RTVSPost2010PropOp51
 70
     0
102
RTVSPost2010Prop52
140
1.0
102
RTVSPost2010PropOp52
 70
     0
102
RTVSPost2010Prop53
 90
        2
102
RTVSPost2010PropOp53
 70
     1
102
RTVSPost2010Prop54
  1
strokes_ogs.tif
102
RTVSPost2010PropOp54
 70
     1
102
RTVSPost2010Prop55
280
     0
102
RTVSPost2010PropOp55
 70
     1
102
RTVSPost2010Prop56
140
1.0
102
RTVSPost2010PropOp56
 70
     1
102
RTVSPost2010Prop57
140
1.0
102
RTVSPost2010PropOp57
 70
     1
102
RTVSPropertyOp0
 70
     1
102
RTVSPropertyOp1
 70
     1
102
RTVSPropertyOp2
 70
     1
102
RTVSPropertyOp3
 70
     1
102
RTVSPropertyOp4
 70
     1
102
RTVSPropertyOp5
 70
     1
102
RTVSPropertyOp6
 70
     1
102
RTVSPropertyOp7
 70
     1
102
RTVSPropertyOp8
 70
     1
102
RTVSPropertyOp9
 70
     1
102
RTVSPropertyOp10
 70
     1
102
RTVSPropertyOp11
 70
     1
102
RTVSPropertyOp12
 70
     1
102
RTVSPropertyOp13
 70
     1
102
RTVSPropertyOp14
 70
     1
102
RTVSPropertyOp15
 70
     1
102
RTVSPropertyOp16
 70
     1
102
RTVSPropertyOp17
 70
     1
102
RTVSPropertyOp18
 70
     1
102
RTVSPropertyOp19
 70
     1
102
RTVSPropertyOp20
 70
     1
102
RTVSPropertyOp21
 70
     1
102
RTVSPropertyOp22
 70
     1
102
RTVSPropertyOp23
 70
     1
102
RTVSPropertyOp24
 70
     1
102
RTVSPropertyOp25
 70
     1
102
RTVSPropertyOp26
 70
     1
102
RTVSPropertyOp27
 70
     1
102
RTVSPropertyOp28
 70
     1
102
RTVSPropertyOp29
 70
     1
102
RTVSPropertyOp30
 70
     1
102
RTVSPropertyOp31
 70
     1
102
RTVSPropertyOp32
 70
     1
102
RTVSPropertyOp33
 70
     1
102
RTVSPropertyOp34
 70
     1
102
RTVSPropertyOp35
 70
     1
102
RTVSPropertyOp36
 70
     1
102
RTVSPropertyOp37
 70
     1
102
RTVSPropertyOp38
 70
     1
102
RTVSPropertyOp39
 70
     1
102
RTVSPropertyOp40
 70
     1
102
RTVSPropertyOp41
 70
     1
102
RTVSPropertyOp42
 70
     1
102
RTVSPropertyOp43
 70
     1
102
RTVSPropertyOp44
 70
     1
102
RTVSPropertyOp45
 70
     1
102
RTVSPropertyOp46
 70
     1
102
RTVSPropertyOp47
 70
     1
102
RTVSPropertyOp48
 70
     1
102
RTVSPropertyOp49
 70
     1
102
RTVSPropertyOp50
 70
     1
102
RTVSPropertyOp51
 70
     0
102
RTVSPropertyOp52
 70
     0
102
RTVSPropertyOp53
 70
     1
102
RTVSPropertyOp54
 70
     1
102
RTVSPropertyOp55
 70
     1
102
RTVSPropertyOp56
 70
     1
102
RTVSPropertyOp57
 70
     1
102
RTVSPropertyOp58
 70
     1
102
RTVSPropertyOp59
 70
     1
102
RTVSPropertyOp60
 70
     1
102
RTVSPropertyOp61
 70
     1
102
RTVSPropertyOp62
 70
     1
  0
XRECORD
  5
100180
102
{ACAD_REACTORS
330
10017F
102
}
330
10017F
100
AcDbXrecord
280
     1
102
RTVSPost2010Prop28
280
     0
102
RTVSPost2010PropOp28
 70
     1
102
RTVSPost2010Prop29
280
     1
102
RTVSPost2010PropOp29
 70
     1
102
RTVSPost2010Prop30
280
     1
102
RTVSPost2010PropOp30
 70
     1
102
RTVSPost2010Prop31
280
     0
102
RTVSPost2010PropOp31
 70
     1
102
RTVSPost2010Prop32
280
     0
102
RTVSPost2010PropOp32
 70
     1
102
RTVSPost2010Prop33
280
     0
102
RTVSPost2010PropOp33
 70
     1
102
RTVSPost2010Prop34
280
     0
102
RTVSPost2010PropOp34
 70
     1
102
RTVSPost2010Prop35
280
     0
102
RTVSPost2010PropOp35
 70
     1
102
RTVSPost2010Prop36
280
     0
102
RTVSPost2010PropOp36
 70
     1
102
RTVSPost2010Prop37
 90
       50
102
RTVSPost2010PropOp37
 70
     1
102
RTVSPost2010Prop38
140
0.0
102
RTVSPost2010PropOp38
 70
     1
102
RTVSPost2010Prop39
140
1.0
102
RTVSPost2010PropOp39
 70
     1
102
RTVSPost2010Prop40
 90
        0
102
RTVSPost2010PropOp40
 70
     1
102
RTVSPost2010Prop41ColorIndex
 90
       18
102
RTVSPost2010Prop41ColorRGB
 90
        0
102
RTVSPost2010PropOp41
 70
     1
102
RTVSPost2010Prop42
 90
       50
102
RTVSPost2010PropOp42
 70
     1
102
RTVSPost2010Prop43
 90
        3
102
RTVSPost2010PropOp43
 70
     1
102
RTVSPost2010Prop44ColorIndex
 90
        5
102
RTVSPost2010Prop44ColorRGB
 90
      255
102
RTVSPost2010PropOp44
 70
     1
102
RTVSPost2010Prop45
280
     0
102
RTVSPost2010PropOp45
 70
     1
102
RTVSPost2010Prop46
 90
       50
102
RTVSPost2010PropOp46
 70
     1
102
RTVSPost2010Prop47
 90
       50
102
RTVSPost2010PropOp47
 70
     1
102
RTVSPost2010Prop48
 90
       50
102
RTVSPost2010PropOp48
 70
     1
102
RTVSPost2010Prop49
280
     0
102
RTVSPost2010PropOp49
 70
     1
102
RTVSPost2010Prop50
 90
       50
102
RTVSPost2010PropOp50
 70
     1
102
RTVSPost2010Prop51ColorIndex
 90
      256
102
RTVSPost2010Prop51ColorRGB
 90
-16777216
102
RTVSPost2010PropOp51
 70
     0
102
RTVSPost2010Prop52
140
1.0
102
RTVSPost2010PropOp52
 70
     0
102
RTVSPost2010Prop53
 90
        2
102
RTVSPost2010PropOp53
 70
     1
102
RTVSPost2010Prop54
  1
strokes_ogs.tif
102
RTVSPost2010PropOp54
 70
     1
102
RTVSPost2010Prop55
280
     0
102
RTVSPost2010PropOp55
 70
     1
102
RTVSPost2010Prop56
140
1.0
102
RTVSPost2010PropOp56
 70
     1
102
RTVSPost2010Prop57
140
1.0
102
RTVSPost2010PropOp57
 70
     1
102
RTVSPropertyOp0
 70
     1
102
RTVSPropertyOp1
 70
     1
102
RTVSPropertyOp2
 70
     1
102
RTVSPropertyOp3
 70
     1
102
RTVSPropertyOp4
 70
     1
102
RTVSPropertyOp5
 70
     1
102
RTVSPropertyOp6
 70
     1
102
RTVSPropertyOp7
 70
     1
102
RTVSPropertyOp8
 70
     1
102
RTVSPropertyOp9
 70
     1
102
RTVSPropertyOp10
 70
     1
102
RTVSPropertyOp11
 70
     1
102
RTVSPropertyOp12
 70
     1
102
RTVSPropertyOp13
 70
     1
102
RTVSPropertyOp14
 70
     1
102
RTVSPropertyOp15
 70
     1
102
RTVSPropertyOp16
 70
     1
102
RTVSPropertyOp17
 70
     1
102
RTVSPropertyOp18
 70
     1
102
RTVSPropertyOp19
 70
     1
102
RTVSPropertyOp20
 70
     1
102
RTVSPropertyOp21
 70
     1
102
RTVSPropertyOp22
 70
     1
102
RTVSPropertyOp23
 70
     1
102
RTVSPropertyOp24
 70
     1
102
RTVSPropertyOp25
 70
     1
102
RTVSPropertyOp26
 70
     1
102
RTVSPropertyOp27
 70
     1
102
RTVSPropertyOp28
 70
     1
102
RTVSPropertyOp29
 70
     1
102
RTVSPropertyOp30
 70
     1
102
RTVSPropertyOp31
 70
     1
102
RTVSPropertyOp32
 70
     1
102
RTVSPropertyOp33
 70
     1
102
RTVSPropertyOp34
 70
     1
102
RTVSPropertyOp35
 70
     1
102
RTVSPropertyOp36
 70
     1
102
RTVSPropertyOp37
 70
     1
102
RTVSPropertyOp38
 70
     1
102
RTVSPropertyOp39
 70
     1
102
RTVSPropertyOp40
 70
     1
102
RTVSPropertyOp41
 70
     1
102
RTVSPropertyOp42
 70
     1
102
RTVSPropertyOp43
 70
     1
102
RTVSPropertyOp44
 70
     1
102
RTVSPropertyOp45
 70
     1
102
RTVSPropertyOp46
 70
     1
102
RTVSPropertyOp47
 70
     1
102
RTVSPropertyOp48
 70
     1
102
RTVSPropertyOp49
 70
     1
102
RTVSPropertyOp50
 70
     1
102
RTVSPropertyOp51
 70
     0
102
RTVSPropertyOp52
 70
     0
102
RTVSPropertyOp53
 70
     1
102
RTVSPropertyOp54
 70
     1
102
RTVSPropertyOp55
 70
     1
102
RTVSPropertyOp56
 70
     1
102
RTVSPropertyOp57
 70
     1
102
RTVSPropertyOp58
 70
     1
102
RTVSPropertyOp59
 70
     1
102
RTVSPropertyOp60
 70
     1
102
RTVSPropertyOp61
 70
     1
102
RTVSPropertyOp62
 70
     1
  0
XRECORD
  5
10018E
102
{ACAD_REACTORS
330
10018D
102
}
330
10018D
100
AcDbXrecord
280
     1
102
RTVSPost2010Prop28
280
     0
102
RTVSPost2010PropOp28
 70
     1
102
RTVSPost2010Prop29
280
     1
102
RTVSPost2010PropOp29
 70
     1
102
RTVSPost2010Prop30
280
     1
102
RTVSPost2010PropOp30
 70
     1
102
RTVSPost2010Prop31
280
     0
102
RTVSPost2010PropOp31
 70
     1
102
RTVSPost2010Prop32
280
     0
102
RTVSPost2010PropOp32
 70
     1
102
RTVSPost2010Prop33
280
     0
102
RTVSPost2010PropOp33
 70
     1
102
RTVSPost2010Prop34
280
     0
102
RTVSPost2010PropOp34
 70
     1
102
RTVSPost2010Prop35
280
     0
102
RTVSPost2010PropOp35
 70
     1
102
RTVSPost2010Prop36
280
     0
102
RTVSPost2010PropOp36
 70
     1
102
RTVSPost2010Prop37
 90
       50
102
RTVSPost2010PropOp37
 70
     1
102
RTVSPost2010Prop38
140
0.0
102
RTVSPost2010PropOp38
 70
     1
102
RTVSPost2010Prop39
140
1.0
102
RTVSPost2010PropOp39
 70
     1
102
RTVSPost2010Prop40
 90
        0
102
RTVSPost2010PropOp40
 70
     1
102
RTVSPost2010Prop41ColorIndex
 90
       18
102
RTVSPost2010Prop41ColorRGB
 90
        0
102
RTVSPost2010PropOp41
 70
     1
102
RTVSPost2010Prop42
 90
       50
102
RTVSPost2010PropOp42
 70
     1
102
RTVSPost2010Prop43
 90
        3
102
RTVSPost2010PropOp43
 70
     1
102
RTVSPost2010Prop44ColorIndex
 90
        5
102
RTVSPost2010Prop44ColorRGB
 90
      255
102
RTVSPost2010PropOp44
 70
     1
102
RTVSPost2010Prop45
280
     0
102
RTVSPost2010PropOp45
 70
     1
102
RTVSPost2010Prop46
 90
       50
102
RTVSPost2010PropOp46
 70
     1
102
RTVSPost2010Prop47
 90
       50
102
RTVSPost2010PropOp47
 70
     1
102
RTVSPost2010Prop48
 90
       50
102
RTVSPost2010PropOp48
 70
     1
102
RTVSPost2010Prop49
280
     0
102
RTVSPost2010PropOp49
 70
     1
102
RTVSPost2010Prop50
 90
       50
102
RTVSPost2010PropOp50
 70
     1
102
RTVSPost2010Prop51ColorIndex
 90
      256
102
RTVSPost2010Prop51ColorRGB
 90
-16777216
102
RTVSPost2010PropOp51
 70
     0
102
RTVSPost2010Prop52
140
1.0
102
RTVSPost2010PropOp52
 70
     0
102
RTVSPost2010Prop53
 90
        2
102
RTVSPost2010PropOp53
 70
     1
102
RTVSPost2010Prop54
  1
strokes_ogs.tif
102
RTVSPost2010PropOp54
 70
     1
102
RTVSPost2010Prop55
280
     0
102
RTVSPost2010PropOp55
 70
     1
102
RTVSPost2010Prop56
140
1.0
102
RTVSPost2010PropOp56
 70
     1
102
RTVSPost2010Prop57
140
1.0
102
RTVSPost2010PropOp57
 70
     1
102
RTVSPropertyOp0
 70
     1
102
RTVSPropertyOp1
 70
     1
102
RTVSPropertyOp2
 70
     1
102
RTVSPropertyOp3
 70
     1
102
RTVSPropertyOp4
 70
     1
102
RTVSPropertyOp5
 70
     1
102
RTVSPropertyOp6
 70
     1
102
RTVSPropertyOp7
 70
     1
102
RTVSPropertyOp8
 70
     1
102
RTVSPropertyOp9
 70
     1
102
RTVSPropertyOp10
 70
     1
102
RTVSPropertyOp11
 70
     1
102
RTVSPropertyOp12
 70
     1
102
RTVSPropertyOp13
 70
     1
102
RTVSPropertyOp14
 70
     1
102
RTVSPropertyOp15
 70
     1
102
RTVSPropertyOp16
 70
     1
102
RTVSPropertyOp17
 70
     1
102
RTVSPropertyOp18
 70
     1
102
RTVSPropertyOp19
 70
     1
102
RTVSPropertyOp20
 70
     1
102
RTVSPropertyOp21
 70
     1
102
RTVSPropertyOp22
 70
     1
102
RTVSPropertyOp23
 70
     1
102
RTVSPropertyOp24
 70
     1
102
RTVSPropertyOp25
 70
     1
102
RTVSPropertyOp26
 70
     1
102
RTVSPropertyOp27
 70
     1
102
RTVSPropertyOp28
 70
     1
102
RTVSPropertyOp29
 70
     1
102
RTVSPropertyOp30
 70
     1
102
RTVSPropertyOp31
 70
     1
102
RTVSPropertyOp32
 70
     1
102
RTVSPropertyOp33
 70
     1
102
RTVSPropertyOp34
 70
     1
102
RTVSPropertyOp35
 70
     1
102
RTVSPropertyOp36
 70
     1
102
RTVSPropertyOp37
 70
     1
102
RTVSPropertyOp38
 70
     1
102
RTVSPropertyOp39
 70
     1
102
RTVSPropertyOp40
 70
     1
102
RTVSPropertyOp41
 70
     1
102
RTVSPropertyOp42
 70
     1
102
RTVSPropertyOp43
 70
     1
102
RTVSPropertyOp44
 70
     1
102
RTVSPropertyOp45
 70
     1
102
RTVSPropertyOp46
 70
     1
102
RTVSPropertyOp47
 70
     1
102
RTVSPropertyOp48
 70
     1
102
RTVSPropertyOp49
 70
     1
102
RTVSPropertyOp50
 70
     1
102
RTVSPropertyOp51
 70
     0
102
RTVSPropertyOp52
 70
     0
102
RTVSPropertyOp53
 70
     1
102
RTVSPropertyOp54
 70
     1
102
RTVSPropertyOp55
 70
     1
102
RTVSPropertyOp56
 70
     1
102
RTVSPropertyOp57
 70
     1
102
RTVSPropertyOp58
 70
     1
102
RTVSPropertyOp59
 70
     1
102
RTVSPropertyOp60
 70
     1
102
RTVSPropertyOp61
 70
     1
102
RTVSPropertyOp62
 70
     1
  0
XRECORD
  5
100196
102
{ACAD_REACTORS
330
100195
102
}
330
100195
100
AcDbXrecord
280
     1
102
RTVSPost2010Prop28
280
     0
102
RTVSPost2010PropOp28
 70
     1
102
RTVSPost2010Prop29
280
     1
102
RTVSPost2010PropOp29
 70
     1
102
RTVSPost2010Prop30
280
     1
102
RTVSPost2010PropOp30
 70
     1
102
RTVSPost2010Prop31
280
     0
102
RTVSPost2010PropOp31
 70
     1
102
RTVSPost2010Prop32
280
     0
102
RTVSPost2010PropOp32
 70
     1
102
RTVSPost2010Prop33
280
     0
102
RTVSPost2010PropOp33
 70
     1
102
RTVSPost2010Prop34
280
     0
102
RTVSPost2010PropOp34
 70
     1
102
RTVSPost2010Prop35
280
     0
102
RTVSPost2010PropOp35
 70
     1
102
RTVSPost2010Prop36
280
     0
102
RTVSPost2010PropOp36
 70
     1
102
RTVSPost2010Prop37
 90
       50
102
RTVSPost2010PropOp37
 70
     1
102
RTVSPost2010Prop38
140
0.0
102
RTVSPost2010PropOp38
 70
     1
102
RTVSPost2010Prop39
140
1.0
102
RTVSPost2010PropOp39
 70
     1
102
RTVSPost2010Prop40
 90
        0
102
RTVSPost2010PropOp40
 70
     1
102
RTVSPost2010Prop41ColorIndex
 90
       18
102
RTVSPost2010Prop41ColorRGB
 90
        0
102
RTVSPost2010PropOp41
 70
     1
102
RTVSPost2010Prop42
 90
       50
102
RTVSPost2010PropOp42
 70
     1
102
RTVSPost2010Prop43
 90
        3
102
RTVSPost2010PropOp43
 70
     1
102
RTVSPost2010Prop44ColorIndex
 90
        5
102
RTVSPost2010Prop44ColorRGB
 90
      255
102
RTVSPost2010PropOp44
 70
     1
102
RTVSPost2010Prop45
280
     0
102
RTVSPost2010PropOp45
 70
     1
102
RTVSPost2010Prop46
 90
       50
102
RTVSPost2010PropOp46
 70
     1
102
RTVSPost2010Prop47
 90
       50
102
RTVSPost2010PropOp47
 70
     1
102
RTVSPost2010Prop48
 90
       50
102
RTVSPost2010PropOp48
 70
     1
102
RTVSPost2010Prop49
280
     0
102
RTVSPost2010PropOp49
 70
     1
102
RTVSPost2010Prop50
 90
       50
102
RTVSPost2010PropOp50
 70
     1
102
RTVSPost2010Prop51ColorIndex
 90
      256
102
RTVSPost2010Prop51ColorRGB
 90
-16777216
102
RTVSPost2010PropOp51
 70
     0
102
RTVSPost2010Prop52
140
1.0
102
RTVSPost2010PropOp52
 70
     0
102
RTVSPost2010Prop53
 90
        2
102
RTVSPost2010PropOp53
 70
     1
102
RTVSPost2010Prop54
  1
strokes_ogs.tif
102
RTVSPost2010PropOp54
 70
     1
102
RTVSPost2010Prop55
280
     0
102
RTVSPost2010PropOp55
 70
     1
102
RTVSPost2010Prop56
140
1.0
102
RTVSPost2010PropOp56
 70
     1
102
RTVSPost2010Prop57
140
1.0
102
RTVSPost2010PropOp57
 70
     1
102
RTVSPropertyOp0
 70
     1
102
RTVSPropertyOp1
 70
     1
102
RTVSPropertyOp2
 70
     1
102
RTVSPropertyOp3
 70
     1
102
RTVSPropertyOp4
 70
     1
102
RTVSPropertyOp5
 70
     1
102
RTVSPropertyOp6
 70
     1
102
RTVSPropertyOp7
 70
     1
102
RTVSPropertyOp8
 70
     1
102
RTVSPropertyOp9
 70
     1
102
RTVSPropertyOp10
 70
     1
102
RTVSPropertyOp11
 70
     1
102
RTVSPropertyOp12
 70
     1
102
RTVSPropertyOp13
 70
     1
102
RTVSPropertyOp14
 70
     1
102
RTVSPropertyOp15
 70
     1
102
RTVSPropertyOp16
 70
     1
102
RTVSPropertyOp17
 70
     1
102
RTVSPropertyOp18
 70
     1
102
RTVSPropertyOp19
 70
     1
102
RTVSPropertyOp20
 70
     1
102
RTVSPropertyOp21
 70
     1
102
RTVSPropertyOp22
 70
     1
102
RTVSPropertyOp23
 70
     1
102
RTVSPropertyOp24
 70
     1
102
RTVSPropertyOp25
 70
     1
102
RTVSPropertyOp26
 70
     1
102
RTVSPropertyOp27
 70
     1
102
RTVSPropertyOp28
 70
     1
102
RTVSPropertyOp29
 70
     1
102
RTVSPropertyOp30
 70
     1
102
RTVSPropertyOp31
 70
     1
102
RTVSPropertyOp32
 70
     1
102
RTVSPropertyOp33
 70
     1
102
RTVSPropertyOp34
 70
     1
102
RTVSPropertyOp35
 70
     1
102
RTVSPropertyOp36
 70
     1
102
RTVSPropertyOp37
 70
     1
102
RTVSPropertyOp38
 70
     1
102
RTVSPropertyOp39
 70
     1
102
RTVSPropertyOp40
 70
     1
102
RTVSPropertyOp41
 70
     1
102
RTVSPropertyOp42
 70
     1
102
RTVSPropertyOp43
 70
     1
102
RTVSPropertyOp44
 70
     1
102
RTVSPropertyOp45
 70
     1
102
RTVSPropertyOp46
 70
     1
102
RTVSPropertyOp47
 70
     1
102
RTVSPropertyOp48
 70
     1
102
RTVSPropertyOp49
 70
     1
102
RTVSPropertyOp50
 70
     1
102
RTVSPropertyOp51
 70
     0
102
RTVSPropertyOp52
 70
     0
102
RTVSPropertyOp53
 70
     1
102
RTVSPropertyOp54
 70
     1
102
RTVSPropertyOp55
 70
     1
102
RTVSPropertyOp56
 70
     1
102
RTVSPropertyOp57
 70
     1
102
RTVSPropertyOp58
 70
     1
102
RTVSPropertyOp59
 70
     1
102
RTVSPropertyOp60
 70
     1
102
RTVSPropertyOp61
 70
     1
102
RTVSPropertyOp62
 70
     1
  0
XRECORD
  5
100188
102
{ACAD_REACTORS
330
100187
102
}
330
100187
100
AcDbXrecord
280
     1
102
RTVSPost2010Prop28
280
     0
102
RTVSPost2010PropOp28
 70
     1
102
RTVSPost2010Prop29
280
     1
102
RTVSPost2010PropOp29
 70
     1
102
RTVSPost2010Prop30
280
     1
102
RTVSPost2010PropOp30
 70
     1
102
RTVSPost2010Prop31
280
     0
102
RTVSPost2010PropOp31
 70
     1
102
RTVSPost2010Prop32
280
     0
102
RTVSPost2010PropOp32
 70
     1
102
RTVSPost2010Prop33
280
     0
102
RTVSPost2010PropOp33
 70
     1
102
RTVSPost2010Prop34
280
     0
102
RTVSPost2010PropOp34
 70
     1
102
RTVSPost2010Prop35
280
     0
102
RTVSPost2010PropOp35
 70
     1
102
RTVSPost2010Prop36
280
     0
102
RTVSPost2010PropOp36
 70
     1
102
RTVSPost2010Prop37
 90
       50
102
RTVSPost2010PropOp37
 70
     1
102
RTVSPost2010Prop38
140
0.0
102
RTVSPost2010PropOp38
 70
     1
102
RTVSPost2010Prop39
140
1.0
102
RTVSPost2010PropOp39
 70
     1
102
RTVSPost2010Prop40
 90
        0
102
RTVSPost2010PropOp40
 70
     1
102
RTVSPost2010Prop41ColorIndex
 90
       18
102
RTVSPost2010Prop41ColorRGB
 90
        0
102
RTVSPost2010PropOp41
 70
     1
102
RTVSPost2010Prop42
 90
       50
102
RTVSPost2010PropOp42
 70
     1
102
RTVSPost2010Prop43
 90
        3
102
RTVSPost2010PropOp43
 70
     1
102
RTVSPost2010Prop44ColorIndex
 90
        5
102
RTVSPost2010Prop44ColorRGB
 90
      255
102
RTVSPost2010PropOp44
 70
     1
102
RTVSPost2010Prop45
280
     0
102
RTVSPost2010PropOp45
 70
     1
102
RTVSPost2010Prop46
 90
       50
102
RTVSPost2010PropOp46
 70
     1
102
RTVSPost2010Prop47
 90
       50
102
RTVSPost2010PropOp47
 70
     1
102
RTVSPost2010Prop48
 90
       50
102
RTVSPost2010PropOp48
 70
     1
102
RTVSPost2010Prop49
280
     0
102
RTVSPost2010PropOp49
 70
     1
102
RTVSPost2010Prop50
 90
       50
102
RTVSPost2010PropOp50
 70
     1
102
RTVSPost2010Prop51ColorIndex
 90
      256
102
RTVSPost2010Prop51ColorRGB
 90
-16777216
102
RTVSPost2010PropOp51
 70
     0
102
RTVSPost2010Prop52
140
1.0
102
RTVSPost2010PropOp52
 70
     0
102
RTVSPost2010Prop53
 90
        2
102
RTVSPost2010PropOp53
 70
     1
102
RTVSPost2010Prop54
  1
strokes_ogs.tif
102
RTVSPost2010PropOp54
 70
     1
102
RTVSPost2010Prop55
280
     0
102
RTVSPost2010PropOp55
 70
     1
102
RTVSPost2010Prop56
140
1.0
102
RTVSPost2010PropOp56
 70
     1
102
RTVSPost2010Prop57
140
1.0
102
RTVSPost2010PropOp57
 70
     1
102
RTVSPropertyOp0
 70
     1
102
RTVSPropertyOp1
 70
     1
102
RTVSPropertyOp2
 70
     1
102
RTVSPropertyOp3
 70
     1
102
RTVSPropertyOp4
 70
     1
102
RTVSPropertyOp5
 70
     1
102
RTVSPropertyOp6
 70
     1
102
RTVSPropertyOp7
 70
     1
102
RTVSPropertyOp8
 70
     1
102
RTVSPropertyOp9
 70
     1
102
RTVSPropertyOp10
 70
     1
102
RTVSPropertyOp11
 70
     1
102
RTVSPropertyOp12
 70
     1
102
RTVSPropertyOp13
 70
     1
102
RTVSPropertyOp14
 70
     1
102
RTVSPropertyOp15
 70
     1
102
RTVSPropertyOp16
 70
     1
102
RTVSPropertyOp17
 70
     1
102
RTVSPropertyOp18
 70
     1
102
RTVSPropertyOp19
 70
     1
102
RTVSPropertyOp20
 70
     1
102
RTVSPropertyOp21
 70
     1
102
RTVSPropertyOp22
 70
     1
102
RTVSPropertyOp23
 70
     1
102
RTVSPropertyOp24
 70
     1
102
RTVSPropertyOp25
 70
     1
102
RTVSPropertyOp26
 70
     1
102
RTVSPropertyOp27
 70
     1
102
RTVSPropertyOp28
 70
     1
102
RTVSPropertyOp29
 70
     1
102
RTVSPropertyOp30
 70
     1
102
RTVSPropertyOp31
 70
     1
102
RTVSPropertyOp32
 70
     1
102
RTVSPropertyOp33
 70
     1
102
RTVSPropertyOp34
 70
     1
102
RTVSPropertyOp35
 70
     1
102
RTVSPropertyOp36
 70
     1
102
RTVSPropertyOp37
 70
     1
102
RTVSPropertyOp38
 70
     1
102
RTVSPropertyOp39
 70
     1
102
RTVSPropertyOp40
 70
     1
102
RTVSPropertyOp41
 70
     1
102
RTVSPropertyOp42
 70
     1
102
RTVSPropertyOp43
 70
     1
102
RTVSPropertyOp44
 70
     1
102
RTVSPropertyOp45
 70
     1
102
RTVSPropertyOp46
 70
     1
102
RTVSPropertyOp47
 70
     1
102
RTVSPropertyOp48
 70
     1
102
RTVSPropertyOp49
 70
     1
102
RTVSPropertyOp50
 70
     1
102
RTVSPropertyOp51
 70
     0
102
RTVSPropertyOp52
 70
     0
102
RTVSPropertyOp53
 70
     1
102
RTVSPropertyOp54
 70
     1
102
RTVSPropertyOp55
 70
     1
102
RTVSPropertyOp56
 70
     1
102
RTVSPropertyOp57
 70
     1
102
RTVSPropertyOp58
 70
     1
102
RTVSPropertyOp59
 70
     1
102
RTVSPropertyOp60
 70
     1
102
RTVSPropertyOp61
 70
     1
102
RTVSPropertyOp62
 70
     1
  0
XRECORD
  5
10018C
102
{ACAD_REACTORS
330
10018B
102
}
330
10018B
100
AcDbXrecord
280
     1
102
RTVSPost2010Prop28
280
     0
102
RTVSPost2010PropOp28
 70
     1
102
RTVSPost2010Prop29
280
     1
102
RTVSPost2010PropOp29
 70
     1
102
RTVSPost2010Prop30
280
     1
102
RTVSPost2010PropOp30
 70
     1
102
RTVSPost2010Prop31
280
     0
102
RTVSPost2010PropOp31
 70
     1
102
RTVSPost2010Prop32
280
     0
102
RTVSPost2010PropOp32
 70
     1
102
RTVSPost2010Prop33
280
     0
102
RTVSPost2010PropOp33
 70
     1
102
RTVSPost2010Prop34
280
     0
102
RTVSPost2010PropOp34
 70
     1
102
RTVSPost2010Prop35
280
     0
102
RTVSPost2010PropOp35
 70
     1
102
RTVSPost2010Prop36
280
     0
102
RTVSPost2010PropOp36
 70
     1
102
RTVSPost2010Prop37
 90
       50
102
RTVSPost2010PropOp37
 70
     1
102
RTVSPost2010Prop38
140
0.0
102
RTVSPost2010PropOp38
 70
     1
102
RTVSPost2010Prop39
140
1.0
102
RTVSPost2010PropOp39
 70
     1
102
RTVSPost2010Prop40
 90
        0
102
RTVSPost2010PropOp40
 70
     1
102
RTVSPost2010Prop41ColorIndex
 90
       18
102
RTVSPost2010Prop41ColorRGB
 90
        0
102
RTVSPost2010PropOp41
 70
     1
102
RTVSPost2010Prop42
 90
       50
102
RTVSPost2010PropOp42
 70
     1
102
RTVSPost2010Prop43
 90
        3
102
RTVSPost2010PropOp43
 70
     1
102
RTVSPost2010Prop44ColorIndex
 90
        5
102
RTVSPost2010Prop44ColorRGB
 90
      255
102
RTVSPost2010PropOp44
 70
     1
102
RTVSPost2010Prop45
280
     0
102
RTVSPost2010PropOp45
 70
     1
102
RTVSPost2010Prop46
 90
       50
102
RTVSPost2010PropOp46
 70
     1
102
RTVSPost2010Prop47
 90
       50
102
RTVSPost2010PropOp47
 70
     1
102
RTVSPost2010Prop48
 90
       50
102
RTVSPost2010PropOp48
 70
     1
102
RTVSPost2010Prop49
280
     0
102
RTVSPost2010PropOp49
 70
     1
102
RTVSPost2010Prop50
 90
       50
102
RTVSPost2010PropOp50
 70
     1
102
RTVSPost2010Prop51ColorIndex
 90
      256
102
RTVSPost2010Prop51ColorRGB
 90
-16777216
102
RTVSPost2010PropOp51
 70
     0
102
RTVSPost2010Prop52
140
1.0
102
RTVSPost2010PropOp52
 70
     0
102
RTVSPost2010Prop53
 90
        2
102
RTVSPost2010PropOp53
 70
     1
102
RTVSPost2010Prop54
  1
strokes_ogs.tif
102
RTVSPost2010PropOp54
 70
     1
102
RTVSPost2010Prop55
280
     0
102
RTVSPost2010PropOp55
 70
     1
102
RTVSPost2010Prop56
140
1.0
102
RTVSPost2010PropOp56
 70
     1
102
RTVSPost2010Prop57
140
1.0
102
RTVSPost2010PropOp57
 70
     1
102
RTVSPropertyOp0
 70
     1
102
RTVSPropertyOp1
 70
     1
102
RTVSPropertyOp2
 70
     1
102
RTVSPropertyOp3
 70
     1
102
RTVSPropertyOp4
 70
     1
102
RTVSPropertyOp5
 70
     1
102
RTVSPropertyOp6
 70
     1
102
RTVSPropertyOp7
 70
     1
102
RTVSPropertyOp8
 70
     1
102
RTVSPropertyOp9
 70
     1
102
RTVSPropertyOp10
 70
     1
102
RTVSPropertyOp11
 70
     1
102
RTVSPropertyOp12
 70
     1
102
RTVSPropertyOp13
 70
     1
102
RTVSPropertyOp14
 70
     1
102
RTVSPropertyOp15
 70
     1
102
RTVSPropertyOp16
 70
     1
102
RTVSPropertyOp17
 70
     1
102
RTVSPropertyOp18
 70
     1
102
RTVSPropertyOp19
 70
     1
102
RTVSPropertyOp20
 70
     1
102
RTVSPropertyOp21
 70
     1
102
RTVSPropertyOp22
 70
     1
102
RTVSPropertyOp23
 70
     1
102
RTVSPropertyOp24
 70
     1
102
RTVSPropertyOp25
 70
     1
102
RTVSPropertyOp26
 70
     1
102
RTVSPropertyOp27
 70
     1
102
RTVSPropertyOp28
 70
     1
102
RTVSPropertyOp29
 70
     1
102
RTVSPropertyOp30
 70
     1
102
RTVSPropertyOp31
 70
     1
102
RTVSPropertyOp32
 70
     1
102
RTVSPropertyOp33
 70
     1
102
RTVSPropertyOp34
 70
     1
102
RTVSPropertyOp35
 70
     1
102
RTVSPropertyOp36
 70
     1
102
RTVSPropertyOp37
 70
     1
102
RTVSPropertyOp38
 70
     1
102
RTVSPropertyOp39
 70
     1
102
RTVSPropertyOp40
 70
     1
102
RTVSPropertyOp41
 70
     1
102
RTVSPropertyOp42
 70
     1
102
RTVSPropertyOp43
 70
     1
102
RTVSPropertyOp44
 70
     1
102
RTVSPropertyOp45
 70
     1
102
RTVSPropertyOp46
 70
     1
102
RTVSPropertyOp47
 70
     1
102
RTVSPropertyOp48
 70
     1
102
RTVSPropertyOp49
 70
     1
102
RTVSPropertyOp50
 70
     1
102
RTVSPropertyOp51
 70
     0
102
RTVSPropertyOp52
 70
     0
102
RTVSPropertyOp53
 70
     1
102
RTVSPropertyOp54
 70
     1
102
RTVSPropertyOp55
 70
     1
102
RTVSPropertyOp56
 70
     1
102
RTVSPropertyOp57
 70
     1
102
RTVSPropertyOp58
 70
     1
102
RTVSPropertyOp59
 70
     1
102
RTVSPropertyOp60
 70
     1
102
RTVSPropertyOp61
 70
     1
102
RTVSPropertyOp62
 70
     1
  0
XRECORD
  5
1001A6
102
{ACAD_REACTORS
330
1001A5
102
}
330
1001A5
100
AcDbXrecord
280
     1
102
RTVSPost2010Prop28
280
     0
102
RTVSPost2010PropOp28
 70
     0
102
RTVSPost2010Prop29
280
     1
102
RTVSPost2010PropOp29
 70
     0
102
RTVSPost2010Prop30
280
     1
102
RTVSPost2010PropOp30
 70
     0
102
RTVSPost2010Prop31
280
     0
102
RTVSPost2010PropOp31
 70
     0
102
RTVSPost2010Prop32
280
     0
102
RTVSPost2010PropOp32
 70
     0
102
RTVSPost2010Prop33
280
     0
102
RTVSPost2010PropOp33
 70
     0
102
RTVSPost2010Prop34
280
     0
102
RTVSPost2010PropOp34
 70
     0
102
RTVSPost2010Prop35
280
     0
102
RTVSPost2010PropOp35
 70
     0
102
RTVSPost2010Prop36
280
     0
102
RTVSPost2010PropOp36
 70
     0
102
RTVSPost2010Prop37
 90
       50
102
RTVSPost2010PropOp37
 70
     0
102
RTVSPost2010Prop38
140
0.0
102
RTVSPost2010PropOp38
 70
     0
102
RTVSPost2010Prop39
140
1.0
102
RTVSPost2010PropOp39
 70
     0
102
RTVSPost2010Prop40
 90
        0
102
RTVSPost2010PropOp40
 70
     0
102
RTVSPost2010Prop41ColorIndex
 90
       18
102
RTVSPost2010Prop41ColorRGB
 90
        0
102
RTVSPost2010PropOp41
 70
     0
102
RTVSPost2010Prop42
 90
       50
102
RTVSPost2010PropOp42
 70
     0
102
RTVSPost2010Prop43
 90
        3
102
RTVSPost2010PropOp43
 70
     0
102
RTVSPost2010Prop44ColorIndex
 90
        5
102
RTVSPost2010Prop44ColorRGB
 90
      255
102
RTVSPost2010PropOp44
 70
     0
102
RTVSPost2010Prop45
280
     0
102
RTVSPost2010PropOp45
 70
     0
102
RTVSPost2010Prop46
 90
       50
102
RTVSPost2010PropOp46
 70
     0
102
RTVSPost2010Prop47
 90
       50
102
RTVSPost2010PropOp47
 70
     0
102
RTVSPost2010Prop48
 90
       50
102
RTVSPost2010PropOp48
 70
     0
102
RTVSPost2010Prop49
280
     0
102
RTVSPost2010PropOp49
 70
     0
102
RTVSPost2010Prop50
 90
       50
102
RTVSPost2010PropOp50
 70
     0
102
RTVSPost2010Prop51ColorIndex
 90
      256
102
RTVSPost2010Prop51ColorRGB
 90
-16777216
102
RTVSPost2010PropOp51
 70
     0
102
RTVSPost2010Prop52
140
1.0
102
RTVSPost2010PropOp52
 70
     0
102
RTVSPost2010Prop53
 90
        2
102
RTVSPost2010PropOp53
 70
     0
102
RTVSPost2010Prop54
  1
strokes_ogs.tif
102
RTVSPost2010PropOp54
 70
     0
102
RTVSPost2010Prop55
280
     0
102
RTVSPost2010PropOp55
 70
     0
102
RTVSPost2010Prop56
140
1.0
102
RTVSPost2010PropOp56
 70
     0
102
RTVSPost2010Prop57
140
1.0
102
RTVSPost2010PropOp57
 70
     0
102
RTVSPropertyOp0
 70
     0
102
RTVSPropertyOp1
 70
     0
102
RTVSPropertyOp2
 70
     0
102
RTVSPropertyOp3
 70
     0
102
RTVSPropertyOp4
 70
     0
102
RTVSPropertyOp5
 70
     0
102
RTVSPropertyOp6
 70
     0
102
RTVSPropertyOp7
 70
     0
102
RTVSPropertyOp8
 70
     0
102
RTVSPropertyOp9
 70
     0
102
RTVSPropertyOp10
 70
     0
102
RTVSPropertyOp11
 70
     0
102
RTVSPropertyOp12
 70
     0
102
RTVSPropertyOp13
 70
     0
102
RTVSPropertyOp14
 70
     2
102
RTVSPropertyOp15
 70
     0
102
RTVSPropertyOp16
 70
     0
102
RTVSPropertyOp17
 70
     0
102
RTVSPropertyOp18
 70
     0
102
RTVSPropertyOp19
 70
     0
102
RTVSPropertyOp20
 70
     0
102
RTVSPropertyOp21
 70
     0
102
RTVSPropertyOp22
 70
     0
102
RTVSPropertyOp23
 70
     0
102
RTVSPropertyOp24
 70
     0
102
RTVSPropertyOp25
 70
     0
102
RTVSPropertyOp26
 70
     0
102
RTVSPropertyOp27
 70
     0
102
RTVSPropertyOp28
 70
     0
102
RTVSPropertyOp29
 70
     0
102
RTVSPropertyOp30
 70
     0
102
RTVSPropertyOp31
 70
     0
102
RTVSPropertyOp32
 70
     0
102
RTVSPropertyOp33
 70
     0
102
RTVSPropertyOp34
 70
     0
102
RTVSPropertyOp35
 70
     0
102
RTVSPropertyOp36
 70
     0
102
RTVSPropertyOp37
 70
     0
102
RTVSPropertyOp38
 70
     0
102
RTVSPropertyOp39
 70
     0
102
RTVSPropertyOp40
 70
     0
102
RTVSPropertyOp41
 70
     0
102
RTVSPropertyOp42
 70
     0
102
RTVSPropertyOp43
 70
     0
102
RTVSPropertyOp44
 70
     0
102
RTVSPropertyOp45
 70
     0
102
RTVSPropertyOp46
 70
     0
102
RTVSPropertyOp47
 70
     0
102
RTVSPropertyOp48
 70
     0
102
RTVSPropertyOp49
 70
     0
102
RTVSPropertyOp50
 70
     0
102
RTVSPropertyOp51
 70
     0
102
RTVSPropertyOp52
 70
     0
102
RTVSPropertyOp53
 70
     0
102
RTVSPropertyOp54
 70
     0
102
RTVSPropertyOp55
 70
     0
102
RTVSPropertyOp56
 70
     0
102
RTVSPropertyOp57
 70
     0
102
RTVSPropertyOp58
 70
     0
102
RTVSPropertyOp59
 70
     0
102
RTVSPropertyOp60
 70
     0
102
RTVSPropertyOp61
 70
     0
102
RTVSPropertyOp62
 70
     0
  0
XRECORD
  5
100194
102
{ACAD_REACTORS
330
100193
102
}
330
100193
100
AcDbXrecord
280
     1
102
RTVSPost2010Prop28
280
     0
102
RTVSPost2010PropOp28
 70
     1
102
RTVSPost2010Prop29
280
     1
102
RTVSPost2010PropOp29
 70
     1
102
RTVSPost2010Prop30
280
     1
102
RTVSPost2010PropOp30
 70
     1
102
RTVSPost2010Prop31
280
     0
102
RTVSPost2010PropOp31
 70
     1
102
RTVSPost2010Prop32
280
     0
102
RTVSPost2010PropOp32
 70
     1
102
RTVSPost2010Prop33
280
     0
102
RTVSPost2010PropOp33
 70
     1
102
RTVSPost2010Prop34
280
     0
102
RTVSPost2010PropOp34
 70
     1
102
RTVSPost2010Prop35
280
     0
102
RTVSPost2010PropOp35
 70
     1
102
RTVSPost2010Prop36
280
     0
102
RTVSPost2010PropOp36
 70
     1
102
RTVSPost2010Prop37
 90
       50
102
RTVSPost2010PropOp37
 70
     1
102
RTVSPost2010Prop38
140
0.0
102
RTVSPost2010PropOp38
 70
     1
102
RTVSPost2010Prop39
140
1.0
102
RTVSPost2010PropOp39
 70
     1
102
RTVSPost2010Prop40
 90
        0
102
RTVSPost2010PropOp40
 70
     1
102
RTVSPost2010Prop41ColorIndex
 90
       18
102
RTVSPost2010Prop41ColorRGB
 90
        0
102
RTVSPost2010PropOp41
 70
     1
102
RTVSPost2010Prop42
 90
       50
102
RTVSPost2010PropOp42
 70
     1
102
RTVSPost2010Prop43
 90
        3
102
RTVSPost2010PropOp43
 70
     1
102
RTVSPost2010Prop44ColorIndex
 90
        5
102
RTVSPost2010Prop44ColorRGB
 90
      255
102
RTVSPost2010PropOp44
 70
     1
102
RTVSPost2010Prop45
280
     0
102
RTVSPost2010PropOp45
 70
     1
102
RTVSPost2010Prop46
 90
       50
102
RTVSPost2010PropOp46
 70
     1
102
RTVSPost2010Prop47
 90
       50
102
RTVSPost2010PropOp47
 70
     1
102
RTVSPost2010Prop48
 90
       50
102
RTVSPost2010PropOp48
 70
     1
102
RTVSPost2010Prop49
280
     0
102
RTVSPost2010PropOp49
 70
     1
102
RTVSPost2010Prop50
 90
       50
102
RTVSPost2010PropOp50
 70
     1
102
RTVSPost2010Prop51ColorIndex
 90
      256
102
RTVSPost2010Prop51ColorRGB
 90
-16777216
102
RTVSPost2010PropOp51
 70
     0
102
RTVSPost2010Prop52
140
1.0
102
RTVSPost2010PropOp52
 70
     0
102
RTVSPost2010Prop53
 90
        2
102
RTVSPost2010PropOp53
 70
     1
102
RTVSPost2010Prop54
  1
strokes_ogs.tif
102
RTVSPost2010PropOp54
 70
     1
102
RTVSPost2010Prop55
280
     0
102
RTVSPost2010PropOp55
 70
     1
102
RTVSPost2010Prop56
140
1.0
102
RTVSPost2010PropOp56
 70
     1
102
RTVSPost2010Prop57
140
1.0
102
RTVSPost2010PropOp57
 70
     1
102
RTVSPropertyOp0
 70
     1
102
RTVSPropertyOp1
 70
     1
102
RTVSPropertyOp2
 70
     1
102
RTVSPropertyOp3
 70
     1
102
RTVSPropertyOp4
 70
     1
102
RTVSPropertyOp5
 70
     1
102
RTVSPropertyOp6
 70
     1
102
RTVSPropertyOp7
 70
     1
102
RTVSPropertyOp8
 70
     1
102
RTVSPropertyOp9
 70
     1
102
RTVSPropertyOp10
 70
     1
102
RTVSPropertyOp11
 70
     1
102
RTVSPropertyOp12
 70
     1
102
RTVSPropertyOp13
 70
     1
102
RTVSPropertyOp14
 70
     1
102
RTVSPropertyOp15
 70
     1
102
RTVSPropertyOp16
 70
     1
102
RTVSPropertyOp17
 70
     1
102
RTVSPropertyOp18
 70
     1
102
RTVSPropertyOp19
 70
     1
102
RTVSPropertyOp20
 70
     1
102
RTVSPropertyOp21
 70
     1
102
RTVSPropertyOp22
 70
     1
102
RTVSPropertyOp23
 70
     1
102
RTVSPropertyOp24
 70
     1
102
RTVSPropertyOp25
 70
     1
102
RTVSPropertyOp26
 70
     1
102
RTVSPropertyOp27
 70
     1
102
RTVSPropertyOp28
 70
     1
102
RTVSPropertyOp29
 70
     1
102
RTVSPropertyOp30
 70
     1
102
RTVSPropertyOp31
 70
     1
102
RTVSPropertyOp32
 70
     1
102
RTVSPropertyOp33
 70
     1
102
RTVSPropertyOp34
 70
     1
102
RTVSPropertyOp35
 70
     1
102
RTVSPropertyOp36
 70
     1
102
RTVSPropertyOp37
 70
     1
102
RTVSPropertyOp38
 70
     1
102
RTVSPropertyOp39
 70
     1
102
RTVSPropertyOp40
 70
     1
102
RTVSPropertyOp41
 70
     1
102
RTVSPropertyOp42
 70
     1
102
RTVSPropertyOp43
 70
     1
102
RTVSPropertyOp44
 70
     1
102
RTVSPropertyOp45
 70
     1
102
RTVSPropertyOp46
 70
     1
102
RTVSPropertyOp47
 70
     1
102
RTVSPropertyOp48
 70
     1
102
RTVSPropertyOp49
 70
     1
102
RTVSPropertyOp50
 70
     1
102
RTVSPropertyOp51
 70
     0
102
RTVSPropertyOp52
 70
     0
102
RTVSPropertyOp53
 70
     1
102
RTVSPropertyOp54
 70
     1
102
RTVSPropertyOp55
 70
     1
102
RTVSPropertyOp56
 70
     1
102
RTVSPropertyOp57
 70
     1
102
RTVSPropertyOp58
 70
     1
102
RTVSPropertyOp59
 70
     1
102
RTVSPropertyOp60
 70
     1
102
RTVSPropertyOp61
 70
     1
102
RTVSPropertyOp62
 70
     1
  0
XRECORD
  5
100178
102
{ACAD_REACTORS
330
100177
102
}
330
100177
100
AcDbXrecord
280
     1
102
RTVSPost2010Prop28
280
     0
102
RTVSPost2010PropOp28
 70
     1
102
RTVSPost2010Prop29
280
     1
102
RTVSPost2010PropOp29
 70
     1
102
RTVSPost2010Prop30
280
     1
102
RTVSPost2010PropOp30
 70
     1
102
RTVSPost2010Prop31
280
     0
102
RTVSPost2010PropOp31
 70
     1
102
RTVSPost2010Prop32
280
     0
102
RTVSPost2010PropOp32
 70
     1
102
RTVSPost2010Prop33
280
     0
102
RTVSPost2010PropOp33
 70
     1
102
RTVSPost2010Prop34
280
     0
102
RTVSPost2010PropOp34
 70
     1
102
RTVSPost2010Prop35
280
     0
102
RTVSPost2010PropOp35
 70
     1
102
RTVSPost2010Prop36
280
     0
102
RTVSPost2010PropOp36
 70
     1
102
RTVSPost2010Prop37
 90
       50
102
RTVSPost2010PropOp37
 70
     1
102
RTVSPost2010Prop38
140
0.0
102
RTVSPost2010PropOp38
 70
     1
102
RTVSPost2010Prop39
140
1.0
102
RTVSPost2010PropOp39
 70
     1
102
RTVSPost2010Prop40
 90
        0
102
RTVSPost2010PropOp40
 70
     1
102
RTVSPost2010Prop41ColorIndex
 90
       18
102
RTVSPost2010Prop41ColorRGB
 90
        0
102
RTVSPost2010PropOp41
 70
     1
102
RTVSPost2010Prop42
 90
       50
102
RTVSPost2010PropOp42
 70
     1
102
RTVSPost2010Prop43
 90
        3
102
RTVSPost2010PropOp43
 70
     1
102
RTVSPost2010Prop44ColorIndex
 90
        5
102
RTVSPost2010Prop44ColorRGB
 90
      255
102
RTVSPost2010PropOp44
 70
     1
102
RTVSPost2010Prop45
280
     0
102
RTVSPost2010PropOp45
 70
     1
102
RTVSPost2010Prop46
 90
       50
102
RTVSPost2010PropOp46
 70
     1
102
RTVSPost2010Prop47
 90
       50
102
RTVSPost2010PropOp47
 70
     1
102
RTVSPost2010Prop48
 90
       50
102
RTVSPost2010PropOp48
 70
     1
102
RTVSPost2010Prop49
280
     0
102
RTVSPost2010PropOp49
 70
     1
102
RTVSPost2010Prop50
 90
       50
102
RTVSPost2010PropOp50
 70
     1
102
RTVSPost2010Prop51ColorIndex
 90
      256
102
RTVSPost2010Prop51ColorRGB
 90
-16777216
102
RTVSPost2010PropOp51
 70
     0
102
RTVSPost2010Prop52
140
1.0
102
RTVSPost2010PropOp52
 70
     0
102
RTVSPost2010Prop53
 90
        2
102
RTVSPost2010PropOp53
 70
     1
102
RTVSPost2010Prop54
  1
strokes_ogs.tif
102
RTVSPost2010PropOp54
 70
     1
102
RTVSPost2010Prop55
280
     0
102
RTVSPost2010PropOp55
 70
     1
102
RTVSPost2010Prop56
140
1.0
102
RTVSPost2010PropOp56
 70
     1
102
RTVSPost2010Prop57
140
1.0
102
RTVSPost2010PropOp57
 70
     1
102
RTVSPropertyOp0
 70
     1
102
RTVSPropertyOp1
 70
     1
102
RTVSPropertyOp2
 70
     1
102
RTVSPropertyOp3
 70
     1
102
RTVSPropertyOp4
 70
     1
102
RTVSPropertyOp5
 70
     1
102
RTVSPropertyOp6
 70
     1
102
RTVSPropertyOp7
 70
     1
102
RTVSPropertyOp8
 70
     1
102
RTVSPropertyOp9
 70
     1
102
RTVSPropertyOp10
 70
     1
102
RTVSPropertyOp11
 70
     1
102
RTVSPropertyOp12
 70
     1
102
RTVSPropertyOp13
 70
     1
102
RTVSPropertyOp14
 70
     1
102
RTVSPropertyOp15
 70
     1
102
RTVSPropertyOp16
 70
     1
102
RTVSPropertyOp17
 70
     1
102
RTVSPropertyOp18
 70
     1
102
RTVSPropertyOp19
 70
     1
102
RTVSPropertyOp20
 70
     1
102
RTVSPropertyOp21
 70
     1
102
RTVSPropertyOp22
 70
     1
102
RTVSPropertyOp23
 70
     1
102
RTVSPropertyOp24
 70
     1
102
RTVSPropertyOp25
 70
     1
102
RTVSPropertyOp26
 70
     1
102
RTVSPropertyOp27
 70
     1
102
RTVSPropertyOp28
 70
     1
102
RTVSPropertyOp29
 70
     1
102
RTVSPropertyOp30
 70
     1
102
RTVSPropertyOp31
 70
     1
102
RTVSPropertyOp32
 70
     1
102
RTVSPropertyOp33
 70
     1
102
RTVSPropertyOp34
 70
     1
102
RTVSPropertyOp35
 70
     1
102
RTVSPropertyOp36
 70
     1
102
RTVSPropertyOp37
 70
     1
102
RTVSPropertyOp38
 70
     1
102
RTVSPropertyOp39
 70
     1
102
RTVSPropertyOp40
 70
     1
102
RTVSPropertyOp41
 70
     1
102
RTVSPropertyOp42
 70
     1
102
RTVSPropertyOp43
 70
     1
102
RTVSPropertyOp44
 70
     1
102
RTVSPropertyOp45
 70
     1
102
RTVSPropertyOp46
 70
     1
102
RTVSPropertyOp47
 70
     1
102
RTVSPropertyOp48
 70
     1
102
RTVSPropertyOp49
 70
     1
102
RTVSPropertyOp50
 70
     1
102
RTVSPropertyOp51
 70
     0
102
RTVSPropertyOp52
 70
     0
102
RTVSPropertyOp53
 70
     1
102
RTVSPropertyOp54
 70
     1
102
RTVSPropertyOp55
 70
     1
102
RTVSPropertyOp56
 70
     1
102
RTVSPropertyOp57
 70
     1
102
RTVSPropertyOp58
 70
     1
102
RTVSPropertyOp59
 70
     1
102
RTVSPropertyOp60
 70
     1
102
RTVSPropertyOp61
 70
     1
102
RTVSPropertyOp62
 70
     1
  0
XRECORD
  5
10017A
102
{ACAD_REACTORS
330
100179
102
}
330
100179
100
AcDbXrecord
280
     1
102
RTVSPost2010Prop28
280
     0
102
RTVSPost2010PropOp28
 70
     1
102
RTVSPost2010Prop29
280
     1
102
RTVSPost2010PropOp29
 70
     1
102
RTVSPost2010Prop30
280
     1
102
RTVSPost2010PropOp30
 70
     1
102
RTVSPost2010Prop31
280
     0
102
RTVSPost2010PropOp31
 70
     1
102
RTVSPost2010Prop32
280
     0
102
RTVSPost2010PropOp32
 70
     1
102
RTVSPost2010Prop33
280
     0
102
RTVSPost2010PropOp33
 70
     1
102
RTVSPost2010Prop34
280
     0
102
RTVSPost2010PropOp34
 70
     1
102
RTVSPost2010Prop35
280
     0
102
RTVSPost2010PropOp35
 70
     1
102
RTVSPost2010Prop36
280
     0
102
RTVSPost2010PropOp36
 70
     1
102
RTVSPost2010Prop37
 90
       50
102
RTVSPost2010PropOp37
 70
     1
102
RTVSPost2010Prop38
140
0.0
102
RTVSPost2010PropOp38
 70
     1
102
RTVSPost2010Prop39
140
1.0
102
RTVSPost2010PropOp39
 70
     1
102
RTVSPost2010Prop40
 90
        0
102
RTVSPost2010PropOp40
 70
     1
102
RTVSPost2010Prop41ColorIndex
 90
       18
102
RTVSPost2010Prop41ColorRGB
 90
        0
102
RTVSPost2010PropOp41
 70
     1
102
RTVSPost2010Prop42
 90
       50
102
RTVSPost2010PropOp42
 70
     1
102
RTVSPost2010Prop43
 90
        3
102
RTVSPost2010PropOp43
 70
     1
102
RTVSPost2010Prop44ColorIndex
 90
        5
102
RTVSPost2010Prop44ColorRGB
 90
      255
102
RTVSPost2010PropOp44
 70
     1
102
RTVSPost2010Prop45
280
     0
102
RTVSPost2010PropOp45
 70
     1
102
RTVSPost2010Prop46
 90
       50
102
RTVSPost2010PropOp46
 70
     1
102
RTVSPost2010Prop47
 90
       50
102
RTVSPost2010PropOp47
 70
     1
102
RTVSPost2010Prop48
 90
       50
102
RTVSPost2010PropOp48
 70
     1
102
RTVSPost2010Prop49
280
     0
102
RTVSPost2010PropOp49
 70
     1
102
RTVSPost2010Prop50
 90
       50
102
RTVSPost2010PropOp50
 70
     1
102
RTVSPost2010Prop51ColorIndex
 90
      256
102
RTVSPost2010Prop51ColorRGB
 90
-16777216
102
RTVSPost2010PropOp51
 70
     0
102
RTVSPost2010Prop52
140
1.0
102
RTVSPost2010PropOp52
 70
     0
102
RTVSPost2010Prop53
 90
        2
102
RTVSPost2010PropOp53
 70
     1
102
RTVSPost2010Prop54
  1
strokes_ogs.tif
102
RTVSPost2010PropOp54
 70
     1
102
RTVSPost2010Prop55
280
     0
102
RTVSPost2010PropOp55
 70
     1
102
RTVSPost2010Prop56
140
1.0
102
RTVSPost2010PropOp56
 70
     1
102
RTVSPost2010Prop57
140
1.0
102
RTVSPost2010PropOp57
 70
     1
102
RTVSPropertyOp0
 70
     1
102
RTVSPropertyOp1
 70
     1
102
RTVSPropertyOp2
 70
     1
102
RTVSPropertyOp3
 70
     1
102
RTVSPropertyOp4
 70
     1
102
RTVSPropertyOp5
 70
     1
102
RTVSPropertyOp6
 70
     1
102
RTVSPropertyOp7
 70
     1
102
RTVSPropertyOp8
 70
     1
102
RTVSPropertyOp9
 70
     1
102
RTVSPropertyOp10
 70
     1
102
RTVSPropertyOp11
 70
     1
102
RTVSPropertyOp12
 70
     1
102
RTVSPropertyOp13
 70
     1
102
RTVSPropertyOp14
 70
     1
102
RTVSPropertyOp15
 70
     1
102
RTVSPropertyOp16
 70
     1
102
RTVSPropertyOp17
 70
     1
102
RTVSPropertyOp18
 70
     1
102
RTVSPropertyOp19
 70
     1
102
RTVSPropertyOp20
 70
     1
102
RTVSPropertyOp21
 70
     1
102
RTVSPropertyOp22
 70
     1
102
RTVSPropertyOp23
 70
     1
102
RTVSPropertyOp24
 70
     1
102
RTVSPropertyOp25
 70
     1
102
RTVSPropertyOp26
 70
     1
102
RTVSPropertyOp27
 70
     1
102
RTVSPropertyOp28
 70
     1
102
RTVSPropertyOp29
 70
     1
102
RTVSPropertyOp30
 70
     1
102
RTVSPropertyOp31
 70
     1
102
RTVSPropertyOp32
 70
     1
102
RTVSPropertyOp33
 70
     1
102
RTVSPropertyOp34
 70
     1
102
RTVSPropertyOp35
 70
     1
102
RTVSPropertyOp36
 70
     1
102
RTVSPropertyOp37
 70
     1
102
RTVSPropertyOp38
 70
     1
102
RTVSPropertyOp39
 70
     1
102
RTVSPropertyOp40
 70
     1
102
RTVSPropertyOp41
 70
     1
102
RTVSPropertyOp42
 70
     1
102
RTVSPropertyOp43
 70
     1
102
RTVSPropertyOp44
 70
     1
102
RTVSPropertyOp45
 70
     1
102
RTVSPropertyOp46
 70
     1
102
RTVSPropertyOp47
 70
     1
102
RTVSPropertyOp48
 70
     1
102
RTVSPropertyOp49
 70
     1
102
RTVSPropertyOp50
 70
     1
102
RTVSPropertyOp51
 70
     0
102
RTVSPropertyOp52
 70
     0
102
RTVSPropertyOp53
 70
     1
102
RTVSPropertyOp54
 70
     1
102
RTVSPropertyOp55
 70
     1
102
RTVSPropertyOp56
 70
     1
102
RTVSPropertyOp57
 70
     1
102
RTVSPropertyOp58
 70
     1
102
RTVSPropertyOp59
 70
     1
102
RTVSPropertyOp60
 70
     1
102
RTVSPropertyOp61
 70
     1
102
RTVSPropertyOp62
 70
     1
  0
XRECORD
  5
10017C
102
{ACAD_REACTORS
330
10017B
102
}
330
10017B
100
AcDbXrecord
280
     1
102
RTVSPost2010Prop28
280
     0
102
RTVSPost2010PropOp28
 70
     1
102
RTVSPost2010Prop29
280
     1
102
RTVSPost2010PropOp29
 70
     1
102
RTVSPost2010Prop30
280
     1
102
RTVSPost2010PropOp30
 70
     1
102
RTVSPost2010Prop31
280
     0
102
RTVSPost2010PropOp31
 70
     1
102
RTVSPost2010Prop32
280
     0
102
RTVSPost2010PropOp32
 70
     1
102
RTVSPost2010Prop33
280
     0
102
RTVSPost2010PropOp33
 70
     1
102
RTVSPost2010Prop34
280
     0
102
RTVSPost2010PropOp34
 70
     1
102
RTVSPost2010Prop35
280
     0
102
RTVSPost2010PropOp35
 70
     1
102
RTVSPost2010Prop36
280
     0
102
RTVSPost2010PropOp36
 70
     1
102
RTVSPost2010Prop37
 90
       50
102
RTVSPost2010PropOp37
 70
     1
102
RTVSPost2010Prop38
140
0.0
102
RTVSPost2010PropOp38
 70
     1
102
RTVSPost2010Prop39
140
1.0
102
RTVSPost2010PropOp39
 70
     1
102
RTVSPost2010Prop40
 90
        0
102
RTVSPost2010PropOp40
 70
     1
102
RTVSPost2010Prop41ColorIndex
 90
       18
102
RTVSPost2010Prop41ColorRGB
 90
        0
102
RTVSPost2010PropOp41
 70
     1
102
RTVSPost2010Prop42
 90
       50
102
RTVSPost2010PropOp42
 70
     1
102
RTVSPost2010Prop43
 90
        3
102
RTVSPost2010PropOp43
 70
     1
102
RTVSPost2010Prop44ColorIndex
 90
        5
102
RTVSPost2010Prop44ColorRGB
 90
      255
102
RTVSPost2010PropOp44
 70
     1
102
RTVSPost2010Prop45
280
     0
102
RTVSPost2010PropOp45
 70
     1
102
RTVSPost2010Prop46
 90
       50
102
RTVSPost2010PropOp46
 70
     1
102
RTVSPost2010Prop47
 90
       50
102
RTVSPost2010PropOp47
 70
     1
102
RTVSPost2010Prop48
 90
       50
102
RTVSPost2010PropOp48
 70
     1
102
RTVSPost2010Prop49
280
     0
102
RTVSPost2010PropOp49
 70
     1
102
RTVSPost2010Prop50
 90
       50
102
RTVSPost2010PropOp50
 70
     1
102
RTVSPost2010Prop51ColorIndex
 90
      256
102
RTVSPost2010Prop51ColorRGB
 90
-16777216
102
RTVSPost2010PropOp51
 70
     0
102
RTVSPost2010Prop52
140
1.0
102
RTVSPost2010PropOp52
 70
     0
102
RTVSPost2010Prop53
 90
        2
102
RTVSPost2010PropOp53
 70
     1
102
RTVSPost2010Prop54
  1
strokes_ogs.tif
102
RTVSPost2010PropOp54
 70
     1
102
RTVSPost2010Prop55
280
     0
102
RTVSPost2010PropOp55
 70
     1
102
RTVSPost2010Prop56
140
1.0
102
RTVSPost2010PropOp56
 70
     1
102
RTVSPost2010Prop57
140
1.0
102
RTVSPost2010PropOp57
 70
     1
102
RTVSPropertyOp0
 70
     1
102
RTVSPropertyOp1
 70
     1
102
RTVSPropertyOp2
 70
     1
102
RTVSPropertyOp3
 70
     1
102
RTVSPropertyOp4
 70
     1
102
RTVSPropertyOp5
 70
     1
102
RTVSPropertyOp6
 70
     1
102
RTVSPropertyOp7
 70
     1
102
RTVSPropertyOp8
 70
     1
102
RTVSPropertyOp9
 70
     1
102
RTVSPropertyOp10
 70
     1
102
RTVSPropertyOp11
 70
     1
102
RTVSPropertyOp12
 70
     1
102
RTVSPropertyOp13
 70
     1
102
RTVSPropertyOp14
 70
     1
102
RTVSPropertyOp15
 70
     1
102
RTVSPropertyOp16
 70
     1
102
RTVSPropertyOp17
 70
     1
102
RTVSPropertyOp18
 70
     1
102
RTVSPropertyOp19
 70
     1
102
RTVSPropertyOp20
 70
     1
102
RTVSPropertyOp21
 70
     1
102
RTVSPropertyOp22
 70
     1
102
RTVSPropertyOp23
 70
     1
102
RTVSPropertyOp24
 70
     1
102
RTVSPropertyOp25
 70
     1
102
RTVSPropertyOp26
 70
     1
102
RTVSPropertyOp27
 70
     1
102
RTVSPropertyOp28
 70
     1
102
RTVSPropertyOp29
 70
     1
102
RTVSPropertyOp30
 70
     1
102
RTVSPropertyOp31
 70
     1
102
RTVSPropertyOp32
 70
     1
102
RTVSPropertyOp33
 70
     1
102
RTVSPropertyOp34
 70
     1
102
RTVSPropertyOp35
 70
     1
102
RTVSPropertyOp36
 70
     1
102
RTVSPropertyOp37
 70
     1
102
RTVSPropertyOp38
 70
     1
102
RTVSPropertyOp39
 70
     1
102
RTVSPropertyOp40
 70
     1
102
RTVSPropertyOp41
 70
     1
102
RTVSPropertyOp42
 70
     1
102
RTVSPropertyOp43
 70
     1
102
RTVSPropertyOp44
 70
     1
102
RTVSPropertyOp45
 70
     1
102
RTVSPropertyOp46
 70
     1
102
RTVSPropertyOp47
 70
     1
102
RTVSPropertyOp48
 70
     1
102
RTVSPropertyOp49
 70
     1
102
RTVSPropertyOp50
 70
     1
102
RTVSPropertyOp51
 70
     0
102
RTVSPropertyOp52
 70
     0
102
RTVSPropertyOp53
 70
     1
102
RTVSPropertyOp54
 70
     1
102
RTVSPropertyOp55
 70
     1
102
RTVSPropertyOp56
 70
     1
102
RTVSPropertyOp57
 70
     1
102
RTVSPropertyOp58
 70
     1
102
RTVSPropertyOp59
 70
     1
102
RTVSPropertyOp60
 70
     1
102
RTVSPropertyOp61
 70
     1
102
RTVSPropertyOp62
 70
     1
  0
XRECORD
  5
10017E
102
{ACAD_REACTORS
330
10017D
102
}
330
10017D
100
AcDbXrecord
280
     1
102
RTVSPost2010Prop28
280
     0
102
RTVSPost2010PropOp28
 70
     1
102
RTVSPost2010Prop29
280
     1
102
RTVSPost2010PropOp29
 70
     1
102
RTVSPost2010Prop30
280
     1
102
RTVSPost2010PropOp30
 70
     1
102
RTVSPost2010Prop31
280
     0
102
RTVSPost2010PropOp31
 70
     1
102
RTVSPost2010Prop32
280
     0
102
RTVSPost2010PropOp32
 70
     1
102
RTVSPost2010Prop33
280
     0
102
RTVSPost2010PropOp33
 70
     1
102
RTVSPost2010Prop34
280
     0
102
RTVSPost2010PropOp34
 70
     1
102
RTVSPost2010Prop35
280
     0
102
RTVSPost2010PropOp35
 70
     1
102
RTVSPost2010Prop36
280
     0
102
RTVSPost2010PropOp36
 70
     1
102
RTVSPost2010Prop37
 90
       50
102
RTVSPost2010PropOp37
 70
     1
102
RTVSPost2010Prop38
140
0.0
102
RTVSPost2010PropOp38
 70
     1
102
RTVSPost2010Prop39
140
1.0
102
RTVSPost2010PropOp39
 70
     1
102
RTVSPost2010Prop40
 90
        0
102
RTVSPost2010PropOp40
 70
     1
102
RTVSPost2010Prop41ColorIndex
 90
       18
102
RTVSPost2010Prop41ColorRGB
 90
        0
102
RTVSPost2010PropOp41
 70
     1
102
RTVSPost2010Prop42
 90
       50
102
RTVSPost2010PropOp42
 70
     1
102
RTVSPost2010Prop43
 90
        3
102
RTVSPost2010PropOp43
 70
     1
102
RTVSPost2010Prop44ColorIndex
 90
        5
102
RTVSPost2010Prop44ColorRGB
 90
      255
102
RTVSPost2010PropOp44
 70
     1
102
RTVSPost2010Prop45
280
     0
102
RTVSPost2010PropOp45
 70
     1
102
RTVSPost2010Prop46
 90
       50
102
RTVSPost2010PropOp46
 70
     1
102
RTVSPost2010Prop47
 90
       50
102
RTVSPost2010PropOp47
 70
     1
102
RTVSPost2010Prop48
 90
       50
102
RTVSPost2010PropOp48
 70
     1
102
RTVSPost2010Prop49
280
     0
102
RTVSPost2010PropOp49
 70
     1
102
RTVSPost2010Prop50
 90
       50
102
RTVSPost2010PropOp50
 70
     1
102
RTVSPost2010Prop51ColorIndex
 90
      256
102
RTVSPost2010Prop51ColorRGB
 90
-16777216
102
RTVSPost2010PropOp51
 70
     0
102
RTVSPost2010Prop52
140
1.0
102
RTVSPost2010PropOp52
 70
     0
102
RTVSPost2010Prop53
 90
        2
102
RTVSPost2010PropOp53
 70
     1
102
RTVSPost2010Prop54
  1
strokes_ogs.tif
102
RTVSPost2010PropOp54
 70
     1
102
RTVSPost2010Prop55
280
     0
102
RTVSPost2010PropOp55
 70
     1
102
RTVSPost2010Prop56
140
1.0
102
RTVSPost2010PropOp56
 70
     1
102
RTVSPost2010Prop57
140
1.0
102
RTVSPost2010PropOp57
 70
     1
102
RTVSPropertyOp0
 70
     1
102
RTVSPropertyOp1
 70
     1
102
RTVSPropertyOp2
 70
     1
102
RTVSPropertyOp3
 70
     1
102
RTVSPropertyOp4
 70
     1
102
RTVSPropertyOp5
 70
     1
102
RTVSPropertyOp6
 70
     1
102
RTVSPropertyOp7
 70
     1
102
RTVSPropertyOp8
 70
     1
102
RTVSPropertyOp9
 70
     1
102
RTVSPropertyOp10
 70
     1
102
RTVSPropertyOp11
 70
     1
102
RTVSPropertyOp12
 70
     1
102
RTVSPropertyOp13
 70
     1
102
RTVSPropertyOp14
 70
     1
102
RTVSPropertyOp15
 70
     1
102
RTVSPropertyOp16
 70
     1
102
RTVSPropertyOp17
 70
     1
102
RTVSPropertyOp18
 70
     1
102
RTVSPropertyOp19
 70
     1
102
RTVSPropertyOp20
 70
     1
102
RTVSPropertyOp21
 70
     1
102
RTVSPropertyOp22
 70
     1
102
RTVSPropertyOp23
 70
     1
102
RTVSPropertyOp24
 70
     1
102
RTVSPropertyOp25
 70
     1
102
RTVSPropertyOp26
 70
     1
102
RTVSPropertyOp27
 70
     1
102
RTVSPropertyOp28
 70
     1
102
RTVSPropertyOp29
 70
     1
102
RTVSPropertyOp30
 70
     1
102
RTVSPropertyOp31
 70
     1
102
RTVSPropertyOp32
 70
     1
102
RTVSPropertyOp33
 70
     1
102
RTVSPropertyOp34
 70
     1
102
RTVSPropertyOp35
 70
     1
102
RTVSPropertyOp36
 70
     1
102
RTVSPropertyOp37
 70
     1
102
RTVSPropertyOp38
 70
     1
102
RTVSPropertyOp39
 70
     1
102
RTVSPropertyOp40
 70
     1
102
RTVSPropertyOp41
 70
     1
102
RTVSPropertyOp42
 70
     1
102
RTVSPropertyOp43
 70
     1
102
RTVSPropertyOp44
 70
     1
102
RTVSPropertyOp45
 70
     1
102
RTVSPropertyOp46
 70
     1
102
RTVSPropertyOp47
 70
     1
102
RTVSPropertyOp48
 70
     1
102
RTVSPropertyOp49
 70
     1
102
RTVSPropertyOp50
 70
     1
102
RTVSPropertyOp51
 70
     0
102
RTVSPropertyOp52
 70
     0
102
RTVSPropertyOp53
 70
     1
102
RTVSPropertyOp54
 70
     1
102
RTVSPropertyOp55
 70
     1
102
RTVSPropertyOp56
 70
     1
102
RTVSPropertyOp57
 70
     1
102
RTVSPropertyOp58
 70
     1
102
RTVSPropertyOp59
 70
     1
102
RTVSPropertyOp60
 70
     1
102
RTVSPropertyOp61
 70
     1
102
RTVSPropertyOp62
 70
     1
  0
XRECORD
  5
100186
102
{ACAD_REACTORS
330
100185
102
}
330
100185
100
AcDbXrecord
280
     1
102
RTVSPost2010Prop28
280
     0
102
RTVSPost2010PropOp28
 70
     1
102
RTVSPost2010Prop29
280
     1
102
RTVSPost2010PropOp29
 70
     1
102
RTVSPost2010Prop30
280
     1
102
RTVSPost2010PropOp30
 70
     1
102
RTVSPost2010Prop31
280
     0
102
RTVSPost2010PropOp31
 70
     1
102
RTVSPost2010Prop32
280
     0
102
RTVSPost2010PropOp32
 70
     1
102
RTVSPost2010Prop33
280
     0
102
RTVSPost2010PropOp33
 70
     1
102
RTVSPost2010Prop34
280
     0
102
RTVSPost2010PropOp34
 70
     1
102
RTVSPost2010Prop35
280
     0
102
RTVSPost2010PropOp35
 70
     1
102
RTVSPost2010Prop36
280
     0
102
RTVSPost2010PropOp36
 70
     1
102
RTVSPost2010Prop37
 90
       50
102
RTVSPost2010PropOp37
 70
     1
102
RTVSPost2010Prop38
140
0.0
102
RTVSPost2010PropOp38
 70
     1
102
RTVSPost2010Prop39
140
1.0
102
RTVSPost2010PropOp39
 70
     1
102
RTVSPost2010Prop40
 90
        0
102
RTVSPost2010PropOp40
 70
     1
102
RTVSPost2010Prop41ColorIndex
 90
       18
102
RTVSPost2010Prop41ColorRGB
 90
        0
102
RTVSPost2010PropOp41
 70
     1
102
RTVSPost2010Prop42
 90
       50
102
RTVSPost2010PropOp42
 70
     1
102
RTVSPost2010Prop43
 90
        3
102
RTVSPost2010PropOp43
 70
     1
102
RTVSPost2010Prop44ColorIndex
 90
        5
102
RTVSPost2010Prop44ColorRGB
 90
      255
102
RTVSPost2010PropOp44
 70
     1
102
RTVSPost2010Prop45
280
     0
102
RTVSPost2010PropOp45
 70
     1
102
RTVSPost2010Prop46
 90
       50
102
RTVSPost2010PropOp46
 70
     1
102
RTVSPost2010Prop47
 90
       50
102
RTVSPost2010PropOp47
 70
     1
102
RTVSPost2010Prop48
 90
       50
102
RTVSPost2010PropOp48
 70
     1
102
RTVSPost2010Prop49
280
     0
102
RTVSPost2010PropOp49
 70
     1
102
RTVSPost2010Prop50
 90
       50
102
RTVSPost2010PropOp50
 70
     1
102
RTVSPost2010Prop51ColorIndex
 90
      256
102
RTVSPost2010Prop51ColorRGB
 90
-16777216
102
RTVSPost2010PropOp51
 70
     0
102
RTVSPost2010Prop52
140
1.0
102
RTVSPost2010PropOp52
 70
     0
102
RTVSPost2010Prop53
 90
        2
102
RTVSPost2010PropOp53
 70
     1
102
RTVSPost2010Prop54
  1
strokes_ogs.tif
102
RTVSPost2010PropOp54
 70
     1
102
RTVSPost2010Prop55
280
     0
102
RTVSPost2010PropOp55
 70
     1
102
RTVSPost2010Prop56
140
1.0
102
RTVSPost2010PropOp56
 70
     1
102
RTVSPost2010Prop57
140
1.0
102
RTVSPost2010PropOp57
 70
     1
102
RTVSPropertyOp0
 70
     1
102
RTVSPropertyOp1
 70
     1
102
RTVSPropertyOp2
 70
     1
102
RTVSPropertyOp3
 70
     1
102
RTVSPropertyOp4
 70
     1
102
RTVSPropertyOp5
 70
     1
102
RTVSPropertyOp6
 70
     1
102
RTVSPropertyOp7
 70
     1
102
RTVSPropertyOp8
 70
     1
102
RTVSPropertyOp9
 70
     1
102
RTVSPropertyOp10
 70
     1
102
RTVSPropertyOp11
 70
     1
102
RTVSPropertyOp12
 70
     1
102
RTVSPropertyOp13
 70
     1
102
RTVSPropertyOp14
 70
     1
102
RTVSPropertyOp15
 70
     1
102
RTVSPropertyOp16
 70
     1
102
RTVSPropertyOp17
 70
     1
102
RTVSPropertyOp18
 70
     1
102
RTVSPropertyOp19
 70
     1
102
RTVSPropertyOp20
 70
     1
102
RTVSPropertyOp21
 70
     1
102
RTVSPropertyOp22
 70
     1
102
RTVSPropertyOp23
 70
     1
102
RTVSPropertyOp24
 70
     1
102
RTVSPropertyOp25
 70
     1
102
RTVSPropertyOp26
 70
     1
102
RTVSPropertyOp27
 70
     1
102
RTVSPropertyOp28
 70
     1
102
RTVSPropertyOp29
 70
     1
102
RTVSPropertyOp30
 70
     1
102
RTVSPropertyOp31
 70
     1
102
RTVSPropertyOp32
 70
     1
102
RTVSPropertyOp33
 70
     1
102
RTVSPropertyOp34
 70
     1
102
RTVSPropertyOp35
 70
     1
102
RTVSPropertyOp36
 70
     1
102
RTVSPropertyOp37
 70
     1
102
RTVSPropertyOp38
 70
     1
102
RTVSPropertyOp39
 70
     1
102
RTVSPropertyOp40
 70
     1
102
RTVSPropertyOp41
 70
     1
102
RTVSPropertyOp42
 70
     1
102
RTVSPropertyOp43
 70
     1
102
RTVSPropertyOp44
 70
     1
102
RTVSPropertyOp45
 70
     1
102
RTVSPropertyOp46
 70
     1
102
RTVSPropertyOp47
 70
     1
102
RTVSPropertyOp48
 70
     1
102
RTVSPropertyOp49
 70
     1
102
RTVSPropertyOp50
 70
     1
102
RTVSPropertyOp51
 70
     0
102
RTVSPropertyOp52
 70
     0
102
RTVSPropertyOp53
 70
     1
102
RTVSPropertyOp54
 70
     1
102
RTVSPropertyOp55
 70
     1
102
RTVSPropertyOp56
 70
     1
102
RTVSPropertyOp57
 70
     1
102
RTVSPropertyOp58
 70
     1
102
RTVSPropertyOp59
 70
     1
102
RTVSPropertyOp60
 70
     1
102
RTVSPropertyOp61
 70
     1
102
RTVSPropertyOp62
 70
     1
  0
XRECORD
  5
1001A2
102
{ACAD_REACTORS
330
1001A1
102
}
330
1001A1
100
AcDbXrecord
280
     1
102
RTVSPost2010Prop28
280
     0
102
RTVSPost2010PropOp28
 70
     0
102
RTVSPost2010Prop29
280
     1
102
RTVSPost2010PropOp29
 70
     0
102
RTVSPost2010Prop30
280
     1
102
RTVSPost2010PropOp30
 70
     0
102
RTVSPost2010Prop31
280
     0
102
RTVSPost2010PropOp31
 70
     0
102
RTVSPost2010Prop32
280
     0
102
RTVSPost2010PropOp32
 70
     0
102
RTVSPost2010Prop33
280
     0
102
RTVSPost2010PropOp33
 70
     0
102
RTVSPost2010Prop34
280
     0
102
RTVSPost2010PropOp34
 70
     0
102
RTVSPost2010Prop35
280
     0
102
RTVSPost2010PropOp35
 70
     0
102
RTVSPost2010Prop36
280
     0
102
RTVSPost2010PropOp36
 70
     0
102
RTVSPost2010Prop37
 90
       50
102
RTVSPost2010PropOp37
 70
     0
102
RTVSPost2010Prop38
140
0.0
102
RTVSPost2010PropOp38
 70
     0
102
RTVSPost2010Prop39
140
1.0
102
RTVSPost2010PropOp39
 70
     0
102
RTVSPost2010Prop40
 90
        0
102
RTVSPost2010PropOp40
 70
     0
102
RTVSPost2010Prop41ColorIndex
 90
       18
102
RTVSPost2010Prop41ColorRGB
 90
        0
102
RTVSPost2010PropOp41
 70
     0
102
RTVSPost2010Prop42
 90
       50
102
RTVSPost2010PropOp42
 70
     0
102
RTVSPost2010Prop43
 90
        3
102
RTVSPost2010PropOp43
 70
     0
102
RTVSPost2010Prop44ColorIndex
 90
        5
102
RTVSPost2010Prop44ColorRGB
 90
      255
102
RTVSPost2010PropOp44
 70
     0
102
RTVSPost2010Prop45
280
     0
102
RTVSPost2010PropOp45
 70
     0
102
RTVSPost2010Prop46
 90
       50
102
RTVSPost2010PropOp46
 70
     0
102
RTVSPost2010Prop47
 90
       50
102
RTVSPost2010PropOp47
 70
     0
102
RTVSPost2010Prop48
 90
       50
102
RTVSPost2010PropOp48
 70
     0
102
RTVSPost2010Prop49
280
     0
102
RTVSPost2010PropOp49
 70
     0
102
RTVSPost2010Prop50
 90
       50
102
RTVSPost2010PropOp50
 70
     0
102
RTVSPost2010Prop51ColorIndex
 90
      256
102
RTVSPost2010Prop51ColorRGB
 90
-16777216
102
RTVSPost2010PropOp51
 70
     0
102
RTVSPost2010Prop52
140
1.0
102
RTVSPost2010PropOp52
 70
     0
102
RTVSPost2010Prop53
 90
        2
102
RTVSPost2010PropOp53
 70
     0
102
RTVSPost2010Prop54
  1
strokes_ogs.tif
102
RTVSPost2010PropOp54
 70
     0
102
RTVSPost2010Prop55
280
     0
102
RTVSPost2010PropOp55
 70
     0
102
RTVSPost2010Prop56
140
1.0
102
RTVSPost2010PropOp56
 70
     0
102
RTVSPost2010Prop57
140
1.0
102
RTVSPost2010PropOp57
 70
     0
102
RTVSPropertyOp0
 70
     0
102
RTVSPropertyOp1
 70
     0
102
RTVSPropertyOp2
 70
     0
102
RTVSPropertyOp3
 70
     0
102
RTVSPropertyOp4
 70
     0
102
RTVSPropertyOp5
 70
     0
102
RTVSPropertyOp6
 70
     0
102
RTVSPropertyOp7
 70
     0
102
RTVSPropertyOp8
 70
     0
102
RTVSPropertyOp9
 70
     0
102
RTVSPropertyOp10
 70
     0
102
RTVSPropertyOp11
 70
     0
102
RTVSPropertyOp12
 70
     0
102
RTVSPropertyOp13
 70
     0
102
RTVSPropertyOp14
 70
     2
102
RTVSPropertyOp15
 70
     0
102
RTVSPropertyOp16
 70
     0
102
RTVSPropertyOp17
 70
     0
102
RTVSPropertyOp18
 70
     0
102
RTVSPropertyOp19
 70
     0
102
RTVSPropertyOp20
 70
     0
102
RTVSPropertyOp21
 70
     0
102
RTVSPropertyOp22
 70
     0
102
RTVSPropertyOp23
 70
     0
102
RTVSPropertyOp24
 70
     0
102
RTVSPropertyOp25
 70
     0
102
RTVSPropertyOp26
 70
     0
102
RTVSPropertyOp27
 70
     0
102
RTVSPropertyOp28
 70
     0
102
RTVSPropertyOp29
 70
     0
102
RTVSPropertyOp30
 70
     0
102
RTVSPropertyOp31
 70
     0
102
RTVSPropertyOp32
 70
     0
102
RTVSPropertyOp33
 70
     0
102
RTVSPropertyOp34
 70
     0
102
RTVSPropertyOp35
 70
     0
102
RTVSPropertyOp36
 70
     0
102
RTVSPropertyOp37
 70
     0
102
RTVSPropertyOp38
 70
     0
102
RTVSPropertyOp39
 70
     0
102
RTVSPropertyOp40
 70
     0
102
RTVSPropertyOp41
 70
     0
102
RTVSPropertyOp42
 70
     0
102
RTVSPropertyOp43
 70
     0
102
RTVSPropertyOp44
 70
     0
102
RTVSPropertyOp45
 70
     0
102
RTVSPropertyOp46
 70
     0
102
RTVSPropertyOp47
 70
     0
102
RTVSPropertyOp48
 70
     0
102
RTVSPropertyOp49
 70
     0
102
RTVSPropertyOp50
 70
     0
102
RTVSPropertyOp51
 70
     0
102
RTVSPropertyOp52
 70
     0
102
RTVSPropertyOp53
 70
     0
102
RTVSPropertyOp54
 70
     0
102
RTVSPropertyOp55
 70
     0
102
RTVSPropertyOp56
 70
     0
102
RTVSPropertyOp57
 70
     0
102
RTVSPropertyOp58
 70
     0
102
RTVSPropertyOp59
 70
     0
102
RTVSPropertyOp60
 70
     0
102
RTVSPropertyOp61
 70
     0
102
RTVSPropertyOp62
 70
     0
  0
XRECORD
  5
100192
102
{ACAD_REACTORS
330
100191
102
}
330
100191
100
AcDbXrecord
280
     1
102
RTVSPost2010Prop28
280
     0
102
RTVSPost2010PropOp28
 70
     1
102
RTVSPost2010Prop29
280
     1
102
RTVSPost2010PropOp29
 70
     1
102
RTVSPost2010Prop30
280
     1
102
RTVSPost2010PropOp30
 70
     1
102
RTVSPost2010Prop31
280
     0
102
RTVSPost2010PropOp31
 70
     1
102
RTVSPost2010Prop32
280
     0
102
RTVSPost2010PropOp32
 70
     1
102
RTVSPost2010Prop33
280
     0
102
RTVSPost2010PropOp33
 70
     1
102
RTVSPost2010Prop34
280
     0
102
RTVSPost2010PropOp34
 70
     1
102
RTVSPost2010Prop35
280
     0
102
RTVSPost2010PropOp35
 70
     1
102
RTVSPost2010Prop36
280
     0
102
RTVSPost2010PropOp36
 70
     1
102
RTVSPost2010Prop37
 90
       50
102
RTVSPost2010PropOp37
 70
     1
102
RTVSPost2010Prop38
140
0.0
102
RTVSPost2010PropOp38
 70
     1
102
RTVSPost2010Prop39
140
1.0
102
RTVSPost2010PropOp39
 70
     1
102
RTVSPost2010Prop40
 90
        0
102
RTVSPost2010PropOp40
 70
     1
102
RTVSPost2010Prop41ColorIndex
 90
       18
102
RTVSPost2010Prop41ColorRGB
 90
        0
102
RTVSPost2010PropOp41
 70
     1
102
RTVSPost2010Prop42
 90
       50
102
RTVSPost2010PropOp42
 70
     1
102
RTVSPost2010Prop43
 90
        3
102
RTVSPost2010PropOp43
 70
     1
102
RTVSPost2010Prop44ColorIndex
 90
        5
102
RTVSPost2010Prop44ColorRGB
 90
      255
102
RTVSPost2010PropOp44
 70
     1
102
RTVSPost2010Prop45
280
     0
102
RTVSPost2010PropOp45
 70
     1
102
RTVSPost2010Prop46
 90
       50
102
RTVSPost2010PropOp46
 70
     1
102
RTVSPost2010Prop47
 90
       50
102
RTVSPost2010PropOp47
 70
     1
102
RTVSPost2010Prop48
 90
       50
102
RTVSPost2010PropOp48
 70
     1
102
RTVSPost2010Prop49
280
     0
102
RTVSPost2010PropOp49
 70
     1
102
RTVSPost2010Prop50
 90
       50
102
RTVSPost2010PropOp50
 70
     1
102
RTVSPost2010Prop51ColorIndex
 90
      256
102
RTVSPost2010Prop51ColorRGB
 90
-16777216
102
RTVSPost2010PropOp51
 70
     0
102
RTVSPost2010Prop52
140
1.0
102
RTVSPost2010PropOp52
 70
     0
102
RTVSPost2010Prop53
 90
        2
102
RTVSPost2010PropOp53
 70
     1
102
RTVSPost2010Prop54
  1
strokes_ogs.tif
102
RTVSPost2010PropOp54
 70
     1
102
RTVSPost2010Prop55
280
     0
102
RTVSPost2010PropOp55
 70
     1
102
RTVSPost2010Prop56
140
1.0
102
RTVSPost2010PropOp56
 70
     1
102
RTVSPost2010Prop57
140
1.0
102
RTVSPost2010PropOp57
 70
     1
102
RTVSPropertyOp0
 70
     1
102
RTVSPropertyOp1
 70
     1
102
RTVSPropertyOp2
 70
     1
102
RTVSPropertyOp3
 70
     1
102
RTVSPropertyOp4
 70
     1
102
RTVSPropertyOp5
 70
     1
102
RTVSPropertyOp6
 70
     1
102
RTVSPropertyOp7
 70
     1
102
RTVSPropertyOp8
 70
     1
102
RTVSPropertyOp9
 70
     1
102
RTVSPropertyOp10
 70
     1
102
RTVSPropertyOp11
 70
     1
102
RTVSPropertyOp12
 70
     1
102
RTVSPropertyOp13
 70
     1
102
RTVSPropertyOp14
 70
     1
102
RTVSPropertyOp15
 70
     1
102
RTVSPropertyOp16
 70
     1
102
RTVSPropertyOp17
 70
     1
102
RTVSPropertyOp18
 70
     1
102
RTVSPropertyOp19
 70
     1
102
RTVSPropertyOp20
 70
     1
102
RTVSPropertyOp21
 70
     1
102
RTVSPropertyOp22
 70
     1
102
RTVSPropertyOp23
 70
     1
102
RTVSPropertyOp24
 70
     1
102
RTVSPropertyOp25
 70
     1
102
RTVSPropertyOp26
 70
     1
102
RTVSPropertyOp27
 70
     1
102
RTVSPropertyOp28
 70
     1
102
RTVSPropertyOp29
 70
     1
102
RTVSPropertyOp30
 70
     1
102
RTVSPropertyOp31
 70
     1
102
RTVSPropertyOp32
 70
     1
102
RTVSPropertyOp33
 70
     1
102
RTVSPropertyOp34
 70
     1
102
RTVSPropertyOp35
 70
     1
102
RTVSPropertyOp36
 70
     1
102
RTVSPropertyOp37
 70
     1
102
RTVSPropertyOp38
 70
     1
102
RTVSPropertyOp39
 70
     1
102
RTVSPropertyOp40
 70
     1
102
RTVSPropertyOp41
 70
     1
102
RTVSPropertyOp42
 70
     1
102
RTVSPropertyOp43
 70
     1
102
RTVSPropertyOp44
 70
     1
102
RTVSPropertyOp45
 70
     1
102
RTVSPropertyOp46
 70
     1
102
RTVSPropertyOp47
 70
     1
102
RTVSPropertyOp48
 70
     1
102
RTVSPropertyOp49
 70
     1
102
RTVSPropertyOp50
 70
     1
102
RTVSPropertyOp51
 70
     0
102
RTVSPropertyOp52
 70
     0
102
RTVSPropertyOp53
 70
     1
102
RTVSPropertyOp54
 70
     1
102
RTVSPropertyOp55
 70
     1
102
RTVSPropertyOp56
 70
     1
102
RTVSPropertyOp57
 70
     1
102
RTVSPropertyOp58
 70
     1
102
RTVSPropertyOp59
 70
     1
102
RTVSPropertyOp60
 70
     1
102
RTVSPropertyOp61
 70
     1
102
RTVSPropertyOp62
 70
     1
  0
XRECORD
  5
1001A4
102
{ACAD_REACTORS
330
1001A3
102
}
330
1001A3
100
AcDbXrecord
280
     1
102
RTVSPost2010Prop28
280
     0
102
RTVSPost2010PropOp28
 70
     0
102
RTVSPost2010Prop29
280
     1
102
RTVSPost2010PropOp29
 70
     0
102
RTVSPost2010Prop30
280
     1
102
RTVSPost2010PropOp30
 70
     0
102
RTVSPost2010Prop31
280
     0
102
RTVSPost2010PropOp31
 70
     0
102
RTVSPost2010Prop32
280
     0
102
RTVSPost2010PropOp32
 70
     0
102
RTVSPost2010Prop33
280
     0
102
RTVSPost2010PropOp33
 70
     0
102
RTVSPost2010Prop34
280
     0
102
RTVSPost2010PropOp34
 70
     0
102
RTVSPost2010Prop35
280
     0
102
RTVSPost2010PropOp35
 70
     0
102
RTVSPost2010Prop36
280
     0
102
RTVSPost2010PropOp36
 70
     0
102
RTVSPost2010Prop37
 90
       50
102
RTVSPost2010PropOp37
 70
     0
102
RTVSPost2010Prop38
140
0.0
102
RTVSPost2010PropOp38
 70
     0
102
RTVSPost2010Prop39
140
1.0
102
RTVSPost2010PropOp39
 70
     0
102
RTVSPost2010Prop40
 90
        0
102
RTVSPost2010PropOp40
 70
     0
102
RTVSPost2010Prop41ColorIndex
 90
       18
102
RTVSPost2010Prop41ColorRGB
 90
        0
102
RTVSPost2010PropOp41
 70
     0
102
RTVSPost2010Prop42
 90
       50
102
RTVSPost2010PropOp42
 70
     0
102
RTVSPost2010Prop43
 90
        3
102
RTVSPost2010PropOp43
 70
     0
102
RTVSPost2010Prop44ColorIndex
 90
        5
102
RTVSPost2010Prop44ColorRGB
 90
      255
102
RTVSPost2010PropOp44
 70
     0
102
RTVSPost2010Prop45
280
     0
102
RTVSPost2010PropOp45
 70
     0
102
RTVSPost2010Prop46
 90
       50
102
RTVSPost2010PropOp46
 70
     0
102
RTVSPost2010Prop47
 90
       50
102
RTVSPost2010PropOp47
 70
     0
102
RTVSPost2010Prop48
 90
       50
102
RTVSPost2010PropOp48
 70
     0
102
RTVSPost2010Prop49
280
     0
102
RTVSPost2010PropOp49
 70
     0
102
RTVSPost2010Prop50
 90
       50
102
RTVSPost2010PropOp50
 70
     0
102
RTVSPost2010Prop51ColorIndex
 90
      256
102
RTVSPost2010Prop51ColorRGB
 90
-16777216
102
RTVSPost2010PropOp51
 70
     0
102
RTVSPost2010Prop52
140
1.0
102
RTVSPost2010PropOp52
 70
     0
102
RTVSPost2010Prop53
 90
        2
102
RTVSPost2010PropOp53
 70
     0
102
RTVSPost2010Prop54
  1
strokes_ogs.tif
102
RTVSPost2010PropOp54
 70
     0
102
RTVSPost2010Prop55
280
     0
102
RTVSPost2010PropOp55
 70
     0
102
RTVSPost2010Prop56
140
1.0
102
RTVSPost2010PropOp56
 70
     0
102
RTVSPost2010Prop57
140
1.0
102
RTVSPost2010PropOp57
 70
     0
102
RTVSPropertyOp0
 70
     0
102
RTVSPropertyOp1
 70
     0
102
RTVSPropertyOp2
 70
     0
102
RTVSPropertyOp3
 70
     0
102
RTVSPropertyOp4
 70
     0
102
RTVSPropertyOp5
 70
     0
102
RTVSPropertyOp6
 70
     0
102
RTVSPropertyOp7
 70
     0
102
RTVSPropertyOp8
 70
     0
102
RTVSPropertyOp9
 70
     0
102
RTVSPropertyOp10
 70
     0
102
RTVSPropertyOp11
 70
     0
102
RTVSPropertyOp12
 70
     0
102
RTVSPropertyOp13
 70
     0
102
RTVSPropertyOp14
 70
     2
102
RTVSPropertyOp15
 70
     0
102
RTVSPropertyOp16
 70
     0
102
RTVSPropertyOp17
 70
     0
102
RTVSPropertyOp18
 70
     0
102
RTVSPropertyOp19
 70
     0
102
RTVSPropertyOp20
 70
     0
102
RTVSPropertyOp21
 70
     0
102
RTVSPropertyOp22
 70
     0
102
RTVSPropertyOp23
 70
     0
102
RTVSPropertyOp24
 70
     0
102
RTVSPropertyOp25
 70
     0
102
RTVSPropertyOp26
 70
     0
102
RTVSPropertyOp27
 70
     0
102
RTVSPropertyOp28
 70
     0
102
RTVSPropertyOp29
 70
     0
102
RTVSPropertyOp30
 70
     0
102
RTVSPropertyOp31
 70
     0
102
RTVSPropertyOp32
 70
     0
102
RTVSPropertyOp33
 70
     0
102
RTVSPropertyOp34
 70
     0
102
RTVSPropertyOp35
 70
     0
102
RTVSPropertyOp36
 70
     0
102
RTVSPropertyOp37
 70
     0
102
RTVSPropertyOp38
 70
     0
102
RTVSPropertyOp39
 70
     0
102
RTVSPropertyOp40
 70
     0
102
RTVSPropertyOp41
 70
     0
102
RTVSPropertyOp42
 70
     0
102
RTVSPropertyOp43
 70
     0
102
RTVSPropertyOp44
 70
     0
102
RTVSPropertyOp45
 70
     0
102
RTVSPropertyOp46
 70
     0
102
RTVSPropertyOp47
 70
     0
102
RTVSPropertyOp48
 70
     0
102
RTVSPropertyOp49
 70
     0
102
RTVSPropertyOp50
 70
     0
102
RTVSPropertyOp51
 70
     0
102
RTVSPropertyOp52
 70
     0
102
RTVSPropertyOp53
 70
     0
102
RTVSPropertyOp54
 70
     0
102
RTVSPropertyOp55
 70
     0
102
RTVSPropertyOp56
 70
     0
102
RTVSPropertyOp57
 70
     0
102
RTVSPropertyOp58
 70
     0
102
RTVSPropertyOp59
 70
     0
102
RTVSPropertyOp60
 70
     0
102
RTVSPropertyOp61
 70
     0
102
RTVSPropertyOp62
 70
     0
  0
XRECORD
  5
10018A
102
{ACAD_REACTORS
330
100189
102
}
330
100189
100
AcDbXrecord
280
     1
102
RTVSPost2010Prop28
280
     0
102
RTVSPost2010PropOp28
 70
     1
102
RTVSPost2010Prop29
280
     1
102
RTVSPost2010PropOp29
 70
     1
102
RTVSPost2010Prop30
280
     1
102
RTVSPost2010PropOp30
 70
     1
102
RTVSPost2010Prop31
280
     0
102
RTVSPost2010PropOp31
 70
     1
102
RTVSPost2010Prop32
280
     0
102
RTVSPost2010PropOp32
 70
     1
102
RTVSPost2010Prop33
280
     0
102
RTVSPost2010PropOp33
 70
     1
102
RTVSPost2010Prop34
280
     0
102
RTVSPost2010PropOp34
 70
     1
102
RTVSPost2010Prop35
280
     0
102
RTVSPost2010PropOp35
 70
     1
102
RTVSPost2010Prop36
280
     0
102
RTVSPost2010PropOp36
 70
     1
102
RTVSPost2010Prop37
 90
       50
102
RTVSPost2010PropOp37
 70
     1
102
RTVSPost2010Prop38
140
0.0
102
RTVSPost2010PropOp38
 70
     1
102
RTVSPost2010Prop39
140
1.0
102
RTVSPost2010PropOp39
 70
     1
102
RTVSPost2010Prop40
 90
        0
102
RTVSPost2010PropOp40
 70
     1
102
RTVSPost2010Prop41ColorIndex
 90
       18
102
RTVSPost2010Prop41ColorRGB
 90
        0
102
RTVSPost2010PropOp41
 70
     1
102
RTVSPost2010Prop42
 90
       50
102
RTVSPost2010PropOp42
 70
     1
102
RTVSPost2010Prop43
 90
        3
102
RTVSPost2010PropOp43
 70
     1
102
RTVSPost2010Prop44ColorIndex
 90
        5
102
RTVSPost2010Prop44ColorRGB
 90
      255
102
RTVSPost2010PropOp44
 70
     1
102
RTVSPost2010Prop45
280
     0
102
RTVSPost2010PropOp45
 70
     1
102
RTVSPost2010Prop46
 90
       50
102
RTVSPost2010PropOp46
 70
     1
102
RTVSPost2010Prop47
 90
       50
102
RTVSPost2010PropOp47
 70
     1
102
RTVSPost2010Prop48
 90
       50
102
RTVSPost2010PropOp48
 70
     1
102
RTVSPost2010Prop49
280
     0
102
RTVSPost2010PropOp49
 70
     1
102
RTVSPost2010Prop50
 90
       50
102
RTVSPost2010PropOp50
 70
     1
102
RTVSPost2010Prop51ColorIndex
 90
      256
102
RTVSPost2010Prop51ColorRGB
 90
-16777216
102
RTVSPost2010PropOp51
 70
     0
102
RTVSPost2010Prop52
140
1.0
102
RTVSPost2010PropOp52
 70
     0
102
RTVSPost2010Prop53
 90
        2
102
RTVSPost2010PropOp53
 70
     1
102
RTVSPost2010Prop54
  1
strokes_ogs.tif
102
RTVSPost2010PropOp54
 70
     1
102
RTVSPost2010Prop55
280
     0
102
RTVSPost2010PropOp55
 70
     1
102
RTVSPost2010Prop56
140
1.0
102
RTVSPost2010PropOp56
 70
     1
102
RTVSPost2010Prop57
140
1.0
102
RTVSPost2010PropOp57
 70
     1
102
RTVSPropertyOp0
 70
     1
102
RTVSPropertyOp1
 70
     1
102
RTVSPropertyOp2
 70
     1
102
RTVSPropertyOp3
 70
     1
102
RTVSPropertyOp4
 70
     1
102
RTVSPropertyOp5
 70
     1
102
RTVSPropertyOp6
 70
     1
102
RTVSPropertyOp7
 70
     1
102
RTVSPropertyOp8
 70
     1
102
RTVSPropertyOp9
 70
     1
102
RTVSPropertyOp10
 70
     1
102
RTVSPropertyOp11
 70
     1
102
RTVSPropertyOp12
 70
     1
102
RTVSPropertyOp13
 70
     1
102
RTVSPropertyOp14
 70
     1
102
RTVSPropertyOp15
 70
     1
102
RTVSPropertyOp16
 70
     1
102
RTVSPropertyOp17
 70
     1
102
RTVSPropertyOp18
 70
     1
102
RTVSPropertyOp19
 70
     1
102
RTVSPropertyOp20
 70
     1
102
RTVSPropertyOp21
 70
     1
102
RTVSPropertyOp22
 70
     1
102
RTVSPropertyOp23
 70
     1
102
RTVSPropertyOp24
 70
     1
102
RTVSPropertyOp25
 70
     1
102
RTVSPropertyOp26
 70
     1
102
RTVSPropertyOp27
 70
     1
102
RTVSPropertyOp28
 70
     1
102
RTVSPropertyOp29
 70
     1
102
RTVSPropertyOp30
 70
     1
102
RTVSPropertyOp31
 70
     1
102
RTVSPropertyOp32
 70
     1
102
RTVSPropertyOp33
 70
     1
102
RTVSPropertyOp34
 70
     1
102
RTVSPropertyOp35
 70
     1
102
RTVSPropertyOp36
 70
     1
102
RTVSPropertyOp37
 70
     1
102
RTVSPropertyOp38
 70
     1
102
RTVSPropertyOp39
 70
     1
102
RTVSPropertyOp40
 70
     1
102
RTVSPropertyOp41
 70
     1
102
RTVSPropertyOp42
 70
     1
102
RTVSPropertyOp43
 70
     1
102
RTVSPropertyOp44
 70
     1
102
RTVSPropertyOp45
 70
     1
102
RTVSPropertyOp46
 70
     1
102
RTVSPropertyOp47
 70
     1
102
RTVSPropertyOp48
 70
     1
102
RTVSPropertyOp49
 70
     1
102
RTVSPropertyOp50
 70
     1
102
RTVSPropertyOp51
 70
     0
102
RTVSPropertyOp52
 70
     0
102
RTVSPropertyOp53
 70
     1
102
RTVSPropertyOp54
 70
     1
102
RTVSPropertyOp55
 70
     1
102
RTVSPropertyOp56
 70
     1
102
RTVSPropertyOp57
 70
     1
102
RTVSPropertyOp58
 70
     1
102
RTVSPropertyOp59
 70
     1
102
RTVSPropertyOp60
 70
     1
102
RTVSPropertyOp61
 70
     1
102
RTVSPropertyOp62
 70
     1
  0
XRECORD
  5
1001A0
102
{ACAD_REACTORS
330
10019F
102
}
330
10019F
100
AcDbXrecord
280
     1
102
RTVSPost2010Prop28
280
     0
102
RTVSPost2010PropOp28
 70
     1
102
RTVSPost2010Prop29
280
     1
102
RTVSPost2010PropOp29
 70
     1
102
RTVSPost2010Prop30
280
     1
102
RTVSPost2010PropOp30
 70
     1
102
RTVSPost2010Prop31
280
     0
102
RTVSPost2010PropOp31
 70
     1
102
RTVSPost2010Prop32
280
     0
102
RTVSPost2010PropOp32
 70
     1
102
RTVSPost2010Prop33
280
     0
102
RTVSPost2010PropOp33
 70
     1
102
RTVSPost2010Prop34
280
     0
102
RTVSPost2010PropOp34
 70
     1
102
RTVSPost2010Prop35
280
     0
102
RTVSPost2010PropOp35
 70
     1
102
RTVSPost2010Prop36
280
     0
102
RTVSPost2010PropOp36
 70
     1
102
RTVSPost2010Prop37
 90
       50
102
RTVSPost2010PropOp37
 70
     1
102
RTVSPost2010Prop38
140
0.0
102
RTVSPost2010PropOp38
 70
     1
102
RTVSPost2010Prop39
140
1.0
102
RTVSPost2010PropOp39
 70
     1
102
RTVSPost2010Prop40
 90
        0
102
RTVSPost2010PropOp40
 70
     1
102
RTVSPost2010Prop41ColorIndex
 90
       18
102
RTVSPost2010Prop41ColorRGB
 90
        0
102
RTVSPost2010PropOp41
 70
     1
102
RTVSPost2010Prop42
 90
       50
102
RTVSPost2010PropOp42
 70
     1
102
RTVSPost2010Prop43
 90
        3
102
RTVSPost2010PropOp43
 70
     1
102
RTVSPost2010Prop44ColorIndex
 90
        5
102
RTVSPost2010Prop44ColorRGB
 90
      255
102
RTVSPost2010PropOp44
 70
     1
102
RTVSPost2010Prop45
280
     0
102
RTVSPost2010PropOp45
 70
     1
102
RTVSPost2010Prop46
 90
       50
102
RTVSPost2010PropOp46
 70
     1
102
RTVSPost2010Prop47
 90
       50
102
RTVSPost2010PropOp47
 70
     1
102
RTVSPost2010Prop48
 90
       50
102
RTVSPost2010PropOp48
 70
     1
102
RTVSPost2010Prop49
280
     0
102
RTVSPost2010PropOp49
 70
     1
102
RTVSPost2010Prop50
 90
       50
102
RTVSPost2010PropOp50
 70
     1
102
RTVSPost2010Prop51ColorIndex
 90
      256
102
RTVSPost2010Prop51ColorRGB
 90
-16777216
102
RTVSPost2010PropOp51
 70
     0
102
RTVSPost2010Prop52
140
1.0
102
RTVSPost2010PropOp52
 70
     0
102
RTVSPost2010Prop53
 90
        2
102
RTVSPost2010PropOp53
 70
     1
102
RTVSPost2010Prop54
  1
strokes_ogs.tif
102
RTVSPost2010PropOp54
 70
     1
102
RTVSPost2010Prop55
280
     0
102
RTVSPost2010PropOp55
 70
     1
102
RTVSPost2010Prop56
140
1.0
102
RTVSPost2010PropOp56
 70
     1
102
RTVSPost2010Prop57
140
1.0
102
RTVSPost2010PropOp57
 70
     1
102
RTVSPropertyOp0
 70
     1
102
RTVSPropertyOp1
 70
     1
102
RTVSPropertyOp2
 70
     1
102
RTVSPropertyOp3
 70
     1
102
RTVSPropertyOp4
 70
     1
102
RTVSPropertyOp5
 70
     1
102
RTVSPropertyOp6
 70
     1
102
RTVSPropertyOp7
 70
     1
102
RTVSPropertyOp8
 70
     1
102
RTVSPropertyOp9
 70
     1
102
RTVSPropertyOp10
 70
     1
102
RTVSPropertyOp11
 70
     1
102
RTVSPropertyOp12
 70
     1
102
RTVSPropertyOp13
 70
     1
102
RTVSPropertyOp14
 70
     1
102
RTVSPropertyOp15
 70
     1
102
RTVSPropertyOp16
 70
     1
102
RTVSPropertyOp17
 70
     1
102
RTVSPropertyOp18
 70
     1
102
RTVSPropertyOp19
 70
     1
102
RTVSPropertyOp20
 70
     1
102
RTVSPropertyOp21
 70
     1
102
RTVSPropertyOp22
 70
     1
102
RTVSPropertyOp23
 70
     1
102
RTVSPropertyOp24
 70
     1
102
RTVSPropertyOp25
 70
     1
102
RTVSPropertyOp26
 70
     1
102
RTVSPropertyOp27
 70
     1
102
RTVSPropertyOp28
 70
     1
102
RTVSPropertyOp29
 70
     1
102
RTVSPropertyOp30
 70
     1
102
RTVSPropertyOp31
 70
     1
102
RTVSPropertyOp32
 70
     1
102
RTVSPropertyOp33
 70
     1
102
RTVSPropertyOp34
 70
     1
102
RTVSPropertyOp35
 70
     1
102
RTVSPropertyOp36
 70
     1
102
RTVSPropertyOp37
 70
     1
102
RTVSPropertyOp38
 70
     1
102
RTVSPropertyOp39
 70
     1
102
RTVSPropertyOp40
 70
     1
102
RTVSPropertyOp41
 70
     1
102
RTVSPropertyOp42
 70
     1
102
RTVSPropertyOp43
 70
     1
102
RTVSPropertyOp44
 70
     1
102
RTVSPropertyOp45
 70
     1
102
RTVSPropertyOp46
 70
     1
102
RTVSPropertyOp47
 70
     1
102
RTVSPropertyOp48
 70
     1
102
RTVSPropertyOp49
 70
     1
102
RTVSPropertyOp50
 70
     1
102
RTVSPropertyOp51
 70
     0
102
RTVSPropertyOp52
 70
     0
102
RTVSPropertyOp53
 70
     1
102
RTVSPropertyOp54
 70
     1
102
RTVSPropertyOp55
 70
     1
102
RTVSPropertyOp56
 70
     1
102
RTVSPropertyOp57
 70
     1
102
RTVSPropertyOp58
 70
     1
102
RTVSPropertyOp59
 70
     1
102
RTVSPropertyOp60
 70
     1
102
RTVSPropertyOp61
 70
     1
102
RTVSPropertyOp62
 70
     1
  0
XRECORD
  5
10019E
102
{ACAD_REACTORS
330
10019D
102
}
330
10019D
100
AcDbXrecord
280
     1
102
RTVSPost2010Prop28
280
     0
102
RTVSPost2010PropOp28
 70
     1
102
RTVSPost2010Prop29
280
     1
102
RTVSPost2010PropOp29
 70
     1
102
RTVSPost2010Prop30
280
     1
102
RTVSPost2010PropOp30
 70
     1
102
RTVSPost2010Prop31
280
     0
102
RTVSPost2010PropOp31
 70
     1
102
RTVSPost2010Prop32
280
     0
102
RTVSPost2010PropOp32
 70
     1
102
RTVSPost2010Prop33
280
     0
102
RTVSPost2010PropOp33
 70
     1
102
RTVSPost2010Prop34
280
     0
102
RTVSPost2010PropOp34
 70
     1
102
RTVSPost2010Prop35
280
     0
102
RTVSPost2010PropOp35
 70
     1
102
RTVSPost2010Prop36
280
     0
102
RTVSPost2010PropOp36
 70
     1
102
RTVSPost2010Prop37
 90
       50
102
RTVSPost2010PropOp37
 70
     1
102
RTVSPost2010Prop38
140
0.0
102
RTVSPost2010PropOp38
 70
     1
102
RTVSPost2010Prop39
140
1.0
102
RTVSPost2010PropOp39
 70
     1
102
RTVSPost2010Prop40
 90
        0
102
RTVSPost2010PropOp40
 70
     1
102
RTVSPost2010Prop41ColorIndex
 90
       18
102
RTVSPost2010Prop41ColorRGB
 90
        0
102
RTVSPost2010PropOp41
 70
     1
102
RTVSPost2010Prop42
 90
       50
102
RTVSPost2010PropOp42
 70
     1
102
RTVSPost2010Prop43
 90
        3
102
RTVSPost2010PropOp43
 70
     1
102
RTVSPost2010Prop44ColorIndex
 90
        5
102
RTVSPost2010Prop44ColorRGB
 90
      255
102
RTVSPost2010PropOp44
 70
     1
102
RTVSPost2010Prop45
280
     0
102
RTVSPost2010PropOp45
 70
     1
102
RTVSPost2010Prop46
 90
       50
102
RTVSPost2010PropOp46
 70
     1
102
RTVSPost2010Prop47
 90
       50
102
RTVSPost2010PropOp47
 70
     1
102
RTVSPost2010Prop48
 90
       50
102
RTVSPost2010PropOp48
 70
     1
102
RTVSPost2010Prop49
280
     0
102
RTVSPost2010PropOp49
 70
     1
102
RTVSPost2010Prop50
 90
       50
102
RTVSPost2010PropOp50
 70
     1
102
RTVSPost2010Prop51ColorIndex
 90
      256
102
RTVSPost2010Prop51ColorRGB
 90
-16777216
102
RTVSPost2010PropOp51
 70
     0
102
RTVSPost2010Prop52
140
1.0
102
RTVSPost2010PropOp52
 70
     0
102
RTVSPost2010Prop53
 90
        2
102
RTVSPost2010PropOp53
 70
     1
102
RTVSPost2010Prop54
  1
strokes_ogs.tif
102
RTVSPost2010PropOp54
 70
     1
102
RTVSPost2010Prop55
280
     0
102
RTVSPost2010PropOp55
 70
     1
102
RTVSPost2010Prop56
140
1.0
102
RTVSPost2010PropOp56
 70
     1
102
RTVSPost2010Prop57
140
1.0
102
RTVSPost2010PropOp57
 70
     1
102
RTVSPropertyOp0
 70
     1
102
RTVSPropertyOp1
 70
     1
102
RTVSPropertyOp2
 70
     1
102
RTVSPropertyOp3
 70
     1
102
RTVSPropertyOp4
 70
     1
102
RTVSPropertyOp5
 70
     1
102
RTVSPropertyOp6
 70
     1
102
RTVSPropertyOp7
 70
     1
102
RTVSPropertyOp8
 70
     1
102
RTVSPropertyOp9
 70
     1
102
RTVSPropertyOp10
 70
     1
102
RTVSPropertyOp11
 70
     1
102
RTVSPropertyOp12
 70
     1
102
RTVSPropertyOp13
 70
     1
102
RTVSPropertyOp14
 70
     1
102
RTVSPropertyOp15
 70
     1
102
RTVSPropertyOp16
 70
     1
102
RTVSPropertyOp17
 70
     1
102
RTVSPropertyOp18
 70
     1
102
RTVSPropertyOp19
 70
     1
102
RTVSPropertyOp20
 70
     1
102
RTVSPropertyOp21
 70
     1
102
RTVSPropertyOp22
 70
     1
102
RTVSPropertyOp23
 70
     1
102
RTVSPropertyOp24
 70
     1
102
RTVSPropertyOp25
 70
     1
102
RTVSPropertyOp26
 70
     1
102
RTVSPropertyOp27
 70
     1
102
RTVSPropertyOp28
 70
     1
102
RTVSPropertyOp29
 70
     1
102
RTVSPropertyOp30
 70
     1
102
RTVSPropertyOp31
 70
     1
102
RTVSPropertyOp32
 70
     1
102
RTVSPropertyOp33
 70
     1
102
RTVSPropertyOp34
 70
     1
102
RTVSPropertyOp35
 70
     1
102
RTVSPropertyOp36
 70
     1
102
RTVSPropertyOp37
 70
     1
102
RTVSPropertyOp38
 70
     1
102
RTVSPropertyOp39
 70
     1
102
RTVSPropertyOp40
 70
     1
102
RTVSPropertyOp41
 70
     1
102
RTVSPropertyOp42
 70
     1
102
RTVSPropertyOp43
 70
     1
102
RTVSPropertyOp44
 70
     1
102
RTVSPropertyOp45
 70
     1
102
RTVSPropertyOp46
 70
     1
102
RTVSPropertyOp47
 70
     1
102
RTVSPropertyOp48
 70
     1
102
RTVSPropertyOp49
 70
     1
102
RTVSPropertyOp50
 70
     1
102
RTVSPropertyOp51
 70
     0
102
RTVSPropertyOp52
 70
     0
102
RTVSPropertyOp53
 70
     1
102
RTVSPropertyOp54
 70
     1
102
RTVSPropertyOp55
 70
     1
102
RTVSPropertyOp56
 70
     1
102
RTVSPropertyOp57
 70
     1
102
RTVSPropertyOp58
 70
     1
102
RTVSPropertyOp59
 70
     1
102
RTVSPropertyOp60
 70
     1
102
RTVSPropertyOp61
 70
     1
102
RTVSPropertyOp62
 70
     1
  0
XRECORD
  5
100198
102
{ACAD_REACTORS
330
100197
102
}
330
100197
100
AcDbXrecord
280
     1
102
RTVSPost2010Prop28
280
     0
102
RTVSPost2010PropOp28
 70
     1
102
RTVSPost2010Prop29
280
     1
102
RTVSPost2010PropOp29
 70
     1
102
RTVSPost2010Prop30
280
     1
102
RTVSPost2010PropOp30
 70
     1
102
RTVSPost2010Prop31
280
     0
102
RTVSPost2010PropOp31
 70
     1
102
RTVSPost2010Prop32
280
     0
102
RTVSPost2010PropOp32
 70
     1
102
RTVSPost2010Prop33
280
     0
102
RTVSPost2010PropOp33
 70
     1
102
RTVSPost2010Prop34
280
     0
102
RTVSPost2010PropOp34
 70
     1
102
RTVSPost2010Prop35
280
     0
102
RTVSPost2010PropOp35
 70
     1
102
RTVSPost2010Prop36
280
     0
102
RTVSPost2010PropOp36
 70
     1
102
RTVSPost2010Prop37
 90
       50
102
RTVSPost2010PropOp37
 70
     1
102
RTVSPost2010Prop38
140
0.0
102
RTVSPost2010PropOp38
 70
     1
102
RTVSPost2010Prop39
140
1.0
102
RTVSPost2010PropOp39
 70
     1
102
RTVSPost2010Prop40
 90
        0
102
RTVSPost2010PropOp40
 70
     1
102
RTVSPost2010Prop41ColorIndex
 90
       18
102
RTVSPost2010Prop41ColorRGB
 90
        0
102
RTVSPost2010PropOp41
 70
     1
102
RTVSPost2010Prop42
 90
       50
102
RTVSPost2010PropOp42
 70
     1
102
RTVSPost2010Prop43
 90
        3
102
RTVSPost2010PropOp43
 70
     1
102
RTVSPost2010Prop44ColorIndex
 90
        5
102
RTVSPost2010Prop44ColorRGB
 90
      255
102
RTVSPost2010PropOp44
 70
     1
102
RTVSPost2010Prop45
280
     0
102
RTVSPost2010PropOp45
 70
     1
102
RTVSPost2010Prop46
 90
       50
102
RTVSPost2010PropOp46
 70
     1
102
RTVSPost2010Prop47
 90
       50
102
RTVSPost2010PropOp47
 70
     1
102
RTVSPost2010Prop48
 90
       50
102
RTVSPost2010PropOp48
 70
     1
102
RTVSPost2010Prop49
280
     0
102
RTVSPost2010PropOp49
 70
     1
102
RTVSPost2010Prop50
 90
       50
102
RTVSPost2010PropOp50
 70
     1
102
RTVSPost2010Prop51ColorIndex
 90
      256
102
RTVSPost2010Prop51ColorRGB
 90
-16777216
102
RTVSPost2010PropOp51
 70
     0
102
RTVSPost2010Prop52
140
1.0
102
RTVSPost2010PropOp52
 70
     0
102
RTVSPost2010Prop53
 90
        2
102
RTVSPost2010PropOp53
 70
     1
102
RTVSPost2010Prop54
  1
strokes_ogs.tif
102
RTVSPost2010PropOp54
 70
     1
102
RTVSPost2010Prop55
280
     0
102
RTVSPost2010PropOp55
 70
     1
102
RTVSPost2010Prop56
140
1.0
102
RTVSPost2010PropOp56
 70
     1
102
RTVSPost2010Prop57
140
1.0
102
RTVSPost2010PropOp57
 70
     1
102
RTVSPropertyOp0
 70
     1
102
RTVSPropertyOp1
 70
     1
102
RTVSPropertyOp2
 70
     1
102
RTVSPropertyOp3
 70
     1
102
RTVSPropertyOp4
 70
     1
102
RTVSPropertyOp5
 70
     1
102
RTVSPropertyOp6
 70
     1
102
RTVSPropertyOp7
 70
     1
102
RTVSPropertyOp8
 70
     1
102
RTVSPropertyOp9
 70
     1
102
RTVSPropertyOp10
 70
     1
102
RTVSPropertyOp11
 70
     1
102
RTVSPropertyOp12
 70
     1
102
RTVSPropertyOp13
 70
     1
102
RTVSPropertyOp14
 70
     1
102
RTVSPropertyOp15
 70
     1
102
RTVSPropertyOp16
 70
     1
102
RTVSPropertyOp17
 70
     1
102
RTVSPropertyOp18
 70
     1
102
RTVSPropertyOp19
 70
     1
102
RTVSPropertyOp20
 70
     1
102
RTVSPropertyOp21
 70
     1
102
RTVSPropertyOp22
 70
     1
102
RTVSPropertyOp23
 70
     1
102
RTVSPropertyOp24
 70
     1
102
RTVSPropertyOp25
 70
     1
102
RTVSPropertyOp26
 70
     1
102
RTVSPropertyOp27
 70
     1
102
RTVSPropertyOp28
 70
     1
102
RTVSPropertyOp29
 70
     1
102
RTVSPropertyOp30
 70
     1
102
RTVSPropertyOp31
 70
     1
102
RTVSPropertyOp32
 70
     1
102
RTVSPropertyOp33
 70
     1
102
RTVSPropertyOp34
 70
     1
102
RTVSPropertyOp35
 70
     1
102
RTVSPropertyOp36
 70
     1
102
RTVSPropertyOp37
 70
     1
102
RTVSPropertyOp38
 70
     1
102
RTVSPropertyOp39
 70
     1
102
RTVSPropertyOp40
 70
     1
102
RTVSPropertyOp41
 70
     1
102
RTVSPropertyOp42
 70
     1
102
RTVSPropertyOp43
 70
     1
102
RTVSPropertyOp44
 70
     1
102
RTVSPropertyOp45
 70
     1
102
RTVSPropertyOp46
 70
     1
102
RTVSPropertyOp47
 70
     1
102
RTVSPropertyOp48
 70
     1
102
RTVSPropertyOp49
 70
     1
102
RTVSPropertyOp50
 70
     1
102
RTVSPropertyOp51
 70
     0
102
RTVSPropertyOp52
 70
     0
102
RTVSPropertyOp53
 70
     1
102
RTVSPropertyOp54
 70
     1
102
RTVSPropertyOp55
 70
     1
102
RTVSPropertyOp56
 70
     1
102
RTVSPropertyOp57
 70
     1
102
RTVSPropertyOp58
 70
     1
102
RTVSPropertyOp59
 70
     1
102
RTVSPropertyOp60
 70
     1
102
RTVSPropertyOp61
 70
     1
102
RTVSPropertyOp62
 70
     1
  0
XRECORD
  5
10019A
102
{ACAD_REACTORS
330
100199
102
}
330
100199
100
AcDbXrecord
280
     1
102
RTVSPost2010Prop28
280
     0
102
RTVSPost2010PropOp28
 70
     1
102
RTVSPost2010Prop29
280
     1
102
RTVSPost2010PropOp29
 70
     1
102
RTVSPost2010Prop30
280
     1
102
RTVSPost2010PropOp30
 70
     1
102
RTVSPost2010Prop31
280
     0
102
RTVSPost2010PropOp31
 70
     1
102
RTVSPost2010Prop32
280
     0
102
RTVSPost2010PropOp32
 70
     1
102
RTVSPost2010Prop33
280
     0
102
RTVSPost2010PropOp33
 70
     1
102
RTVSPost2010Prop34
280
     0
102
RTVSPost2010PropOp34
 70
     1
102
RTVSPost2010Prop35
280
     0
102
RTVSPost2010PropOp35
 70
     1
102
RTVSPost2010Prop36
280
     0
102
RTVSPost2010PropOp36
 70
     1
102
RTVSPost2010Prop37
 90
       50
102
RTVSPost2010PropOp37
 70
     1
102
RTVSPost2010Prop38
140
0.0
102
RTVSPost2010PropOp38
 70
     1
102
RTVSPost2010Prop39
140
1.0
102
RTVSPost2010PropOp39
 70
     1
102
RTVSPost2010Prop40
 90
        0
102
RTVSPost2010PropOp40
 70
     1
102
RTVSPost2010Prop41ColorIndex
 90
       18
102
RTVSPost2010Prop41ColorRGB
 90
        0
102
RTVSPost2010PropOp41
 70
     1
102
RTVSPost2010Prop42
 90
       50
102
RTVSPost2010PropOp42
 70
     1
102
RTVSPost2010Prop43
 90
        3
102
RTVSPost2010PropOp43
 70
     1
102
RTVSPost2010Prop44ColorIndex
 90
        5
102
RTVSPost2010Prop44ColorRGB
 90
      255
102
RTVSPost2010PropOp44
 70
     1
102
RTVSPost2010Prop45
280
     0
102
RTVSPost2010PropOp45
 70
     1
102
RTVSPost2010Prop46
 90
       50
102
RTVSPost2010PropOp46
 70
     1
102
RTVSPost2010Prop47
 90
       50
102
RTVSPost2010PropOp47
 70
     1
102
RTVSPost2010Prop48
 90
       50
102
RTVSPost2010PropOp48
 70
     1
102
RTVSPost2010Prop49
280
     0
102
RTVSPost2010PropOp49
 70
     1
102
RTVSPost2010Prop50
 90
       50
102
RTVSPost2010PropOp50
 70
     1
102
RTVSPost2010Prop51ColorIndex
 90
      256
102
RTVSPost2010Prop51ColorRGB
 90
-16777216
102
RTVSPost2010PropOp51
 70
     0
102
RTVSPost2010Prop52
140
1.0
102
RTVSPost2010PropOp52
 70
     0
102
RTVSPost2010Prop53
 90
        2
102
RTVSPost2010PropOp53
 70
     1
102
RTVSPost2010Prop54
  1
strokes_ogs.tif
102
RTVSPost2010PropOp54
 70
     1
102
RTVSPost2010Prop55
280
     0
102
RTVSPost2010PropOp55
 70
     1
102
RTVSPost2010Prop56
140
1.0
102
RTVSPost2010PropOp56
 70
     1
102
RTVSPost2010Prop57
140
1.0
102
RTVSPost2010PropOp57
 70
     1
102
RTVSPropertyOp0
 70
     1
102
RTVSPropertyOp1
 70
     1
102
RTVSPropertyOp2
 70
     1
102
RTVSPropertyOp3
 70
     1
102
RTVSPropertyOp4
 70
     1
102
RTVSPropertyOp5
 70
     1
102
RTVSPropertyOp6
 70
     1
102
RTVSPropertyOp7
 70
     1
102
RTVSPropertyOp8
 70
     1
102
RTVSPropertyOp9
 70
     1
102
RTVSPropertyOp10
 70
     1
102
RTVSPropertyOp11
 70
     1
102
RTVSPropertyOp12
 70
     1
102
RTVSPropertyOp13
 70
     1
102
RTVSPropertyOp14
 70
     1
102
RTVSPropertyOp15
 70
     1
102
RTVSPropertyOp16
 70
     1
102
RTVSPropertyOp17
 70
     1
102
RTVSPropertyOp18
 70
     1
102
RTVSPropertyOp19
 70
     1
102
RTVSPropertyOp20
 70
     1
102
RTVSPropertyOp21
 70
     1
102
RTVSPropertyOp22
 70
     1
102
RTVSPropertyOp23
 70
     1
102
RTVSPropertyOp24
 70
     1
102
RTVSPropertyOp25
 70
     1
102
RTVSPropertyOp26
 70
     1
102
RTVSPropertyOp27
 70
     1
102
RTVSPropertyOp28
 70
     1
102
RTVSPropertyOp29
 70
     1
102
RTVSPropertyOp30
 70
     1
102
RTVSPropertyOp31
 70
     1
102
RTVSPropertyOp32
 70
     1
102
RTVSPropertyOp33
 70
     1
102
RTVSPropertyOp34
 70
     1
102
RTVSPropertyOp35
 70
     1
102
RTVSPropertyOp36
 70
     1
102
RTVSPropertyOp37
 70
     1
102
RTVSPropertyOp38
 70
     1
102
RTVSPropertyOp39
 70
     1
102
RTVSPropertyOp40
 70
     1
102
RTVSPropertyOp41
 70
     1
102
RTVSPropertyOp42
 70
     1
102
RTVSPropertyOp43
 70
     1
102
RTVSPropertyOp44
 70
     1
102
RTVSPropertyOp45
 70
     1
102
RTVSPropertyOp46
 70
     1
102
RTVSPropertyOp47
 70
     1
102
RTVSPropertyOp48
 70
     1
102
RTVSPropertyOp49
 70
     1
102
RTVSPropertyOp50
 70
     1
102
RTVSPropertyOp51
 70
     0
102
RTVSPropertyOp52
 70
     0
102
RTVSPropertyOp53
 70
     1
102
RTVSPropertyOp54
 70
     1
102
RTVSPropertyOp55
 70
     1
102
RTVSPropertyOp56
 70
     1
102
RTVSPropertyOp57
 70
     1
102
RTVSPropertyOp58
 70
     1
102
RTVSPropertyOp59
 70
     1
102
RTVSPropertyOp60
 70
     1
102
RTVSPropertyOp61
 70
     1
102
RTVSPropertyOp62
 70
     1
  0
XRECORD
  5
100190
102
{ACAD_REACTORS
330
10018F
102
}
330
10018F
100
AcDbXrecord
280
     1
102
RTVSPost2010Prop28
280
     0
102
RTVSPost2010PropOp28
 70
     1
102
RTVSPost2010Prop29
280
     1
102
RTVSPost2010PropOp29
 70
     1
102
RTVSPost2010Prop30
280
     1
102
RTVSPost2010PropOp30
 70
     1
102
RTVSPost2010Prop31
280
     0
102
RTVSPost2010PropOp31
 70
     1
102
RTVSPost2010Prop32
280
     0
102
RTVSPost2010PropOp32
 70
     1
102
RTVSPost2010Prop33
280
     0
102
RTVSPost2010PropOp33
 70
     1
102
RTVSPost2010Prop34
280
     0
102
RTVSPost2010PropOp34
 70
     1
102
RTVSPost2010Prop35
280
     0
102
RTVSPost2010PropOp35
 70
     1
102
RTVSPost2010Prop36
280
     0
102
RTVSPost2010PropOp36
 70
     1
102
RTVSPost2010Prop37
 90
       50
102
RTVSPost2010PropOp37
 70
     1
102
RTVSPost2010Prop38
140
0.0
102
RTVSPost2010PropOp38
 70
     1
102
RTVSPost2010Prop39
140
1.0
102
RTVSPost2010PropOp39
 70
     1
102
RTVSPost2010Prop40
 90
        0
102
RTVSPost2010PropOp40
 70
     1
102
RTVSPost2010Prop41ColorIndex
 90
       18
102
RTVSPost2010Prop41ColorRGB
 90
        0
102
RTVSPost2010PropOp41
 70
     1
102
RTVSPost2010Prop42
 90
       50
102
RTVSPost2010PropOp42
 70
     1
102
RTVSPost2010Prop43
 90
        3
102
RTVSPost2010PropOp43
 70
     1
102
RTVSPost2010Prop44ColorIndex
 90
        5
102
RTVSPost2010Prop44ColorRGB
 90
      255
102
RTVSPost2010PropOp44
 70
     1
102
RTVSPost2010Prop45
280
     0
102
RTVSPost2010PropOp45
 70
     1
102
RTVSPost2010Prop46
 90
       50
102
RTVSPost2010PropOp46
 70
     1
102
RTVSPost2010Prop47
 90
       50
102
RTVSPost2010PropOp47
 70
     1
102
RTVSPost2010Prop48
 90
       50
102
RTVSPost2010PropOp48
 70
     1
102
RTVSPost2010Prop49
280
     0
102
RTVSPost2010PropOp49
 70
     1
102
RTVSPost2010Prop50
 90
       50
102
RTVSPost2010PropOp50
 70
     1
102
RTVSPost2010Prop51ColorIndex
 90
      256
102
RTVSPost2010Prop51ColorRGB
 90
-16777216
102
RTVSPost2010PropOp51
 70
     0
102
RTVSPost2010Prop52
140
1.0
102
RTVSPost2010PropOp52
 70
     0
102
RTVSPost2010Prop53
 90
        2
102
RTVSPost2010PropOp53
 70
     1
102
RTVSPost2010Prop54
  1
strokes_ogs.tif
102
RTVSPost2010PropOp54
 70
     1
102
RTVSPost2010Prop55
280
     0
102
RTVSPost2010PropOp55
 70
     1
102
RTVSPost2010Prop56
140
1.0
102
RTVSPost2010PropOp56
 70
     1
102
RTVSPost2010Prop57
140
1.0
102
RTVSPost2010PropOp57
 70
     1
102
RTVSPropertyOp0
 70
     1
102
RTVSPropertyOp1
 70
     1
102
RTVSPropertyOp2
 70
     1
102
RTVSPropertyOp3
 70
     1
102
RTVSPropertyOp4
 70
     1
102
RTVSPropertyOp5
 70
     1
102
RTVSPropertyOp6
 70
     1
102
RTVSPropertyOp7
 70
     1
102
RTVSPropertyOp8
 70
     1
102
RTVSPropertyOp9
 70
     1
102
RTVSPropertyOp10
 70
     1
102
RTVSPropertyOp11
 70
     1
102
RTVSPropertyOp12
 70
     1
102
RTVSPropertyOp13
 70
     1
102
RTVSPropertyOp14
 70
     1
102
RTVSPropertyOp15
 70
     1
102
RTVSPropertyOp16
 70
     1
102
RTVSPropertyOp17
 70
     1
102
RTVSPropertyOp18
 70
     1
102
RTVSPropertyOp19
 70
     1
102
RTVSPropertyOp20
 70
     1
102
RTVSPropertyOp21
 70
     1
102
RTVSPropertyOp22
 70
     1
102
RTVSPropertyOp23
 70
     1
102
RTVSPropertyOp24
 70
     1
102
RTVSPropertyOp25
 70
     1
102
RTVSPropertyOp26
 70
     1
102
RTVSPropertyOp27
 70
     1
102
RTVSPropertyOp28
 70
     1
102
RTVSPropertyOp29
 70
     1
102
RTVSPropertyOp30
 70
     1
102
RTVSPropertyOp31
 70
     1
102
RTVSPropertyOp32
 70
     1
102
RTVSPropertyOp33
 70
     1
102
RTVSPropertyOp34
 70
     1
102
RTVSPropertyOp35
 70
     1
102
RTVSPropertyOp36
 70
     1
102
RTVSPropertyOp37
 70
     1
102
RTVSPropertyOp38
 70
     1
102
RTVSPropertyOp39
 70
     1
102
RTVSPropertyOp40
 70
     1
102
RTVSPropertyOp41
 70
     1
102
RTVSPropertyOp42
 70
     1
102
RTVSPropertyOp43
 70
     1
102
RTVSPropertyOp44
 70
     1
102
RTVSPropertyOp45
 70
     1
102
RTVSPropertyOp46
 70
     1
102
RTVSPropertyOp47
 70
     1
102
RTVSPropertyOp48
 70
     1
102
RTVSPropertyOp49
 70
     1
102
RTVSPropertyOp50
 70
     1
102
RTVSPropertyOp51
 70
     0
102
RTVSPropertyOp52
 70
     0
102
RTVSPropertyOp53
 70
     1
102
RTVSPropertyOp54
 70
     1
102
RTVSPropertyOp55
 70
     1
102
RTVSPropertyOp56
 70
     1
102
RTVSPropertyOp57
 70
     1
102
RTVSPropertyOp58
 70
     1
102
RTVSPropertyOp59
 70
     1
102
RTVSPropertyOp60
 70
     1
102
RTVSPropertyOp61
 70
     1
102
RTVSPropertyOp62
 70
     1
  0
XRECORD
  5
100184
102
{ACAD_REACTORS
330
100183
102
}
330
100183
100
AcDbXrecord
280
     1
102
RTVSPost2010Prop28
280
     0
102
RTVSPost2010PropOp28
 70
     1
102
RTVSPost2010Prop29
280
     1
102
RTVSPost2010PropOp29
 70
     1
102
RTVSPost2010Prop30
280
     1
102
RTVSPost2010PropOp30
 70
     1
102
RTVSPost2010Prop31
280
     0
102
RTVSPost2010PropOp31
 70
     1
102
RTVSPost2010Prop32
280
     0
102
RTVSPost2010PropOp32
 70
     1
102
RTVSPost2010Prop33
280
     0
102
RTVSPost2010PropOp33
 70
     1
102
RTVSPost2010Prop34
280
     0
102
RTVSPost2010PropOp34
 70
     1
102
RTVSPost2010Prop35
280
     0
102
RTVSPost2010PropOp35
 70
     1
102
RTVSPost2010Prop36
280
     0
102
RTVSPost2010PropOp36
 70
     1
102
RTVSPost2010Prop37
 90
       50
102
RTVSPost2010PropOp37
 70
     1
102
RTVSPost2010Prop38
140
0.0
102
RTVSPost2010PropOp38
 70
     1
102
RTVSPost2010Prop39
140
1.0
102
RTVSPost2010PropOp39
 70
     1
102
RTVSPost2010Prop40
 90
        0
102
RTVSPost2010PropOp40
 70
     1
102
RTVSPost2010Prop41ColorIndex
 90
       18
102
RTVSPost2010Prop41ColorRGB
 90
        0
102
RTVSPost2010PropOp41
 70
     1
102
RTVSPost2010Prop42
 90
       50
102
RTVSPost2010PropOp42
 70
     1
102
RTVSPost2010Prop43
 90
        3
102
RTVSPost2010PropOp43
 70
     1
102
RTVSPost2010Prop44ColorIndex
 90
        5
102
RTVSPost2010Prop44ColorRGB
 90
      255
102
RTVSPost2010PropOp44
 70
     1
102
RTVSPost2010Prop45
280
     0
102
RTVSPost2010PropOp45
 70
     1
102
RTVSPost2010Prop46
 90
       50
102
RTVSPost2010PropOp46
 70
     1
102
RTVSPost2010Prop47
 90
       50
102
RTVSPost2010PropOp47
 70
     1
102
RTVSPost2010Prop48
 90
       50
102
RTVSPost2010PropOp48
 70
     1
102
RTVSPost2010Prop49
280
     0
102
RTVSPost2010PropOp49
 70
     1
102
RTVSPost2010Prop50
 90
       50
102
RTVSPost2010PropOp50
 70
     1
102
RTVSPost2010Prop51ColorIndex
 90
      256
102
RTVSPost2010Prop51ColorRGB
 90
-16777216
102
RTVSPost2010PropOp51
 70
     0
102
RTVSPost2010Prop52
140
1.0
102
RTVSPost2010PropOp52
 70
     0
102
RTVSPost2010Prop53
 90
        2
102
RTVSPost2010PropOp53
 70
     1
102
RTVSPost2010Prop54
  1
strokes_ogs.tif
102
RTVSPost2010PropOp54
 70
     1
102
RTVSPost2010Prop55
280
     0
102
RTVSPost2010PropOp55
 70
     1
102
RTVSPost2010Prop56
140
1.0
102
RTVSPost2010PropOp56
 70
     1
102
RTVSPost2010Prop57
140
1.0
102
RTVSPost2010PropOp57
 70
     1
102
RTVSPropertyOp0
 70
     1
102
RTVSPropertyOp1
 70
     1
102
RTVSPropertyOp2
 70
     1
102
RTVSPropertyOp3
 70
     1
102
RTVSPropertyOp4
 70
     1
102
RTVSPropertyOp5
 70
     1
102
RTVSPropertyOp6
 70
     1
102
RTVSPropertyOp7
 70
     1
102
RTVSPropertyOp8
 70
     1
102
RTVSPropertyOp9
 70
     1
102
RTVSPropertyOp10
 70
     1
102
RTVSPropertyOp11
 70
     1
102
RTVSPropertyOp12
 70
     1
102
RTVSPropertyOp13
 70
     1
102
RTVSPropertyOp14
 70
     1
102
RTVSPropertyOp15
 70
     1
102
RTVSPropertyOp16
 70
     1
102
RTVSPropertyOp17
 70
     1
102
RTVSPropertyOp18
 70
     1
102
RTVSPropertyOp19
 70
     1
102
RTVSPropertyOp20
 70
     1
102
RTVSPropertyOp21
 70
     1
102
RTVSPropertyOp22
 70
     1
102
RTVSPropertyOp23
 70
     1
102
RTVSPropertyOp24
 70
     1
102
RTVSPropertyOp25
 70
     1
102
RTVSPropertyOp26
 70
     1
102
RTVSPropertyOp27
 70
     1
102
RTVSPropertyOp28
 70
     1
102
RTVSPropertyOp29
 70
     1
102
RTVSPropertyOp30
 70
     1
102
RTVSPropertyOp31
 70
     1
102
RTVSPropertyOp32
 70
     1
102
RTVSPropertyOp33
 70
     1
102
RTVSPropertyOp34
 70
     1
102
RTVSPropertyOp35
 70
     1
102
RTVSPropertyOp36
 70
     1
102
RTVSPropertyOp37
 70
     1
102
RTVSPropertyOp38
 70
     1
102
RTVSPropertyOp39
 70
     1
102
RTVSPropertyOp40
 70
     1
102
RTVSPropertyOp41
 70
     1
102
RTVSPropertyOp42
 70
     1
102
RTVSPropertyOp43
 70
     1
102
RTVSPropertyOp44
 70
     1
102
RTVSPropertyOp45
 70
     1
102
RTVSPropertyOp46
 70
     1
102
RTVSPropertyOp47
 70
     1
102
RTVSPropertyOp48
 70
     1
102
RTVSPropertyOp49
 70
     1
102
RTVSPropertyOp50
 70
     1
102
RTVSPropertyOp51
 70
     0
102
RTVSPropertyOp52
 70
     0
102
RTVSPropertyOp53
 70
     1
102
RTVSPropertyOp54
 70
     1
102
RTVSPropertyOp55
 70
     1
102
RTVSPropertyOp56
 70
     1
102
RTVSPropertyOp57
 70
     1
102
RTVSPropertyOp58
 70
     1
102
RTVSPropertyOp59
 70
     1
102
RTVSPropertyOp60
 70
     1
102
RTVSPropertyOp61
 70
     1
102
RTVSPropertyOp62
 70
     1
  0
XRECORD
  5
10019C
102
{ACAD_REACTORS
330
10019B
102
}
330
10019B
100
AcDbXrecord
280
     1
102
RTVSPost2010Prop28
280
     0
102
RTVSPost2010PropOp28
 70
     1
102
RTVSPost2010Prop29
280
     1
102
RTVSPost2010PropOp29
 70
     1
102
RTVSPost2010Prop30
280
     1
102
RTVSPost2010PropOp30
 70
     1
102
RTVSPost2010Prop31
280
     0
102
RTVSPost2010PropOp31
 70
     1
102
RTVSPost2010Prop32
280
     0
102
RTVSPost2010PropOp32
 70
     1
102
RTVSPost2010Prop33
280
     0
102
RTVSPost2010PropOp33
 70
     1
102
RTVSPost2010Prop34
280
     0
102
RTVSPost2010PropOp34
 70
     1
102
RTVSPost2010Prop35
280
     0
102
RTVSPost2010PropOp35
 70
     1
102
RTVSPost2010Prop36
280
     0
102
RTVSPost2010PropOp36
 70
     1
102
RTVSPost2010Prop37
 90
       50
102
RTVSPost2010PropOp37
 70
     1
102
RTVSPost2010Prop38
140
0.0
102
RTVSPost2010PropOp38
 70
     1
102
RTVSPost2010Prop39
140
1.0
102
RTVSPost2010PropOp39
 70
     1
102
RTVSPost2010Prop40
 90
        0
102
RTVSPost2010PropOp40
 70
     1
102
RTVSPost2010Prop41ColorIndex
 90
       18
102
RTVSPost2010Prop41ColorRGB
 90
        0
102
RTVSPost2010PropOp41
 70
     1
102
RTVSPost2010Prop42
 90
       50
102
RTVSPost2010PropOp42
 70
     1
102
RTVSPost2010Prop43
 90
        3
102
RTVSPost2010PropOp43
 70
     1
102
RTVSPost2010Prop44ColorIndex
 90
        5
102
RTVSPost2010Prop44ColorRGB
 90
      255
102
RTVSPost2010PropOp44
 70
     1
102
RTVSPost2010Prop45
280
     0
102
RTVSPost2010PropOp45
 70
     1
102
RTVSPost2010Prop46
 90
       50
102
RTVSPost2010PropOp46
 70
     1
102
RTVSPost2010Prop47
 90
       50
102
RTVSPost2010PropOp47
 70
     1
102
RTVSPost2010Prop48
 90
       50
102
RTVSPost2010PropOp48
 70
     1
102
RTVSPost2010Prop49
280
     0
102
RTVSPost2010PropOp49
 70
     1
102
RTVSPost2010Prop50
 90
       50
102
RTVSPost2010PropOp50
 70
     1
102
RTVSPost2010Prop51ColorIndex
 90
      256
102
RTVSPost2010Prop51ColorRGB
 90
-16777216
102
RTVSPost2010PropOp51
 70
     0
102
RTVSPost2010Prop52
140
1.0
102
RTVSPost2010PropOp52
 70
     0
102
RTVSPost2010Prop53
 90
        2
102
RTVSPost2010PropOp53
 70
     1
102
RTVSPost2010Prop54
  1
strokes_ogs.tif
102
RTVSPost2010PropOp54
 70
     1
102
RTVSPost2010Prop55
280
     0
102
RTVSPost2010PropOp55
 70
     1
102
RTVSPost2010Prop56
140
1.0
102
RTVSPost2010PropOp56
 70
     1
102
RTVSPost2010Prop57
140
1.0
102
RTVSPost2010PropOp57
 70
     1
102
RTVSPropertyOp0
 70
     1
102
RTVSPropertyOp1
 70
     1
102
RTVSPropertyOp2
 70
     1
102
RTVSPropertyOp3
 70
     1
102
RTVSPropertyOp4
 70
     1
102
RTVSPropertyOp5
 70
     1
102
RTVSPropertyOp6
 70
     1
102
RTVSPropertyOp7
 70
     1
102
RTVSPropertyOp8
 70
     1
102
RTVSPropertyOp9
 70
     1
102
RTVSPropertyOp10
 70
     1
102
RTVSPropertyOp11
 70
     1
102
RTVSPropertyOp12
 70
     1
102
RTVSPropertyOp13
 70
     1
102
RTVSPropertyOp14
 70
     1
102
RTVSPropertyOp15
 70
     1
102
RTVSPropertyOp16
 70
     1
102
RTVSPropertyOp17
 70
     1
102
RTVSPropertyOp18
 70
     1
102
RTVSPropertyOp19
 70
     1
102
RTVSPropertyOp20
 70
     1
102
RTVSPropertyOp21
 70
     1
102
RTVSPropertyOp22
 70
     1
102
RTVSPropertyOp23
 70
     1
102
RTVSPropertyOp24
 70
     1
102
RTVSPropertyOp25
 70
     1
102
RTVSPropertyOp26
 70
     1
102
RTVSPropertyOp27
 70
     1
102
RTVSPropertyOp28
 70
     1
102
RTVSPropertyOp29
 70
     1
102
RTVSPropertyOp30
 70
     1
102
RTVSPropertyOp31
 70
     1
102
RTVSPropertyOp32
 70
     1
102
RTVSPropertyOp33
 70
     1
102
RTVSPropertyOp34
 70
     1
102
RTVSPropertyOp35
 70
     1
102
RTVSPropertyOp36
 70
     1
102
RTVSPropertyOp37
 70
     1
102
RTVSPropertyOp38
 70
     1
102
RTVSPropertyOp39
 70
     1
102
RTVSPropertyOp40
 70
     1
102
RTVSPropertyOp41
 70
     1
102
RTVSPropertyOp42
 70
     1
102
RTVSPropertyOp43
 70
     1
102
RTVSPropertyOp44
 70
     1
102
RTVSPropertyOp45
 70
     1
102
RTVSPropertyOp46
 70
     1
102
RTVSPropertyOp47
 70
     1
102
RTVSPropertyOp48
 70
     1
102
RTVSPropertyOp49
 70
     1
102
RTVSPropertyOp50
 70
     1
102
RTVSPropertyOp51
 70
     0
102
RTVSPropertyOp52
 70
     0
102
RTVSPropertyOp53
 70
     1
102
RTVSPropertyOp54
 70
     1
102
RTVSPropertyOp55
 70
     1
102
RTVSPropertyOp56
 70
     1
102
RTVSPropertyOp57
 70
     1
102
RTVSPropertyOp58
 70
     1
102
RTVSPropertyOp59
 70
     1
102
RTVSPropertyOp60
 70
     1
102
RTVSPropertyOp61
 70
     1
102
RTVSPropertyOp62
 70
     1
  0
ENDSEC
  0
EOF
